  0
SECTION
  2
HEADER
  9
$ACADVER
  1
AC1015
  9
$ACADMAINTVER
 70
     6
  9
$DWGCODEPAGE
  3
ANSI_1252
  9
$INSBASE
 10
565.273216
 20
7181.045
 30
0.0
  9
$EXTMIN
 10
565.273216
 20
7181.045
 30
0.0
  9
$EXTMAX
 10
1405.273216
 20
7775.045
 30
0.0
  9
$LIMMIN
 10
565.273216
 20
7181.045
  9
$LIMMAX
 10
1405.273216
 20
7775.045
  9
$ORTHOMODE
 70
     0
  9
$REGENMODE
 70
     1
  9
$FILLMODE
 70
     1
  9
$QTEXTMODE
 70
     0
  9
$MIRRTEXT
 70
     1
  9
$LTSCALE
 40
2.0
  9
$ATTMODE
 70
     1
  9
$TEXTSIZE
 40
2.5
  9
$TRACEWID
 40
1.0
  9
$TEXTSTYLE
  7
Standard
  9
$CLAYER
  8
0
  9
$CELTYPE
  6
ByLayer
  9
$CECOLOR
 62
     7
  9
$CELTSCALE
 40
1.0
  9
$DISPSILH
 70
     0
  9
$DIMSCALE
 40
2.0
  9
$DIMASZ
 40
3.5
  9
$DIMEXO
 40
0.625
  9
$DIMDLI
 40
3.75
  9
$DIMRND
 40
0.0
  9
$DIMDLE
 40
0.0
  9
$DIMEXE
 40
1.25
  9
$DIMTP
 40
0.0
  9
$DIMTM
 40
0.0
  9
$DIMTXT
 40
3.5
  9
$DIMCEN
 40
2.5
  9
$DIMTSZ
 40
0.0
  9
$DIMTOL
 70
     0
  9
$DIMLIM
 70
     0
  9
$DIMTIH
 70
     0
  9
$DIMTOH
 70
     0
  9
$DIMSE1
 70
     0
  9
$DIMSE2
 70
     0
  9
$DIMTAD
 70
     1
  9
$DIMZIN
 70
     8
  9
$DIMBLK
  1

  9
$DIMASO
 70
     1
  9
$DIMSHO
 70
     1
  9
$DIMPOST
  1

  9
$DIMAPOST
  1

  9
$DIMALT
 70
     0
  9
$DIMALTD
 70
     3
  9
$DIMALTF
 40
0.03937
  9
$DIMLFAC
 40
1.0
  9
$DIMTOFL
 70
     1
  9
$DIMTVP
 40
0.0
  9
$DIMTIX
 70
     0
  9
$DIMSOXD
 70
     0
  9
$DIMSAH
 70
     0
  9
$DIMBLK1
  1

  9
$DIMBLK2
  1

  9
$DIMSTYLE
  2
ISO-25
  9
$DIMCLRD
 70
     0
  9
$DIMCLRE
 70
     0
  9
$DIMCLRT
 70
     0
  9
$DIMTFAC
 40
1.0
  9
$DIMGAP
 40
0.625
  9
$DIMJUST
 70
     0
  9
$DIMSD1
 70
     0
  9
$DIMSD2
 70
     0
  9
$DIMTOLJ
 70
     0
  9
$DIMTZIN
 70
     8
  9
$DIMALTZ
 70
     0
  9
$DIMALTTZ
 70
     0
  9
$DIMUPT
 70
     0
  9
$DIMDEC
 70
     2
  9
$DIMTDEC
 70
     2
  9
$DIMALTU
 70
     2
  9
$DIMALTTD
 70
     3
  9
$DIMTXSTY
  7
Standard
  9
$DIMAUNIT
 70
     0
  9
$DIMADEC
 70
     0
  9
$DIMALTRND
 40
0.0
  9
$DIMAZIN
 70
     0
  9
$DIMDSEP
 70
    44
  9
$DIMATFIT
 70
     3
  9
$DIMFRAC
 70
     0
  9
$DIMLDRBLK
  1

  9
$DIMLUNIT
 70
     2
  9
$DIMLWD
 70
    -2
  9
$DIMLWE
 70
    -2
  9
$DIMTMOVE
 70
     0
  9
$LUNITS
 70
     2
  9
$LUPREC
 70
     4
  9
$SKETCHINC
 40
1.0
  9
$FILLETRAD
 40
10.0
  9
$AUNITS
 70
     0
  9
$AUPREC
 70
     0
  9
$MENU
  1
.
  9
$ELEVATION
 40
0.0
  9
$PELEVATION
 40
0.0
  9
$THICKNESS
 40
0.0
  9
$LIMCHECK
 70
     0
  9
$CHAMFERA
 40
10.0
  9
$CHAMFERB
 40
10.0
  9
$CHAMFERC
 40
20.0
  9
$CHAMFERD
 40
0.0
  9
$SKPOLY
 70
     0
  9
$TDCREATE
 40
2455722.437699653
  9
$TDUCREATE
 40
2455722.354366319
  9
$TDUPDATE
 40
2455722.437699664
  9
$TDUUPDATE
 40
2455722.354366331
  9
$TDINDWG
 40
0.0000000116
  9
$TDUSRTIMER
 40
0.0000000116
  9
$USRTIMER
 70
     1
  9
$ANGBASE
 50
0.0
  9
$ANGDIR
 70
     0
  9
$PDMODE
 70
     0
  9
$PDSIZE
 40
0.0
  9
$PLINEWID
 40
0.0
  9
$SPLFRAME
 70
     0
  9
$SPLINETYPE
 70
     6
  9
$SPLINESEGS
 70
     8
  9
$HANDSEED
  5
21E
  9
$SURFTAB1
 70
     6
  9
$SURFTAB2
 70
     6
  9
$SURFTYPE
 70
     6
  9
$SURFU
 70
     6
  9
$SURFV
 70
     6
  9
$UCSBASE
  2

  9
$UCSNAME
  2

  9
$UCSORG
 10
0.0
 20
0.0
 30
0.0
  9
$UCSXDIR
 10
1.0
 20
0.0
 30
0.0
  9
$UCSYDIR
 10
0.0
 20
1.0
 30
0.0
  9
$UCSORTHOREF
  2

  9
$UCSORTHOVIEW
 70
     0
  9
$UCSORGTOP
 10
0.0
 20
0.0
 30
0.0
  9
$UCSORGBOTTOM
 10
0.0
 20
0.0
 30
0.0
  9
$UCSORGLEFT
 10
0.0
 20
0.0
 30
0.0
  9
$UCSORGRIGHT
 10
0.0
 20
0.0
 30
0.0
  9
$UCSORGFRONT
 10
0.0
 20
0.0
 30
0.0
  9
$UCSORGBACK
 10
0.0
 20
0.0
 30
0.0
  9
$PUCSBASE
  2

  9
$PUCSNAME
  2

  9
$PUCSORG
 10
0.0
 20
0.0
 30
0.0
  9
$PUCSXDIR
 10
1.0
 20
0.0
 30
0.0
  9
$PUCSYDIR
 10
0.0
 20
1.0
 30
0.0
  9
$PUCSORTHOREF
  2

  9
$PUCSORTHOVIEW
 70
     0
  9
$PUCSORGTOP
 10
0.0
 20
0.0
 30
0.0
  9
$PUCSORGBOTTOM
 10
0.0
 20
0.0
 30
0.0
  9
$PUCSORGLEFT
 10
0.0
 20
0.0
 30
0.0
  9
$PUCSORGRIGHT
 10
0.0
 20
0.0
 30
0.0
  9
$PUCSORGFRONT
 10
0.0
 20
0.0
 30
0.0
  9
$PUCSORGBACK
 10
0.0
 20
0.0
 30
0.0
  9
$USERI1
 70
     0
  9
$USERI2
 70
     0
  9
$USERI3
 70
     0
  9
$USERI4
 70
     0
  9
$USERI5
 70
     0
  9
$USERR1
 40
0.0
  9
$USERR2
 40
0.0
  9
$USERR3
 40
0.0
  9
$USERR4
 40
0.0
  9
$USERR5
 40
0.0
  9
$WORLDVIEW
 70
     1
  9
$SHADEDGE
 70
     3
  9
$SHADEDIF
 70
    70
  9
$TILEMODE
 70
     1
  9
$MAXACTVP
 70
    64
  9
$PINSBASE
 10
0.0
 20
0.0
 30
0.0
  9
$PLIMCHECK
 70
     0
  9
$PEXTMIN
 10
565.273216
 20
7181.045
 30
0.0
  9
$PEXTMAX
 10
1405.273216
 20
7775.045
 30
0.0
  9
$PLIMMIN
 10
565.273216
 20
7181.045
  9
$PLIMMAX
 10
1405.273216
 20
7775.045
  9
$UNITMODE
 70
     0
  9
$VISRETAIN
 70
     1
  9
$PLINEGEN
 70
     0
  9
$PSLTSCALE
 70
     1
  9
$TREEDEPTH
 70
  3020
  9
$CMLSTYLE
  2
Standard
  9
$CMLJUST
 70
     0
  9
$CMLSCALE
 40
20.0
  9
$PROXYGRAPHICS
 70
     1
  9
$MEASUREMENT
 70
     1
  9
$CELWEIGHT
370
    -1
  9
$ENDCAPS
280
     0
  9
$JOINSTYLE
280
     0
  9
$LWDISPLAY
290
     0
  9
$INSUNITS
 70
     4
  9
$HYPERLINKBASE
  1

  9
$STYLESHEET
  1

  9
$XEDIT
290
     1
  9
$CEPSNTYPE
380
     0
  9
$PSTYLEMODE
290
     1
  9
$FINGERPRINTGUID
  2
{FAEB1C30-E019-11D5-929B-00C0DF256EC4}
  9
$VERSIONGUID
  2
{FAEB1C32-E019-11D5-929B-00C0DF256EC4}
  9
$EXTNAMES
290
     1
  9
$PSVPSCALE
 40
0.0
  9
$OLESTARTUP
290
     0
  0
ENDSEC
  0
SECTION
  2
CLASSES
  0
CLASS
  1
ACDBDICTIONARYWDFLT
  2
AcDbDictionaryWithDefault
  3
ObjectDBX Classes
 90
        0
280
     0
281
     0
  0
CLASS
  1
ACDBPLACEHOLDER
  2
AcDbPlaceHolder
  3
ObjectDBX Classes
 90
        0
280
     0
281
     0
  0
CLASS
  1
LAYOUT
  2
AcDbLayout
  3
ObjectDBX Classes
 90
        0
280
     0
281
     0
  0
ENDSEC
  0
SECTION
  2
TABLES
  0
TABLE
  2
VPORT
  5
8
330
0
100
AcDbSymbolTable
 70
     2
  0
VPORT
  5
29
330
8
100
AcDbSymbolTableRecord
100
AcDbViewportTableRecord
  2
*ACTIVE
 70
     0
 10
0.0
 20
0.0
 11
1.0
 21
1.0
 12
985.273216
 22
7478.045
 13
0.0
 23
0.0
 14
1.0
 24
1.0
 15
0.0
 25
0.0
 16
0.0
 26
0.0
 36
1.0
 17
0.0
 27
0.0
 37
0.0
 40
594.0
 41
1.414141
 42
50.0
 43
0.0
 44
0.0
 50
0.0
 51
0.0
 71
    16
 72
   100
 73
     1
 74
     0
 75
     0
 76
     0
 77
     0
 78
     0
281
     0
 65
     0
110
0.0
120
0.0
130
0.0
111
1.0
121
0.0
131
0.0
112
0.0
122
1.0
132
0.0
 79
     0
146
0.0
  0
ENDTAB
  0
TABLE
  2
LTYPE
  5
5
330
0
100
AcDbSymbolTable
 70
     3
  0
LTYPE
  5
14
330
5
100
AcDbSymbolTableRecord
100
AcDbLinetypeTableRecord
  2
ByBlock
 70
     0
  3

 72
    65
 73
     0
 40
0.0
  0
LTYPE
  5
15
330
5
100
AcDbSymbolTableRecord
100
AcDbLinetypeTableRecord
  2
ByLayer
 70
     0
  3

 72
    65
 73
     0
 40
0.0
  0
LTYPE
  5
16
330
5
100
AcDbSymbolTableRecord
100
AcDbLinetypeTableRecord
  2
Continuous
 70
     0
  3
Solid line
 72
    65
 73
     0
 40
0.0
  0
LTYPE
  5
2A
330
5
100
AcDbSymbolTableRecord
100
AcDbLinetypeTableRecord
  2
DASHED
 70
     0
  3
__ __ __ __ __
 72
    65
 73
     2
 40
6.25
 49
5.0
 74
     4
 75
     0
340
0
 46
1.0
 50
0.0
 44
0.0
 45
0.0
 49
-1.25
 74
     4
 75
     0
340
0
 46
1.0
 50
0.0
 44
0.0
 45
0.0
  0
LTYPE
  5
56
330
5
100
AcDbSymbolTableRecord
100
AcDbLinetypeTableRecord
  2
DASHDOT
 70
     0
  3
__ . __ . __ . __ . __
 72
    65
 73
     4
 40
7.5
 49
5.0
 74
     4
 75
     0
340
0
 46
1.0
 50
0.0
 44
0.0
 45
0.0
 49
-1.25
 74
     4
 75
     0
340
0
 46
1.0
 50
0.0
 44
0.0
 45
0.0
 49
0.0
 74
     4
 75
     0
340
0
 46
1.0
 50
0.0
 44
0.0
 45
0.0
 49
-1.25
 74
     4
 75
     0
340
0
 46
1.0
 50
0.0
 44
0.0
 45
0.0
  0
ENDTAB
  0
TABLE
  2
LAYER
  5
2
330
0
100
AcDbSymbolTable
 70
    10
  0
LAYER
  5
10
330
2
100
AcDbSymbolTableRecord
100
AcDbLayerTableRecord
  2
0
 70
     0
 62
     7
  6
Continuous
370
    -3
390
F
  0
LAYER
  5
2B
330
2
100
AcDbSymbolTableRecord
100
AcDbLayerTableRecord
  2
LC-INFO-1-2-mm-A3-0
 70
     1
 62
     7
  6
ByBlock
370
    -3
390
F
  0
LAYER
  5
2C
330
2
100
AcDbSymbolTableRecord
100
AcDbLayerTableRecord
  2
LC-CUT-HIDDEN
 70
     0
 62
     7
  6
DASHED
370
    -3
390
F
  0
LAYER
  5
2D
330
2
100
AcDbSymbolTableRecord
100
AcDbLayerTableRecord
  2
LC-VIEWPORT
 70
     0
 62
     7
  6
ByBlock
370
    -3
390
F
  0
LAYER
  5
2E
330
2
100
AcDbSymbolTableRecord
100
AcDbLayerTableRecord
  2
LC-3D-HIDDEN
 70
     0
 62
     9
  6
DASHED
370
    -3
390
F
  0
LAYER
  5
30
330
2
100
AcDbSymbolTableRecord
100
AcDbLayerTableRecord
  2
LC-001-002-RND-0
 70
     0
 62
     1
  6
ByBlock
370
    -3
390
F
  0
LAYER
  5
33
330
2
100
AcDbSymbolTableRecord
100
AcDbLayerTableRecord
  2
LC-002-002-----0
 70
     0
 62
     1
  6
ByBlock
370
    -3
390
F
  0
LAYER
  5
5A
330
2
100
AcDbSymbolTableRecord
100
AcDbLayerTableRecord
  2
LC-003-003-----0
 70
     0
 62
     2
  6
ByBlock
370
    -3
390
F
  0
LAYER
  5
5C
330
2
100
AcDbSymbolTableRecord
100
AcDbLayerTableRecord
  2
Defpoints
 70
     0
 62
     7
  6
Continuous
290
     0
370
    -3
390
F
  0
LAYER
  5
7E
330
2
100
AcDbSymbolTableRecord
100
AcDbLayerTableRecord
  2
LC-004-005-----0
 70
     0
 62
     2
  6
ByBlock
370
    -3
390
F
  0
ENDTAB
  0
TABLE
  2
STYLE
  5
3
330
0
100
AcDbSymbolTable
 70
     3
  0
STYLE
  5
11
330
3
100
AcDbSymbolTableRecord
100
AcDbTextStyleTableRecord
  2
Standard
 70
     0
 40
0.0
 41
1.0
 50
0.0
 71
     0
 42
2.5
  3
txt
  4

  0
STYLE
  5
2F
330
3
100
AcDbSymbolTableRecord
100
AcDbTextStyleTableRecord
  2
LCTX15-400-0-0-Arial
 70
     0
 40
0.0
 41
0.9
 50
0.0
 71
     0
 42
3.5
  3

  4

1001
ACAD
1000
Arial
1071
 16777218
  0
STYLE
  5
58
330
3
100
AcDbSymbolTableRecord
100
AcDbTextStyleTableRecord
  2
LCTX15-400-0-0pDIN-Schrift
 70
     0
 40
2.5
 41
0.8
 50
15.0
 71
     0
 42
3.5
  3
STANDARD
  4

  0
ENDTAB
  0
TABLE
  2
VIEW
  5
6
330
0
100
AcDbSymbolTable
 70
     0
  0
ENDTAB
  0
TABLE
  2
UCS
  5
7
330
0
100
AcDbSymbolTable
 70
     0
  0
ENDTAB
  0
TABLE
  2
APPID
  5
9
330
0
100
AcDbSymbolTable
 70
     1
  0
APPID
  5
12
330
9
100
AcDbSymbolTableRecord
100
AcDbRegAppTableRecord
  2
ACAD
 70
     0
  0
ENDTAB
  0
TABLE
  2
DIMSTYLE
  5
A
330
0
100
AcDbSymbolTable
 70
     2
100
AcDbDimStyleTable
  0
DIMSTYLE
105
27
330
A
100
AcDbSymbolTableRecord
100
AcDbDimStyleTableRecord
  2
ISO-25
 70
     0
 41
2.5
 42
0.625
 43
3.75
 44
1.25
 73
     0
 74
     0
 77
     1
 78
     8
140
2.5
141
2.5
143
0.03937
147
0.625
171
     3
172
     1
271
     2
272
     2
274
     3
278
    44
283
     0
284
     8
340
11
  0
DIMSTYLE
105
59
102
{ACAD_REACTORS
330
5B
330
AC
330
BB
330
C8
330
D6
102
}
330
A
100
AcDbSymbolTableRecord
100
AcDbDimStyleTableRecord
  2
LC-DIM-L-0140-02-02
 70
     0
 40
2.0
 41
14.0
 42
0.0
 43
7.5
 44
1.8
 73
     0
 74
     0
 77
     1
 78
     8
 79
     2
140
14.0
141
0.0
146
0.71
147
1.5
176
     2
177
     2
178
     2
179
     2
271
     2
278
    44
289
     1
340
58
  0
ENDTAB
  0
TABLE
  2
BLOCK_RECORD
  5
1
330
0
100
AcDbSymbolTable
 70
    14
  0
BLOCK_RECORD
  5
1F
330
1
100
AcDbSymbolTableRecord
100
AcDbBlockTableRecord
  2
*Model_Space
340
22
  0
BLOCK_RECORD
  5
1B
330
1
100
AcDbSymbolTableRecord
100
AcDbBlockTableRecord
  2
*Paper_Space
340
1E
  0
BLOCK_RECORD
  5
23
330
1
100
AcDbSymbolTableRecord
100
AcDbBlockTableRecord
  2
*Paper_Space0
340
26
  0
BLOCK_RECORD
  5
5D
330
1
100
AcDbSymbolTableRecord
100
AcDbBlockTableRecord
  2
*D1
340
0
  0
BLOCK_RECORD
  5
7B
330
1
100
AcDbSymbolTableRecord
100
AcDbBlockTableRecord
  2
*X12
340
0
102
{BLKREFS
331
89
102
}
  0
BLOCK_RECORD
  5
93
330
1
100
AcDbSymbolTableRecord
100
AcDbBlockTableRecord
  2
*X23
340
0
102
{BLKREFS
331
9F
102
}
  0
BLOCK_RECORD
  5
AD
330
1
100
AcDbSymbolTableRecord
100
AcDbBlockTableRecord
  2
*D4
340
0
  0
BLOCK_RECORD
  5
BC
330
1
100
AcDbSymbolTableRecord
100
AcDbBlockTableRecord
  2
*D5
340
0
  0
BLOCK_RECORD
  5
C9
330
1
100
AcDbSymbolTableRecord
100
AcDbBlockTableRecord
  2
*D6
340
0
  0
BLOCK_RECORD
  5
D7
330
1
100
AcDbSymbolTableRecord
100
AcDbBlockTableRecord
  2
*D7
340
0
  0
BLOCK_RECORD
  5
FA
330
1
100
AcDbSymbolTableRecord
100
AcDbBlockTableRecord
  2
*X38
340
0
102
{BLKREFS
331
125
102
}
  0
BLOCK_RECORD
  5
128
330
1
100
AcDbSymbolTableRecord
100
AcDbBlockTableRecord
  2
*X49
340
0
102
{BLKREFS
331
153
102
}
  0
BLOCK_RECORD
  5
19E
330
1
100
AcDbSymbolTableRecord
100
AcDbBlockTableRecord
  2
*X510
340
0
102
{BLKREFS
331
1B1
102
}
  0
BLOCK_RECORD
  5
1B9
330
1
100
AcDbSymbolTableRecord
100
AcDbBlockTableRecord
  2
*X611
340
0
102
{BLKREFS
331
1CB
102
}
  0
BLOCK_RECORD
  5
1E2
330
1
100
AcDbSymbolTableRecord
100
AcDbBlockTableRecord
  2
*X712
340
0
102
{BLKREFS
331
1FD
102
}
  0
BLOCK_RECORD
  5
1FE
330
1
100
AcDbSymbolTableRecord
100
AcDbBlockTableRecord
  2
*X813
340
0
102
{BLKREFS
331
219
102
}
  0
ENDTAB
  0
ENDSEC
  0
SECTION
  2
BLOCKS
  0
BLOCK
  5
20
330
1F
100
AcDbEntity
  8
0
100
AcDbBlockBegin
  2
*Model_Space
 70
     0
 71
     0
 10
0.0
 20
0.0
 30
0.0
  3
*Model_Space
  1

  0
ENDBLK
  5
21
330
1F
100
AcDbEntity
  8
0
100
AcDbBlockEnd
  0
BLOCK
  5
1C
330
1B
100
AcDbEntity
 67
     1
  8
0
100
AcDbBlockBegin
  2
*Paper_Space
 70
     0
 71
     0
 10
0.0
 20
0.0
 30
0.0
  3
*Paper_Space
  1

  0
ENDBLK
  5
1D
330
1B
100
AcDbEntity
 67
     1
  8
0
100
AcDbBlockEnd
  0
BLOCK
  5
24
330
23
100
AcDbEntity
  8
0
100
AcDbBlockBegin
  2
*Paper_Space0
 70
     0
 71
     0
 10
0.0
 20
0.0
 30
0.0
  3
*Paper_Space0
  1

  0
ENDBLK
  5
25
330
23
100
AcDbEntity
  8
0
100
AcDbBlockEnd
  0
BLOCK
  5
67
330
5D
100
AcDbEntity
  8
0
100
AcDbBlockBegin
  2
*D1
 70
     1
 71
     0
 10
0.0
 20
0.0
 30
0.0
  3
*D1
  1

  0
LINE
  5
5E
330
5D
100
AcDbEntity
  8
LC-003-003-----0
 62
     2
370
    -2
100
AcDbLine
 10
782.819462
 20
7359.61517
 30
0.0
 11
782.819462
 21
7304.561
 31
0.0
  0
LINE
  5
5F
330
5D
100
AcDbEntity
  8
LC-003-003-----0
 62
     2
370
    -2
100
AcDbLine
 10
892.818977
 20
7365.615111
 30
0.0
 11
892.818977
 21
7304.561
 31
0.0
  0
LINE
  5
60
330
5D
100
AcDbEntity
  8
LC-003-003-----0
 62
     2
370
    -2
100
AcDbLine
 10
810.819462
 20
7308.161
 30
0.0
 11
864.818977
 21
7308.161
 31
0.0
  0
SOLID
  5
61
330
5D
100
AcDbEntity
  8
LC-003-003-----0
 62
     2
100
AcDbTrace
 10
810.819462
 20
7312.827667
 30
0.0
 11
810.819462
 21
7303.494333
 31
0.0
 12
782.819462
 22
7308.161
 32
0.0
 13
782.819462
 23
7308.161
 33
0.0
  0
SOLID
  5
62
330
5D
100
AcDbEntity
  8
LC-003-003-----0
 62
     2
100
AcDbTrace
 10
864.818977
 20
7303.494333
 30
0.0
 11
864.818977
 21
7312.827667
 31
0.0
 12
892.818977
 22
7308.161
 32
0.0
 13
892.818977
 23
7308.161
 33
0.0
  0
MTEXT
  5
63
330
5D
100
AcDbEntity
  8
LC-003-003-----0
 62
     2
100
AcDbMText
 10
838.118479
 20
7338.961
 30
0.0
 40
28.0
 41
0.0
 71
     5
 72
     1
  1
\A1;%%c110
  7
LCTX15-400-0-0pDIN-Schrift
 73
     1
 44
1.0
  0
POINT
  5
64
330
5D
100
AcDbEntity
  8
Defpoints
 62
     0
100
AcDbPoint
 10
782.819462
 20
7359.61517
 30
0.0
  0
POINT
  5
65
330
5D
100
AcDbEntity
  8
Defpoints
 62
     0
100
AcDbPoint
 10
892.818977
 20
7365.615111
 30
0.0
  0
POINT
  5
66
330
5D
100
AcDbEntity
  8
Defpoints
 62
     0
100
AcDbPoint
 10
892.818977
 20
7308.161
 30
0.0
  0
ENDBLK
  5
68
330
5D
100
AcDbEntity
  8
0
100
AcDbBlockEnd
  0
BLOCK
  5
7C
330
7B
100
AcDbEntity
  8
0
100
AcDbBlockBegin
  2
*X12
 70
     1
 71
     0
 10
0.0
 20
0.0
 30
0.0
  3
*X12
  1

  4
*X1
  0
LINE
  5
7F
330
7B
100
AcDbEntity
  8
LC-004-005-----0
 62
     7
370
    25
100
AcDbLine
 10
785.178984
 20
7355.615195
 30
0.0
 11
785.8199
 21
7356.25611
 31
0.0
  0
LINE
  5
80
330
7B
100
AcDbEntity
  8
LC-004-005-----0
 62
     7
370
    25
100
AcDbLine
 10
782.350557
 20
7355.615195
 30
0.0
 11
785.350532
 21
7358.61517
 31
0.0
  0
LINE
  5
81
330
7B
100
AcDbEntity
  8
LC-004-005-----0
 62
     7
370
    25
100
AcDbLine
 10
779.52213
 20
7355.615195
 30
0.0
 11
782.819926
 21
7358.912991
 31
0.0
  0
LINE
  5
82
330
7B
100
AcDbEntity
  8
LC-004-005-----0
 62
     7
370
    25
100
AcDbLine
 10
777.819855
 20
7356.741347
 30
0.0
 11
782.819934
 21
7361.741427
 31
0.0
  0
LINE
  5
83
330
7B
100
AcDbEntity
  8
LC-004-005-----0
 62
     7
370
    25
100
AcDbLine
 10
777.819855
 20
7359.569774
 30
0.0
 11
782.819943
 21
7364.569862
 31
0.0
  0
LINE
  5
84
330
7B
100
AcDbEntity
  8
LC-004-005-----0
 62
     7
370
    25
100
AcDbLine
 10
777.819855
 20
7362.398201
 30
0.0
 11
782.819952
 21
7367.398298
 31
0.0
  0
LINE
  5
85
330
7B
100
AcDbEntity
  8
LC-004-005-----0
 62
     7
370
    25
100
AcDbLine
 10
777.819855
 20
7365.226628
 30
0.0
 11
778.208337
 21
7365.615111
 31
0.0
  0
LINE
  5
86
330
7B
100
AcDbEntity
  8
LC-004-005-----0
 62
     7
370
    25
100
AcDbLine
 10
780.819949
 20
7368.226722
 30
0.0
 11
782.81996
 21
7370.226734
 31
0.0
  0
LINE
  5
87
330
7B
100
AcDbEntity
  8
LC-004-005-----0
 62
     7
370
    25
100
AcDbLine
 10
780.819949
 20
7371.055149
 30
0.0
 11
782.819969
 21
7373.05517
 31
0.0
  0
LINE
  5
88
330
7B
100
AcDbEntity
  8
LC-004-005-----0
 62
     7
370
    25
100
AcDbLine
 10
780.819949
 20
7373.883576
 30
0.0
 11
781.685674
 21
7374.749302
 31
0.0
  0
ENDBLK
  5
7D
330
7B
100
AcDbEntity
  8
0
100
AcDbBlockEnd
  0
BLOCK
  5
94
330
93
100
AcDbEntity
  8
0
100
AcDbBlockBegin
  2
*X23
 70
     1
 71
     0
 10
0.0
 20
0.0
 30
0.0
  3
*X23
  1

  4
*X2
  0
LINE
  5
96
330
93
100
AcDbEntity
  8
LC-004-005-----0
 62
     7
370
    25
100
AcDbLine
 10
895.487642
 20
7355.615195
 30
0.0
 11
897.819069
 21
7357.946622
 31
0.0
  0
LINE
  5
97
330
93
100
AcDbEntity
  8
LC-004-005-----0
 62
     7
370
    25
100
AcDbLine
 10
892.659215
 20
7355.615195
 30
0.0
 11
897.819069
 21
7360.775049
 31
0.0
  0
LINE
  5
98
330
93
100
AcDbEntity
  8
LC-004-005-----0
 62
     7
370
    25
100
AcDbLine
 10
889.830788
 20
7355.615195
 30
0.0
 11
897.819069
 21
7363.603476
 31
0.0
  0
LINE
  5
99
330
93
100
AcDbEntity
  8
LC-004-005-----0
 62
     7
370
    25
100
AcDbLine
 10
889.819024
 20
7358.431858
 30
0.0
 11
890.002336
 21
7358.61517
 31
0.0
  0
LINE
  5
9A
330
93
100
AcDbEntity
  8
LC-004-005-----0
 62
     7
370
    25
100
AcDbLine
 10
892.81899
 20
7361.431824
 30
0.0
 11
897.002277
 21
7365.615111
 31
0.0
  0
LINE
  5
9B
330
93
100
AcDbEntity
  8
LC-004-005-----0
 62
     7
370
    25
100
AcDbLine
 10
892.818981
 20
7364.260243
 30
0.0
 11
894.818975
 21
7366.260236
 31
0.0
  0
LINE
  5
9C
330
93
100
AcDbEntity
  8
LC-004-005-----0
 62
     7
370
    25
100
AcDbLine
 10
892.818973
 20
7367.088661
 30
0.0
 11
894.818975
 21
7369.088664
 31
0.0
  0
LINE
  5
9D
330
93
100
AcDbEntity
  8
LC-004-005-----0
 62
     7
370
    25
100
AcDbLine
 10
892.818964
 20
7369.91708
 30
0.0
 11
894.818975
 21
7371.917091
 31
0.0
  0
LINE
  5
9E
330
93
100
AcDbEntity
  8
LC-004-005-----0
 62
     7
370
    25
100
AcDbLine
 10
892.818955
 20
7372.745498
 30
0.0
 11
894.818975
 21
7374.745518
 31
0.0
  0
ENDBLK
  5
95
330
93
100
AcDbEntity
  8
0
100
AcDbBlockEnd
  0
BLOCK
  5
B9
330
AD
100
AcDbEntity
  8
0
100
AcDbBlockBegin
  2
*D4
 70
     1
 71
     0
 10
0.0
 20
0.0
 30
0.0
  3
*D4
  1

  0
LINE
  5
AE
330
AD
100
AcDbEntity
  8
LC-003-003-----0
 62
     2
370
    -2
100
AcDbLine
 10
889.819024
 20
7358.61517
 30
0.0
 11
933.911808
 21
7358.61517
 31
0.0
  0
LINE
  5
AF
330
AD
100
AcDbEntity
  8
LC-003-003-----0
 62
     2
370
    -2
100
AcDbLine
 10
890.319462
 20
7372.61517
 30
0.0
 11
933.911808
 21
7372.61517
 31
0.0
  0
LINE
  5
B0
330
AD
100
AcDbEntity
  8
LC-003-003-----0
 62
     2
370
    -2
100
AcDbLine
 10
930.311808
 20
7330.61517
 30
0.0
 11
930.311808
 21
7302.61517
 31
0.0
  0
LINE
  5
B1
330
AD
100
AcDbEntity
  8
LC-003-003-----0
 62
     2
370
    -2
100
AcDbLine
 10
930.311808
 20
7400.61517
 30
0.0
 11
930.311808
 21
7428.61517
 31
0.0
  0
LINE
  5
B2
330
AD
100
AcDbEntity
  8
LC-003-003-----0
 62
     2
370
    -2
100
AcDbLine
 10
930.311808
 20
7358.61517
 30
0.0
 11
930.311808
 21
7372.61517
 31
0.0
  0
SOLID
  5
B3
330
AD
100
AcDbEntity
  8
LC-003-003-----0
 62
     2
100
AcDbTrace
 10
934.978475
 20
7330.61517
 30
0.0
 11
925.645142
 21
7330.61517
 31
0.0
 12
930.311808
 22
7358.61517
 32
0.0
 13
930.311808
 23
7358.61517
 33
0.0
  0
SOLID
  5
B4
330
AD
100
AcDbEntity
  8
LC-003-003-----0
 62
     2
100
AcDbTrace
 10
925.645142
 20
7400.61517
 30
0.0
 11
934.978475
 21
7400.61517
 31
0.0
 12
930.311808
 22
7372.61517
 32
0.0
 13
930.311808
 23
7372.61517
 33
0.0
  0
MTEXT
  5
B5
330
AD
100
AcDbEntity
  8
LC-003-003-----0
 62
     2
100
AcDbMText
 10
899.511808
 20
7371.125
 30
0.0
 40
28.0
 41
0.0
 71
     5
 72
     1
  1
\A1;14
  7
LCTX15-400-0-0pDIN-Schrift
 11
6.123031769111886E-17
 21
1.0
 31
0.0
 73
     1
 44
1.0
  0
POINT
  5
B6
330
AD
100
AcDbEntity
  8
Defpoints
 62
     0
100
AcDbPoint
 10
889.819024
 20
7358.61517
 30
0.0
  0
POINT
  5
B7
330
AD
100
AcDbEntity
  8
Defpoints
 62
     0
100
AcDbPoint
 10
890.319462
 20
7372.61517
 30
0.0
  0
POINT
  5
B8
330
AD
100
AcDbEntity
  8
Defpoints
 62
     0
100
AcDbPoint
 10
930.311808
 20
7372.61517
 30
0.0
  0
ENDBLK
  5
BA
330
AD
100
AcDbEntity
  8
0
100
AcDbBlockEnd
  0
BLOCK
  5
C6
330
BC
100
AcDbEntity
  8
0
100
AcDbBlockBegin
  2
*D5
 70
     1
 71
     0
 10
0.0
 20
0.0
 30
0.0
  3
*D5
  1

  0
LINE
  5
BD
330
BC
100
AcDbEntity
  8
LC-003-003-----0
 62
     2
370
    -2
100
AcDbLine
 10
890.319462
 20
7372.61517
 30
0.0
 11
983.6
 21
7372.61517
 31
0.0
  0
LINE
  5
BE
330
BC
100
AcDbEntity
  8
LC-003-003-----0
 62
     2
370
    -2
100
AcDbLine
 10
910.319462
 20
7484.115066
 30
0.0
 11
983.6
 21
7484.115066
 31
0.0
  0
LINE
  5
BF
330
BC
100
AcDbEntity
  8
LC-003-003-----0
 62
     2
370
    -2
100
AcDbLine
 10
980.0
 20
7400.61517
 30
0.0
 11
980.0
 21
7456.115066
 31
0.0
  0
SOLID
  5
C0
330
BC
100
AcDbEntity
  8
LC-003-003-----0
 62
     2
100
AcDbTrace
 10
975.333333
 20
7400.61517
 30
0.0
 11
984.666667
 21
7400.61517
 31
0.0
 12
980.0
 22
7372.61517
 32
0.0
 13
980.0
 23
7372.61517
 33
0.0
  0
SOLID
  5
C1
330
BC
100
AcDbEntity
  8
LC-003-003-----0
 62
     2
100
AcDbTrace
 10
984.666667
 20
7456.115066
 30
0.0
 11
975.333333
 21
7456.115066
 31
0.0
 12
980.0
 22
7484.115066
 32
0.0
 13
980.0
 23
7484.115066
 33
0.0
  0
MTEXT
  5
C2
330
BC
100
AcDbEntity
  8
LC-003-003-----0
 62
     2
100
AcDbMText
 10
949.2
 20
7428.365118
 30
0.0
 40
28.0
 41
0.0
 71
     5
 72
     1
  1
\A1;14-111
  7
LCTX15-400-0-0pDIN-Schrift
 11
6.123031769111886E-17
 21
1.0
 31
0.0
 73
     1
 44
1.0
  0
POINT
  5
C3
330
BC
100
AcDbEntity
  8
Defpoints
 62
     0
100
AcDbPoint
 10
890.319462
 20
7372.61517
 30
0.0
  0
POINT
  5
C4
330
BC
100
AcDbEntity
  8
Defpoints
 62
     0
100
AcDbPoint
 10
910.319462
 20
7484.115066
 30
0.0
  0
POINT
  5
C5
330
BC
100
AcDbEntity
  8
Defpoints
 62
     0
100
AcDbPoint
 10
980.0
 20
7484.115066
 30
0.0
  0
ENDBLK
  5
C7
330
BC
100
AcDbEntity
  8
0
100
AcDbBlockEnd
  0
BLOCK
  5
D4
330
C9
100
AcDbEntity
  8
0
100
AcDbBlockBegin
  2
*D6
 70
     1
 71
     0
 10
0.0
 20
0.0
 30
0.0
  3
*D6
  1

  0
LINE
  5
CA
330
C9
100
AcDbEntity
  8
LC-003-003-----0
 62
     2
370
    -2
100
AcDbLine
 10
765.319462
 20
7484.115066
 30
0.0
 11
741.2
 21
7484.115066
 31
0.0
  0
LINE
  5
CB
330
C9
100
AcDbEntity
  8
LC-003-003-----0
 62
     2
370
    -2
100
AcDbLine
 10
761.328738
 20
7475.115066
 30
0.0
 11
741.2
 21
7475.115066
 31
0.0
  0
LINE
  5
CC
330
C9
100
AcDbEntity
  8
LC-003-003-----0
 62
     2
370
    -2
100
AcDbLine
 10
744.8
 20
7512.115066
 30
0.0
 11
744.8
 21
7540.115066
 31
0.0
  0
LINE
  5
CD
330
C9
100
AcDbEntity
  8
LC-003-003-----0
 62
     2
370
    -2
100
AcDbLine
 10
744.8
 20
7447.115066
 30
0.0
 11
744.8
 21
7426.106841
 31
0.0
  0
SOLID
  5
CE
330
C9
100
AcDbEntity
  8
LC-003-003-----0
 62
     2
100
AcDbTrace
 10
740.133333
 20
7512.115066
 30
0.0
 11
749.466667
 21
7512.115066
 31
0.0
 12
744.8
 22
7484.115066
 32
0.0
 13
744.8
 23
7484.115066
 33
0.0
  0
SOLID
  5
CF
330
C9
100
AcDbEntity
  8
LC-003-003-----0
 62
     2
100
AcDbTrace
 10
749.466667
 20
7447.115066
 30
0.0
 11
740.133333
 21
7447.115066
 31
0.0
 12
744.8
 22
7475.115066
 32
0.0
 13
744.8
 23
7475.115066
 33
0.0
  0
MTEXT
  5
D0
330
C9
100
AcDbEntity
  8
LC-003-003-----0
 62
     2
100
AcDbMText
 10
714.0
 20
7437.653
 30
0.0
 40
28.0
 41
0.0
 71
     5
 72
     1
  1
\A1;9
  7
LCTX15-400-0-0pDIN-Schrift
 11
6.123031769111886E-17
 21
1.0
 31
0.0
 73
     1
 44
1.0
  0
POINT
  5
D1
330
C9
100
AcDbEntity
  8
Defpoints
 62
     0
100
AcDbPoint
 10
765.319462
 20
7484.115066
 30
0.0
  0
POINT
  5
D2
330
C9
100
AcDbEntity
  8
Defpoints
 62
     0
100
AcDbPoint
 10
761.328738
 20
7475.115066
 30
0.0
  0
POINT
  5
D3
330
C9
100
AcDbEntity
  8
Defpoints
 62
     0
100
AcDbPoint
 10
744.8
 20
7475.115066
 30
0.0
  0
ENDBLK
  5
D5
330
C9
100
AcDbEntity
  8
0
100
AcDbBlockEnd
  0
BLOCK
  5
E1
330
D7
100
AcDbEntity
  8
0
100
AcDbBlockBegin
  2
*D7
 70
     1
 71
     0
 10
0.0
 20
0.0
 30
0.0
  3
*D7
  1

  0
LINE
  5
D8
330
D7
100
AcDbEntity
  8
LC-003-003-----0
 62
     2
370
    -2
100
AcDbLine
 10
762.324673
 20
7481.291809
 30
0.0
 11
762.324673
 21
7524.413
 31
0.0
  0
LINE
  5
D9
330
D7
100
AcDbEntity
  8
LC-003-003-----0
 62
     2
370
    -2
100
AcDbLine
 10
913.314251
 20
7480.296995
 30
0.0
 11
913.314251
 21
7524.413
 31
0.0
  0
LINE
  5
DA
330
D7
100
AcDbEntity
  8
LC-003-003-----0
 62
     2
370
    -2
100
AcDbLine
 10
790.324673
 20
7520.813
 30
0.0
 11
885.314251
 21
7520.813
 31
0.0
  0
SOLID
  5
DB
330
D7
100
AcDbEntity
  8
LC-003-003-----0
 62
     2
100
AcDbTrace
 10
790.324673
 20
7525.479667
 30
0.0
 11
790.324673
 21
7516.146333
 31
0.0
 12
762.324673
 22
7520.813
 32
0.0
 13
762.324673
 23
7520.813
 33
0.0
  0
SOLID
  5
DC
330
D7
100
AcDbEntity
  8
LC-003-003-----0
 62
     2
100
AcDbTrace
 10
885.314251
 20
7516.146333
 30
0.0
 11
885.314251
 21
7525.479667
 31
0.0
 12
913.314251
 22
7520.813
 32
0.0
 13
913.314251
 23
7520.813
 33
0.0
  0
MTEXT
  5
DD
330
D7
100
AcDbEntity
  8
LC-003-003-----0
 62
     2
100
AcDbMText
 10
850.52912
 20
7551.613
 30
0.0
 40
28.0
 41
0.0
 71
     5
 72
     1
  1
\A1;150
  7
LCTX15-400-0-0pDIN-Schrift
 73
     1
 44
1.0
  0
POINT
  5
DE
330
D7
100
AcDbEntity
  8
Defpoints
 62
     0
100
AcDbPoint
 10
762.324673
 20
7481.291809
 30
0.0
  0
POINT
  5
DF
330
D7
100
AcDbEntity
  8
Defpoints
 62
     0
100
AcDbPoint
 10
913.314251
 20
7480.296995
 30
0.0
  0
POINT
  5
E0
330
D7
100
AcDbEntity
  8
Defpoints
 62
     0
100
AcDbPoint
 10
913.314251
 20
7520.813
 30
0.0
  0
ENDBLK
  5
E2
330
D7
100
AcDbEntity
  8
0
100
AcDbBlockEnd
  0
BLOCK
  5
FB
330
FA
100
AcDbEntity
  8
0
100
AcDbBlockBegin
  2
*X38
 70
     1
 71
     0
 10
0.0
 20
0.0
 30
0.0
  3
*X38
  1

  4
*X3
  0
LINE
  5
FD
330
FA
100
AcDbEntity
  8
LC-004-005-----0
 62
     7
370
    25
100
AcDbLine
 10
890.319462
 20
7358.932296
 30
0.0
 11
892.819462
 21
7361.432296
 31
0.0
  0
LINE
  5
FE
330
FA
100
AcDbEntity
  8
LC-004-005-----0
 62
     7
370
    25
100
AcDbLine
 10
890.319462
 20
7361.760723
 30
0.0
 11
892.819462
 21
7364.260723
 31
0.0
  0
LINE
  5
FF
330
FA
100
AcDbEntity
  8
LC-004-005-----0
 62
     7
370
    25
100
AcDbLine
 10
890.319462
 20
7364.58915
 30
0.0
 11
892.819462
 21
7367.08915
 31
0.0
  0
LINE
  5
100
330
FA
100
AcDbEntity
  8
LC-004-005-----0
 62
     7
370
    25
100
AcDbLine
 10
890.319462
 20
7367.417577
 30
0.0
 11
892.819462
 21
7369.917577
 31
0.0
  0
LINE
  5
101
330
FA
100
AcDbEntity
  8
LC-004-005-----0
 62
     7
370
    25
100
AcDbLine
 10
890.319462
 20
7370.246005
 30
0.0
 11
892.819462
 21
7372.746005
 31
0.0
  0
LINE
  5
102
330
FA
100
AcDbEntity
  8
LC-004-005-----0
 62
     7
370
    25
100
AcDbLine
 10
890.319462
 20
7373.074432
 30
0.0
 11
892.819462
 21
7375.574432
 31
0.0
  0
LINE
  5
103
330
FA
100
AcDbEntity
  8
LC-004-005-----0
 62
     7
370
    25
100
AcDbLine
 10
890.319462
 20
7375.902859
 30
0.0
 11
892.819462
 21
7378.402859
 31
0.0
  0
LINE
  5
104
330
FA
100
AcDbEntity
  8
LC-004-005-----0
 62
     7
370
    25
100
AcDbLine
 10
890.319462
 20
7378.731286
 30
0.0
 11
892.819462
 21
7381.231286
 31
0.0
  0
LINE
  5
105
330
FA
100
AcDbEntity
  8
LC-004-005-----0
 62
     7
370
    25
100
AcDbLine
 10
890.319462
 20
7381.559713
 30
0.0
 11
892.819462
 21
7384.059713
 31
0.0
  0
LINE
  5
106
330
FA
100
AcDbEntity
  8
LC-004-005-----0
 62
     7
370
    25
100
AcDbLine
 10
890.319462
 20
7384.38814
 30
0.0
 11
892.819462
 21
7386.88814
 31
0.0
  0
LINE
  5
107
330
FA
100
AcDbEntity
  8
LC-004-005-----0
 62
     7
370
    25
100
AcDbLine
 10
890.319462
 20
7387.216567
 30
0.0
 11
892.819462
 21
7389.716567
 31
0.0
  0
LINE
  5
108
330
FA
100
AcDbEntity
  8
LC-004-005-----0
 62
     7
370
    25
100
AcDbLine
 10
890.319462
 20
7390.044994
 30
0.0
 11
892.819462
 21
7392.544994
 31
0.0
  0
LINE
  5
109
330
FA
100
AcDbEntity
  8
LC-004-005-----0
 62
     7
370
    25
100
AcDbLine
 10
890.319462
 20
7392.873422
 30
0.0
 11
892.819462
 21
7395.373422
 31
0.0
  0
LINE
  5
10A
330
FA
100
AcDbEntity
  8
LC-004-005-----0
 62
     7
370
    25
100
AcDbLine
 10
890.319462
 20
7395.701849
 30
0.0
 11
892.819462
 21
7398.201849
 31
0.0
  0
LINE
  5
10B
330
FA
100
AcDbEntity
  8
LC-004-005-----0
 62
     7
370
    25
100
AcDbLine
 10
890.319462
 20
7398.530276
 30
0.0
 11
892.819462
 21
7401.030276
 31
0.0
  0
LINE
  5
10C
330
FA
100
AcDbEntity
  8
LC-004-005-----0
 62
     7
370
    25
100
AcDbLine
 10
890.319462
 20
7401.358703
 30
0.0
 11
892.819462
 21
7403.858703
 31
0.0
  0
LINE
  5
10D
330
FA
100
AcDbEntity
  8
LC-004-005-----0
 62
     7
370
    25
100
AcDbLine
 10
890.319462
 20
7404.18713
 30
0.0
 11
892.819462
 21
7406.68713
 31
0.0
  0
LINE
  5
10E
330
FA
100
AcDbEntity
  8
LC-004-005-----0
 62
     7
370
    25
100
AcDbLine
 10
890.319462
 20
7407.015557
 30
0.0
 11
892.819462
 21
7409.515557
 31
0.0
  0
LINE
  5
10F
330
FA
100
AcDbEntity
  8
LC-004-005-----0
 62
     7
370
    25
100
AcDbLine
 10
890.319462
 20
7409.843984
 30
0.0
 11
892.819462
 21
7412.343984
 31
0.0
  0
LINE
  5
110
330
FA
100
AcDbEntity
  8
LC-004-005-----0
 62
     7
370
    25
100
AcDbLine
 10
890.319462
 20
7412.672411
 30
0.0
 11
892.819462
 21
7415.172411
 31
0.0
  0
LINE
  5
111
330
FA
100
AcDbEntity
  8
LC-004-005-----0
 62
     7
370
    25
100
AcDbLine
 10
890.319462
 20
7415.500839
 30
0.0
 11
892.819462
 21
7418.000839
 31
0.0
  0
LINE
  5
112
330
FA
100
AcDbEntity
  8
LC-004-005-----0
 62
     7
370
    25
100
AcDbLine
 10
890.319462
 20
7418.329266
 30
0.0
 11
892.819462
 21
7420.829266
 31
0.0
  0
LINE
  5
113
330
FA
100
AcDbEntity
  8
LC-004-005-----0
 62
     7
370
    25
100
AcDbLine
 10
890.319462
 20
7421.157693
 30
0.0
 11
892.819462
 21
7423.657693
 31
0.0
  0
LINE
  5
114
330
FA
100
AcDbEntity
  8
LC-004-005-----0
 62
     7
370
    25
100
AcDbLine
 10
890.319462
 20
7423.98612
 30
0.0
 11
892.819462
 21
7426.48612
 31
0.0
  0
LINE
  5
115
330
FA
100
AcDbEntity
  8
LC-004-005-----0
 62
     7
370
    25
100
AcDbLine
 10
890.319462
 20
7426.814547
 30
0.0
 11
892.819462
 21
7429.314547
 31
0.0
  0
LINE
  5
116
330
FA
100
AcDbEntity
  8
LC-004-005-----0
 62
     7
370
    25
100
AcDbLine
 10
890.319462
 20
7429.642974
 30
0.0
 11
892.819462
 21
7432.142974
 31
0.0
  0
LINE
  5
117
330
FA
100
AcDbEntity
  8
LC-004-005-----0
 62
     7
370
    25
100
AcDbLine
 10
890.319462
 20
7432.471401
 30
0.0
 11
892.819462
 21
7434.971401
 31
0.0
  0
LINE
  5
118
330
FA
100
AcDbEntity
  8
LC-004-005-----0
 62
     7
370
    25
100
AcDbLine
 10
890.319462
 20
7435.299828
 30
0.0
 11
892.819462
 21
7437.799828
 31
0.0
  0
LINE
  5
119
330
FA
100
AcDbEntity
  8
LC-004-005-----0
 62
     7
370
    25
100
AcDbLine
 10
890.319462
 20
7438.128256
 30
0.0
 11
892.819462
 21
7440.628256
 31
0.0
  0
LINE
  5
11A
330
FA
100
AcDbEntity
  8
LC-004-005-----0
 62
     7
370
    25
100
AcDbLine
 10
890.319462
 20
7440.956683
 30
0.0
 11
892.819462
 21
7443.456683
 31
0.0
  0
LINE
  5
11B
330
FA
100
AcDbEntity
  8
LC-004-005-----0
 62
     7
370
    25
100
AcDbLine
 10
890.319462
 20
7443.78511
 30
0.0
 11
892.819462
 21
7446.28511
 31
0.0
  0
LINE
  5
11C
330
FA
100
AcDbEntity
  8
LC-004-005-----0
 62
     7
370
    25
100
AcDbLine
 10
890.319462
 20
7446.613537
 30
0.0
 11
892.819462
 21
7449.113537
 31
0.0
  0
LINE
  5
11D
330
FA
100
AcDbEntity
  8
LC-004-005-----0
 62
     7
370
    25
100
AcDbLine
 10
890.319462
 20
7449.441964
 30
0.0
 11
892.819462
 21
7451.941964
 31
0.0
  0
LINE
  5
11E
330
FA
100
AcDbEntity
  8
LC-004-005-----0
 62
     7
370
    25
100
AcDbLine
 10
890.319462
 20
7452.270391
 30
0.0
 11
892.819462
 21
7454.770391
 31
0.0
  0
LINE
  5
11F
330
FA
100
AcDbEntity
  8
LC-004-005-----0
 62
     7
370
    25
100
AcDbLine
 10
890.319462
 20
7455.098818
 30
0.0
 11
892.819462
 21
7457.598818
 31
0.0
  0
LINE
  5
120
330
FA
100
AcDbEntity
  8
LC-004-005-----0
 62
     7
370
    25
100
AcDbLine
 10
890.319462
 20
7457.927245
 30
0.0
 11
892.819462
 21
7460.427245
 31
0.0
  0
LINE
  5
121
330
FA
100
AcDbEntity
  8
LC-004-005-----0
 62
     7
370
    25
100
AcDbLine
 10
890.319462
 20
7460.755673
 30
0.0
 11
892.819462
 21
7463.255673
 31
0.0
  0
LINE
  5
122
330
FA
100
AcDbEntity
  8
LC-004-005-----0
 62
     7
370
    25
100
AcDbLine
 10
890.319462
 20
7463.5841
 30
0.0
 11
892.819462
 21
7466.0841
 31
0.0
  0
LINE
  5
123
330
FA
100
AcDbEntity
  8
LC-004-005-----0
 62
     7
370
    25
100
AcDbLine
 10
889.819462
 20
7465.912527
 30
0.0
 11
890.522105
 21
7466.61517
 31
0.0
  0
LINE
  5
124
330
FA
100
AcDbEntity
  8
LC-004-005-----0
 62
     7
370
    25
100
AcDbLine
 10
891.569462
 20
7467.662527
 30
0.0
 11
892.522105
 21
7468.61517
 31
0.0
  0
ENDBLK
  5
FC
330
FA
100
AcDbEntity
  8
0
100
AcDbBlockEnd
  0
BLOCK
  5
129
330
128
100
AcDbEntity
  8
0
100
AcDbBlockBegin
  2
*X49
 70
     1
 71
     0
 10
0.0
 20
0.0
 30
0.0
  3
*X49
  1

  4
*X4
  0
LINE
  5
12B
330
128
100
AcDbEntity
  8
LC-004-005-----0
 62
     7
370
    25
100
AcDbLine
 10
783.179273
 20
7359.272338
 30
0.0
 11
785.319462
 21
7361.412527
 31
0.0
  0
LINE
  5
12C
330
128
100
AcDbEntity
  8
LC-004-005-----0
 62
     7
370
    25
100
AcDbLine
 10
782.819462
 20
7361.740954
 30
0.0
 11
785.319462
 21
7364.240954
 31
0.0
  0
LINE
  5
12D
330
128
100
AcDbEntity
  8
LC-004-005-----0
 62
     7
370
    25
100
AcDbLine
 10
782.819462
 20
7364.569381
 30
0.0
 11
785.319462
 21
7367.069381
 31
0.0
  0
LINE
  5
12E
330
128
100
AcDbEntity
  8
LC-004-005-----0
 62
     7
370
    25
100
AcDbLine
 10
782.819462
 20
7367.397808
 30
0.0
 11
785.319462
 21
7369.897808
 31
0.0
  0
LINE
  5
12F
330
128
100
AcDbEntity
  8
LC-004-005-----0
 62
     7
370
    25
100
AcDbLine
 10
782.819462
 20
7370.226235
 30
0.0
 11
785.319462
 21
7372.726235
 31
0.0
  0
LINE
  5
130
330
128
100
AcDbEntity
  8
LC-004-005-----0
 62
     7
370
    25
100
AcDbLine
 10
782.819462
 20
7373.054662
 30
0.0
 11
785.319462
 21
7375.554662
 31
0.0
  0
LINE
  5
131
330
128
100
AcDbEntity
  8
LC-004-005-----0
 62
     7
370
    25
100
AcDbLine
 10
782.819462
 20
7375.88309
 30
0.0
 11
785.319462
 21
7378.38309
 31
0.0
  0
LINE
  5
132
330
128
100
AcDbEntity
  8
LC-004-005-----0
 62
     7
370
    25
100
AcDbLine
 10
782.819462
 20
7378.711517
 30
0.0
 11
785.319462
 21
7381.211517
 31
0.0
  0
LINE
  5
133
330
128
100
AcDbEntity
  8
LC-004-005-----0
 62
     7
370
    25
100
AcDbLine
 10
782.819462
 20
7381.539944
 30
0.0
 11
785.319462
 21
7384.039944
 31
0.0
  0
LINE
  5
134
330
128
100
AcDbEntity
  8
LC-004-005-----0
 62
     7
370
    25
100
AcDbLine
 10
782.819462
 20
7384.368371
 30
0.0
 11
785.319462
 21
7386.868371
 31
0.0
  0
LINE
  5
135
330
128
100
AcDbEntity
  8
LC-004-005-----0
 62
     7
370
    25
100
AcDbLine
 10
782.819462
 20
7387.196798
 30
0.0
 11
785.319462
 21
7389.696798
 31
0.0
  0
LINE
  5
136
330
128
100
AcDbEntity
  8
LC-004-005-----0
 62
     7
370
    25
100
AcDbLine
 10
782.819462
 20
7390.025225
 30
0.0
 11
785.319462
 21
7392.525225
 31
0.0
  0
LINE
  5
137
330
128
100
AcDbEntity
  8
LC-004-005-----0
 62
     7
370
    25
100
AcDbLine
 10
782.819462
 20
7392.853652
 30
0.0
 11
785.319462
 21
7395.353652
 31
0.0
  0
LINE
  5
138
330
128
100
AcDbEntity
  8
LC-004-005-----0
 62
     7
370
    25
100
AcDbLine
 10
782.819462
 20
7395.682079
 30
0.0
 11
785.319462
 21
7398.182079
 31
0.0
  0
LINE
  5
139
330
128
100
AcDbEntity
  8
LC-004-005-----0
 62
     7
370
    25
100
AcDbLine
 10
782.819462
 20
7398.510507
 30
0.0
 11
785.319462
 21
7401.010507
 31
0.0
  0
LINE
  5
13A
330
128
100
AcDbEntity
  8
LC-004-005-----0
 62
     7
370
    25
100
AcDbLine
 10
782.819462
 20
7401.338934
 30
0.0
 11
785.319462
 21
7403.838934
 31
0.0
  0
LINE
  5
13B
330
128
100
AcDbEntity
  8
LC-004-005-----0
 62
     7
370
    25
100
AcDbLine
 10
782.819462
 20
7404.167361
 30
0.0
 11
785.319462
 21
7406.667361
 31
0.0
  0
LINE
  5
13C
330
128
100
AcDbEntity
  8
LC-004-005-----0
 62
     7
370
    25
100
AcDbLine
 10
782.819462
 20
7406.995788
 30
0.0
 11
785.319462
 21
7409.495788
 31
0.0
  0
LINE
  5
13D
330
128
100
AcDbEntity
  8
LC-004-005-----0
 62
     7
370
    25
100
AcDbLine
 10
782.819462
 20
7409.824215
 30
0.0
 11
785.319462
 21
7412.324215
 31
0.0
  0
LINE
  5
13E
330
128
100
AcDbEntity
  8
LC-004-005-----0
 62
     7
370
    25
100
AcDbLine
 10
782.819462
 20
7412.652642
 30
0.0
 11
785.319462
 21
7415.152642
 31
0.0
  0
LINE
  5
13F
330
128
100
AcDbEntity
  8
LC-004-005-----0
 62
     7
370
    25
100
AcDbLine
 10
782.819462
 20
7415.481069
 30
0.0
 11
785.319462
 21
7417.981069
 31
0.0
  0
LINE
  5
140
330
128
100
AcDbEntity
  8
LC-004-005-----0
 62
     7
370
    25
100
AcDbLine
 10
782.819462
 20
7418.309496
 30
0.0
 11
785.319462
 21
7420.809496
 31
0.0
  0
LINE
  5
141
330
128
100
AcDbEntity
  8
LC-004-005-----0
 62
     7
370
    25
100
AcDbLine
 10
782.819462
 20
7421.137924
 30
0.0
 11
785.319462
 21
7423.637924
 31
0.0
  0
LINE
  5
142
330
128
100
AcDbEntity
  8
LC-004-005-----0
 62
     7
370
    25
100
AcDbLine
 10
782.819462
 20
7423.966351
 30
0.0
 11
785.319462
 21
7426.466351
 31
0.0
  0
LINE
  5
143
330
128
100
AcDbEntity
  8
LC-004-005-----0
 62
     7
370
    25
100
AcDbLine
 10
782.819462
 20
7426.794778
 30
0.0
 11
785.319462
 21
7429.294778
 31
0.0
  0
LINE
  5
144
330
128
100
AcDbEntity
  8
LC-004-005-----0
 62
     7
370
    25
100
AcDbLine
 10
782.819462
 20
7429.623205
 30
0.0
 11
785.319462
 21
7432.123205
 31
0.0
  0
LINE
  5
145
330
128
100
AcDbEntity
  8
LC-004-005-----0
 62
     7
370
    25
100
AcDbLine
 10
782.819462
 20
7432.451632
 30
0.0
 11
785.319462
 21
7434.951632
 31
0.0
  0
LINE
  5
146
330
128
100
AcDbEntity
  8
LC-004-005-----0
 62
     7
370
    25
100
AcDbLine
 10
782.819462
 20
7435.280059
 30
0.0
 11
785.319462
 21
7437.780059
 31
0.0
  0
LINE
  5
147
330
128
100
AcDbEntity
  8
LC-004-005-----0
 62
     7
370
    25
100
AcDbLine
 10
782.819462
 20
7438.108486
 30
0.0
 11
785.319462
 21
7440.608486
 31
0.0
  0
LINE
  5
148
330
128
100
AcDbEntity
  8
LC-004-005-----0
 62
     7
370
    25
100
AcDbLine
 10
782.819462
 20
7440.936913
 30
0.0
 11
785.319462
 21
7443.436913
 31
0.0
  0
LINE
  5
149
330
128
100
AcDbEntity
  8
LC-004-005-----0
 62
     7
370
    25
100
AcDbLine
 10
782.819462
 20
7443.765341
 30
0.0
 11
785.319462
 21
7446.265341
 31
0.0
  0
LINE
  5
14A
330
128
100
AcDbEntity
  8
LC-004-005-----0
 62
     7
370
    25
100
AcDbLine
 10
782.819462
 20
7446.593768
 30
0.0
 11
785.319462
 21
7449.093768
 31
0.0
  0
LINE
  5
14B
330
128
100
AcDbEntity
  8
LC-004-005-----0
 62
     7
370
    25
100
AcDbLine
 10
782.819462
 20
7449.422195
 30
0.0
 11
785.319462
 21
7451.922195
 31
0.0
  0
LINE
  5
14C
330
128
100
AcDbEntity
  8
LC-004-005-----0
 62
     7
370
    25
100
AcDbLine
 10
782.819462
 20
7452.250622
 30
0.0
 11
785.319462
 21
7454.750622
 31
0.0
  0
LINE
  5
14D
330
128
100
AcDbEntity
  8
LC-004-005-----0
 62
     7
370
    25
100
AcDbLine
 10
782.819462
 20
7455.079049
 30
0.0
 11
785.319462
 21
7457.579049
 31
0.0
  0
LINE
  5
14E
330
128
100
AcDbEntity
  8
LC-004-005-----0
 62
     7
370
    25
100
AcDbLine
 10
782.819462
 20
7457.907476
 30
0.0
 11
785.319462
 21
7460.407476
 31
0.0
  0
LINE
  5
14F
330
128
100
AcDbEntity
  8
LC-004-005-----0
 62
     7
370
    25
100
AcDbLine
 10
782.819462
 20
7460.735903
 30
0.0
 11
785.319462
 21
7463.235903
 31
0.0
  0
LINE
  5
150
330
128
100
AcDbEntity
  8
LC-004-005-----0
 62
     7
370
    25
100
AcDbLine
 10
785.698728
 20
7463.61517
 30
0.0
 11
785.819462
 21
7463.735903
 31
0.0
  0
LINE
  5
151
330
128
100
AcDbEntity
  8
LC-004-005-----0
 62
     7
370
    25
100
AcDbLine
 10
782.819462
 20
7463.56433
 30
0.0
 11
785.594882
 21
7466.33975
 31
0.0
  0
LINE
  5
152
330
128
100
AcDbEntity
  8
LC-004-005-----0
 62
     7
370
    25
100
AcDbLine
 10
782.819462
 20
7466.392758
 30
0.0
 11
784.069462
 21
7467.642758
 31
0.0
  0
ENDBLK
  5
12A
330
128
100
AcDbEntity
  8
0
100
AcDbBlockEnd
  0
BLOCK
  5
19F
330
19E
100
AcDbEntity
  8
0
100
AcDbBlockBegin
  2
*X510
 70
     1
 71
     0
 10
0.0
 20
0.0
 30
0.0
  3
*X510
  1

  4
*X5
  0
LINE
  5
1A1
330
19E
100
AcDbEntity
  8
LC-004-005-----0
 62
     7
370
    25
100
AcDbLine
 10
787.419462
 20
7468.759315
 30
0.0
 11
786.563607
 21
7469.61517
 31
0.0
  0
LINE
  5
1A2
330
19E
100
AcDbEntity
  8
LC-004-005-----0
 62
     7
370
    25
100
AcDbLine
 10
783.511139
 20
7472.667638
 30
0.0
 11
782.88634
 21
7473.292437
 31
0.0
  0
LINE
  5
1A3
330
19E
100
AcDbEntity
  8
LC-004-005-----0
 62
     7
370
    25
100
AcDbLine
 10
787.419462
 20
7465.930888
 30
0.0
 11
786.419462
 21
7466.930888
 31
0.0
  0
LINE
  5
1A4
330
19E
100
AcDbEntity
  8
LC-004-005-----0
 62
     7
370
    25
100
AcDbLine
 10
784.73518
 20
7468.61517
 30
0.0
 11
782.819462
 21
7470.530888
 31
0.0
  0
LINE
  5
1A5
330
19E
100
AcDbEntity
  8
LC-004-005-----0
 62
     7
370
    25
100
AcDbLine
 10
780.309801
 20
7473.040549
 30
0.0
 11
778.895588
 21
7474.454762
 31
0.0
  0
LINE
  5
1A6
330
19E
100
AcDbEntity
  8
LC-004-005-----0
 62
     7
370
    25
100
AcDbLine
 10
787.419462
 20
7463.102461
 30
0.0
 11
786.419462
 21
7464.102461
 31
0.0
  0
LINE
  5
1A7
330
19E
100
AcDbEntity
  8
LC-004-005-----0
 62
     7
370
    25
100
AcDbLine
 10
776.446098
 20
7474.075825
 30
0.0
 11
775.031884
 21
7475.490038
 31
0.0
  0
LINE
  5
1A8
330
19E
100
AcDbEntity
  8
LC-004-005-----0
 62
     7
370
    25
100
AcDbLine
 10
767.931754
 20
7482.590169
 30
0.0
 11
766.794565
 21
7483.727358
 31
0.0
  0
LINE
  5
1A9
330
19E
100
AcDbEntity
  8
LC-004-005-----0
 62
     7
370
    25
100
AcDbLine
 10
787.748825
 20
7459.94467
 30
0.0
 11
786.136405
 21
7461.557091
 31
0.0
  0
LINE
  5
1AA
330
19E
100
AcDbEntity
  8
LC-004-005-----0
 62
     7
370
    25
100
AcDbLine
 10
772.582395
 20
7475.111101
 30
0.0
 11
771.168181
 21
7476.525315
 31
0.0
  0
LINE
  5
1AB
330
19E
100
AcDbEntity
  8
LC-004-005-----0
 62
     7
370
    25
100
AcDbLine
 10
768.319462
 20
7479.374034
 30
0.0
 11
767.319562
 21
7480.373934
 31
0.0
  0
LINE
  5
1AC
330
19E
100
AcDbEntity
  8
LC-004-005-----0
 62
     7
370
    25
100
AcDbLine
 10
764.682532
 20
7483.010963
 30
0.0
 11
763.923175
 21
7483.770321
 31
0.0
  0
LINE
  5
1AD
330
19E
100
AcDbEntity
  8
LC-004-005-----0
 62
     7
370
    25
100
AcDbLine
 10
768.715848
 20
7476.14922
 30
0.0
 11
767.412855
 21
7477.452213
 31
0.0
  0
LINE
  5
1AE
330
19E
100
AcDbEntity
  8
LC-004-005-----0
 62
     7
370
    25
100
AcDbLine
 10
763.358197
 20
7481.506871
 30
0.0
 11
762.563895
 21
7482.301174
 31
0.0
  0
LINE
  5
1AF
330
19E
100
AcDbEntity
  8
LC-004-005-----0
 62
     7
370
    25
100
AcDbLine
 10
763.274996
 20
7478.761645
 30
0.0
 11
762.324673
 21
7479.711969
 31
0.0
  0
LINE
  5
1B0
330
19E
100
AcDbEntity
  8
LC-004-005-----0
 62
     7
370
    25
100
AcDbLine
 10
762.560318
 20
7476.647896
 30
0.0
 11
761.820245
 21
7477.38797
 31
0.0
  0
ENDBLK
  5
1A0
330
19E
100
AcDbEntity
  8
0
100
AcDbBlockEnd
  0
BLOCK
  5
1BA
330
1B9
100
AcDbEntity
  8
0
100
AcDbBlockBegin
  2
*X611
 70
     1
 71
     0
 10
0.0
 20
0.0
 30
0.0
  3
*X611
  1

  4
*X6
  0
LINE
  5
1BC
330
1B9
100
AcDbEntity
  8
LC-004-005-----0
 62
     7
370
    25
100
AcDbLine
 10
913.29794
 20
7481.473766
 30
0.0
 11
910.678162
 21
7484.093544
 31
0.0
  0
LINE
  5
1BD
330
1B9
100
AcDbEntity
  8
LC-004-005-----0
 62
     7
370
    25
100
AcDbLine
 10
913.422543
 20
7478.520736
 30
0.0
 11
912.315989
 21
7479.62729
 31
0.0
  0
LINE
  5
1BE
330
1B9
100
AcDbEntity
  8
LC-004-005-----0
 62
     7
370
    25
100
AcDbLine
 10
909.182743
 20
7482.760536
 30
0.0
 11
908.467824
 21
7483.475455
 31
0.0
  0
LINE
  5
1BF
330
1B9
100
AcDbEntity
  8
LC-004-005-----0
 62
     7
370
    25
100
AcDbLine
 10
908.319362
 20
7480.79549
 30
0.0
 11
907.383455
 21
7481.731397
 31
0.0
  0
LINE
  5
1C0
330
1B9
100
AcDbEntity
  8
LC-004-005-----0
 62
     7
370
    25
100
AcDbLine
 10
908.31747
 20
7477.968955
 30
0.0
 11
907.319462
 21
7478.966963
 31
0.0
  0
LINE
  5
1C1
330
1B9
100
AcDbEntity
  8
LC-004-005-----0
 62
     7
370
    25
100
AcDbLine
 10
907.198492
 20
7476.259506
 30
0.0
 11
906.412414
 21
7477.045584
 31
0.0
  0
LINE
  5
1C2
330
1B9
100
AcDbEntity
  8
LC-004-005-----0
 62
     7
370
    25
100
AcDbLine
 10
904.9982
 20
7475.63137
 30
0.0
 11
904.181704
 21
7476.447867
 31
0.0
  0
LINE
  5
1C3
330
1B9
100
AcDbEntity
  8
LC-004-005-----0
 62
     7
370
    25
100
AcDbLine
 10
902.76749
 20
7475.033653
 30
0.0
 11
901.950994
 21
7475.85015
 31
0.0
  0
LINE
  5
1C4
330
1B9
100
AcDbEntity
  8
LC-004-005-----0
 62
     7
370
    25
100
AcDbLine
 10
900.53678
 20
7474.435936
 30
0.0
 11
899.720283
 21
7475.252433
 31
0.0
  0
LINE
  5
1C5
330
1B9
100
AcDbEntity
  8
LC-004-005-----0
 62
     7
370
    25
100
AcDbLine
 10
898.30607
 20
7473.838219
 30
0.0
 11
897.489573
 21
7474.654716
 31
0.0
  0
LINE
  5
1C6
330
1B9
100
AcDbEntity
  8
LC-004-005-----0
 62
     7
370
    25
100
AcDbLine
 10
896.07536
 20
7473.240502
 30
0.0
 11
895.258863
 21
7474.056999
 31
0.0
  0
LINE
  5
1C7
330
1B9
100
AcDbEntity
  8
LC-004-005-----0
 62
     7
370
    25
100
AcDbLine
 10
893.84465
 20
7472.642785
 30
0.0
 11
893.043387
 21
7473.444048
 31
0.0
  0
LINE
  5
1C8
330
1B9
100
AcDbEntity
  8
LC-004-005-----0
 62
     7
370
    25
100
AcDbLine
 10
892.819462
 20
7470.839546
 30
0.0
 11
891.832269
 21
7471.826739
 31
0.0
  0
LINE
  5
1C9
330
1B9
100
AcDbEntity
  8
LC-004-005-----0
 62
     7
370
    25
100
AcDbLine
 10
891.38501
 20
7469.445571
 30
0.0
 11
891.215411
 21
7469.61517
 31
0.0
  0
LINE
  5
1CA
330
1B9
100
AcDbEntity
  8
LC-004-005-----0
 62
     7
370
    25
100
AcDbLine
 10
888.556583
 20
7469.445571
 30
0.0
 11
888.459735
 21
7469.542419
 31
0.0
  0
ENDBLK
  5
1BB
330
1B9
100
AcDbEntity
  8
0
100
AcDbBlockEnd
  0
BLOCK
  5
1E3
330
1E2
100
AcDbEntity
  8
0
100
AcDbBlockBegin
  2
*X712
 70
     1
 71
     0
 10
0.0
 20
0.0
 30
0.0
  3
*X712
  1

  4
*X7
  0
LINE
  5
1E5
330
1E2
100
AcDbEntity
  8
LC-004-005-----0
 62
     7
370
    25
100
AcDbLine
 10
836.26222
 20
7358.61517
 30
0.0
 11
837.844462
 21
7360.197411
 31
0.0
  0
LINE
  5
1E6
330
1E2
100
AcDbEntity
  8
LC-004-005-----0
 62
     7
370
    25
100
AcDbLine
 10
830.605366
 20
7358.61517
 30
0.0
 11
837.844462
 21
7365.854266
 31
0.0
  0
LINE
  5
1E7
330
1E2
100
AcDbEntity
  8
LC-004-005-----0
 62
     7
370
    25
100
AcDbLine
 10
824.948512
 20
7358.61517
 30
0.0
 11
837.844462
 21
7371.51112
 31
0.0
  0
LINE
  5
1E8
330
1E2
100
AcDbEntity
  8
LC-004-005-----0
 62
     7
370
    25
100
AcDbLine
 10
819.291657
 20
7358.61517
 30
0.0
 11
833.291657
 21
7372.61517
 31
0.0
  0
LINE
  5
1E9
330
1E2
100
AcDbEntity
  8
LC-004-005-----0
 62
     7
370
    25
100
AcDbLine
 10
813.634803
 20
7358.61517
 30
0.0
 11
827.634803
 21
7372.61517
 31
0.0
  0
LINE
  5
1EA
330
1E2
100
AcDbEntity
  8
LC-004-005-----0
 62
     7
370
    25
100
AcDbLine
 10
807.977949
 20
7358.61517
 30
0.0
 11
821.977949
 21
7372.61517
 31
0.0
  0
LINE
  5
1EB
330
1E2
100
AcDbEntity
  8
LC-004-005-----0
 62
     7
370
    25
100
AcDbLine
 10
802.321095
 20
7358.61517
 30
0.0
 11
816.321095
 21
7372.61517
 31
0.0
  0
LINE
  5
1EC
330
1E2
100
AcDbEntity
  8
LC-004-005-----0
 62
     7
370
    25
100
AcDbLine
 10
796.66424
 20
7358.61517
 30
0.0
 11
810.66424
 21
7372.61517
 31
0.0
  0
LINE
  5
1ED
330
1E2
100
AcDbEntity
  8
LC-004-005-----0
 62
     7
370
    25
100
AcDbLine
 10
791.007386
 20
7358.61517
 30
0.0
 11
805.007386
 21
7372.61517
 31
0.0
  0
LINE
  5
1EE
330
1E2
100
AcDbEntity
  8
LC-004-005-----0
 62
     7
370
    25
100
AcDbLine
 10
785.350532
 20
7358.61517
 30
0.0
 11
799.350532
 21
7372.61517
 31
0.0
  0
LINE
  5
1EF
330
1E2
100
AcDbEntity
  8
LC-004-005-----0
 62
     7
370
    25
100
AcDbLine
 10
785.344462
 20
7364.265954
 30
0.0
 11
793.693678
 21
7372.61517
 31
0.0
  0
LINE
  5
1F0
330
1E2
100
AcDbEntity
  8
LC-004-005-----0
 62
     7
370
    25
100
AcDbLine
 10
785.344462
 20
7369.922808
 30
0.0
 11
788.036823
 21
7372.61517
 31
0.0
  0
LINE
  5
1F1
330
1E2
100
AcDbEntity
  8
LC-004-005-----0
 62
     7
370
    25
100
AcDbLine
 10
837.844462
 20
7370.251054
 30
0.0
 11
835.480346
 21
7372.61517
 31
0.0
  0
LINE
  5
1F2
330
1E2
100
AcDbEntity
  8
LC-004-005-----0
 62
     7
370
    25
100
AcDbLine
 10
837.844462
 20
7364.5942
 30
0.0
 11
829.823492
 21
7372.61517
 31
0.0
  0
LINE
  5
1F3
330
1E2
100
AcDbEntity
  8
LC-004-005-----0
 62
     7
370
    25
100
AcDbLine
 10
837.844462
 20
7358.937346
 30
0.0
 11
824.166638
 21
7372.61517
 31
0.0
  0
LINE
  5
1F4
330
1E2
100
AcDbEntity
  8
LC-004-005-----0
 62
     7
370
    25
100
AcDbLine
 10
832.509783
 20
7358.61517
 30
0.0
 11
818.509783
 21
7372.61517
 31
0.0
  0
LINE
  5
1F5
330
1E2
100
AcDbEntity
  8
LC-004-005-----0
 62
     7
370
    25
100
AcDbLine
 10
826.852929
 20
7358.61517
 30
0.0
 11
812.852929
 21
7372.61517
 31
0.0
  0
LINE
  5
1F6
330
1E2
100
AcDbEntity
  8
LC-004-005-----0
 62
     7
370
    25
100
AcDbLine
 10
821.196075
 20
7358.61517
 30
0.0
 11
807.196075
 21
7372.61517
 31
0.0
  0
LINE
  5
1F7
330
1E2
100
AcDbEntity
  8
LC-004-005-----0
 62
     7
370
    25
100
AcDbLine
 10
815.539221
 20
7358.61517
 30
0.0
 11
801.539221
 21
7372.61517
 31
0.0
  0
LINE
  5
1F8
330
1E2
100
AcDbEntity
  8
LC-004-005-----0
 62
     7
370
    25
100
AcDbLine
 10
809.882366
 20
7358.61517
 30
0.0
 11
795.882366
 21
7372.61517
 31
0.0
  0
LINE
  5
1F9
330
1E2
100
AcDbEntity
  8
LC-004-005-----0
 62
     7
370
    25
100
AcDbLine
 10
804.225512
 20
7358.61517
 30
0.0
 11
790.225512
 21
7372.61517
 31
0.0
  0
LINE
  5
1FA
330
1E2
100
AcDbEntity
  8
LC-004-005-----0
 62
     7
370
    25
100
AcDbLine
 10
798.568658
 20
7358.61517
 30
0.0
 11
785.344462
 21
7371.839366
 31
0.0
  0
LINE
  5
1FB
330
1E2
100
AcDbEntity
  8
LC-004-005-----0
 62
     7
370
    25
100
AcDbLine
 10
792.911804
 20
7358.61517
 30
0.0
 11
785.344462
 21
7366.182512
 31
0.0
  0
LINE
  5
1FC
330
1E2
100
AcDbEntity
  8
LC-004-005-----0
 62
     7
370
    25
100
AcDbLine
 10
787.254949
 20
7358.61517
 30
0.0
 11
785.344462
 21
7360.525657
 31
0.0
  0
ENDBLK
  5
1E4
330
1E2
100
AcDbEntity
  8
0
100
AcDbBlockEnd
  0
BLOCK
  5
1FF
330
1FE
100
AcDbEntity
  8
0
100
AcDbBlockBegin
  2
*X813
 70
     1
 71
     0
 10
0.0
 20
0.0
 30
0.0
  3
*X813
  1

  4
*X8
  0
LINE
  5
201
330
1FE
100
AcDbEntity
  8
LC-004-005-----0
 62
     7
370
    25
100
AcDbLine
 10
887.173908
 20
7358.61517
 30
0.0
 11
890.344462
 21
7361.785723
 31
0.0
  0
LINE
  5
202
330
1FE
100
AcDbEntity
  8
LC-004-005-----0
 62
     7
370
    25
100
AcDbLine
 10
881.517054
 20
7358.61517
 30
0.0
 11
890.344462
 21
7367.442577
 31
0.0
  0
LINE
  5
203
330
1FE
100
AcDbEntity
  8
LC-004-005-----0
 62
     7
370
    25
100
AcDbLine
 10
875.8602
 20
7358.61517
 30
0.0
 11
889.8602
 21
7372.61517
 31
0.0
  0
LINE
  5
204
330
1FE
100
AcDbEntity
  8
LC-004-005-----0
 62
     7
370
    25
100
AcDbLine
 10
870.203346
 20
7358.61517
 30
0.0
 11
884.203346
 21
7372.61517
 31
0.0
  0
LINE
  5
205
330
1FE
100
AcDbEntity
  8
LC-004-005-----0
 62
     7
370
    25
100
AcDbLine
 10
864.546491
 20
7358.61517
 30
0.0
 11
878.546491
 21
7372.61517
 31
0.0
  0
LINE
  5
206
330
1FE
100
AcDbEntity
  8
LC-004-005-----0
 62
     7
370
    25
100
AcDbLine
 10
858.889637
 20
7358.61517
 30
0.0
 11
872.889637
 21
7372.61517
 31
0.0
  0
LINE
  5
207
330
1FE
100
AcDbEntity
  8
LC-004-005-----0
 62
     7
370
    25
100
AcDbLine
 10
853.232783
 20
7358.61517
 30
0.0
 11
867.232783
 21
7372.61517
 31
0.0
  0
LINE
  5
208
330
1FE
100
AcDbEntity
  8
LC-004-005-----0
 62
     7
370
    25
100
AcDbLine
 10
847.575929
 20
7358.61517
 30
0.0
 11
861.575929
 21
7372.61517
 31
0.0
  0
LINE
  5
209
330
1FE
100
AcDbEntity
  8
LC-004-005-----0
 62
     7
370
    25
100
AcDbLine
 10
841.919074
 20
7358.61517
 30
0.0
 11
855.919074
 21
7372.61517
 31
0.0
  0
LINE
  5
20A
330
1FE
100
AcDbEntity
  8
LC-004-005-----0
 62
     7
370
    25
100
AcDbLine
 10
837.844462
 20
7360.197411
 30
0.0
 11
850.26222
 21
7372.61517
 31
0.0
  0
LINE
  5
20B
330
1FE
100
AcDbEntity
  8
LC-004-005-----0
 62
     7
370
    25
100
AcDbLine
 10
837.844462
 20
7365.854266
 30
0.0
 11
844.605366
 21
7372.61517
 31
0.0
  0
LINE
  5
20C
330
1FE
100
AcDbEntity
  8
LC-004-005-----0
 62
     7
370
    25
100
AcDbLine
 10
837.844462
 20
7371.51112
 30
0.0
 11
838.948512
 21
7372.61517
 31
0.0
  0
LINE
  5
20D
330
1FE
100
AcDbEntity
  8
LC-004-005-----0
 62
     7
370
    25
100
AcDbLine
 10
890.344462
 20
7368.662742
 30
0.0
 11
886.392034
 21
7372.61517
 31
0.0
  0
LINE
  5
20E
330
1FE
100
AcDbEntity
  8
LC-004-005-----0
 62
     7
370
    25
100
AcDbLine
 10
890.344462
 20
7363.005888
 30
0.0
 11
880.73518
 21
7372.61517
 31
0.0
  0
LINE
  5
20F
330
1FE
100
AcDbEntity
  8
LC-004-005-----0
 62
     7
370
    25
100
AcDbLine
 10
889.078326
 20
7358.61517
 30
0.0
 11
875.078326
 21
7372.61517
 31
0.0
  0
LINE
  5
210
330
1FE
100
AcDbEntity
  8
LC-004-005-----0
 62
     7
370
    25
100
AcDbLine
 10
883.421472
 20
7358.61517
 30
0.0
 11
869.421472
 21
7372.61517
 31
0.0
  0
LINE
  5
211
330
1FE
100
AcDbEntity
  8
LC-004-005-----0
 62
     7
370
    25
100
AcDbLine
 10
877.764617
 20
7358.61517
 30
0.0
 11
863.764617
 21
7372.61517
 31
0.0
  0
LINE
  5
212
330
1FE
100
AcDbEntity
  8
LC-004-005-----0
 62
     7
370
    25
100
AcDbLine
 10
872.107763
 20
7358.61517
 30
0.0
 11
858.107763
 21
7372.61517
 31
0.0
  0
LINE
  5
213
330
1FE
100
AcDbEntity
  8
LC-004-005-----0
 62
     7
370
    25
100
AcDbLine
 10
866.450909
 20
7358.61517
 30
0.0
 11
852.450909
 21
7372.61517
 31
0.0
  0
LINE
  5
214
330
1FE
100
AcDbEntity
  8
LC-004-005-----0
 62
     7
370
    25
100
AcDbLine
 10
860.794055
 20
7358.61517
 30
0.0
 11
846.794055
 21
7372.61517
 31
0.0
  0
LINE
  5
215
330
1FE
100
AcDbEntity
  8
LC-004-005-----0
 62
     7
370
    25
100
AcDbLine
 10
855.1372
 20
7358.61517
 30
0.0
 11
841.1372
 21
7372.61517
 31
0.0
  0
LINE
  5
216
330
1FE
100
AcDbEntity
  8
LC-004-005-----0
 62
     7
370
    25
100
AcDbLine
 10
849.480346
 20
7358.61517
 30
0.0
 11
837.844462
 21
7370.251054
 31
0.0
  0
LINE
  5
217
330
1FE
100
AcDbEntity
  8
LC-004-005-----0
 62
     7
370
    25
100
AcDbLine
 10
843.823492
 20
7358.61517
 30
0.0
 11
837.844462
 21
7364.5942
 31
0.0
  0
LINE
  5
218
330
1FE
100
AcDbEntity
  8
LC-004-005-----0
 62
     7
370
    25
100
AcDbLine
 10
838.166638
 20
7358.61517
 30
0.0
 11
837.844462
 21
7358.937346
 31
0.0
  0
ENDBLK
  5
200
330
1FE
100
AcDbEntity
  8
0
100
AcDbBlockEnd
  0
ENDSEC
  0
SECTION
  2
ENTITIES
  0
ARC
  5
31
330
1F
100
AcDbEntity
  8
LC-001-002-RND-0
 62
     7
370
    50
100
AcDbCircle
 10
1000.819462
 20
7486.265183
 30
0.0
 40
5.0
100
AcDbArc
 50
90.0
 51
180.0
  0
ARC
  5
32
330
1F
100
AcDbEntity
  8
LC-001-002-RND-0
 62
     7
370
    50
100
AcDbCircle
 10
1000.819462
 20
7486.265183
 30
0.0
 40
4.0
100
AcDbArc
 50
90.0
 51
180.0
  0
ARC
  5
34
330
1F
100
AcDbEntity
  8
LC-002-002-----0
 62
     7
370
    50
100
AcDbCircle
 10
1072.319462
 20
7414.765183
 30
0.0
 40
72.49999999999994
100
AcDbArc
 50
106.540107
 51
163.459893
  0
ARC
  5
35
330
1F
100
AcDbEntity
  8
LC-002-002-----0
 62
     7
370
    50
100
AcDbCircle
 10
1072.319462
 20
7414.765183
 30
0.0
 40
72.4999999999998
100
AcDbArc
 50
16.540107
 51
73.459893
  0
ARC
  5
36
330
1F
100
AcDbEntity
  8
LC-002-002-----0
 62
     7
370
    50
100
AcDbCircle
 10
1072.319462
 20
7414.765183
 30
0.0
 40
72.4999999999998
100
AcDbArc
 50
286.540107
 51
343.459893
  0
ARC
  5
37
330
1F
100
AcDbEntity
  8
LC-002-002-----0
 62
     7
370
    50
100
AcDbCircle
 10
1072.319462
 20
7414.765183
 30
0.0
 40
72.50000000000013
100
AcDbArc
 50
196.540107
 51
253.459893
  0
LINE
  5
38
330
1F
100
AcDbEntity
  8
LC-002-002-----0
 62
     7
370
    50
100
AcDbLine
 10
1000.819462
 20
7490.265183
 30
0.0
 11
1143.819462
 21
7490.265183
 31
0.0
  0
LINE
  5
39
330
1F
100
AcDbEntity
  8
LC-002-002-----0
 62
     7
370
    50
100
AcDbLine
 10
1143.819462
 20
7491.265183
 30
0.0
 11
1000.819462
 21
7491.265183
 31
0.0
  0
LINE
  5
3A
330
1F
100
AcDbEntity
  8
LC-002-002-----0
 62
     7
370
    50
100
AcDbLine
 10
995.819462
 20
7486.265183
 30
0.0
 11
995.819462
 21
7343.265183
 31
0.0
  0
LINE
  5
3B
330
1F
100
AcDbEntity
  8
LC-002-002-----0
 62
     7
370
    50
100
AcDbLine
 10
996.819462
 20
7343.265183
 30
0.0
 11
996.819462
 21
7486.265183
 31
0.0
  0
ARC
  5
3C
330
1F
100
AcDbEntity
  8
LC-001-002-RND-0
 62
     7
370
    50
100
AcDbCircle
 10
1143.819462
 20
7486.265183
 30
0.0
 40
4.0
100
AcDbArc
 50
0.0
 51
90.0
  0
ARC
  5
3D
330
1F
100
AcDbEntity
  8
LC-001-002-RND-0
 62
     7
370
    50
100
AcDbCircle
 10
1143.819462
 20
7486.265183
 30
0.0
 40
5.0
100
AcDbArc
 50
0.0
 51
90.0
  0
LINE
  5
3E
330
1F
100
AcDbEntity
  8
LC-002-002-----0
 62
     7
370
    50
100
AcDbLine
 10
1147.819462
 20
7486.265183
 30
0.0
 11
1147.819462
 21
7343.265183
 31
0.0
  0
LINE
  5
3F
330
1F
100
AcDbEntity
  8
LC-002-002-----0
 62
     7
370
    50
100
AcDbLine
 10
1148.819462
 20
7343.265183
 30
0.0
 11
1148.819462
 21
7486.265183
 31
0.0
  0
ARC
  5
40
330
1F
100
AcDbEntity
  8
LC-001-002-RND-0
 62
     7
370
    50
100
AcDbCircle
 10
1143.819462
 20
7343.265183
 30
0.0
 40
4.0
100
AcDbArc
 50
270.0
 51
0.0
  0
ARC
  5
41
330
1F
100
AcDbEntity
  8
LC-001-002-RND-0
 62
     7
370
    50
100
AcDbCircle
 10
1143.819462
 20
7343.265183
 30
0.0
 40
5.0
100
AcDbArc
 50
270.0
 51
0.0
  0
LINE
  5
42
330
1F
100
AcDbEntity
  8
LC-002-002-----0
 62
     7
370
    50
100
AcDbLine
 10
1143.819462
 20
7339.265183
 30
0.0
 11
1000.819462
 21
7339.265183
 31
0.0
  0
LINE
  5
43
330
1F
100
AcDbEntity
  8
LC-002-002-----0
 62
     7
370
    50
100
AcDbLine
 10
1000.819462
 20
7338.265183
 30
0.0
 11
1143.819462
 21
7338.265183
 31
0.0
  0
ARC
  5
44
330
1F
100
AcDbEntity
  8
LC-001-002-RND-0
 62
     7
370
    50
100
AcDbCircle
 10
1000.819462
 20
7343.265183
 30
0.0
 40
4.0
100
AcDbArc
 50
180.0
 51
270.0
  0
ARC
  5
45
330
1F
100
AcDbEntity
  8
LC-001-002-RND-0
 62
     7
370
    50
100
AcDbCircle
 10
1000.819462
 20
7343.265183
 30
0.0
 40
5.0
100
AcDbArc
 50
180.0
 51
270.0
  0
ARC
  5
46
330
1F
100
AcDbEntity
  8
LC-002-002-----0
 62
     7
370
    25
100
AcDbCircle
 10
1131.319462
 20
7355.765183
 30
0.0
 40
2.999999999999756
100
AcDbArc
 50
80.405932
 51
9.594068
  0
ARC
  5
47
330
1F
100
AcDbEntity
  8
LC-002-002-----0
 62
     7
370
    25
100
AcDbCircle
 10
1013.319462
 20
7473.765183
 30
0.0
 40
3.000000000000653
100
AcDbArc
 50
80.405932
 51
9.594068
  0
CIRCLE
  5
48
330
1F
100
AcDbEntity
  8
LC-002-002-----0
 62
     7
370
    50
100
AcDbCircle
 10
1072.319462
 20
7414.765183
 30
0.0
 40
46.09999999999627
  0
ARC
  5
49
102
{ACAD_REACTORS
330
21B
102
}
330
1F
100
AcDbEntity
  8
LC-001-002-RND-0
 62
     7
370
    50
100
AcDbCircle
 10
1005.819462
 20
7348.265183
 30
0.0
 40
3.0
100
AcDbArc
 50
180.0
 51
270.0
  0
ARC
  5
4A
102
{ACAD_REACTORS
330
21B
102
}
330
1F
100
AcDbEntity
  8
LC-001-002-RND-0
 62
     7
370
    50
100
AcDbCircle
 10
1005.819462
 20
7481.265183
 30
0.0
 40
3.0
100
AcDbArc
 50
90.0
 51
180.0
  0
CIRCLE
  5
4B
330
1F
100
AcDbEntity
  8
LC-002-002-----0
 62
     7
370
    50
100
AcDbCircle
 10
1072.319462
 20
7414.765183
 30
0.0
 40
42.19999999999664
  0
LINE
  5
4C
102
{ACAD_REACTORS
330
21B
102
}
330
1F
100
AcDbEntity
  8
LC-002-002-----0
 62
     7
370
    50
100
AcDbLine
 10
1005.819462
 20
7484.265183
 30
0.0
 11
1138.819462
 21
7484.265183
 31
0.0
  0
LINE
  5
4D
102
{ACAD_REACTORS
330
21B
102
}
330
1F
100
AcDbEntity
  8
LC-002-002-----0
 62
     7
370
    50
100
AcDbLine
 10
1002.819462
 20
7348.265183
 30
0.0
 11
1002.819462
 21
7481.265183
 31
0.0
  0
LINE
  5
4E
102
{ACAD_REACTORS
330
21B
102
}
330
1F
100
AcDbEntity
  8
LC-002-002-----0
 62
     7
370
    50
100
AcDbLine
 10
1138.819462
 20
7345.265183
 30
0.0
 11
1005.819462
 21
7345.265183
 31
0.0
  0
LINE
  5
4F
102
{ACAD_REACTORS
330
21B
102
}
330
1F
100
AcDbEntity
  8
LC-002-002-----0
 62
     7
370
    50
100
AcDbLine
 10
1141.819462
 20
7481.265183
 30
0.0
 11
1141.819462
 21
7348.265183
 31
0.0
  0
ARC
  5
50
102
{ACAD_REACTORS
330
21B
102
}
330
1F
100
AcDbEntity
  8
LC-001-002-RND-0
 62
     7
370
    50
100
AcDbCircle
 10
1138.819462
 20
7481.265183
 30
0.0
 40
2.999999999999545
100
AcDbArc
 50
360.0
 51
90.0
  0
ARC
  5
51
102
{ACAD_REACTORS
330
21B
102
}
330
1F
100
AcDbEntity
  8
LC-001-002-RND-0
 62
     7
370
    50
100
AcDbCircle
 10
1138.819462
 20
7348.265183
 30
0.0
 40
3.0
100
AcDbArc
 50
270.0
 51
360.0
  0
CIRCLE
  5
52
102
{ACAD_REACTORS
330
21B
102
}
330
1F
100
AcDbEntity
  8
LC-002-002-----0
 62
     7
370
    50
100
AcDbCircle
 10
1013.319462
 20
7473.765183
 30
0.0
 40
2.499999999999457
  0
CIRCLE
  5
53
102
{ACAD_REACTORS
330
21B
102
}
330
1F
100
AcDbEntity
  8
LC-002-002-----0
 62
     7
370
    50
100
AcDbCircle
 10
1131.319462
 20
7355.765183
 30
0.0
 40
2.499999999999779
  0
LINE
  5
54
330
1F
100
AcDbEntity
  8
LC-002-002-----0
 62
     7
370
    25
100
AcDbLine
 10
811.021948
 20
7550.069
 30
0.0
 11
811.021948
 21
7535.069
 31
0.0
  0
LINE
  5
55
330
1F
100
AcDbEntity
  8
LC-002-002-----0
 62
     7
370
    25
100
AcDbLine
 10
796.021948
 20
7550.069
 30
0.0
 11
811.021948
 21
7550.069
 31
0.0
  0
LINE
  5
57
330
1F
100
AcDbEntity
  8
LC-002-002-----0
  6
DASHDOT
 62
     7
370
    25
100
AcDbLine
 10
837.819462
 20
7355.615195
 30
0.0
 11
837.819462
 21
7479.115066
 31
0.0
  0
DIMENSION
  5
5B
330
1F
100
AcDbEntity
  8
LC-003-003-----0
 62
     7
370
    25
100
AcDbDimension
  2
*D1
 10
892.818977
 20
7308.161
 30
0.0
 11
838.118479
 21
7338.961
 31
0.0
 70
   160
  1
%%c110
 71
     5
 42
109.999515
  3
LC-DIM-L-0140-02-02
100
AcDbAlignedDimension
 13
782.819462
 23
7359.61517
 33
0.0
 14
892.818977
 24
7365.615111
 34
0.0
100
AcDbRotatedDimension
  0
LINE
  5
69
330
1F
100
AcDbEntity
  8
LC-002-002-----0
 62
     7
370
    25
100
AcDbLine
 10
796.021948
 20
7535.069
 30
0.0
 11
811.021948
 21
7535.069
 31
0.0
  0
LINE
  5
6A
102
{ACAD_REACTORS
330
21A
102
}
330
1F
100
AcDbEntity
  8
LC-002-002-----0
 62
     7
370
    50
100
AcDbLine
 10
892.818953
 20
7373.615005
 30
0.0
 11
892.818977
 21
7365.615111
 31
0.0
  0
LINE
  5
6B
102
{ACAD_REACTORS
330
21A
102
}
330
1F
100
AcDbEntity
  8
LC-002-002-----0
 62
     7
370
    50
100
AcDbLine
 10
889.819024
 20
7355.615195
 30
0.0
 11
897.819069
 21
7355.615195
 31
0.0
  0
LINE
  5
6C
102
{ACAD_REACTORS
330
21A
102
}
330
1F
100
AcDbEntity
  8
LC-002-002-----0
 62
     7
370
    50
100
AcDbLine
 10
802.126171
 20
7355.615195
 30
0.0
 11
802.126171
 21
7358.61517
 31
0.0
  0
LINE
  5
6D
102
{ACAD_REACTORS
330
21A
102
}
330
1F
100
AcDbEntity
  8
LC-002-002-----0
 62
     7
370
    50
100
AcDbLine
 10
800.004869
 20
7355.615195
 30
0.0
 11
800.004869
 21
7358.61517
 31
0.0
  0
LINE
  5
6E
102
{ACAD_REACTORS
330
21A
102
}
330
1F
100
AcDbEntity
  8
LC-002-002-----0
 62
     7
370
    50
100
AcDbLine
 10
897.819069
 20
7355.615195
 30
0.0
 11
897.819069
 21
7365.614421
 31
0.0
  0
LINE
  5
6F
102
{ACAD_REACTORS
330
21A
102
}
330
1F
100
AcDbEntity
  8
LC-002-002-----0
 62
     7
370
    50
100
AcDbLine
 10
894.818975
 20
7375.615027
 30
0.0
 11
894.818975
 21
7365.615111
 31
0.0
  0
LINE
  5
70
102
{ACAD_REACTORS
330
21A
102
}
330
1F
100
AcDbEntity
  8
LC-002-002-----0
 62
     7
370
    50
100
AcDbLine
 10
896.319081
 20
7365.615111
 30
0.0
 11
897.819069
 21
7365.615111
 31
0.0
  0
LINE
  5
71
102
{ACAD_REACTORS
330
21A
102
}
330
1F
100
AcDbEntity
  8
LC-002-002-----0
 62
     7
370
    50
100
AcDbLine
 10
894.818975
 20
7375.615027
 30
0.0
 11
892.818953
 21
7373.615005
 31
0.0
  0
LINE
  5
72
102
{ACAD_REACTORS
330
21A
102
}
330
1F
100
AcDbEntity
  8
LC-002-002-----0
 62
     7
370
    50
100
AcDbLine
 10
896.319081
 20
7365.615111
 30
0.0
 11
894.818975
 21
7365.615111
 31
0.0
  0
LINE
  5
73
102
{ACAD_REACTORS
330
21A
102
}
330
1F
100
AcDbEntity
  8
LC-002-002-----0
 62
     7
370
    50
100
AcDbLine
 10
836.319474
 20
7358.61517
 30
0.0
 11
839.319449
 21
7358.61517
 31
0.0
  0
LINE
  5
74
102
{ACAD_REACTORS
330
21A
102
}
330
1F
100
AcDbEntity
  8
LC-002-002-----0
 62
     7
370
    50
100
AcDbLine
 10
839.319449
 20
7355.615195
 30
0.0
 11
839.319449
 21
7358.61517
 31
0.0
  0
LINE
  5
75
102
{ACAD_REACTORS
330
21A
102
}
330
1F
100
AcDbEntity
  8
LC-002-002-----0
 62
     7
370
    50
100
AcDbLine
 10
795.404999
 20
7355.615195
 30
0.0
 11
795.404999
 21
7358.61517
 31
0.0
  0
LINE
  5
76
102
{ACAD_REACTORS
330
21A
102
}
330
1F
100
AcDbEntity
  8
LC-002-002-----0
 62
     7
370
    50
100
AcDbLine
 10
795.404999
 20
7358.61517
 30
0.0
 11
802.126171
 21
7358.61517
 31
0.0
  0
LINE
  5
77
102
{ACAD_REACTORS
330
21A
102
}
330
1F
100
AcDbEntity
  8
LC-002-002-----0
 62
     7
370
    50
100
AcDbLine
 10
785.8199
 20
7355.615195
 30
0.0
 11
839.319449
 21
7355.615195
 31
0.0
  0
LINE
  5
78
102
{ACAD_REACTORS
330
21A
102
}
330
1F
100
AcDbEntity
  8
LC-002-002-----0
 62
     7
370
    50
100
AcDbLine
 10
839.319449
 20
7355.615195
 30
0.0
 11
873.512753
 21
7355.615195
 31
0.0
  0
LINE
  5
79
102
{ACAD_REACTORS
330
21A
102
}
330
1F
100
AcDbEntity
  8
LC-002-002-----0
 62
     7
370
    50
100
AcDbLine
 10
873.512753
 20
7355.615195
 30
0.0
 11
889.797385
 21
7355.615195
 31
0.0
  0
LINE
  5
7A
102
{ACAD_REACTORS
330
21A
102
}
330
1F
100
AcDbEntity
  8
LC-002-002-----0
 62
     7
370
    50
100
AcDbLine
 10
836.319474
 20
7355.615195
 30
0.0
 11
836.319474
 21
7358.61517
 31
0.0
  0
INSERT
  5
89
102
{ACAD_REACTORS
330
21A
102
}
330
1F
100
AcDbEntity
  8
LC-004-005-----0
 62
     7
370
    25
100
AcDbBlockReference
  2
*X12
 10
0.0
 20
0.0
 30
0.0
  0
LINE
  5
8A
102
{ACAD_REACTORS
330
21A
102
}
330
1F
100
AcDbEntity
  8
LC-002-002-----0
 62
     7
370
    50
100
AcDbLine
 10
782.819971
 20
7373.615005
 30
0.0
 11
782.819925
 21
7358.61517
 31
0.0
  0
LINE
  5
8B
102
{ACAD_REACTORS
330
21A
102
}
330
1F
100
AcDbEntity
  8
LC-002-002-----0
 62
     7
370
    50
100
AcDbLine
 10
785.8199
 20
7355.615195
 30
0.0
 11
777.819855
 21
7355.615195
 31
0.0
  0
LINE
  5
8C
102
{ACAD_REACTORS
330
21A
102
}
330
1F
100
AcDbEntity
  8
LC-002-002-----0
 62
     7
370
    50
100
AcDbLine
 10
777.819855
 20
7355.615195
 30
0.0
 11
777.819855
 21
7365.614421
 31
0.0
  0
LINE
  5
8D
102
{ACAD_REACTORS
330
21A
102
}
330
1F
100
AcDbEntity
  8
LC-002-002-----0
 62
     7
370
    50
100
AcDbLine
 10
780.819949
 20
7375.615027
 30
0.0
 11
780.819949
 21
7365.615111
 31
0.0
  0
LINE
  5
8E
102
{ACAD_REACTORS
330
21A
102
}
330
1F
100
AcDbEntity
  8
LC-002-002-----0
 62
     7
370
    50
100
AcDbLine
 10
779.319842
 20
7365.615111
 30
0.0
 11
777.819855
 21
7365.615111
 31
0.0
  0
LINE
  5
8F
102
{ACAD_REACTORS
330
21A
102
}
330
1F
100
AcDbEntity
  8
LC-002-002-----0
 62
     7
370
    50
100
AcDbLine
 10
780.819949
 20
7375.615027
 30
0.0
 11
782.819971
 21
7373.615005
 31
0.0
  0
LINE
  5
90
102
{ACAD_REACTORS
330
21A
102
}
330
1F
100
AcDbEntity
  8
LC-002-002-----0
 62
     7
370
    50
100
AcDbLine
 10
782.819925
 20
7358.61517
 30
0.0
 11
785.8199
 21
7358.61517
 31
0.0
  0
LINE
  5
91
102
{ACAD_REACTORS
330
21A
102
}
330
1F
100
AcDbEntity
  8
LC-002-002-----0
 62
     7
370
    50
100
AcDbLine
 10
785.8199
 20
7358.61517
 30
0.0
 11
785.8199
 21
7355.615195
 31
0.0
  0
LINE
  5
92
102
{ACAD_REACTORS
330
21A
102
}
330
1F
100
AcDbEntity
  8
LC-002-002-----0
 62
     7
370
    50
100
AcDbLine
 10
779.319842
 20
7365.615111
 30
0.0
 11
780.819949
 21
7365.615111
 31
0.0
  0
INSERT
  5
9F
102
{ACAD_REACTORS
330
21A
102
}
330
1F
100
AcDbEntity
  8
LC-004-005-----0
 62
     7
370
    25
100
AcDbBlockReference
  2
*X23
 10
0.0
 20
0.0
 30
0.0
  0
LINE
  5
A0
102
{ACAD_REACTORS
330
21A
102
}
330
1F
100
AcDbEntity
  8
LC-002-002-----0
 62
     7
370
    50
100
AcDbLine
 10
892.818999
 20
7358.61517
 30
0.0
 11
889.819024
 21
7358.61517
 31
0.0
  0
LINE
  5
A1
102
{ACAD_REACTORS
330
21A
102
}
330
1F
100
AcDbEntity
  8
LC-002-002-----0
 62
     7
370
    50
100
AcDbLine
 10
889.819024
 20
7358.61517
 30
0.0
 11
889.819024
 21
7355.615195
 31
0.0
  0
LINE
  5
A2
102
{ACAD_REACTORS
330
21A
102
}
330
1F
100
AcDbEntity
  8
LC-002-002-----0
 62
     7
370
    50
100
AcDbLine
 10
892.818953
 20
7373.615005
 30
0.0
 11
892.818999
 21
7358.61517
 31
0.0
  0
LINE
  5
A3
102
{ACAD_REACTORS
330
21A
102
}
330
1F
100
AcDbEntity
  8
LC-002-002-----0
 62
     7
370
    50
100
AcDbLine
 10
894.818975
 20
7375.615027
 30
0.0
 11
892.818953
 21
7373.615005
 31
0.0
  0
LINE
  5
A4
102
{ACAD_REACTORS
330
21A
102
}
330
1F
100
AcDbEntity
  8
LC-002-002-----0
 62
     7
370
    50
100
AcDbLine
 10
894.818975
 20
7375.615027
 30
0.0
 11
894.818975
 21
7365.615111
 31
0.0
  0
LINE
  5
A5
102
{ACAD_REACTORS
330
21A
102
}
330
1F
100
AcDbEntity
  8
LC-002-002-----0
 62
     7
370
    50
100
AcDbLine
 10
897.819069
 20
7355.615195
 30
0.0
 11
897.819069
 21
7365.614421
 31
0.0
  0
LINE
  5
A6
102
{ACAD_REACTORS
330
21A
102
}
330
1F
100
AcDbEntity
  8
LC-002-002-----0
 62
     7
370
    50
100
AcDbLine
 10
889.819024
 20
7355.615195
 30
0.0
 11
897.819069
 21
7355.615195
 31
0.0
  0
LINE
  5
A7
102
{ACAD_REACTORS
330
21A
102
}
330
1F
100
AcDbEntity
  8
LC-002-002-----0
 62
     7
370
    50
100
AcDbLine
 10
880.233924
 20
7355.615195
 30
0.0
 11
880.233924
 21
7358.61517
 31
0.0
  0
LINE
  5
A8
102
{ACAD_REACTORS
330
21A
102
}
330
1F
100
AcDbEntity
  8
LC-002-002-----0
 62
     7
370
    50
100
AcDbLine
 10
880.233924
 20
7358.61517
 30
0.0
 11
873.512753
 21
7358.61517
 31
0.0
  0
LINE
  5
A9
102
{ACAD_REACTORS
330
21A
102
}
330
1F
100
AcDbEntity
  8
LC-002-002-----0
 62
     7
370
    50
100
AcDbLine
 10
875.634055
 20
7355.615195
 30
0.0
 11
875.634055
 21
7358.61517
 31
0.0
  0
LINE
  5
AA
102
{ACAD_REACTORS
330
21A
102
}
330
1F
100
AcDbEntity
  8
LC-002-002-----0
 62
     7
370
    50
100
AcDbLine
 10
873.512753
 20
7355.615195
 30
0.0
 11
873.512753
 21
7358.61517
 31
0.0
  0
LINE
  5
AB
330
1F
100
AcDbEntity
  8
LC-002-002-----0
 62
     7
370
    25
100
AcDbLine
 10
796.021948
 20
7535.069
 30
0.0
 11
796.021948
 21
7550.069
 31
0.0
  0
DIMENSION
  5
AC
330
1F
100
AcDbEntity
  8
LC-003-003-----0
 62
     7
370
    25
100
AcDbDimension
  2
*D4
 10
930.311808
 20
7372.61517
 30
0.0
 11
899.511808
 21
7371.125
 31
0.0
 70
   160
 71
     5
 42
14.0
 53
90.0
  3
LC-DIM-L-0140-02-02
100
AcDbAlignedDimension
 13
889.819024
 23
7358.61517
 33
0.0
 14
890.319462
 24
7372.61517
 34
0.0
 50
90.0
100
AcDbRotatedDimension
  0
DIMENSION
  5
BB
330
1F
100
AcDbEntity
  8
LC-003-003-----0
 62
     7
370
    25
100
AcDbDimension
  2
*D5
 10
980.0
 20
7484.115066
 30
0.0
 11
949.2
 21
7428.365118
 31
0.0
 70
   160
  1
14-111
 71
     5
 42
111.499896
 53
90.0
  3
LC-DIM-L-0140-02-02
100
AcDbAlignedDimension
 13
890.319462
 23
7372.61517
 33
0.0
 14
910.319462
 24
7484.115066
 34
0.0
 50
90.0
100
AcDbRotatedDimension
  0
DIMENSION
  5
C8
330
1F
100
AcDbEntity
  8
LC-003-003-----0
 62
     7
370
    25
100
AcDbDimension
  2
*D6
 10
744.8
 20
7475.115066
 30
0.0
 11
714.0
 21
7437.653
 31
0.0
 70
   160
 71
     5
 42
9.0
 53
90.0
  3
LC-DIM-L-0140-02-02
100
AcDbAlignedDimension
 13
765.319462
 23
7484.115066
 33
0.0
 14
761.328738
 24
7475.115066
 34
0.0
 50
90.0
100
AcDbRotatedDimension
  0
DIMENSION
  5
D6
330
1F
100
AcDbEntity
  8
LC-003-003-----0
 62
     7
370
    25
100
AcDbDimension
  2
*D7
 10
913.314251
 20
7520.813
 30
0.0
 11
850.52912
 21
7551.613
 31
0.0
 70
   160
  1
150
 71
     5
 42
150.989578
  3
LC-DIM-L-0140-02-02
100
AcDbAlignedDimension
 13
762.324673
 23
7481.291809
 33
0.0
 14
913.314251
 24
7480.296995
 34
0.0
100
AcDbRotatedDimension
  0
LINE
  5
E3
102
{ACAD_REACTORS
330
21C
102
}
330
1F
100
AcDbEntity
  8
LC-002-002-----0
 62
     7
370
    50
100
AcDbLine
 10
890.319462
 20
7463.61517
 30
0.0
 11
890.319462
 21
7358.61517
 31
0.0
  0
LINE
  5
E4
102
{ACAD_REACTORS
330
21C
102
}
330
1F
100
AcDbEntity
  8
LC-002-002-----0
 62
     7
370
    50
100
AcDbLine
 10
837.819462
 20
7358.61517
 30
0.0
 11
785.319462
 21
7358.61517
 31
0.0
  0
LINE
  5
E5
102
{ACAD_REACTORS
330
21C
102
}
330
1F
100
AcDbEntity
  8
LC-002-002-----0
 62
     7
370
    50
100
AcDbLine
 10
892.819462
 20
7360.61517
 30
0.0
 11
892.283563
 21
7358.61517
 31
0.0
  0
LINE
  5
E6
102
{ACAD_REACTORS
330
21C
102
}
330
1F
100
AcDbEntity
  8
LC-002-002-----0
 62
     7
370
    50
100
AcDbLine
 10
837.819462
 20
7358.61517
 30
0.0
 11
890.319462
 21
7358.61517
 31
0.0
  0
LINE
  5
E7
102
{ACAD_REACTORS
330
21C
102
}
330
1F
100
AcDbEntity
  8
LC-002-002-----0
 62
     7
370
    50
100
AcDbLine
 10
891.569462
 20
7466.91517
 30
0.0
 11
891.569462
 21
7468.61517
 31
0.0
  0
LINE
  5
E8
102
{ACAD_REACTORS
330
21C
102
}
330
1F
100
AcDbEntity
  8
LC-002-002-----0
 62
     7
370
    50
100
AcDbLine
 10
782.819462
 20
7360.61517
 30
0.0
 11
783.35536
 21
7358.61517
 31
0.0
  0
LINE
  5
E9
102
{ACAD_REACTORS
330
21C
102
}
330
1F
100
AcDbEntity
  8
LC-002-002-----0
 62
     7
370
    50
100
AcDbLine
 10
785.319462
 20
7463.61517
 30
0.0
 11
785.319462
 21
7358.61517
 31
0.0
  0
LINE
  5
EA
102
{ACAD_REACTORS
330
21C
102
}
330
1F
100
AcDbEntity
  8
LC-002-002-----0
 62
     7
370
    50
100
AcDbLine
 10
784.069462
 20
7466.91517
 30
0.0
 11
784.069462
 21
7468.61517
 31
0.0
  0
LINE
  5
EB
102
{ACAD_REACTORS
330
21C
102
}
330
1F
100
AcDbEntity
  8
LC-002-002-----0
 62
     7
370
    50
100
AcDbLine
 10
890.319462
 20
7463.61517
 30
0.0
 11
889.569462
 21
7463.61517
 31
0.0
  0
LINE
  5
EC
102
{ACAD_REACTORS
330
21C
102
}
330
1F
100
AcDbEntity
  8
LC-002-002-----0
 62
     7
370
    50
100
AcDbLine
 10
785.319462
 20
7463.61517
 30
0.0
 11
785.819462
 21
7463.61517
 31
0.0
  0
LINE
  5
ED
102
{ACAD_REACTORS
330
21C
102
}
330
1F
100
AcDbEntity
  8
LC-002-002-----0
 62
     7
370
    50
100
AcDbLine
 10
783.35536
 20
7358.61517
 30
0.0
 11
785.319462
 21
7358.61517
 31
0.0
  0
LINE
  5
EE
102
{ACAD_REACTORS
330
21C
102
}
330
1F
100
AcDbEntity
  8
LC-002-002-----0
 62
     7
370
    50
100
AcDbLine
 10
782.819462
 20
7468.61517
 30
0.0
 11
782.819462
 21
7360.61517
 31
0.0
  0
LINE
  5
EF
102
{ACAD_REACTORS
330
21C
102
}
330
1F
100
AcDbEntity
  8
LC-002-002-----0
 62
     7
370
    50
100
AcDbLine
 10
890.319462
 20
7466.61517
 30
0.0
 11
889.819462
 21
7466.11517
 31
0.0
  0
LINE
  5
F0
102
{ACAD_REACTORS
330
21C
102
}
330
1F
100
AcDbEntity
  8
LC-002-002-----0
 62
     7
370
    50
100
AcDbLine
 10
892.283563
 20
7358.61517
 30
0.0
 11
890.319462
 21
7358.61517
 31
0.0
  0
LINE
  5
F1
102
{ACAD_REACTORS
330
21C
102
}
330
1F
100
AcDbEntity
  8
LC-002-002-----0
 62
     7
370
    50
100
AcDbLine
 10
892.819462
 20
7468.61517
 30
0.0
 11
892.819462
 21
7360.61517
 31
0.0
  0
LINE
  5
F2
102
{ACAD_REACTORS
330
21C
102
}
330
1F
100
AcDbEntity
  8
LC-002-002-----0
 62
     7
370
    50
100
AcDbLine
 10
785.319462
 20
7466.61517
 30
0.0
 11
785.819462
 21
7466.11517
 31
0.0
  0
LINE
  5
F3
102
{ACAD_REACTORS
330
21C
102
}
330
1F
100
AcDbEntity
  8
LC-002-002-----0
 62
     7
370
    50
100
AcDbLine
 10
890.319462
 20
7466.61517
 30
0.0
 11
891.269462
 21
7466.61517
 31
0.0
  0
LINE
  5
F4
102
{ACAD_REACTORS
330
21C
102
}
330
1F
100
AcDbEntity
  8
LC-002-002-----0
 62
     7
370
    50
100
AcDbLine
 10
782.819462
 20
7468.61517
 30
0.0
 11
784.069462
 21
7468.61517
 31
0.0
  0
ARC
  5
F5
102
{ACAD_REACTORS
330
21C
102
}
330
1F
100
AcDbEntity
  8
LC-001-002-RND-0
 62
     7
370
    50
100
AcDbCircle
 10
891.269462
 20
7466.91517
 30
0.0
 40
0.3000000000001819
100
AcDbArc
 50
270.0
 51
0.0
  0
ARC
  5
F6
102
{ACAD_REACTORS
330
21C
102
}
330
1F
100
AcDbEntity
  8
LC-001-002-RND-0
 62
     7
370
    50
100
AcDbCircle
 10
784.369462
 20
7466.91517
 30
0.0
 40
0.3000000000000682
100
AcDbArc
 50
180.0
 51
270.0
  0
LINE
  5
F7
102
{ACAD_REACTORS
330
21C
102
}
330
1F
100
AcDbEntity
  8
LC-002-002-----0
 62
     7
370
    50
100
AcDbLine
 10
785.819462
 20
7466.11517
 30
0.0
 11
785.819462
 21
7463.61517
 31
0.0
  0
LINE
  5
F8
102
{ACAD_REACTORS
330
21C
102
}
330
1F
100
AcDbEntity
  8
LC-002-002-----0
 62
     7
370
    50
100
AcDbLine
 10
889.819462
 20
7466.11517
 30
0.0
 11
889.819462
 21
7463.61517
 31
0.0
  0
LINE
  5
F9
102
{ACAD_REACTORS
330
21C
102
}
330
1F
100
AcDbEntity
  8
LC-002-002-----0
 62
     7
370
    50
100
AcDbLine
 10
890.319462
 20
7466.61517
 30
0.0
 11
889.819462
 21
7466.11517
 31
0.0
  0
INSERT
  5
125
102
{ACAD_REACTORS
330
21C
102
}
330
1F
100
AcDbEntity
  8
LC-004-005-----0
 62
     7
370
    25
100
AcDbBlockReference
  2
*X38
 10
0.0
 20
0.0
 30
0.0
  0
LINE
  5
126
102
{ACAD_REACTORS
330
21C
102
}
330
1F
100
AcDbEntity
  8
LC-002-002-----0
 62
     7
370
    50
100
AcDbLine
 10
785.319462
 20
7466.61517
 30
0.0
 11
784.369462
 21
7466.61517
 31
0.0
  0
LINE
  5
127
102
{ACAD_REACTORS
330
21C
102
}
330
1F
100
AcDbEntity
  8
LC-002-002-----0
 62
     7
370
    50
100
AcDbLine
 10
891.569462
 20
7468.61517
 30
0.0
 11
892.819462
 21
7468.61517
 31
0.0
  0
INSERT
  5
153
102
{ACAD_REACTORS
330
21C
102
}
330
1F
100
AcDbEntity
  8
LC-004-005-----0
 62
     7
370
    25
100
AcDbBlockReference
  2
*X49
 10
0.0
 20
0.0
 30
0.0
  0
ARC
  5
154
102
{ACAD_REACTORS
330
21D
102
}
330
1F
100
AcDbEntity
  8
LC-002-002-----0
 62
     7
370
    50
100
AcDbCircle
 10
765.319362
 20
7481.115166
 30
0.0
 40
1.999900000000139
100
AcDbArc
 50
0.0
 51
183.376835
  0
LINE
  5
155
102
{ACAD_REACTORS
330
21D
102
}
330
1F
100
AcDbEntity
  8
LC-002-002-----0
 62
     7
370
    50
100
AcDbLine
 10
782.078281
 20
7472.566686
 30
0.0
 11
768.801924
 21
7476.124075
 31
0.0
  0
LINE
  5
156
102
{ACAD_REACTORS
330
21D
102
}
330
1F
100
AcDbEntity
  8
LC-002-002-----0
 62
     7
370
    50
100
AcDbLine
 10
782.3371
 20
7473.532612
 30
0.0
 11
769.060643
 21
7477.090028
 31
0.0
  0
ARC
  5
157
102
{ACAD_REACTORS
330
21D
102
}
330
1F
100
AcDbEntity
  8
LC-001-002-RND-0
 62
     7
370
    50
100
AcDbCircle
 10
769.319562
 20
7478.055927
 30
0.0
 40
2.0
100
AcDbArc
 50
180.0
 51
255.0
  0
ARC
  5
158
102
{ACAD_REACTORS
330
21D
102
}
330
1F
100
AcDbEntity
  8
LC-001-002-RND-0
 62
     7
370
    50
100
AcDbCircle
 10
769.319462
 20
7478.055954
 30
0.0
 40
1.0
100
AcDbArc
 50
180.0
 51
255.0
  0
LINE
  5
159
102
{ACAD_REACTORS
330
21D
102
}
330
1F
100
AcDbEntity
  8
LC-002-002-----0
 62
     7
370
    50
100
AcDbLine
 10
787.419462
 20
7462.912381
 30
0.0
 11
837.819462
 21
7462.912381
 31
0.0
  0
ARC
  5
15A
102
{ACAD_REACTORS
330
21D
102
}
330
1F
100
AcDbEntity
  8
LC-001-002-RND-0
 62
     7
370
    50
100
AcDbCircle
 10
768.819462
 20
7479.115066
 30
0.0
 40
0.5
100
AcDbArc
 50
180.0
 51
270.0
  0
ARC
  5
15B
102
{ACAD_REACTORS
330
21D
102
}
330
1F
100
AcDbEntity
  8
LC-001-002-RND-0
 62
     7
370
    50
100
AcDbCircle
 10
781.819462
 20
7471.60076
 30
0.0
 40
1.0
100
AcDbArc
 50
0.0
 51
75.0
  0
ARC
  5
15C
102
{ACAD_REACTORS
330
21D
102
}
330
1F
100
AcDbEntity
  8
LC-001-002-RND-0
 62
     7
370
    50
100
AcDbCircle
 10
781.819462
 20
7471.60076
 30
0.0
 40
1.999999999999886
100
AcDbArc
 50
0.0
 51
75.0
  0
LINE
  5
15D
102
{ACAD_REACTORS
330
21D
102
}
330
1F
100
AcDbEntity
  8
LC-003-003-----0
 62
     7
370
    25
100
AcDbLine
 10
783.819462
 20
7473.109862
 30
0.0
 11
837.819462
 21
7473.109862
 31
0.0
  0
ARC
  5
15E
102
{ACAD_REACTORS
330
21D
102
}
330
1F
100
AcDbEntity
  8
LC-002-002-----0
 62
     7
370
    50
100
AcDbCircle
 10
910.319562
 20
7481.115166
 30
0.0
 40
1.999899999999792
100
AcDbArc
 50
356.623165
 51
180.0
  0
LINE
  5
15F
102
{ACAD_REACTORS
330
21D
102
}
330
1F
100
AcDbEntity
  8
LC-002-002-----0
 62
     7
370
    50
100
AcDbLine
 10
893.560643
 20
7472.566686
 30
0.0
 11
906.837
 21
7476.124075
 31
0.0
  0
LINE
  5
160
102
{ACAD_REACTORS
330
21D
102
}
330
1F
100
AcDbEntity
  8
LC-002-002-----0
 62
     7
370
    50
100
AcDbLine
 10
893.301824
 20
7473.532612
 30
0.0
 11
906.578281
 21
7477.090028
 31
0.0
  0
ARC
  5
161
102
{ACAD_REACTORS
330
21D
102
}
330
1F
100
AcDbEntity
  8
LC-001-002-RND-0
 62
     7
370
    50
100
AcDbCircle
 10
906.319362
 20
7478.055927
 30
0.0
 40
2.000000000000091
100
AcDbArc
 50
285.0
 51
0.0
  0
LINE
  5
162
102
{ACAD_REACTORS
330
21D
102
}
330
1F
100
AcDbEntity
  8
LC-002-002-----0
 62
     7
370
    50
100
AcDbLine
 10
787.782937
 20
7459.957086
 30
0.0
 11
837.819462
 21
7459.957086
 31
0.0
  0
ARC
  5
163
102
{ACAD_REACTORS
330
21D
102
}
330
1F
100
AcDbEntity
  8
LC-001-002-RND-0
 62
     7
370
    50
100
AcDbCircle
 10
906.319462
 20
7478.055954
 30
0.0
 40
1.00000000000003
100
AcDbArc
 50
285.0
 51
0.0
  0
LINE
  5
164
102
{ACAD_REACTORS
330
21D
102
}
330
1F
100
AcDbEntity
  8
LC-002-002-----0
 62
     7
370
    50
100
AcDbLine
 10
888.219462
 20
7462.912381
 30
0.0
 11
837.819462
 21
7462.912381
 31
0.0
  0
ARC
  5
165
102
{ACAD_REACTORS
330
21D
102
}
330
1F
100
AcDbEntity
  8
LC-001-002-RND-0
 62
     7
370
    50
100
AcDbCircle
 10
906.819462
 20
7479.115066
 30
0.0
 40
0.5
100
AcDbArc
 50
270.0
 51
0.0
  0
LINE
  5
166
102
{ACAD_REACTORS
330
21D
102
}
330
1F
100
AcDbEntity
  8
LC-002-002-----0
 62
     7
370
    50
100
AcDbLine
 10
786.843244
 20
7459.615066
 30
0.0
 11
837.819462
 21
7459.615066
 31
0.0
  0
ARC
  5
167
102
{ACAD_REACTORS
330
21D
102
}
330
1F
100
AcDbEntity
  8
LC-001-002-RND-0
 62
     7
370
    50
100
AcDbCircle
 10
893.819462
 20
7471.60076
 30
0.0
 40
1.00000000000006
100
AcDbArc
 50
105.0
 51
180.0
  0
LINE
  5
168
102
{ACAD_REACTORS
330
21D
102
}
330
1F
100
AcDbEntity
  8
LC-002-002-----0
 62
     7
370
    50
100
AcDbLine
 10
767.319462
 20
7479.115066
 30
0.0
 11
767.319462
 21
7481.115166
 31
0.0
  0
ARC
  5
169
102
{ACAD_REACTORS
330
21D
102
}
330
1F
100
AcDbEntity
  8
LC-001-002-RND-0
 62
     7
370
    50
100
AcDbCircle
 10
893.819462
 20
7471.60076
 30
0.0
 40
2.000000000000091
100
AcDbArc
 50
105.0
 51
180.0
  0
LINE
  5
16A
102
{ACAD_REACTORS
330
21D
102
}
330
1F
100
AcDbEntity
  8
LC-003-003-----0
 62
     7
370
    25
100
AcDbLine
 10
891.819462
 20
7473.109862
 30
0.0
 11
837.819462
 21
7473.109862
 31
0.0
  0
ARC
  5
16B
102
{ACAD_REACTORS
330
21D
102
}
330
1F
100
AcDbEntity
  8
LC-001-002-RND-0
 62
     7
370
    50
100
AcDbCircle
 10
765.319462
 20
7481.115066
 30
0.0
 40
3.000000000000341
100
AcDbArc
 50
0.0
 51
176.622493
  0
LINE
  5
16C
102
{ACAD_REACTORS
330
21D
102
}
330
1F
100
AcDbEntity
  8
LC-002-002-----0
 62
     7
370
    50
100
AcDbLine
 10
763.322934
 20
7479.243336
 30
0.0
 11
763.322934
 21
7480.997366
 31
0.0
  0
LINE
  5
16D
102
{ACAD_REACTORS
330
21D
102
}
330
1F
100
AcDbEntity
  8
LC-002-002-----0
 62
     7
370
    50
100
AcDbLine
 10
887.855987
 20
7459.957086
 30
0.0
 11
837.819462
 21
7459.957086
 31
0.0
  0
LINE
  5
16E
102
{ACAD_REACTORS
330
21D
102
}
330
1F
100
AcDbEntity
  8
LC-002-002-----0
 62
     7
370
    50
100
AcDbLine
 10
888.79568
 20
7459.615066
 30
0.0
 11
837.819462
 21
7459.615066
 31
0.0
  0
LINE
  5
16F
102
{ACAD_REACTORS
330
21D
102
}
330
1F
100
AcDbEntity
  8
LC-002-002-----0
 62
     7
370
    50
100
AcDbLine
 10
908.319462
 20
7479.115066
 30
0.0
 11
908.319462
 21
7481.115166
 31
0.0
  0
LINE
  5
170
102
{ACAD_REACTORS
330
21D
102
}
330
1F
100
AcDbEntity
  8
LC-002-002-----0
 62
     7
370
    50
100
AcDbLine
 10
837.819462
 20
7484.115066
 30
0.0
 11
765.319462
 21
7484.115066
 31
0.0
  0
ARC
  5
171
102
{ACAD_REACTORS
330
21D
102
}
330
1F
100
AcDbEntity
  8
LC-001-002-RND-0
 62
     7
370
    50
100
AcDbCircle
 10
910.319462
 20
7481.115066
 30
0.0
 40
2.999999999999992
100
AcDbArc
 50
3.377507
 51
180.0
  0
LINE
  5
172
102
{ACAD_REACTORS
330
21D
102
}
330
1F
100
AcDbEntity
  8
LC-002-002-----0
 62
     7
370
    50
100
AcDbLine
 10
912.315989
 20
7479.243336
 30
0.0
 11
912.315989
 21
7480.997366
 31
0.0
  0
LINE
  5
173
102
{ACAD_REACTORS
330
21D
102
}
330
1F
100
AcDbEntity
  8
LC-002-002-----0
 62
     7
370
    50
100
AcDbLine
 10
837.819462
 20
7484.115066
 30
0.0
 11
910.319462
 21
7484.115066
 31
0.0
  0
LINE
  5
174
102
{ACAD_REACTORS
330
21D
102
}
330
1F
100
AcDbEntity
  8
LC-002-002-----0
 62
     7
370
    50
100
AcDbLine
 10
906.819462
 20
7478.615066
 30
0.0
 11
905.819462
 21
7478.615066
 31
0.0
  0
LINE
  5
175
102
{ACAD_REACTORS
330
21D
102
}
330
1F
100
AcDbEntity
  8
LC-002-002-----0
 62
     7
370
    50
100
AcDbLine
 10
907.319462
 20
7479.115066
 30
0.0
 11
907.319462
 21
7481.115066
 31
0.0
  0
ARC
  5
176
102
{ACAD_REACTORS
330
21D
102
}
330
1F
100
AcDbEntity
  8
LC-002-002-----0
 62
     7
370
    50
100
AcDbCircle
 10
918.319462
 20
7479.597573
 30
0.0
 40
6.013914195052041
100
AcDbArc
 50
183.376835
 51
228.189685
  0
LINE
  5
177
102
{ACAD_REACTORS
330
21D
102
}
330
1F
100
AcDbEntity
  8
LC-002-002-----0
 62
     7
370
    50
100
AcDbLine
 10
768.819462
 20
7478.615066
 30
0.0
 11
769.819462
 21
7478.615066
 31
0.0
  0
LINE
  5
178
102
{ACAD_REACTORS
330
21D
102
}
330
1F
100
AcDbEntity
  8
LC-002-002-----0
 62
     7
370
    50
100
AcDbLine
 10
907.215362
 20
7477.611698
 30
0.0
 11
837.819462
 21
7477.611698
 31
0.0
  0
LINE
  5
179
102
{ACAD_REACTORS
330
21D
102
}
330
1F
100
AcDbEntity
  8
LC-002-002-----0
 62
     7
370
    50
100
AcDbLine
 10
914.310186
 20
7475.115066
 30
0.0
 11
903.071325
 21
7475.115066
 31
0.0
  0
LINE
  5
17A
102
{ACAD_REACTORS
330
21D
102
}
330
1F
100
AcDbEntity
  8
LC-002-002-----0
 62
     7
370
    50
100
AcDbLine
 10
908.319362
 20
7478.055927
 30
0.0
 11
908.319362
 21
7481.115166
 31
0.0
  0
LINE
  5
17B
102
{ACAD_REACTORS
330
21D
102
}
330
1F
100
AcDbEntity
  8
LC-002-002-----0
 62
     7
370
    50
100
AcDbLine
 10
907.319462
 20
7478.055954
 30
0.0
 11
907.319462
 21
7479.115066
 31
0.0
  0
LINE
  5
17C
102
{ACAD_REACTORS
330
21D
102
}
330
1F
100
AcDbEntity
  8
LC-002-002-----0
 62
     7
370
    50
100
AcDbLine
 10
905.819562
 20
7478.615066
 30
0.0
 11
891.319462
 21
7478.615066
 31
0.0
  0
LINE
  5
17D
102
{ACAD_REACTORS
330
21D
102
}
330
1F
100
AcDbEntity
  8
LC-002-002-----0
 62
     7
370
    50
100
AcDbLine
 10
889.819462
 20
7478.615066
 30
0.0
 11
889.819462
 21
7478.815066
 31
0.0
  0
LINE
  5
17E
102
{ACAD_REACTORS
330
21D
102
}
330
1F
100
AcDbEntity
  8
LC-002-002-----0
 62
     7
370
    50
100
AcDbLine
 10
768.319462
 20
7479.115066
 30
0.0
 11
768.319462
 21
7481.115066
 31
0.0
  0
LINE
  5
17F
102
{ACAD_REACTORS
330
21D
102
}
330
1F
100
AcDbEntity
  8
LC-002-002-----0
 62
     7
370
    50
100
AcDbLine
 10
903.819462
 20
7478.615066
 30
0.0
 11
903.819462
 21
7478.815066
 31
0.0
  0
LINE
  5
180
102
{ACAD_REACTORS
330
21D
102
}
330
1F
100
AcDbEntity
  8
LC-002-002-----0
 62
     7
370
    50
100
AcDbLine
 10
903.519462
 20
7479.115066
 30
0.0
 11
890.119462
 21
7479.115066
 31
0.0
  0
ARC
  5
181
102
{ACAD_REACTORS
330
21D
102
}
330
1F
100
AcDbEntity
  8
LC-001-002-RND-0
 62
     7
370
    50
100
AcDbCircle
 10
890.119462
 20
7478.815066
 30
0.0
 40
0.3000000000001819
100
AcDbArc
 50
90.0
 51
180.0
  0
ARC
  5
182
102
{ACAD_REACTORS
330
21D
102
}
330
1F
100
AcDbEntity
  8
LC-001-002-RND-0
 62
     7
370
    50
100
AcDbCircle
 10
903.519462
 20
7478.815066
 30
0.0
 40
0.3000000000000682
100
AcDbArc
 50
0.0
 51
90.0
  0
LINE
  5
183
102
{ACAD_REACTORS
330
21D
102
}
330
1F
100
AcDbEntity
  8
LC-002-002-----0
 62
     7
370
    50
100
AcDbLine
 10
863.452697
 20
7478.615066
 30
0.0
 11
891.319462
 21
7478.615066
 31
0.0
  0
ARC
  5
184
102
{ACAD_REACTORS
330
21D
102
}
330
1F
100
AcDbEntity
  8
LC-001-002-RND-0
 62
     7
370
    50
100
AcDbCircle
 10
858.53769
 20
7479.611698
 30
0.0
 40
2.0
100
AcDbArc
 50
270.0
 51
282.646496
  0
ARC
  5
185
102
{ACAD_REACTORS
330
21D
102
}
330
1F
100
AcDbEntity
  8
LC-001-002-RND-0
 62
     7
370
    50
100
AcDbCircle
 10
863.452697
 20
7476.615066
 30
0.0
 40
2.0
100
AcDbArc
 50
90.0
 51
102.646496
  0
LINE
  5
186
102
{ACAD_REACTORS
330
21D
102
}
330
1F
100
AcDbEntity
  8
LC-002-002-----0
 62
     7
370
    50
100
AcDbLine
 10
863.014827
 20
7478.566545
 30
0.0
 11
858.97556
 21
7477.660219
 31
0.0
  0
LINE
  5
187
102
{ACAD_REACTORS
330
21D
102
}
330
1F
100
AcDbEntity
  8
LC-002-002-----0
 62
     7
370
    50
100
AcDbLine
 10
888.719462
 20
7469.61517
 30
0.0
 11
837.819462
 21
7469.61517
 31
0.0
  0
LINE
  5
188
102
{ACAD_REACTORS
330
21D
102
}
330
1F
100
AcDbEntity
  8
LC-002-002-----0
 62
     7
370
    50
100
AcDbLine
 10
891.819462
 20
7469.61517
 30
0.0
 11
888.719462
 21
7469.61517
 31
0.0
  0
LINE
  5
189
102
{ACAD_REACTORS
330
21D
102
}
330
1F
100
AcDbEntity
  8
LC-002-002-----0
 62
     7
370
    50
100
AcDbLine
 10
889.219462
 20
7468.61517
 30
0.0
 11
892.319462
 21
7468.61517
 31
0.0
  0
LINE
  5
18A
102
{ACAD_REACTORS
330
21D
102
}
330
1F
100
AcDbEntity
  8
LC-002-002-----0
 62
     7
370
    50
100
AcDbLine
 10
891.819462
 20
7469.61517
 30
0.0
 11
891.819462
 21
7471.60076
 31
0.0
  0
LINE
  5
18B
102
{ACAD_REACTORS
330
21D
102
}
330
1F
100
AcDbEntity
  8
LC-002-002-----0
 62
     7
370
    50
100
AcDbLine
 10
892.819462
 20
7469.11517
 30
0.0
 11
892.819462
 21
7471.60076
 31
0.0
  0
ARC
  5
18C
102
{ACAD_REACTORS
330
21D
102
}
330
1F
100
AcDbEntity
  8
LC-001-002-RND-0
 62
     7
370
    50
100
AcDbCircle
 10
892.319462
 20
7469.11517
 30
0.0
 40
0.5
100
AcDbArc
 50
270.0
 51
0.0
  0
ARC
  5
18D
102
{ACAD_REACTORS
330
21D
102
}
330
1F
100
AcDbEntity
  8
LC-001-002-RND-0
 62
     7
370
    50
100
AcDbCircle
 10
888.719462
 20
7469.11517
 30
0.0
 40
0.5
100
AcDbArc
 50
90.0
 51
180.0
  0
ARC
  5
18E
102
{ACAD_REACTORS
330
21D
102
}
330
1F
100
AcDbEntity
  8
LC-002-002-----0
 62
     7
370
    50
100
AcDbCircle
 10
918.319462
 20
7479.597573
 30
0.0
 40
5.013919912252943
100
AcDbArc
 50
183.377507
 51
217.081467
  0
LINE
  5
18F
102
{ACAD_REACTORS
330
21D
102
}
330
1F
100
AcDbEntity
  8
LC-002-002-----0
 62
     7
370
    50
100
AcDbLine
 10
914.319462
 20
7476.57443
 30
0.0
 11
914.319462
 21
7475.125437
 31
0.0
  0
LINE
  5
190
102
{ACAD_REACTORS
330
21D
102
}
330
1F
100
AcDbEntity
  8
LC-002-002-----0
 62
     7
370
    50
100
AcDbLine
 10
913.314251
 20
7481.291809
 30
0.0
 11
913.314251
 21
7479.30218
 31
0.0
  0
LINE
  5
191
102
{ACAD_REACTORS
330
21D
102
}
330
1F
100
AcDbEntity
  8
LC-002-002-----0
 62
     7
370
    50
100
AcDbLine
 10
888.219462
 20
7462.912381
 30
0.0
 11
888.219462
 21
7469.11517
 31
0.0
  0
LINE
  5
192
102
{ACAD_REACTORS
330
21D
102
}
330
1F
100
AcDbEntity
  8
LC-002-002-----0
 62
     7
370
    50
100
AcDbLine
 10
889.219462
 20
7463.792735
 30
0.0
 11
889.219462
 21
7468.61517
 31
0.0
  0
LINE
  5
193
102
{ACAD_REACTORS
330
21D
102
}
330
1F
100
AcDbEntity
  8
LC-002-002-----0
 62
     7
370
    50
100
AcDbLine
 10
888.503182
 20
7462.912381
 30
0.0
 11
888.219462
 21
7462.912381
 31
0.0
  0
ARC
  5
194
102
{ACAD_REACTORS
330
21D
102
}
330
1F
100
AcDbEntity
  8
LC-002-002-----0
 62
     7
370
    50
100
AcDbCircle
 10
757.319462
 20
7479.597573
 30
0.0
 40
6.013914195052355
100
AcDbArc
 50
311.810315
 51
356.623165
  0
LINE
  5
195
102
{ACAD_REACTORS
330
21D
102
}
330
1F
100
AcDbEntity
  8
LC-002-002-----0
 62
     7
370
    50
100
AcDbLine
 10
768.423562
 20
7477.611698
 30
0.0
 11
837.819462
 21
7477.611698
 31
0.0
  0
LINE
  5
196
102
{ACAD_REACTORS
330
21D
102
}
330
1F
100
AcDbEntity
  8
LC-002-002-----0
 62
     7
370
    50
100
AcDbLine
 10
888.78509
 20
7462.509775
 30
0.0
 11
887.855987
 21
7459.957086
 31
0.0
  0
ARC
  5
197
102
{ACAD_REACTORS
330
21D
102
}
330
1F
100
AcDbEntity
  8
LC-001-002-RND-0
 62
     7
370
    50
100
AcDbCircle
 10
888.503182
 20
7462.612381
 30
0.0
 40
0.3000000000000271
100
AcDbArc
 50
340.0
 51
90.0
  0
LINE
  5
198
102
{ACAD_REACTORS
330
21D
102
}
330
1F
100
AcDbEntity
  8
LC-002-002-----0
 62
     7
370
    50
100
AcDbLine
 10
761.328738
 20
7475.115066
 30
0.0
 11
772.567598
 21
7475.115066
 31
0.0
  0
LINE
  5
199
102
{ACAD_REACTORS
330
21D
102
}
330
1F
100
AcDbEntity
  8
LC-002-002-----0
 62
     7
370
    50
100
AcDbLine
 10
887.855987
 20
7459.957086
 30
0.0
 11
888.79568
 21
7459.615066
 31
0.0
  0
LINE
  5
19A
102
{ACAD_REACTORS
330
21D
102
}
330
1F
100
AcDbEntity
  8
LC-002-002-----0
 62
     7
370
    50
100
AcDbLine
 10
889.812457
 20
7462.408638
 30
0.0
 11
888.79568
 21
7459.615066
 31
0.0
  0
LINE
  5
19B
102
{ACAD_REACTORS
330
21D
102
}
330
1F
100
AcDbEntity
  8
LC-002-002-----0
 62
     7
370
    50
100
AcDbLine
 10
767.319562
 20
7478.055927
 30
0.0
 11
767.319562
 21
7481.115166
 31
0.0
  0
LINE
  5
19C
102
{ACAD_REACTORS
330
21D
102
}
330
1F
100
AcDbEntity
  8
LC-002-002-----0
 62
     7
370
    50
100
AcDbLine
 10
768.319462
 20
7478.055954
 30
0.0
 11
768.319462
 21
7479.115066
 31
0.0
  0
ARC
  5
19D
102
{ACAD_REACTORS
330
21D
102
}
330
1F
100
AcDbEntity
  8
LC-002-002-----0
 62
     7
370
    50
100
AcDbCircle
 10
888.778795
 20
7462.78486
 30
0.0
 40
1.100000000000064
100
AcDbArc
 50
340.0
 51
66.383903
  0
INSERT
  5
1B1
330
1F
100
AcDbEntity
  8
LC-004-005-----0
 62
     7
370
    25
100
AcDbBlockReference
  2
*X510
 10
0.0
 20
0.0
 30
0.0
  0
LINE
  5
1B2
102
{ACAD_REACTORS
330
21D
102
}
330
1F
100
AcDbEntity
  8
LC-002-002-----0
 62
     7
370
    50
100
AcDbLine
 10
769.819362
 20
7478.615066
 30
0.0
 11
784.319462
 21
7478.615066
 31
0.0
  0
LINE
  5
1B3
102
{ACAD_REACTORS
330
21D
102
}
330
1F
100
AcDbEntity
  8
LC-002-002-----0
 62
     7
370
    50
100
AcDbLine
 10
785.819462
 20
7478.615066
 30
0.0
 11
785.819462
 21
7478.815066
 31
0.0
  0
LINE
  5
1B4
102
{ACAD_REACTORS
330
21D
102
}
330
1F
100
AcDbEntity
  8
LC-002-002-----0
 62
     7
370
    50
100
AcDbLine
 10
771.819462
 20
7478.615066
 30
0.0
 11
771.819462
 21
7478.815066
 31
0.0
  0
LINE
  5
1B5
102
{ACAD_REACTORS
330
21D
102
}
330
1F
100
AcDbEntity
  8
LC-002-002-----0
 62
     7
370
    50
100
AcDbLine
 10
772.119462
 20
7479.115066
 30
0.0
 11
785.519462
 21
7479.115066
 31
0.0
  0
ARC
  5
1B6
102
{ACAD_REACTORS
330
21D
102
}
330
1F
100
AcDbEntity
  8
LC-001-002-RND-0
 62
     7
370
    50
100
AcDbCircle
 10
785.519462
 20
7478.815066
 30
0.0
 40
0.2999999999999545
100
AcDbArc
 50
0.0
 51
90.0
  0
ARC
  5
1B7
102
{ACAD_REACTORS
330
21D
102
}
330
1F
100
AcDbEntity
  8
LC-001-002-RND-0
 62
     7
370
    50
100
AcDbCircle
 10
772.119462
 20
7478.815066
 30
0.0
 40
0.3000000000001819
100
AcDbArc
 50
90.0
 51
180.0
  0
LINE
  5
1B8
102
{ACAD_REACTORS
330
21D
102
}
330
1F
100
AcDbEntity
  8
LC-002-002-----0
 62
     7
370
    50
100
AcDbLine
 10
812.186227
 20
7478.615066
 30
0.0
 11
784.319462
 21
7478.615066
 31
0.0
  0
INSERT
  5
1CB
330
1F
100
AcDbEntity
  8
LC-004-005-----0
 62
     7
370
    25
100
AcDbBlockReference
  2
*X611
 10
0.0
 20
0.0
 30
0.0
  0
ARC
  5
1CC
102
{ACAD_REACTORS
330
21D
102
}
330
1F
100
AcDbEntity
  8
LC-001-002-RND-0
 62
     7
370
    50
100
AcDbCircle
 10
817.101233
 20
7479.611698
 30
0.0
 40
1.999999999999626
100
AcDbArc
 50
257.353504
 51
270.0
  0
ARC
  5
1CD
102
{ACAD_REACTORS
330
21D
102
}
330
1F
100
AcDbEntity
  8
LC-001-002-RND-0
 62
     7
370
    50
100
AcDbCircle
 10
812.186227
 20
7476.615066
 30
0.0
 40
1.999999999999601
100
AcDbArc
 50
77.353504
 51
90.0
  0
LINE
  5
1CE
102
{ACAD_REACTORS
330
21D
102
}
330
1F
100
AcDbEntity
  8
LC-002-002-----0
 62
     7
370
    50
100
AcDbLine
 10
812.624097
 20
7478.566545
 30
0.0
 11
816.663363
 21
7477.660219
 31
0.0
  0
LINE
  5
1CF
102
{ACAD_REACTORS
330
21D
102
}
330
1F
100
AcDbEntity
  8
LC-002-002-----0
 62
     7
370
    50
100
AcDbLine
 10
786.919462
 20
7469.61517
 30
0.0
 11
837.819462
 21
7469.61517
 31
0.0
  0
LINE
  5
1D0
102
{ACAD_REACTORS
330
21D
102
}
330
1F
100
AcDbEntity
  8
LC-002-002-----0
 62
     7
370
    50
100
AcDbLine
 10
783.819462
 20
7469.61517
 30
0.0
 11
786.919462
 21
7469.61517
 31
0.0
  0
LINE
  5
1D1
102
{ACAD_REACTORS
330
21D
102
}
330
1F
100
AcDbEntity
  8
LC-002-002-----0
 62
     7
370
    50
100
AcDbLine
 10
786.419462
 20
7468.61517
 30
0.0
 11
783.319462
 21
7468.61517
 31
0.0
  0
LINE
  5
1D2
102
{ACAD_REACTORS
330
21D
102
}
330
1F
100
AcDbEntity
  8
LC-002-002-----0
 62
     7
370
    50
100
AcDbLine
 10
783.819462
 20
7469.61517
 30
0.0
 11
783.819462
 21
7471.60076
 31
0.0
  0
LINE
  5
1D3
102
{ACAD_REACTORS
330
21D
102
}
330
1F
100
AcDbEntity
  8
LC-002-002-----0
 62
     7
370
    50
100
AcDbLine
 10
782.819462
 20
7469.11517
 30
0.0
 11
782.819462
 21
7471.60076
 31
0.0
  0
ARC
  5
1D4
102
{ACAD_REACTORS
330
21D
102
}
330
1F
100
AcDbEntity
  8
LC-001-002-RND-0
 62
     7
370
    50
100
AcDbCircle
 10
783.319462
 20
7469.11517
 30
0.0
 40
0.5
100
AcDbArc
 50
180.0
 51
270.0
  0
ARC
  5
1D5
102
{ACAD_REACTORS
330
21D
102
}
330
1F
100
AcDbEntity
  8
LC-001-002-RND-0
 62
     7
370
    50
100
AcDbCircle
 10
786.919462
 20
7469.11517
 30
0.0
 40
0.5
100
AcDbArc
 50
0.0
 51
90.0
  0
ARC
  5
1D6
102
{ACAD_REACTORS
330
21D
102
}
330
1F
100
AcDbEntity
  8
LC-002-002-----0
 62
     7
370
    50
100
AcDbCircle
 10
757.319462
 20
7479.597573
 30
0.0
 40
5.01391991225308
100
AcDbArc
 50
322.918533
 51
356.622493
  0
LINE
  5
1D7
102
{ACAD_REACTORS
330
21D
102
}
330
1F
100
AcDbEntity
  8
LC-002-002-----0
 62
     7
370
    50
100
AcDbLine
 10
761.319462
 20
7476.57443
 30
0.0
 11
761.319462
 21
7475.125437
 31
0.0
  0
LINE
  5
1D8
102
{ACAD_REACTORS
330
21D
102
}
330
1F
100
AcDbEntity
  8
LC-002-002-----0
 62
     7
370
    50
100
AcDbLine
 10
762.324673
 20
7481.291809
 30
0.0
 11
762.324673
 21
7479.30218
 31
0.0
  0
LINE
  5
1D9
102
{ACAD_REACTORS
330
21D
102
}
330
1F
100
AcDbEntity
  8
LC-002-002-----0
 62
     7
370
    50
100
AcDbLine
 10
787.419462
 20
7462.912381
 30
0.0
 11
787.419462
 21
7469.11517
 31
0.0
  0
LINE
  5
1DA
102
{ACAD_REACTORS
330
21D
102
}
330
1F
100
AcDbEntity
  8
LC-002-002-----0
 62
     7
370
    50
100
AcDbLine
 10
786.419462
 20
7463.792735
 30
0.0
 11
786.419462
 21
7468.61517
 31
0.0
  0
LINE
  5
1DB
102
{ACAD_REACTORS
330
21D
102
}
330
1F
100
AcDbEntity
  8
LC-002-002-----0
 62
     7
370
    50
100
AcDbLine
 10
787.135742
 20
7462.912381
 30
0.0
 11
787.419462
 21
7462.912381
 31
0.0
  0
LINE
  5
1DC
102
{ACAD_REACTORS
330
21D
102
}
330
1F
100
AcDbEntity
  8
LC-002-002-----0
 62
     7
370
    50
100
AcDbLine
 10
786.853834
 20
7462.509775
 30
0.0
 11
787.782937
 21
7459.957086
 31
0.0
  0
ARC
  5
1DD
102
{ACAD_REACTORS
330
21D
102
}
330
1F
100
AcDbEntity
  8
LC-001-002-RND-0
 62
     7
370
    50
100
AcDbCircle
 10
787.135742
 20
7462.612381
 30
0.0
 40
0.3000000000001819
100
AcDbArc
 50
90.0
 51
200.0
  0
LINE
  5
1DE
102
{ACAD_REACTORS
330
21D
102
}
330
1F
100
AcDbEntity
  8
LC-002-002-----0
 62
     7
370
    50
100
AcDbLine
 10
787.782937
 20
7459.957086
 30
0.0
 11
786.843244
 21
7459.615066
 31
0.0
  0
LINE
  5
1DF
102
{ACAD_REACTORS
330
21D
102
}
330
1F
100
AcDbEntity
  8
LC-002-002-----0
 62
     7
370
    50
100
AcDbLine
 10
785.826467
 20
7462.408638
 30
0.0
 11
786.843244
 21
7459.615066
 31
0.0
  0
ARC
  5
1E0
102
{ACAD_REACTORS
330
21D
102
}
330
1F
100
AcDbEntity
  8
LC-002-002-----0
 62
     7
370
    50
100
AcDbCircle
 10
786.860129
 20
7462.78486
 30
0.0
 40
1.100000000000531
100
AcDbArc
 50
113.616097
 51
200.0
  0
LINE
  5
1E1
330
1F
100
AcDbEntity
  8
LC-002-002-----0
 62
     7
370
    25
100
AcDbLine
 10
890.344462
 20
7372.61517
 30
0.0
 11
785.344462
 21
7372.61517
 31
0.0
  0
INSERT
  5
1FD
330
1F
100
AcDbEntity
  8
LC-004-005-----0
 62
     7
370
    25
100
AcDbBlockReference
  2
*X712
 10
0.0
 20
0.0
 30
0.0
  0
INSERT
  5
219
330
1F
100
AcDbEntity
  8
LC-004-005-----0
 62
     7
370
    25
100
AcDbBlockReference
  2
*X813
 10
0.0
 20
0.0
 30
0.0
  0
ENDSEC
  0
SECTION
  2
OBJECTS
  0
DICTIONARY
  5
C
330
0
100
AcDbDictionary
281
     1
  3
ACAD_GROUP
350
D
  3
ACAD_LAYOUT
350
1A
  3
ACAD_MLINESTYLE
350
17
  3
ACAD_PLOTSETTINGS
350
19
  3
ACAD_PLOTSTYLENAME
350
E
  0
DICTIONARY
  5
D
102
{ACAD_REACTORS
330
C
102
}
330
C
100
AcDbDictionary
281
     1
  3
LCGROUP12334
350
21A
  3
LCGROUP12470
350
21C
  3
LCGROUP12498
350
21D
  3
LCGROUP201
350
21B
  0
DICTIONARY
  5
1A
102
{ACAD_REACTORS
330
C
102
}
330
C
100
AcDbDictionary
281
     1
  3
Layout1
350
1E
  3
Layout2
350
26
  3
Model
350
22
  0
DICTIONARY
  5
17
102
{ACAD_REACTORS
330
C
102
}
330
C
100
AcDbDictionary
281
     1
  3
Standard
350
18
  0
DICTIONARY
  5
19
102
{ACAD_REACTORS
330
C
102
}
330
C
100
AcDbDictionary
281
     1
  0
ACDBDICTIONARYWDFLT
  5
E
102
{ACAD_REACTORS
330
C
102
}
330
C
100
AcDbDictionary
281
     1
  3
Normal
350
F
100
AcDbDictionaryWithDefault
340
F
  0
GROUP
  5
21A
102
{ACAD_REACTORS
330
D
102
}
330
D
100
AcDbGroup
300
Zentrierring
 70
     1
 71
     1
340
6A
340
6B
340
6C
340
6D
340
6E
340
6F
340
70
340
71
340
72
340
73
340
74
340
75
340
76
340
77
340
78
340
79
340
7A
340
89
340
8A
340
8B
340
8C
340
8D
340
8E
340
8F
340
90
340
91
340
92
340
9F
340
A0
340
A1
340
A2
340
A3
340
A4
340
A5
340
A6
340
A7
340
A8
340
A9
340
AA
  0
GROUP
  5
21C
102
{ACAD_REACTORS
330
D
102
}
330
D
100
AcDbGroup
300
GRP12470
 70
     1
 71
     1
340
E3
340
E4
340
E5
340
E6
340
E7
340
E8
340
E9
340
EA
340
EB
340
EC
340
ED
340
EE
340
EF
340
F0
340
F1
340
F2
340
F3
340
F4
340
F5
340
F6
340
F7
340
F8
340
F9
340
125
340
126
340
127
340
153
  0
GROUP
  5
21D
102
{ACAD_REACTORS
330
D
102
}
330
D
100
AcDbGroup
300
Rahmen SA
 70
     1
 71
     1
340
154
340
155
340
156
340
157
340
158
340
159
340
15A
340
15B
340
15C
340
15D
340
15E
340
15F
340
160
340
161
340
162
340
163
340
164
340
165
340
166
340
167
340
168
340
169
340
16A
340
16B
340
16C
340
16D
340
16E
340
16F
340
170
340
171
340
172
340
173
340
174
340
175
340
176
340
177
340
178
340
179
340
17A
340
17B
340
17C
340
17D
340
17E
340
17F
340
180
340
181
340
182
340
183
340
184
340
185
340
186
340
187
340
188
340
189
340
18A
340
18B
340
18C
340
18D
340
18E
340
18F
340
190
340
191
340
192
340
193
340
194
340
195
340
196
340
197
340
198
340
199
340
19A
340
19B
340
19C
340
19D
340
1B2
340
1B3
340
1B4
340
1B5
340
1B6
340
1B7
340
1B8
340
1CC
340
1CD
340
1CE
340
1CF
340
1D0
340
1D1
340
1D2
340
1D3
340
1D4
340
1D5
340
1D6
340
1D7
340
1D8
340
1D9
340
1DA
340
1DB
340
1DC
340
1DD
340
1DE
340
1DF
340
1E0
  0
GROUP
  5
21B
102
{ACAD_REACTORS
330
D
102
}
330
D
100
AcDbGroup
300
rahmen
 70
     1
 71
     1
340
49
340
4A
340
4C
340
4D
340
4E
340
4F
340
50
340
51
340
52
340
53
  0
LAYOUT
  5
1E
102
{ACAD_REACTORS
330
1A
102
}
330
1A
100
AcDbPlotSettings
  1

  2

  4

  6

 40
0.0
 41
0.0
 42
0.0
 43
0.0
 44
0.0
 45
0.0
 46
0.0
 47
0.0
 48
0.0
 49
0.0
140
0.0
141
0.0
142
1.0
143
1.0
 70
   688
 72
     0
 73
     0
 74
     5
  7

 75
    16
147
1.0
148
0.0
149
0.0
100
AcDbLayout
  1
Layout1
 70
     1
 71
     1
 10
565.273216
 20
7181.045
 11
1405.273216
 21
7775.045
 12
0.0
 22
0.0
 32
0.0
 14
565.273216
 24
7181.045
 34
0.0
 15
1405.273216
 25
7775.045
 35
0.0
146
0.0
 13
0.0
 23
0.0
 33
0.0
 16
1.0
 26
0.0
 36
0.0
 17
0.0
 27
1.0
 37
0.0
 76
     0
330
1B
  0
LAYOUT
  5
26
102
{ACAD_REACTORS
330
1A
102
}
330
1A
100
AcDbPlotSettings
  1

  2

  4

  6

 40
0.0
 41
0.0
 42
0.0
 43
0.0
 44
0.0
 45
0.0
 46
0.0
 47
0.0
 48
0.0
 49
0.0
140
0.0
141
0.0
142
1.0
143
1.0
 70
   688
 72
     0
 73
     0
 74
     5
  7

 75
    16
147
1.0
148
0.0
149
0.0
100
AcDbLayout
  1
Layout2
 70
     1
 71
     2
 10
0.0
 20
0.0
 11
0.0
 21
0.0
 12
0.0
 22
0.0
 32
0.0
 14
0.0
 24
0.0
 34
0.0
 15
0.0
 25
0.0
 35
0.0
146
0.0
 13
0.0
 23
0.0
 33
0.0
 16
1.0
 26
0.0
 36
0.0
 17
0.0
 27
1.0
 37
0.0
 76
     0
330
23
  0
LAYOUT
  5
22
102
{ACAD_REACTORS
330
1A
102
}
330
1A
100
AcDbPlotSettings
  1

  2

  4

  6

 40
0.0
 41
0.0
 42
0.0
 43
0.0
 44
0.0
 45
0.0
 46
0.0
 47
0.0
 48
0.0
 49
0.0
140
0.0
141
0.0
142
1.0
143
1.0
 70
  1776
 72
     0
 73
     0
 74
     0
  7

 75
     0
147
1.0
148
0.0
149
0.0
100
AcDbLayout
  1
Model
 70
     1
 71
     0
 10
565.273216
 20
7181.045
 11
1405.273216
 21
7775.045
 12
565.273216
 22
7181.045
 32
0.0
 14
565.273216
 24
7181.045
 34
0.0
 15
1405.273216
 25
7775.045
 35
0.0
146
0.0
 13
0.0
 23
0.0
 33
0.0
 16
1.0
 26
0.0
 36
0.0
 17
0.0
 27
1.0
 37
0.0
 76
     0
330
1F
  0
MLINESTYLE
  5
18
102
{ACAD_REACTORS
330
17
102
}
330
17
100
AcDbMlineStyle
  2
Standard
 70
     0
  3

 62
   256
 51
90.0
 52
90.0
 71
     2
 49
0.5
 62
   256
  6
BYLAYER
 49
-0.5
 62
   256
  6
BYLAYER
  0
ACDBPLACEHOLDER
  5
F
102
{ACAD_REACTORS
330
E
102
}
330
E
  0
ENDSEC
  0
EOF
