  0
SECTION
  2
HEADER
  9
$ACADVER
  1
AC1015
  9
$ACADMAINTVER
 70
     6
  9
$DWGCODEPAGE
  3
ANSI_1252
  9
$INSBASE
 10
0.0
 20
0.0
 30
0.0
  9
$EXTMIN
 10
-210.0
 20
-148.5
 30
0.0
  9
$EXTMAX
 10
630.0
 20
445.5
 30
0.0
  9
$LIMMIN
 10
-210.0
 20
-148.5
  9
$LIMMAX
 10
630.0
 20
445.5
  9
$ORTHOMODE
 70
     0
  9
$REGENMODE
 70
     1
  9
$FILLMODE
 70
     1
  9
$QTEXTMODE
 70
     0
  9
$MIRRTEXT
 70
     1
  9
$LTSCALE
 40
2.0
  9
$ATTMODE
 70
     1
  9
$TEXTSIZE
 40
2.5
  9
$TRACEWID
 40
1.0
  9
$TEXTSTYLE
  7
Standard
  9
$CLAYER
  8
0
  9
$CELTYPE
  6
ByLayer
  9
$CECOLOR
 62
     7
  9
$CELTSCALE
 40
1.0
  9
$DISPSILH
 70
     0
  9
$DIMSCALE
 40
2.0
  9
$DIMASZ
 40
3.5
  9
$DIMEXO
 40
0.625
  9
$DIMDLI
 40
3.75
  9
$DIMRND
 40
0.0
  9
$DIMDLE
 40
0.0
  9
$DIMEXE
 40
1.25
  9
$DIMTP
 40
0.0
  9
$DIMTM
 40
0.0
  9
$DIMTXT
 40
3.5
  9
$DIMCEN
 40
2.5
  9
$DIMTSZ
 40
0.0
  9
$DIMTOL
 70
     0
  9
$DIMLIM
 70
     0
  9
$DIMTIH
 70
     0
  9
$DIMTOH
 70
     0
  9
$DIMSE1
 70
     0
  9
$DIMSE2
 70
     0
  9
$DIMTAD
 70
     1
  9
$DIMZIN
 70
     8
  9
$DIMBLK
  1

  9
$DIMASO
 70
     1
  9
$DIMSHO
 70
     1
  9
$DIMPOST
  1

  9
$DIMAPOST
  1

  9
$DIMALT
 70
     0
  9
$DIMALTD
 70
     3
  9
$DIMALTF
 40
0.03937
  9
$DIMLFAC
 40
1.0
  9
$DIMTOFL
 70
     1
  9
$DIMTVP
 40
0.0
  9
$DIMTIX
 70
     0
  9
$DIMSOXD
 70
     0
  9
$DIMSAH
 70
     0
  9
$DIMBLK1
  1

  9
$DIMBLK2
  1

  9
$DIMSTYLE
  2
ISO-25
  9
$DIMCLRD
 70
     0
  9
$DIMCLRE
 70
     0
  9
$DIMCLRT
 70
     0
  9
$DIMTFAC
 40
1.0
  9
$DIMGAP
 40
0.625
  9
$DIMJUST
 70
     0
  9
$DIMSD1
 70
     0
  9
$DIMSD2
 70
     0
  9
$DIMTOLJ
 70
     0
  9
$DIMTZIN
 70
     8
  9
$DIMALTZ
 70
     0
  9
$DIMALTTZ
 70
     0
  9
$DIMUPT
 70
     0
  9
$DIMDEC
 70
     2
  9
$DIMTDEC
 70
     2
  9
$DIMALTU
 70
     2
  9
$DIMALTTD
 70
     3
  9
$DIMTXSTY
  7
Standard
  9
$DIMAUNIT
 70
     0
  9
$DIMADEC
 70
     0
  9
$DIMALTRND
 40
0.0
  9
$DIMAZIN
 70
     0
  9
$DIMDSEP
 70
    44
  9
$DIMATFIT
 70
     3
  9
$DIMFRAC
 70
     0
  9
$DIMLDRBLK
  1

  9
$DIMLUNIT
 70
     2
  9
$DIMLWD
 70
    -2
  9
$DIMLWE
 70
    -2
  9
$DIMTMOVE
 70
     0
  9
$LUNITS
 70
     2
  9
$LUPREC
 70
     4
  9
$SKETCHINC
 40
1.0
  9
$FILLETRAD
 40
10.0
  9
$AUNITS
 70
     0
  9
$AUPREC
 70
     0
  9
$MENU
  1
.
  9
$ELEVATION
 40
0.0
  9
$PELEVATION
 40
0.0
  9
$THICKNESS
 40
0.0
  9
$LIMCHECK
 70
     0
  9
$CHAMFERA
 40
10.0
  9
$CHAMFERB
 40
10.0
  9
$CHAMFERC
 40
20.0
  9
$CHAMFERD
 40
0.0
  9
$SKPOLY
 70
     0
  9
$TDCREATE
 40
2456170.582482049
  9
$TDUCREATE
 40
2456170.499148715
  9
$TDUPDATE
 40
2456170.58248206
  9
$TDUUPDATE
 40
2456170.499148727
  9
$TDINDWG
 40
0.0000000116
  9
$TDUSRTIMER
 40
0.0000000116
  9
$USRTIMER
 70
     1
  9
$ANGBASE
 50
0.0
  9
$ANGDIR
 70
     0
  9
$PDMODE
 70
     0
  9
$PDSIZE
 40
0.0
  9
$PLINEWID
 40
0.0
  9
$SPLFRAME
 70
     0
  9
$SPLINETYPE
 70
     6
  9
$SPLINESEGS
 70
     8
  9
$HANDSEED
  5
C3
  9
$SURFTAB1
 70
     6
  9
$SURFTAB2
 70
     6
  9
$SURFTYPE
 70
     6
  9
$SURFU
 70
     6
  9
$SURFV
 70
     6
  9
$UCSBASE
  2

  9
$UCSNAME
  2

  9
$UCSORG
 10
0.0
 20
0.0
 30
0.0
  9
$UCSXDIR
 10
1.0
 20
0.0
 30
0.0
  9
$UCSYDIR
 10
0.0
 20
1.0
 30
0.0
  9
$UCSORTHOREF
  2

  9
$UCSORTHOVIEW
 70
     0
  9
$UCSORGTOP
 10
0.0
 20
0.0
 30
0.0
  9
$UCSORGBOTTOM
 10
0.0
 20
0.0
 30
0.0
  9
$UCSORGLEFT
 10
0.0
 20
0.0
 30
0.0
  9
$UCSORGRIGHT
 10
0.0
 20
0.0
 30
0.0
  9
$UCSORGFRONT
 10
0.0
 20
0.0
 30
0.0
  9
$UCSORGBACK
 10
0.0
 20
0.0
 30
0.0
  9
$PUCSBASE
  2

  9
$PUCSNAME
  2

  9
$PUCSORG
 10
0.0
 20
0.0
 30
0.0
  9
$PUCSXDIR
 10
1.0
 20
0.0
 30
0.0
  9
$PUCSYDIR
 10
0.0
 20
1.0
 30
0.0
  9
$PUCSORTHOREF
  2

  9
$PUCSORTHOVIEW
 70
     0
  9
$PUCSORGTOP
 10
0.0
 20
0.0
 30
0.0
  9
$PUCSORGBOTTOM
 10
0.0
 20
0.0
 30
0.0
  9
$PUCSORGLEFT
 10
0.0
 20
0.0
 30
0.0
  9
$PUCSORGRIGHT
 10
0.0
 20
0.0
 30
0.0
  9
$PUCSORGFRONT
 10
0.0
 20
0.0
 30
0.0
  9
$PUCSORGBACK
 10
0.0
 20
0.0
 30
0.0
  9
$USERI1
 70
     0
  9
$USERI2
 70
     0
  9
$USERI3
 70
     0
  9
$USERI4
 70
     0
  9
$USERI5
 70
     0
  9
$USERR1
 40
0.0
  9
$USERR2
 40
0.0
  9
$USERR3
 40
0.0
  9
$USERR4
 40
0.0
  9
$USERR5
 40
0.0
  9
$WORLDVIEW
 70
     1
  9
$SHADEDGE
 70
     3
  9
$SHADEDIF
 70
    70
  9
$TILEMODE
 70
     1
  9
$MAXACTVP
 70
    64
  9
$PINSBASE
 10
0.0
 20
0.0
 30
0.0
  9
$PLIMCHECK
 70
     0
  9
$PEXTMIN
 10
-210.0
 20
-148.5
 30
0.0
  9
$PEXTMAX
 10
630.0
 20
445.5
 30
0.0
  9
$PLIMMIN
 10
-210.0
 20
-148.5
  9
$PLIMMAX
 10
630.0
 20
445.5
  9
$UNITMODE
 70
     0
  9
$VISRETAIN
 70
     1
  9
$PLINEGEN
 70
     0
  9
$PSLTSCALE
 70
     1
  9
$TREEDEPTH
 70
  3020
  9
$CMLSTYLE
  2
Standard
  9
$CMLJUST
 70
     0
  9
$CMLSCALE
 40
20.0
  9
$PROXYGRAPHICS
 70
     1
  9
$MEASUREMENT
 70
     1
  9
$CELWEIGHT
370
    -1
  9
$ENDCAPS
280
     0
  9
$JOINSTYLE
280
     0
  9
$LWDISPLAY
290
     0
  9
$INSUNITS
 70
     4
  9
$HYPERLINKBASE
  1

  9
$STYLESHEET
  1

  9
$XEDIT
290
     1
  9
$CEPSNTYPE
380
     0
  9
$PSTYLEMODE
290
     1
  9
$FINGERPRINTGUID
  2
{FAEB1C30-E019-11D5-929B-00C0DF256EC4}
  9
$VERSIONGUID
  2
{FAEB1C32-E019-11D5-929B-00C0DF256EC4}
  9
$EXTNAMES
290
     1
  9
$PSVPSCALE
 40
0.0
  9
$OLESTARTUP
290
     0
  0
ENDSEC
  0
SECTION
  2
CLASSES
  0
CLASS
  1
ACDBDICTIONARYWDFLT
  2
AcDbDictionaryWithDefault
  3
ObjectDBX Classes
 90
        0
280
     0
281
     0
  0
CLASS
  1
ACDBPLACEHOLDER
  2
AcDbPlaceHolder
  3
ObjectDBX Classes
 90
        0
280
     0
281
     0
  0
CLASS
  1
LAYOUT
  2
AcDbLayout
  3
ObjectDBX Classes
 90
        0
280
     0
281
     0
  0
ENDSEC
  0
SECTION
  2
TABLES
  0
TABLE
  2
VPORT
  5
8
330
0
100
AcDbSymbolTable
 70
     2
  0
VPORT
  5
29
330
8
100
AcDbSymbolTableRecord
100
AcDbViewportTableRecord
  2
*ACTIVE
 70
     0
 10
0.0
 20
0.0
 11
1.0
 21
1.0
 12
210.0
 22
148.5
 13
0.0
 23
0.0
 14
1.0
 24
1.0
 15
0.0
 25
0.0
 16
0.0
 26
0.0
 36
1.0
 17
0.0
 27
0.0
 37
0.0
 40
594.0
 41
1.414141
 42
50.0
 43
0.0
 44
0.0
 50
0.0
 51
0.0
 71
    16
 72
   100
 73
     1
 74
     0
 75
     0
 76
     0
 77
     0
 78
     0
281
     0
 65
     0
110
0.0
120
0.0
130
0.0
111
1.0
121
0.0
131
0.0
112
0.0
122
1.0
132
0.0
 79
     0
146
0.0
  0
ENDTAB
  0
TABLE
  2
LTYPE
  5
5
330
0
100
AcDbSymbolTable
 70
     3
  0
LTYPE
  5
14
330
5
100
AcDbSymbolTableRecord
100
AcDbLinetypeTableRecord
  2
ByBlock
 70
     0
  3

 72
    65
 73
     0
 40
0.0
  0
LTYPE
  5
15
330
5
100
AcDbSymbolTableRecord
100
AcDbLinetypeTableRecord
  2
ByLayer
 70
     0
  3

 72
    65
 73
     0
 40
0.0
  0
LTYPE
  5
16
330
5
100
AcDbSymbolTableRecord
100
AcDbLinetypeTableRecord
  2
Continuous
 70
     0
  3
Solid line
 72
    65
 73
     0
 40
0.0
  0
LTYPE
  5
2A
330
5
100
AcDbSymbolTableRecord
100
AcDbLinetypeTableRecord
  2
DASHED
 70
     0
  3
__ __ __ __ __
 72
    65
 73
     2
 40
6.25
 49
5.0
 74
     4
 75
     0
340
0
 46
1.0
 50
0.0
 44
0.0
 45
0.0
 49
-1.25
 74
     4
 75
     0
340
0
 46
1.0
 50
0.0
 44
0.0
 45
0.0
  0
LTYPE
  5
78
330
5
100
AcDbSymbolTableRecord
100
AcDbLinetypeTableRecord
  2
CENTER
 70
     0
  3
__ . __ . __ . __ . __
 72
    65
 73
     4
 40
7.5
 49
5.0
 74
     4
 75
     0
340
0
 46
1.0
 50
0.0
 44
0.0
 45
0.0
 49
-1.25
 74
     4
 75
     0
340
0
 46
1.0
 50
0.0
 44
0.0
 45
0.0
 49
0.0
 74
     4
 75
     0
340
0
 46
1.0
 50
0.0
 44
0.0
 45
0.0
 49
-1.25
 74
     4
 75
     0
340
0
 46
1.0
 50
0.0
 44
0.0
 45
0.0
  0
ENDTAB
  0
TABLE
  2
LAYER
  5
2
330
0
100
AcDbSymbolTable
 70
    11
  0
LAYER
  5
10
330
2
100
AcDbSymbolTableRecord
100
AcDbLayerTableRecord
  2
0
 70
     0
 62
     7
  6
Continuous
370
    -3
390
F
  0
LAYER
  5
2B
330
2
100
AcDbSymbolTableRecord
100
AcDbLayerTableRecord
  2
LC-INFO-1-2-mm-A3-0
 70
     1
 62
     7
  6
ByBlock
370
    -3
390
F
  0
LAYER
  5
2C
330
2
100
AcDbSymbolTableRecord
100
AcDbLayerTableRecord
  2
LC-CUT-HIDDEN
 70
     0
 62
     7
  6
DASHED
370
    -3
390
F
  0
LAYER
  5
2D
330
2
100
AcDbSymbolTableRecord
100
AcDbLayerTableRecord
  2
LC-VIEWPORT
 70
     0
 62
     7
  6
ByBlock
370
    -3
390
F
  0
LAYER
  5
2E
330
2
100
AcDbSymbolTableRecord
100
AcDbLayerTableRecord
  2
LC-3D-HIDDEN
 70
     0
 62
     9
  6
DASHED
370
    -3
390
F
  0
LAYER
  5
30
330
2
100
AcDbSymbolTableRecord
100
AcDbLayerTableRecord
  2
LC-001-002-----0
 70
     0
 62
     1
  6
ByBlock
370
    -3
390
F
  0
LAYER
  5
5D
330
2
100
AcDbSymbolTableRecord
100
AcDbLayerTableRecord
  2
LC-002-005-----0
 70
     0
 62
     2
  6
ByBlock
370
    -3
390
F
  0
LAYER
  5
75
330
2
100
AcDbSymbolTableRecord
100
AcDbLayerTableRecord
  2
LC-003-002-RND-0
 70
     0
 62
     1
  6
ByBlock
370
    -3
390
F
  0
LAYER
  5
79
330
2
100
AcDbSymbolTableRecord
100
AcDbLayerTableRecord
  2
LC-004-006-MLN-0
 70
     0
 62
     2
  6
CENTER
370
    -3
390
F
  0
LAYER
  5
A5
330
2
100
AcDbSymbolTableRecord
100
AcDbLayerTableRecord
  2
LC-005-003-----0
 70
     0
 62
     2
  6
ByBlock
370
    -3
390
F
  0
LAYER
  5
A7
330
2
100
AcDbSymbolTableRecord
100
AcDbLayerTableRecord
  2
Defpoints
 70
     0
 62
     7
  6
Continuous
290
     0
370
    -3
390
F
  0
ENDTAB
  0
TABLE
  2
STYLE
  5
3
330
0
100
AcDbSymbolTable
 70
     3
  0
STYLE
  5
11
330
3
100
AcDbSymbolTableRecord
100
AcDbTextStyleTableRecord
  2
Standard
 70
     0
 40
0.0
 41
1.0
 50
0.0
 71
     0
 42
2.5
  3
txt
  4

  0
STYLE
  5
2F
330
3
100
AcDbSymbolTableRecord
100
AcDbTextStyleTableRecord
  2
LCTX15-400-0-0-Arial
 70
     0
 40
0.0
 41
0.8
 50
0.0
 71
     0
 42
3.5
  3

  4

1001
ACAD
1000
Arial
1071
 16777218
  0
STYLE
  5
A3
330
3
100
AcDbSymbolTableRecord
100
AcDbTextStyleTableRecord
  2
LCTX15-400-0-0pDIN-Schrift
 70
     0
 40
2.5
 41
0.8
 50
15.0
 71
     0
 42
3.5
  3
STANDARD
  4

  0
ENDTAB
  0
TABLE
  2
VIEW
  5
6
330
0
100
AcDbSymbolTable
 70
     0
  0
ENDTAB
  0
TABLE
  2
UCS
  5
7
330
0
100
AcDbSymbolTable
 70
     0
  0
ENDTAB
  0
TABLE
  2
APPID
  5
9
330
0
100
AcDbSymbolTable
 70
     1
  0
APPID
  5
12
330
9
100
AcDbSymbolTableRecord
100
AcDbRegAppTableRecord
  2
ACAD
 70
     0
  0
ENDTAB
  0
TABLE
  2
DIMSTYLE
  5
A
330
0
100
AcDbSymbolTable
 70
     2
100
AcDbDimStyleTable
  0
DIMSTYLE
105
27
330
A
100
AcDbSymbolTableRecord
100
AcDbDimStyleTableRecord
  2
ISO-25
 70
     0
 41
2.5
 42
0.625
 43
3.75
 44
1.25
 73
     0
 74
     0
 77
     1
 78
     8
140
2.5
141
2.5
143
0.03937
147
0.625
171
     3
172
     1
271
     2
272
     2
274
     3
278
    44
283
     0
284
     8
340
11
  0
DIMSTYLE
105
A4
102
{ACAD_REACTORS
330
A6
330
B4
102
}
330
A
100
AcDbSymbolTableRecord
100
AcDbDimStyleTableRecord
  2
LC-DIM-L-0140-02-02
 70
     0
 40
2.0
 41
14.0
 42
0.0
 43
7.5
 44
1.8
 73
     0
 74
     0
 77
     1
 78
     8
 79
     2
140
14.0
141
0.0
146
0.71
147
1.5
176
     2
177
     2
178
     2
179
     2
271
     2
278
    44
289
     1
340
A3
  0
ENDTAB
  0
TABLE
  2
BLOCK_RECORD
  5
1
330
0
100
AcDbSymbolTable
 70
     5
  0
BLOCK_RECORD
  5
1F
330
1
100
AcDbSymbolTableRecord
100
AcDbBlockTableRecord
  2
*Model_Space
340
22
  0
BLOCK_RECORD
  5
1B
330
1
100
AcDbSymbolTableRecord
100
AcDbBlockTableRecord
  2
*Paper_Space
340
1E
  0
BLOCK_RECORD
  5
23
330
1
100
AcDbSymbolTableRecord
100
AcDbBlockTableRecord
  2
*Paper_Space0
340
26
  0
BLOCK_RECORD
  5
5A
330
1
100
AcDbSymbolTableRecord
100
AcDbBlockTableRecord
  2
*X11
340
0
102
{BLKREFS
331
62
102
}
  0
BLOCK_RECORD
  5
64
330
1
100
AcDbSymbolTableRecord
100
AcDbBlockTableRecord
  2
*X22
340
0
102
{BLKREFS
331
6B
102
}
  0
BLOCK_RECORD
  5
A8
330
1
100
AcDbSymbolTableRecord
100
AcDbBlockTableRecord
  2
*D3
340
0
  0
BLOCK_RECORD
  5
B5
330
1
100
AcDbSymbolTableRecord
100
AcDbBlockTableRecord
  2
*D4
340
0
  0
ENDTAB
  0
ENDSEC
  0
SECTION
  2
BLOCKS
  0
BLOCK
  5
20
330
1F
100
AcDbEntity
  8
0
100
AcDbBlockBegin
  2
*Model_Space
 70
     0
 71
     0
 10
0.0
 20
0.0
 30
0.0
  3
*Model_Space
  1

  0
ENDBLK
  5
21
330
1F
100
AcDbEntity
  8
0
100
AcDbBlockEnd
  0
BLOCK
  5
1C
330
1B
100
AcDbEntity
 67
     1
  8
0
100
AcDbBlockBegin
  2
*Paper_Space
 70
     0
 71
     0
 10
0.0
 20
0.0
 30
0.0
  3
*Paper_Space
  1

  0
ENDBLK
  5
1D
330
1B
100
AcDbEntity
 67
     1
  8
0
100
AcDbBlockEnd
  0
BLOCK
  5
24
330
23
100
AcDbEntity
  8
0
100
AcDbBlockBegin
  2
*Paper_Space0
 70
     0
 71
     0
 10
0.0
 20
0.0
 30
0.0
  3
*Paper_Space0
  1

  0
ENDBLK
  5
25
330
23
100
AcDbEntity
  8
0
100
AcDbBlockEnd
  0
BLOCK
  5
5B
330
5A
100
AcDbEntity
  8
0
100
AcDbBlockBegin
  2
*X11
 70
     1
 71
     0
 10
0.0
 20
0.0
 30
0.0
  3
*X11
  1

  4
*X1
  0
LINE
  5
5E
330
5A
100
AcDbEntity
  8
LC-002-005-----0
 62
     7
370
    25
100
AcDbLine
 10
263.351501
 20
126.971533
 30
0.0
 11
264.392403
 21
125.930632
 31
0.0
  0
LINE
  5
5F
330
5A
100
AcDbEntity
  8
LC-002-005-----0
 62
     7
370
    25
100
AcDbLine
 10
265.212065
 20
127.939396
 30
0.0
 11
269.429334
 21
123.722133
 31
0.0
  0
LINE
  5
60
330
5A
100
AcDbEntity
  8
LC-002-005-----0
 62
     7
370
    25
100
AcDbLine
 10
267.07263
 20
128.907259
 30
0.0
 11
271.435554
 21
124.544341
 31
0.0
  0
LINE
  5
61
330
5A
100
AcDbEntity
  8
LC-002-005-----0
 62
     7
370
    25
100
AcDbLine
 10
269.099142
 20
129.709175
 30
0.0
 11
272.359262
 21
126.44906
 31
0.0
  0
ENDBLK
  5
5C
330
5A
100
AcDbEntity
  8
0
100
AcDbBlockEnd
  0
BLOCK
  5
65
330
64
100
AcDbEntity
  8
0
100
AcDbBlockBegin
  2
*X22
 70
     1
 71
     0
 10
0.0
 20
0.0
 30
0.0
  3
*X22
  1

  4
*X2
  0
LINE
  5
67
330
64
100
AcDbEntity
  8
LC-002-005-----0
 62
     7
370
    25
100
AcDbLine
 10
263.121591
 20
231.853176
 30
0.0
 11
263.666763
 21
231.308005
 31
0.0
  0
LINE
  5
68
330
64
100
AcDbEntity
  8
LC-002-005-----0
 62
     7
370
    25
100
AcDbLine
 10
264.982
 20
232.821196
 30
0.0
 11
269.064944
 21
228.738257
 31
0.0
  0
LINE
  5
69
330
64
100
AcDbEntity
  8
LC-002-005-----0
 62
     7
370
    25
100
AcDbLine
 10
266.842408
 20
233.789215
 30
0.0
 11
271.248323
 21
229.383306
 31
0.0
  0
LINE
  5
6A
330
64
100
AcDbEntity
  8
LC-002-005-----0
 62
     7
370
    25
100
AcDbLine
 10
268.79335
 20
234.666701
 30
0.0
 11
272.314228
 21
231.145828
 31
0.0
  0
ENDBLK
  5
66
330
64
100
AcDbEntity
  8
0
100
AcDbBlockEnd
  0
BLOCK
  5
B2
330
A8
100
AcDbEntity
  8
0
100
AcDbBlockBegin
  2
*D3
 70
     1
 71
     0
 10
0.0
 20
0.0
 30
0.0
  3
*D3
  1

  0
LINE
  5
A9
330
A8
100
AcDbEntity
  8
LC-005-003-----0
 62
     2
370
    -2
100
AcDbLine
 10
318.269786
 20
214.222685
 30
0.0
 11
440.537425
 21
214.222685
 31
0.0
  0
LINE
  5
AA
330
A8
100
AcDbEntity
  8
LC-005-003-----0
 62
     2
370
    -2
100
AcDbLine
 10
318.269786
 20
144.222685
 30
0.0
 11
440.537425
 21
144.222685
 31
0.0
  0
LINE
  5
AB
330
A8
100
AcDbEntity
  8
LC-005-003-----0
 62
     2
370
    -2
100
AcDbLine
 10
436.937425
 20
186.222685
 30
0.0
 11
436.937425
 21
172.222685
 31
0.0
  0
SOLID
  5
AC
330
A8
100
AcDbEntity
  8
LC-005-003-----0
 62
     2
100
AcDbTrace
 10
441.604091
 20
186.222685
 30
0.0
 11
432.270758
 21
186.222685
 31
0.0
 12
436.937425
 22
214.222685
 32
0.0
 13
436.937425
 23
214.222685
 33
0.0
  0
SOLID
  5
AD
330
A8
100
AcDbEntity
  8
LC-005-003-----0
 62
     2
100
AcDbTrace
 10
432.270758
 20
172.222685
 30
0.0
 11
441.604091
 21
172.222685
 31
0.0
 12
436.937425
 22
144.222685
 32
0.0
 13
436.937425
 23
144.222685
 33
0.0
  0
MTEXT
  5
AE
330
A8
100
AcDbEntity
  8
LC-005-003-----0
 62
     2
100
AcDbMText
 10
406.137425
 20
173.448
 30
0.0
 40
28.0
 41
0.0
 71
     5
 72
     1
  1
\A1;70
  7
LCTX15-400-0-0pDIN-Schrift
 11
6.123031769111886E-17
 21
1.0
 31
0.0
 73
     1
 44
1.0
  0
POINT
  5
AF
330
A8
100
AcDbEntity
  8
Defpoints
 62
     0
100
AcDbPoint
 10
318.269786
 20
214.222685
 30
0.0
  0
POINT
  5
B0
330
A8
100
AcDbEntity
  8
Defpoints
 62
     0
100
AcDbPoint
 10
318.269786
 20
144.222685
 30
0.0
  0
POINT
  5
B1
330
A8
100
AcDbEntity
  8
Defpoints
 62
     0
100
AcDbPoint
 10
436.937425
 20
144.222685
 30
0.0
  0
ENDBLK
  5
B3
330
A8
100
AcDbEntity
  8
0
100
AcDbBlockEnd
  0
BLOCK
  5
BF
330
B5
100
AcDbEntity
  8
0
100
AcDbBlockBegin
  2
*D4
 70
     1
 71
     0
 10
0.0
 20
0.0
 30
0.0
  3
*D4
  1

  0
LINE
  5
B6
330
B5
100
AcDbEntity
  8
LC-005-003-----0
 62
     2
370
    -2
100
AcDbLine
 10
262.872671
 20
179.222149
 30
0.0
 11
262.872671
 21
77.184
 31
0.0
  0
LINE
  5
B7
330
B5
100
AcDbEntity
  8
LC-005-003-----0
 62
     2
370
    -2
100
AcDbLine
 10
373.872671
 20
179.222685
 30
0.0
 11
373.872671
 21
77.184
 31
0.0
  0
LINE
  5
B8
330
B5
100
AcDbEntity
  8
LC-005-003-----0
 62
     2
370
    -2
100
AcDbLine
 10
290.872671
 20
80.784
 30
0.0
 11
345.872671
 21
80.784
 31
0.0
  0
SOLID
  5
B9
330
B5
100
AcDbEntity
  8
LC-005-003-----0
 62
     2
100
AcDbTrace
 10
290.872671
 20
85.450667
 30
0.0
 11
290.872671
 21
76.117333
 31
0.0
 12
262.872671
 22
80.784
 32
0.0
 13
262.872671
 23
80.784
 33
0.0
  0
SOLID
  5
BA
330
B5
100
AcDbEntity
  8
LC-005-003-----0
 62
     2
100
AcDbTrace
 10
345.872671
 20
76.117333
 30
0.0
 11
345.872671
 21
85.450667
 31
0.0
 12
373.872671
 22
80.784
 32
0.0
 13
373.872671
 23
80.784
 33
0.0
  0
MTEXT
  5
BB
330
B5
100
AcDbEntity
  8
LC-005-003-----0
 62
     2
100
AcDbMText
 10
315.490444
 20
111.584
 30
0.0
 40
28.0
 41
0.0
 71
     5
 72
     1
  1
\A1;110
  7
LCTX15-400-0-0pDIN-Schrift
 73
     1
 44
1.0
  0
POINT
  5
BC
330
B5
100
AcDbEntity
  8
Defpoints
 62
     0
100
AcDbPoint
 10
262.872671
 20
179.222149
 30
0.0
  0
POINT
  5
BD
330
B5
100
AcDbEntity
  8
Defpoints
 62
     0
100
AcDbPoint
 10
373.872671
 20
179.222685
 30
0.0
  0
POINT
  5
BE
330
B5
100
AcDbEntity
  8
Defpoints
 62
     0
100
AcDbPoint
 10
373.872671
 20
80.784
 30
0.0
  0
ENDBLK
  5
C0
330
B5
100
AcDbEntity
  8
0
100
AcDbBlockEnd
  0
ENDSEC
  0
SECTION
  2
ENTITIES
  0
LINE
  5
31
102
{ACAD_REACTORS
330
C1
102
}
330
1F
100
AcDbEntity
  8
LC-001-002-----0
 62
     7
370
    50
100
AcDbLine
 10
325.769786
 20
210.978897
 30
0.0
 11
325.769786
 21
146.586985
 31
0.0
  0
LINE
  5
32
102
{ACAD_REACTORS
330
C1
102
}
330
1F
100
AcDbEntity
  8
LC-001-002-----0
 62
     7
370
    50
100
AcDbLine
 10
333.269786
 20
193.860016
 30
0.0
 11
333.269786
 21
164.585354
 31
0.0
  0
LINE
  5
33
102
{ACAD_REACTORS
330
C1
102
}
330
1F
100
AcDbEntity
  8
LC-001-002-----0
 62
     7
370
    50
100
AcDbLine
 10
274.373677
 20
146.722685
 30
0.0
 11
251.373677
 21
146.722685
 31
0.0
  0
LINE
  5
34
102
{ACAD_REACTORS
330
C1
102
}
330
1F
100
AcDbEntity
  8
LC-001-002-----0
 62
     7
370
    50
100
AcDbLine
 10
247.373677
 20
148.722685
 30
0.0
 11
247.373677
 21
159.722685
 31
0.0
  0
LINE
  5
35
102
{ACAD_REACTORS
330
C1
102
}
330
1F
100
AcDbEntity
  8
LC-001-002-----0
 62
     7
370
    50
100
AcDbLine
 10
247.373677
 20
159.722685
 30
0.0
 11
278.373677
 21
159.722685
 31
0.0
  0
LINE
  5
36
102
{ACAD_REACTORS
330
C1
102
}
330
1F
100
AcDbEntity
  8
LC-001-002-----0
 62
     7
370
    50
100
AcDbLine
 10
278.373677
 20
159.722685
 30
0.0
 11
278.373677
 21
148.722693
 31
0.0
  0
LINE
  5
37
102
{ACAD_REACTORS
330
C1
102
}
330
1F
100
AcDbEntity
  8
LC-001-002-----0
 62
     7
370
    50
100
AcDbLine
 10
270.373677
 20
159.722685
 30
0.0
 11
270.373677
 21
148.722685
 31
0.0
  0
LINE
  5
38
102
{ACAD_REACTORS
330
C1
102
}
330
1F
100
AcDbEntity
  8
LC-001-002-----0
 62
     7
370
    50
100
AcDbLine
 10
255.373677
 20
148.722693
 30
0.0
 11
255.373677
 21
159.722685
 31
0.0
  0
LINE
  5
39
102
{ACAD_REACTORS
330
C1
102
}
330
1F
100
AcDbEntity
  8
LC-001-002-----0
 62
     7
370
    50
100
AcDbLine
 10
251.37209
 20
211.722685
 30
0.0
 11
274.37209
 21
211.722685
 31
0.0
  0
LINE
  5
3A
102
{ACAD_REACTORS
330
C1
102
}
330
1F
100
AcDbEntity
  8
LC-001-002-----0
 62
     7
370
    50
100
AcDbLine
 10
247.373677
 20
198.722685
 30
0.0
 11
247.373677
 21
209.721705
 31
0.0
  0
LINE
  5
3B
102
{ACAD_REACTORS
330
C1
102
}
330
1F
100
AcDbEntity
  8
LC-001-002-----0
 62
     7
370
    50
100
AcDbLine
 10
278.373677
 20
198.722685
 30
0.0
 11
247.373677
 21
198.722685
 31
0.0
  0
LINE
  5
3C
102
{ACAD_REACTORS
330
C1
102
}
330
1F
100
AcDbEntity
  8
LC-001-002-----0
 62
     7
370
    50
100
AcDbLine
 10
278.373677
 20
209.719444
 30
0.0
 11
278.373677
 21
198.722685
 31
0.0
  0
LINE
  5
3D
102
{ACAD_REACTORS
330
C1
102
}
330
1F
100
AcDbEntity
  8
LC-001-002-----0
 62
     7
370
    50
100
AcDbLine
 10
270.373677
 20
209.721583
 30
0.0
 11
270.373677
 21
198.722685
 31
0.0
  0
LINE
  5
3E
102
{ACAD_REACTORS
330
C1
102
}
330
1F
100
AcDbEntity
  8
LC-001-002-----0
 62
     7
370
    50
100
AcDbLine
 10
255.373677
 20
198.722685
 30
0.0
 11
255.373677
 21
209.722565
 31
0.0
  0
LINE
  5
3F
102
{ACAD_REACTORS
330
C1
102
}
330
1F
100
AcDbEntity
  8
LC-001-002-----0
 62
     7
370
    50
100
AcDbLine
 10
283.408275
 20
192.722685
 30
0.0
 11
283.408275
 21
165.722685
 31
0.0
  0
LINE
  5
40
102
{ACAD_REACTORS
330
C1
102
}
330
1F
100
AcDbEntity
  8
LC-001-002-----0
 62
     7
370
    50
100
AcDbLine
 10
283.408275
 20
192.722685
 30
0.0
 11
286.872671
 21
192.722685
 31
0.0
  0
LINE
  5
41
102
{ACAD_REACTORS
330
C1
102
}
330
1F
100
AcDbEntity
  8
LC-001-002-----0
 62
     7
370
    50
100
AcDbLine
 10
288.872671
 20
192.222685
 30
0.0
 11
288.872671
 21
166.222685
 31
0.0
  0
LINE
  5
42
102
{ACAD_REACTORS
330
C1
102
}
330
1F
100
AcDbEntity
  8
LC-001-002-----0
 62
     7
370
    50
100
AcDbLine
 10
286.872671
 20
165.722685
 30
0.0
 11
283.408275
 21
165.722685
 31
0.0
  0
LINE
  5
43
102
{ACAD_REACTORS
330
C1
102
}
330
1F
100
AcDbEntity
  8
LC-001-002-----0
 62
     7
370
    50
100
AcDbLine
 10
286.872671
 20
192.722685
 30
0.0
 11
286.872671
 21
165.722685
 31
0.0
  0
LINE
  5
44
102
{ACAD_REACTORS
330
C1
102
}
330
1F
100
AcDbEntity
  8
LC-001-002-----0
 62
     7
370
    50
100
AcDbLine
 10
286.872671
 20
191.722685
 30
0.0
 11
288.872671
 21
191.722685
 31
0.0
  0
LINE
  5
45
102
{ACAD_REACTORS
330
C1
102
}
330
1F
100
AcDbEntity
  8
LC-001-002-----0
 62
     7
370
    50
100
AcDbLine
 10
288.872671
 20
166.722685
 30
0.0
 11
286.872671
 21
166.722685
 31
0.0
  0
LINE
  5
46
102
{ACAD_REACTORS
330
C1
102
}
330
1F
100
AcDbEntity
  8
LC-001-002-----0
 62
     7
370
    50
100
AcDbLine
 10
278.373677
 20
159.722685
 30
0.0
 11
283.408275
 21
165.722685
 31
0.0
  0
LINE
  5
47
102
{ACAD_REACTORS
330
C1
102
}
330
1F
100
AcDbEntity
  8
LC-001-002-----0
 62
     7
370
    50
100
AcDbLine
 10
278.373677
 20
198.722685
 30
0.0
 11
283.408275
 21
192.722685
 31
0.0
  0
ARC
  5
48
102
{ACAD_REACTORS
330
C1
102
}
330
1F
100
AcDbEntity
  8
LC-001-002-----0
 62
     7
370
    50
100
AcDbCircle
 10
289.373677
 20
179.222685
 30
0.0
 40
44.50000000000568
100
AcDbArc
 50
154.010881
 51
205.98893
  0
ARC
  5
49
102
{ACAD_REACTORS
330
C1
102
}
330
1F
100
AcDbEntity
  8
LC-001-002-----0
 62
     7
370
    50
100
AcDbCircle
 10
262.873677
 20
161.785185
 30
0.0
 40
15.06250000000191
100
AcDbArc
 50
240.137224
 51
299.862951
  0
ARC
  5
4A
102
{ACAD_REACTORS
330
C1
102
}
330
1F
100
AcDbEntity
  8
LC-001-002-----0
 62
     7
370
    50
100
AcDbCircle
 10
251.373677
 20
151.722685
 30
0.0
 40
5.000000000000621
100
AcDbArc
 50
216.869956
 51
323.130219
  0
ARC
  5
4B
102
{ACAD_REACTORS
330
C1
102
}
330
1F
100
AcDbEntity
  8
LC-001-002-----0
 62
     7
370
    50
100
AcDbCircle
 10
274.373677
 20
151.722685
 30
0.0
 40
5.000000000000473
100
AcDbArc
 50
216.869956
 51
323.130219
  0
ARC
  5
4C
102
{ACAD_REACTORS
330
C1
102
}
330
1F
100
AcDbEntity
  8
LC-001-002-----0
 62
     7
370
    50
100
AcDbCircle
 10
251.37209
 20
206.721684
 30
0.0
 40
5.000000000000887
100
AcDbArc
 50
36.869477
 51
143.129798
  0
ARC
  5
4D
102
{ACAD_REACTORS
330
C1
102
}
330
1F
100
AcDbEntity
  8
LC-001-002-----0
 62
     7
370
    50
100
AcDbCircle
 10
262.872036
 20
196.659123
 30
0.0
 40
15.06250000000257
100
AcDbArc
 50
60.136745
 51
119.86253
  0
ARC
  5
4E
102
{ACAD_REACTORS
330
C1
102
}
330
1F
100
AcDbEntity
  8
LC-001-002-----0
 62
     7
370
    50
100
AcDbCircle
 10
274.37209
 20
206.721562
 30
0.0
 40
5.000000000000728
100
AcDbArc
 50
36.869477
 51
143.129798
  0
LINE
  5
4F
102
{ACAD_REACTORS
330
C1
102
}
330
1F
100
AcDbEntity
  8
LC-001-002-----0
 62
     7
370
    50
100
AcDbLine
 10
272.373677
 20
211.722685
 30
0.0
 11
272.373677
 21
231.722685
 31
0.0
  0
LINE
  5
50
102
{ACAD_REACTORS
330
C1
102
}
330
1F
100
AcDbEntity
  8
LC-001-002-----0
 62
     7
370
    50
100
AcDbLine
 10
253.373677
 20
211.722685
 30
0.0
 11
253.373677
 21
231.722685
 31
0.0
  0
ARC
  5
51
102
{ACAD_REACTORS
330
C1
102
}
330
1F
100
AcDbEntity
  8
LC-001-002-----0
 62
     7
370
    50
100
AcDbCircle
 10
256.373677
 20
231.722685
 30
0.0
 40
3.000000000000272
100
AcDbArc
 50
63.611304
 51
179.999829
  0
ARC
  5
52
102
{ACAD_REACTORS
330
C1
102
}
330
1F
100
AcDbEntity
  8
LC-001-002-----0
 62
     7
370
    50
100
AcDbCircle
 10
269.373677
 20
231.722685
 30
0.0
 40
3.000000000000032
100
AcDbArc
 50
242.515991
 51
117.488959
  0
LINE
  5
53
102
{ACAD_REACTORS
330
C1
102
}
330
1F
100
AcDbEntity
  8
LC-001-002-----0
 62
     7
370
    50
100
AcDbLine
 10
257.707052
 20
234.410083
 30
0.0
 11
267.989188
 21
229.061259
 31
0.0
  0
LINE
  5
54
102
{ACAD_REACTORS
330
C1
102
}
330
1F
100
AcDbEntity
  8
LC-001-002-----0
 62
     7
370
    50
100
AcDbLine
 10
262.873677
 20
231.722376
 30
0.0
 11
267.988935
 21
234.38398
 31
0.0
  0
LINE
  5
55
102
{ACAD_REACTORS
330
C1
102
}
330
1F
100
AcDbEntity
  8
LC-001-002-----0
 62
     7
370
    50
100
AcDbLine
 10
253.371771
 20
146.721664
 30
0.0
 11
253.371665
 21
126.721664
 31
0.0
  0
ARC
  5
56
102
{ACAD_REACTORS
330
C1
102
}
330
1F
100
AcDbEntity
  8
LC-001-002-----0
 62
     7
370
    50
100
AcDbCircle
 10
256.371665
 20
126.721648
 30
0.0
 40
3.000000000000403
100
AcDbArc
 50
179.999925
 51
296.388392
  0
LINE
  5
57
102
{ACAD_REACTORS
330
C1
102
}
330
1F
100
AcDbEntity
  8
LC-001-002-----0
 62
     7
370
    50
100
AcDbLine
 10
257.705026
 20
124.034243
 30
0.0
 11
267.98719
 21
129.383013
 31
0.0
  0
LINE
  5
58
102
{ACAD_REACTORS
330
C1
102
}
330
1F
100
AcDbEntity
  8
LC-001-002-----0
 62
     7
370
    50
100
AcDbLine
 10
262.871665
 20
126.721922
 30
0.0
 11
267.986909
 21
124.060292
 31
0.0
  0
ARC
  5
59
102
{ACAD_REACTORS
330
C1
102
}
330
1F
100
AcDbEntity
  8
LC-001-002-----0
 62
     7
370
    50
100
AcDbCircle
 10
269.371665
 20
126.721579
 30
0.0
 40
3.000000000000317
100
AcDbArc
 50
242.510567
 51
117.483704
  0
INSERT
  5
62
102
{ACAD_REACTORS
330
C1
102
}
330
1F
100
AcDbEntity
  8
LC-002-005-----0
 62
     7
370
    25
100
AcDbBlockReference
  2
*X11
 10
0.0
 20
0.0
 30
0.0
  0
LINE
  5
63
102
{ACAD_REACTORS
330
C1
102
}
330
1F
100
AcDbEntity
  8
LC-001-002-----0
 62
     7
370
    50
100
AcDbLine
 10
272.371665
 20
126.721579
 30
0.0
 11
272.371665
 21
146.722685
 31
0.0
  0
INSERT
  5
6B
102
{ACAD_REACTORS
330
C1
102
}
330
1F
100
AcDbEntity
  8
LC-002-005-----0
 62
     7
370
    25
100
AcDbBlockReference
  2
*X22
 10
0.0
 20
0.0
 30
0.0
  0
LINE
  5
6C
102
{ACAD_REACTORS
330
C1
102
}
330
1F
100
AcDbEntity
  8
LC-001-002-----0
 62
     7
370
    50
100
AcDbLine
 10
318.269786
 20
214.222685
 30
0.0
 11
318.269786
 21
144.222685
 31
0.0
  0
LINE
  5
6D
102
{ACAD_REACTORS
330
C1
102
}
330
1F
100
AcDbEntity
  8
LC-001-002-----0
 62
     7
370
    50
100
AcDbLine
 10
288.872671
 20
192.222685
 30
0.0
 11
318.269786
 21
192.222685
 31
0.0
  0
LINE
  5
6E
102
{ACAD_REACTORS
330
C1
102
}
330
1F
100
AcDbEntity
  8
LC-001-002-----0
 62
     7
370
    50
100
AcDbLine
 10
318.269786
 20
166.222685
 30
0.0
 11
288.872671
 21
166.222685
 31
0.0
  0
LINE
  5
6F
102
{ACAD_REACTORS
330
C1
102
}
330
1F
100
AcDbEntity
  8
LC-001-002-----0
 62
     7
370
    50
100
AcDbLine
 10
318.269786
 20
144.222685
 30
0.0
 11
324.383785
 21
144.222685
 31
0.0
  0
LINE
  5
70
102
{ACAD_REACTORS
330
C1
102
}
330
1F
100
AcDbEntity
  8
LC-001-002-----0
 62
     7
370
    50
100
AcDbLine
 10
333.872671
 20
193.222685
 30
0.0
 11
333.269786
 21
193.222685
 31
0.0
  0
LINE
  5
71
102
{ACAD_REACTORS
330
C1
102
}
330
1F
100
AcDbEntity
  8
LC-001-002-----0
 62
     7
370
    50
100
AcDbLine
 10
326.256443
 20
145.520438
 30
0.0
 11
333.142444
 21
163.883107
 31
0.0
  0
LINE
  5
72
102
{ACAD_REACTORS
330
C1
102
}
330
1F
100
AcDbEntity
  8
LC-001-002-----0
 62
     7
370
    50
100
AcDbLine
 10
333.872671
 20
165.222685
 30
0.0
 11
333.269786
 21
165.222685
 31
0.0
  0
LINE
  5
73
102
{ACAD_REACTORS
330
C1
102
}
330
1F
100
AcDbEntity
  8
LC-001-002-----0
 62
     7
370
    50
100
AcDbLine
 10
326.256443
 20
212.924932
 30
0.0
 11
333.142444
 21
194.562263
 31
0.0
  0
LINE
  5
74
102
{ACAD_REACTORS
330
C1
102
}
330
1F
100
AcDbEntity
  8
LC-001-002-----0
 62
     7
370
    50
100
AcDbLine
 10
318.269786
 20
214.222685
 30
0.0
 11
324.383785
 21
214.222685
 31
0.0
  0
ARC
  5
76
102
{ACAD_REACTORS
330
C1
102
}
330
1F
100
AcDbEntity
  8
LC-003-002-RND-0
 62
     7
370
    50
100
AcDbCircle
 10
324.383785
 20
212.222685
 30
0.0
 40
1.999999999999979
100
AcDbArc
 50
20.556045
 51
90.0
  0
ARC
  5
77
102
{ACAD_REACTORS
330
C1
102
}
330
1F
100
AcDbEntity
  8
LC-003-002-RND-0
 62
     7
370
    50
100
AcDbCircle
 10
324.383785
 20
146.222685
 30
0.0
 40
2.0
100
AcDbArc
 50
270.0
 51
339.443955
  0
LINE
  5
7A
102
{ACAD_REACTORS
330
C1
102
}
330
1F
100
AcDbEntity
  8
LC-004-006-MLN-0
 62
     7
370
    25
100
AcDbLine
 10
262.873869
 20
241.722376
 30
0.0
 11
262.871474
 21
116.721922
 31
0.0
  0
ARC
  5
7B
102
{ACAD_REACTORS
330
C1
102
}
330
1F
100
AcDbEntity
  8
LC-003-002-RND-0
 62
     7
370
    50
100
AcDbCircle
 10
331.269786
 20
164.585354
 30
0.0
 40
1.999999999999998
100
AcDbArc
 50
339.443955
 51
0.0
  0
ARC
  5
7C
102
{ACAD_REACTORS
330
C1
102
}
330
1F
100
AcDbEntity
  8
LC-003-002-RND-0
 62
     7
370
    50
100
AcDbCircle
 10
331.269786
 20
193.860016
 30
0.0
 40
2.0
100
AcDbArc
 50
0.0
 51
20.556045
  0
ARC
  5
7D
102
{ACAD_REACTORS
330
C1
102
}
330
1F
100
AcDbEntity
  8
LC-003-002-RND-0
 62
     7
370
    50
100
AcDbCircle
 10
331.269786
 20
193.860016
 30
0.0
 40
2.0
100
AcDbArc
 50
0.0
 51
20.556045
  0
LINE
  5
7E
102
{ACAD_REACTORS
330
C1
102
}
330
1F
100
AcDbEntity
  8
LC-004-006-MLN-0
 62
     7
370
    25
100
AcDbLine
 10
234.873677
 20
179.222685
 30
0.0
 11
383.872671
 21
179.222685
 31
0.0
  0
LINE
  5
7F
102
{ACAD_REACTORS
330
C1
102
}
330
1F
100
AcDbEntity
  8
LC-001-002-----0
 62
     7
370
    50
100
AcDbLine
 10
333.872671
 20
164.222685
 30
0.0
 11
333.872671
 21
194.222685
 31
0.0
  0
LINE
  5
80
102
{ACAD_REACTORS
330
C1
102
}
330
1F
100
AcDbEntity
  8
LC-001-002-----0
 62
     7
370
    50
100
AcDbLine
 10
333.872671
 20
164.222685
 30
0.0
 11
333.872671
 21
166.472685
 31
0.0
  0
LINE
  5
81
102
{ACAD_REACTORS
330
C1
102
}
330
1F
100
AcDbEntity
  8
LC-001-002-----0
 62
     7
370
    50
100
AcDbLine
 10
333.872671
 20
194.222685
 30
0.0
 11
333.872671
 21
191.972685
 31
0.0
  0
LINE
  5
82
102
{ACAD_REACTORS
330
C1
102
}
330
1F
100
AcDbEntity
  8
LC-001-002-----0
 62
     7
370
    50
100
AcDbLine
 10
354.872671
 20
164.222685
 30
0.0
 11
354.872671
 21
194.222685
 31
0.0
  0
LINE
  5
83
102
{ACAD_REACTORS
330
C1
102
}
330
1F
100
AcDbEntity
  8
LC-001-002-----0
 62
     7
370
    50
100
AcDbLine
 10
354.872671
 20
194.222685
 30
0.0
 11
333.872671
 21
194.222685
 31
0.0
  0
LINE
  5
84
102
{ACAD_REACTORS
330
C1
102
}
330
1F
100
AcDbEntity
  8
LC-001-002-----0
 62
     7
370
    50
100
AcDbLine
 10
354.872671
 20
164.222685
 30
0.0
 11
333.872671
 21
164.222685
 31
0.0
  0
LINE
  5
85
102
{ACAD_REACTORS
330
C1
102
}
330
1F
100
AcDbEntity
  8
LC-001-002-----0
 62
     7
370
    50
100
AcDbLine
 10
367.872671
 20
164.222685
 30
0.0
 11
367.872671
 21
194.222685
 31
0.0
  0
LINE
  5
86
102
{ACAD_REACTORS
330
C1
102
}
330
1F
100
AcDbEntity
  8
LC-001-002-----0
 62
     7
370
    50
100
AcDbLine
 10
364.872671
 20
197.222685
 30
0.0
 11
357.872671
 21
197.222685
 31
0.0
  0
LINE
  5
87
102
{ACAD_REACTORS
330
C1
102
}
330
1F
100
AcDbEntity
  8
LC-001-002-----0
 62
     7
370
    50
100
AcDbLine
 10
364.872671
 20
161.222685
 30
0.0
 11
357.872671
 21
161.222685
 31
0.0
  0
ARC
  5
88
102
{ACAD_REACTORS
330
C1
102
}
330
1F
100
AcDbEntity
  8
LC-003-002-RND-0
 62
     7
370
    50
100
AcDbCircle
 10
364.872671
 20
164.222685
 30
0.0
 40
2.999999999999943
100
AcDbArc
 50
270.0
 51
360.0
  0
ARC
  5
89
102
{ACAD_REACTORS
330
C1
102
}
330
1F
100
AcDbEntity
  8
LC-003-002-RND-0
 62
     7
370
    50
100
AcDbCircle
 10
357.872671
 20
164.222685
 30
0.0
 40
3.0
100
AcDbArc
 50
180.0
 51
270.0
  0
ARC
  5
8A
102
{ACAD_REACTORS
330
C1
102
}
330
1F
100
AcDbEntity
  8
LC-003-002-RND-0
 62
     7
370
    50
100
AcDbCircle
 10
357.872671
 20
194.222685
 30
0.0
 40
3.000000000000057
100
AcDbArc
 50
90.0
 51
180.0
  0
ARC
  5
8B
102
{ACAD_REACTORS
330
C1
102
}
330
1F
100
AcDbEntity
  8
LC-003-002-RND-0
 62
     7
370
    50
100
AcDbCircle
 10
364.872671
 20
194.222685
 30
0.0
 40
3.0
100
AcDbArc
 50
360.0
 51
90.0
  0
LINE
  5
8C
102
{ACAD_REACTORS
330
C1
102
}
330
1F
100
AcDbEntity
  8
LC-001-002-----0
 62
     7
370
    50
100
AcDbLine
 10
364.872671
 20
185.722685
 30
0.0
 11
357.872671
 21
185.722685
 31
0.0
  0
LINE
  5
8D
102
{ACAD_REACTORS
330
C1
102
}
330
1F
100
AcDbEntity
  8
LC-001-002-----0
 62
     7
370
    50
100
AcDbLine
 10
364.872671
 20
172.722685
 30
0.0
 11
357.872671
 21
172.722685
 31
0.0
  0
LINE
  5
8E
102
{ACAD_REACTORS
330
C1
102
}
330
1F
100
AcDbEntity
  8
LC-001-002-----0
 62
     7
370
    50
100
AcDbLine
 10
357.872671
 20
161.222685
 30
0.0
 11
357.872671
 21
172.722685
 31
0.0
  0
ARC
  5
8F
102
{ACAD_REACTORS
330
C1
102
}
330
1F
100
AcDbEntity
  8
LC-001-002-----0
 62
     7
370
    50
100
AcDbCircle
 10
363.414338
 20
179.222685
 30
0.0
 40
8.541666666666531
100
AcDbArc
 50
130.449719
 51
229.550281
  0
LINE
  5
90
102
{ACAD_REACTORS
330
C1
102
}
330
1F
100
AcDbEntity
  8
LC-001-002-----0
 62
     7
370
    50
100
AcDbLine
 10
357.872671
 20
185.722685
 30
0.0
 11
357.872671
 21
197.222685
 31
0.0
  0
ARC
  5
91
102
{ACAD_REACTORS
330
C1
102
}
330
1F
100
AcDbEntity
  8
LC-001-002-----0
 62
     7
370
    50
100
AcDbCircle
 10
359.331005
 20
179.222685
 30
0.0
 40
8.541666666666574
100
AcDbArc
 50
310.449719
 51
49.550281
  0
LINE
  5
92
102
{ACAD_REACTORS
330
C1
102
}
330
1F
100
AcDbEntity
  8
LC-001-002-----0
 62
     7
370
    50
100
AcDbLine
 10
364.872671
 20
161.222685
 30
0.0
 11
364.872671
 21
172.722685
 31
0.0
  0
LINE
  5
93
102
{ACAD_REACTORS
330
C1
102
}
330
1F
100
AcDbEntity
  8
LC-001-002-----0
 62
     7
370
    50
100
AcDbLine
 10
364.872671
 20
185.722685
 30
0.0
 11
364.872671
 21
197.222685
 31
0.0
  0
LINE
  5
94
102
{ACAD_REACTORS
330
C1
102
}
330
1F
100
AcDbEntity
  8
LC-001-002-----0
 62
     7
370
    50
100
AcDbLine
 10
373.872671
 20
166.722685
 30
0.0
 11
373.872671
 21
191.722685
 31
0.0
  0
LINE
  5
95
102
{ACAD_REACTORS
330
C1
102
}
330
1F
100
AcDbEntity
  8
LC-001-002-----0
 62
     7
370
    50
100
AcDbLine
 10
371.372671
 20
194.222685
 30
0.0
 11
367.872671
 21
194.222685
 31
0.0
  0
LINE
  5
96
102
{ACAD_REACTORS
330
C1
102
}
330
1F
100
AcDbEntity
  8
LC-001-002-----0
 62
     7
370
    50
100
AcDbLine
 10
371.372671
 20
164.222685
 30
0.0
 11
367.872671
 21
164.222685
 31
0.0
  0
ARC
  5
97
102
{ACAD_REACTORS
330
C1
102
}
330
1F
100
AcDbEntity
  8
LC-003-002-RND-0
 62
     7
370
    50
100
AcDbCircle
 10
371.372671
 20
166.722685
 30
0.0
 40
2.5
100
AcDbArc
 50
270.0
 51
360.0
  0
ARC
  5
98
102
{ACAD_REACTORS
330
C1
102
}
330
1F
100
AcDbEntity
  8
LC-003-002-RND-0
 62
     7
370
    50
100
AcDbCircle
 10
371.372671
 20
191.722685
 30
0.0
 40
2.5
100
AcDbArc
 50
360.0
 51
90.0
  0
CIRCLE
  5
99
102
{ACAD_REACTORS
330
C2
102
}
330
1F
100
AcDbEntity
  8
LC-001-002-----0
 62
     7
370
    50
100
AcDbCircle
 10
149.347555
 20
179.222685
 30
0.0
 40
35.0
  0
ARC
  5
9A
102
{ACAD_REACTORS
330
C2
102
}
330
1F
100
AcDbEntity
  8
LC-001-002-----0
 62
     7
370
    50
100
AcDbCircle
 10
149.347555
 20
179.222685
 30
0.0
 40
17.99999999999861
100
AcDbArc
 50
112.331645
 51
187.668355
  0
CIRCLE
  5
9B
102
{ACAD_REACTORS
330
C2
102
}
330
1F
100
AcDbEntity
  8
LC-001-002-----0
 62
     7
370
    50
100
AcDbCircle
 10
149.347555
 20
179.222685
 30
0.0
 40
15.0
  0
LINE
  5
9C
102
{ACAD_REACTORS
330
C2
102
}
330
1F
100
AcDbEntity
  8
LC-004-006-MLN-0
 62
     7
370
    25
100
AcDbLine
 10
194.347555
 20
179.222685
 30
0.0
 11
104.347555
 21
179.222685
 31
0.0
  0
LINE
  5
9D
102
{ACAD_REACTORS
330
C2
102
}
330
1F
100
AcDbEntity
  8
LC-004-006-MLN-0
 62
     7
370
    25
100
AcDbLine
 10
149.347555
 20
224.222685
 30
0.0
 11
149.347555
 21
134.222685
 31
0.0
  0
ARC
  5
9E
102
{ACAD_REACTORS
330
C2
102
}
330
1F
100
AcDbEntity
  8
LC-001-002-----0
 62
     7
370
    50
100
AcDbCircle
 10
149.347555
 20
209.222685
 30
0.0
 40
14.99999999999972
100
AcDbArc
 50
242.873247
 51
297.126753
  0
ARC
  5
9F
102
{ACAD_REACTORS
330
C2
102
}
330
1F
100
AcDbEntity
  8
LC-001-002-----0
 62
     7
370
    50
100
AcDbCircle
 10
123.366793
 20
164.222685
 30
0.0
 40
14.99999999999985
100
AcDbArc
 50
2.873247
 51
57.126753
  0
ARC
  5
A0
102
{ACAD_REACTORS
330
C2
102
}
330
1F
100
AcDbEntity
  8
LC-001-002-----0
 62
     7
370
    50
100
AcDbCircle
 10
175.328317
 20
164.222685
 30
0.0
 40
14.99999999999982
100
AcDbArc
 50
122.873247
 51
177.126753
  0
ARC
  5
A1
102
{ACAD_REACTORS
330
C2
102
}
330
1F
100
AcDbEntity
  8
LC-001-002-----0
 62
     7
370
    50
100
AcDbCircle
 10
149.347555
 20
179.222685
 30
0.0
 40
17.99999999999771
100
AcDbArc
 50
352.331645
 51
67.668355
  0
ARC
  5
A2
102
{ACAD_REACTORS
330
C2
102
}
330
1F
100
AcDbEntity
  8
LC-001-002-----0
 62
     7
370
    50
100
AcDbCircle
 10
149.347555
 20
179.222685
 30
0.0
 40
17.99999999999923
100
AcDbArc
 50
232.331645
 51
307.668355
  0
DIMENSION
  5
A6
330
1F
100
AcDbEntity
  8
LC-005-003-----0
 62
     7
370
    25
100
AcDbDimension
  2
*D3
 10
436.937425
 20
144.222685
 30
0.0
 11
406.137425
 21
173.448
 31
0.0
 70
   160
 71
     5
 42
70.0
 53
90.0
  3
LC-DIM-L-0140-02-02
100
AcDbAlignedDimension
 13
318.269786
 23
214.222685
 33
0.0
 14
318.269786
 24
144.222685
 34
0.0
 50
90.0
100
AcDbRotatedDimension
  0
DIMENSION
  5
B4
330
1F
100
AcDbEntity
  8
LC-005-003-----0
 62
     7
370
    25
100
AcDbDimension
  2
*D4
 10
373.872671
 20
80.784
 30
0.0
 11
315.490444
 21
111.584
 31
0.0
 70
   160
  1
110
 71
     5
 42
111.0
  3
LC-DIM-L-0140-02-02
100
AcDbAlignedDimension
 13
262.872671
 23
179.222149
 33
0.0
 14
373.872671
 24
179.222685
 34
0.0
100
AcDbRotatedDimension
  0
ENDSEC
  0
SECTION
  2
OBJECTS
  0
DICTIONARY
  5
C
330
0
100
AcDbDictionary
281
     1
  3
ACAD_GROUP
350
D
  3
ACAD_LAYOUT
350
1A
  3
ACAD_MLINESTYLE
350
17
  3
ACAD_PLOTSETTINGS
350
19
  3
ACAD_PLOTSTYLENAME
350
E
  0
DICTIONARY
  5
D
102
{ACAD_REACTORS
330
C
102
}
330
C
100
AcDbDictionary
281
     1
  3
LCGROUP100
350
C1
  3
LCGROUP113
350
C2
  0
DICTIONARY
  5
1A
102
{ACAD_REACTORS
330
C
102
}
330
C
100
AcDbDictionary
281
     1
  3
Layout1
350
1E
  3
Layout2
350
26
  3
Model
350
22
  0
DICTIONARY
  5
17
102
{ACAD_REACTORS
330
C
102
}
330
C
100
AcDbDictionary
281
     1
  3
Standard
350
18
  0
DICTIONARY
  5
19
102
{ACAD_REACTORS
330
C
102
}
330
C
100
AcDbDictionary
281
     1
  0
ACDBDICTIONARYWDFLT
  5
E
102
{ACAD_REACTORS
330
C
102
}
330
C
100
AcDbDictionary
281
     1
  3
Normal
350
F
100
AcDbDictionaryWithDefault
340
F
  0
GROUP
  5
C1
102
{ACAD_REACTORS
330
D
102
}
330
D
100
AcDbGroup
300
UP Ventil
 70
     1
 71
     1
340
31
340
32
340
33
340
34
340
35
340
36
340
37
340
38
340
39
340
3A
340
3B
340
3C
340
3D
340
3E
340
3F
340
40
340
41
340
42
340
43
340
44
340
45
340
46
340
47
340
48
340
49
340
4A
340
4B
340
4C
340
4D
340
4E
340
4F
340
50
340
51
340
52
340
53
340
54
340
55
340
56
340
57
340
58
340
59
340
62
340
63
340
6B
340
6C
340
6D
340
6E
340
6F
340
70
340
71
340
72
340
73
340
74
340
76
340
77
340
7A
340
7B
340
7C
340
7D
340
7E
340
7F
340
80
340
81
340
82
340
83
340
84
340
85
340
86
340
87
340
88
340
89
340
8A
340
8B
340
8C
340
8D
340
8E
340
8F
340
90
340
91
340
92
340
93
340
94
340
95
340
96
340
97
340
98
  0
GROUP
  5
C2
102
{ACAD_REACTORS
330
D
102
}
330
D
100
AcDbGroup
300
GRP113
 70
     1
 71
     1
340
99
340
9A
340
9B
340
9C
340
9D
340
9E
340
9F
340
A0
340
A1
340
A2
  0
LAYOUT
  5
1E
102
{ACAD_REACTORS
330
1A
102
}
330
1A
100
AcDbPlotSettings
  1

  2

  4

  6

 40
0.0
 41
0.0
 42
0.0
 43
0.0
 44
0.0
 45
0.0
 46
0.0
 47
0.0
 48
0.0
 49
0.0
140
0.0
141
0.0
142
1.0
143
1.0
 70
   688
 72
     0
 73
     0
 74
     5
  7

 75
    16
147
1.0
148
0.0
149
0.0
100
AcDbLayout
  1
Layout1
 70
     1
 71
     1
 10
-210.0
 20
-148.5
 11
630.0
 21
445.5
 12
0.0
 22
0.0
 32
0.0
 14
-210.0
 24
-148.5
 34
0.0
 15
630.0
 25
445.5
 35
0.0
146
0.0
 13
0.0
 23
0.0
 33
0.0
 16
1.0
 26
0.0
 36
0.0
 17
0.0
 27
1.0
 37
0.0
 76
     0
330
1B
  0
LAYOUT
  5
26
102
{ACAD_REACTORS
330
1A
102
}
330
1A
100
AcDbPlotSettings
  1

  2

  4

  6

 40
0.0
 41
0.0
 42
0.0
 43
0.0
 44
0.0
 45
0.0
 46
0.0
 47
0.0
 48
0.0
 49
0.0
140
0.0
141
0.0
142
1.0
143
1.0
 70
   688
 72
     0
 73
     0
 74
     5
  7

 75
    16
147
1.0
148
0.0
149
0.0
100
AcDbLayout
  1
Layout2
 70
     1
 71
     2
 10
0.0
 20
0.0
 11
0.0
 21
0.0
 12
0.0
 22
0.0
 32
0.0
 14
0.0
 24
0.0
 34
0.0
 15
0.0
 25
0.0
 35
0.0
146
0.0
 13
0.0
 23
0.0
 33
0.0
 16
1.0
 26
0.0
 36
0.0
 17
0.0
 27
1.0
 37
0.0
 76
     0
330
23
  0
LAYOUT
  5
22
102
{ACAD_REACTORS
330
1A
102
}
330
1A
100
AcDbPlotSettings
  1

  2

  4

  6

 40
0.0
 41
0.0
 42
0.0
 43
0.0
 44
0.0
 45
0.0
 46
0.0
 47
0.0
 48
0.0
 49
0.0
140
0.0
141
0.0
142
1.0
143
1.0
 70
  1776
 72
     0
 73
     0
 74
     0
  7

 75
     0
147
1.0
148
0.0
149
0.0
100
AcDbLayout
  1
Model
 70
     1
 71
     0
 10
-210.0
 20
-148.5
 11
630.0
 21
445.5
 12
0.0
 22
0.0
 32
0.0
 14
-210.0
 24
-148.5
 34
0.0
 15
630.0
 25
445.5
 35
0.0
146
0.0
 13
0.0
 23
0.0
 33
0.0
 16
1.0
 26
0.0
 36
0.0
 17
0.0
 27
1.0
 37
0.0
 76
     0
330
1F
  0
MLINESTYLE
  5
18
102
{ACAD_REACTORS
330
17
102
}
330
17
100
AcDbMlineStyle
  2
Standard
 70
     0
  3

 62
   256
 51
90.0
 52
90.0
 71
     2
 49
0.5
 62
   256
  6
BYLAYER
 49
-0.5
 62
   256
  6
BYLAYER
  0
ACDBPLACEHOLDER
  5
F
102
{ACAD_REACTORS
330
E
102
}
330
E
  0
ENDSEC
  0
EOF
