  0
SECTION
  2
HEADER
  9
$ACADVER
  1
AC1015
  9
$ACADMAINTVER
 70
     6
  9
$DWGCODEPAGE
  3
ANSI_1252
  9
$INSBASE
 10
0.0
 20
0.0
 30
0.0
  9
$EXTMIN
 10
0.0
 20
0.0
 30
0.0
  9
$EXTMAX
 10
840.0
 20
594.0
 30
0.0
  9
$LIMMIN
 10
0.0
 20
0.0
  9
$LIMMAX
 10
840.0
 20
594.0
  9
$ORTHOMODE
 70
     0
  9
$REGENMODE
 70
     1
  9
$FILLMODE
 70
     1
  9
$QTEXTMODE
 70
     0
  9
$MIRRTEXT
 70
     1
  9
$LTSCALE
 40
2.0
  9
$ATTMODE
 70
     1
  9
$TEXTSIZE
 40
2.5
  9
$TRACEWID
 40
1.0
  9
$TEXTSTYLE
  7
Standard
  9
$CLAYER
  8
0
  9
$CELTYPE
  6
ByLayer
  9
$CECOLOR
 62
     7
  9
$CELTSCALE
 40
1.0
  9
$DISPSILH
 70
     0
  9
$DIMSCALE
 40
2.0
  9
$DIMASZ
 40
3.5
  9
$DIMEXO
 40
0.625
  9
$DIMDLI
 40
3.75
  9
$DIMRND
 40
0.0
  9
$DIMDLE
 40
0.0
  9
$DIMEXE
 40
1.25
  9
$DIMTP
 40
0.0
  9
$DIMTM
 40
0.0
  9
$DIMTXT
 40
3.5
  9
$DIMCEN
 40
2.5
  9
$DIMTSZ
 40
0.0
  9
$DIMTOL
 70
     0
  9
$DIMLIM
 70
     0
  9
$DIMTIH
 70
     0
  9
$DIMTOH
 70
     0
  9
$DIMSE1
 70
     0
  9
$DIMSE2
 70
     0
  9
$DIMTAD
 70
     1
  9
$DIMZIN
 70
     8
  9
$DIMBLK
  1

  9
$DIMASO
 70
     1
  9
$DIMSHO
 70
     1
  9
$DIMPOST
  1

  9
$DIMAPOST
  1

  9
$DIMALT
 70
     0
  9
$DIMALTD
 70
     3
  9
$DIMALTF
 40
0.03937
  9
$DIMLFAC
 40
1.0
  9
$DIMTOFL
 70
     1
  9
$DIMTVP
 40
0.0
  9
$DIMTIX
 70
     0
  9
$DIMSOXD
 70
     0
  9
$DIMSAH
 70
     0
  9
$DIMBLK1
  1

  9
$DIMBLK2
  1

  9
$DIMSTYLE
  2
ISO-25
  9
$DIMCLRD
 70
     0
  9
$DIMCLRE
 70
     0
  9
$DIMCLRT
 70
     0
  9
$DIMTFAC
 40
1.0
  9
$DIMGAP
 40
0.625
  9
$DIMJUST
 70
     0
  9
$DIMSD1
 70
     0
  9
$DIMSD2
 70
     0
  9
$DIMTOLJ
 70
     0
  9
$DIMTZIN
 70
     8
  9
$DIMALTZ
 70
     0
  9
$DIMALTTZ
 70
     0
  9
$DIMUPT
 70
     0
  9
$DIMDEC
 70
     2
  9
$DIMTDEC
 70
     2
  9
$DIMALTU
 70
     2
  9
$DIMALTTD
 70
     3
  9
$DIMTXSTY
  7
Standard
  9
$DIMAUNIT
 70
     0
  9
$DIMADEC
 70
     0
  9
$DIMALTRND
 40
0.0
  9
$DIMAZIN
 70
     0
  9
$DIMDSEP
 70
    44
  9
$DIMATFIT
 70
     3
  9
$DIMFRAC
 70
     0
  9
$DIMLDRBLK
  1

  9
$DIMLUNIT
 70
     2
  9
$DIMLWD
 70
    -2
  9
$DIMLWE
 70
    -2
  9
$DIMTMOVE
 70
     0
  9
$LUNITS
 70
     2
  9
$LUPREC
 70
     4
  9
$SKETCHINC
 40
1.0
  9
$FILLETRAD
 40
10.0
  9
$AUNITS
 70
     0
  9
$AUPREC
 70
     0
  9
$MENU
  1
.
  9
$ELEVATION
 40
0.0
  9
$PELEVATION
 40
0.0
  9
$THICKNESS
 40
0.0
  9
$LIMCHECK
 70
     0
  9
$CHAMFERA
 40
10.0
  9
$CHAMFERB
 40
10.0
  9
$CHAMFERC
 40
20.0
  9
$CHAMFERD
 40
0.0
  9
$SKPOLY
 70
     0
  9
$TDCREATE
 40
2456223.408903136
  9
$TDUCREATE
 40
2456223.325569803
  9
$TDUPDATE
 40
2456223.408903148
  9
$TDUUPDATE
 40
2456223.325569815
  9
$TDINDWG
 40
0.0000000116
  9
$TDUSRTIMER
 40
0.0000000116
  9
$USRTIMER
 70
     1
  9
$ANGBASE
 50
0.0
  9
$ANGDIR
 70
     0
  9
$PDMODE
 70
     0
  9
$PDSIZE
 40
0.0
  9
$PLINEWID
 40
0.0
  9
$SPLFRAME
 70
     0
  9
$SPLINETYPE
 70
     6
  9
$SPLINESEGS
 70
     8
  9
$HANDSEED
  5
47E
  9
$SURFTAB1
 70
     6
  9
$SURFTAB2
 70
     6
  9
$SURFTYPE
 70
     6
  9
$SURFU
 70
     6
  9
$SURFV
 70
     6
  9
$UCSBASE
  2

  9
$UCSNAME
  2

  9
$UCSORG
 10
0.0
 20
0.0
 30
0.0
  9
$UCSXDIR
 10
1.0
 20
0.0
 30
0.0
  9
$UCSYDIR
 10
0.0
 20
1.0
 30
0.0
  9
$UCSORTHOREF
  2

  9
$UCSORTHOVIEW
 70
     0
  9
$UCSORGTOP
 10
0.0
 20
0.0
 30
0.0
  9
$UCSORGBOTTOM
 10
0.0
 20
0.0
 30
0.0
  9
$UCSORGLEFT
 10
0.0
 20
0.0
 30
0.0
  9
$UCSORGRIGHT
 10
0.0
 20
0.0
 30
0.0
  9
$UCSORGFRONT
 10
0.0
 20
0.0
 30
0.0
  9
$UCSORGBACK
 10
0.0
 20
0.0
 30
0.0
  9
$PUCSBASE
  2

  9
$PUCSNAME
  2

  9
$PUCSORG
 10
0.0
 20
0.0
 30
0.0
  9
$PUCSXDIR
 10
1.0
 20
0.0
 30
0.0
  9
$PUCSYDIR
 10
0.0
 20
1.0
 30
0.0
  9
$PUCSORTHOREF
  2

  9
$PUCSORTHOVIEW
 70
     0
  9
$PUCSORGTOP
 10
0.0
 20
0.0
 30
0.0
  9
$PUCSORGBOTTOM
 10
0.0
 20
0.0
 30
0.0
  9
$PUCSORGLEFT
 10
0.0
 20
0.0
 30
0.0
  9
$PUCSORGRIGHT
 10
0.0
 20
0.0
 30
0.0
  9
$PUCSORGFRONT
 10
0.0
 20
0.0
 30
0.0
  9
$PUCSORGBACK
 10
0.0
 20
0.0
 30
0.0
  9
$USERI1
 70
     0
  9
$USERI2
 70
     0
  9
$USERI3
 70
     0
  9
$USERI4
 70
     0
  9
$USERI5
 70
     0
  9
$USERR1
 40
0.0
  9
$USERR2
 40
0.0
  9
$USERR3
 40
0.0
  9
$USERR4
 40
0.0
  9
$USERR5
 40
0.0
  9
$WORLDVIEW
 70
     1
  9
$SHADEDGE
 70
     3
  9
$SHADEDIF
 70
    70
  9
$TILEMODE
 70
     1
  9
$MAXACTVP
 70
    64
  9
$PINSBASE
 10
0.0
 20
0.0
 30
0.0
  9
$PLIMCHECK
 70
     0
  9
$PEXTMIN
 10
0.0
 20
0.0
 30
0.0
  9
$PEXTMAX
 10
840.0
 20
594.0
 30
0.0
  9
$PLIMMIN
 10
0.0
 20
0.0
  9
$PLIMMAX
 10
840.0
 20
594.0
  9
$UNITMODE
 70
     0
  9
$VISRETAIN
 70
     1
  9
$PLINEGEN
 70
     0
  9
$PSLTSCALE
 70
     1
  9
$TREEDEPTH
 70
  3020
  9
$CMLSTYLE
  2
Standard
  9
$CMLJUST
 70
     0
  9
$CMLSCALE
 40
20.0
  9
$PROXYGRAPHICS
 70
     1
  9
$MEASUREMENT
 70
     1
  9
$CELWEIGHT
370
    -1
  9
$ENDCAPS
280
     0
  9
$JOINSTYLE
280
     0
  9
$LWDISPLAY
290
     0
  9
$INSUNITS
 70
     4
  9
$HYPERLINKBASE
  1

  9
$STYLESHEET
  1

  9
$XEDIT
290
     1
  9
$CEPSNTYPE
380
     0
  9
$PSTYLEMODE
290
     1
  9
$FINGERPRINTGUID
  2
{FAEB1C30-E019-11D5-929B-00C0DF256EC4}
  9
$VERSIONGUID
  2
{FAEB1C32-E019-11D5-929B-00C0DF256EC4}
  9
$EXTNAMES
290
     1
  9
$PSVPSCALE
 40
0.0
  9
$OLESTARTUP
290
     0
  0
ENDSEC
  0
SECTION
  2
CLASSES
  0
CLASS
  1
ACDBDICTIONARYWDFLT
  2
AcDbDictionaryWithDefault
  3
ObjectDBX Classes
 90
        0
280
     0
281
     0
  0
CLASS
  1
ACDBPLACEHOLDER
  2
AcDbPlaceHolder
  3
ObjectDBX Classes
 90
        0
280
     0
281
     0
  0
CLASS
  1
LAYOUT
  2
AcDbLayout
  3
ObjectDBX Classes
 90
        0
280
     0
281
     0
  0
ENDSEC
  0
SECTION
  2
TABLES
  0
TABLE
  2
VPORT
  5
8
330
0
100
AcDbSymbolTable
 70
     2
  0
VPORT
  5
29
330
8
100
AcDbSymbolTableRecord
100
AcDbViewportTableRecord
  2
*ACTIVE
 70
     0
 10
0.0
 20
0.0
 11
1.0
 21
1.0
 12
420.0
 22
297.0
 13
0.0
 23
0.0
 14
1.0
 24
1.0
 15
0.0
 25
0.0
 16
0.0
 26
0.0
 36
1.0
 17
0.0
 27
0.0
 37
0.0
 40
594.0
 41
1.414141
 42
50.0
 43
0.0
 44
0.0
 50
0.0
 51
0.0
 71
    16
 72
   100
 73
     1
 74
     0
 75
     0
 76
     0
 77
     0
 78
     0
281
     0
 65
     0
110
0.0
120
0.0
130
0.0
111
1.0
121
0.0
131
0.0
112
0.0
122
1.0
132
0.0
 79
     0
146
0.0
  0
ENDTAB
  0
TABLE
  2
LTYPE
  5
5
330
0
100
AcDbSymbolTable
 70
     3
  0
LTYPE
  5
14
330
5
100
AcDbSymbolTableRecord
100
AcDbLinetypeTableRecord
  2
ByBlock
 70
     0
  3

 72
    65
 73
     0
 40
0.0
  0
LTYPE
  5
15
330
5
100
AcDbSymbolTableRecord
100
AcDbLinetypeTableRecord
  2
ByLayer
 70
     0
  3

 72
    65
 73
     0
 40
0.0
  0
LTYPE
  5
16
330
5
100
AcDbSymbolTableRecord
100
AcDbLinetypeTableRecord
  2
Continuous
 70
     0
  3
Solid line
 72
    65
 73
     0
 40
0.0
  0
LTYPE
  5
2A
330
5
100
AcDbSymbolTableRecord
100
AcDbLinetypeTableRecord
  2
DASHED
 70
     0
  3
__ __ __ __ __
 72
    65
 73
     2
 40
6.25
 49
5.0
 74
     4
 75
     0
340
0
 46
1.0
 50
0.0
 44
0.0
 45
0.0
 49
-1.25
 74
     4
 75
     0
340
0
 46
1.0
 50
0.0
 44
0.0
 45
0.0
  0
LTYPE
  5
369
330
5
100
AcDbSymbolTableRecord
100
AcDbLinetypeTableRecord
  2
DASHDOT
 70
     0
  3
__ . __ . __ . __ . __
 72
    65
 73
     4
 40
7.5
 49
5.0
 74
     4
 75
     0
340
0
 46
1.0
 50
0.0
 44
0.0
 45
0.0
 49
-1.25
 74
     4
 75
     0
340
0
 46
1.0
 50
0.0
 44
0.0
 45
0.0
 49
0.0
 74
     4
 75
     0
340
0
 46
1.0
 50
0.0
 44
0.0
 45
0.0
 49
-1.25
 74
     4
 75
     0
340
0
 46
1.0
 50
0.0
 44
0.0
 45
0.0
  0
ENDTAB
  0
TABLE
  2
LAYER
  5
2
330
0
100
AcDbSymbolTable
 70
     9
  0
LAYER
  5
10
330
2
100
AcDbSymbolTableRecord
100
AcDbLayerTableRecord
  2
0
 70
     0
 62
     7
  6
Continuous
370
    -3
390
F
  0
LAYER
  5
2B
330
2
100
AcDbSymbolTableRecord
100
AcDbLayerTableRecord
  2
LC-INFO-1-2-mm-A3-0
 70
     1
 62
     7
  6
ByBlock
370
    -3
390
F
  0
LAYER
  5
2C
330
2
100
AcDbSymbolTableRecord
100
AcDbLayerTableRecord
  2
LC-CUT-HIDDEN
 70
     0
 62
     7
  6
DASHED
370
    -3
390
F
  0
LAYER
  5
2D
330
2
100
AcDbSymbolTableRecord
100
AcDbLayerTableRecord
  2
LC-VIEWPORT
 70
     0
 62
     7
  6
ByBlock
370
    -3
390
F
  0
LAYER
  5
2E
330
2
100
AcDbSymbolTableRecord
100
AcDbLayerTableRecord
  2
LC-3D-HIDDEN
 70
     0
 62
     9
  6
DASHED
370
    -3
390
F
  0
LAYER
  5
30
330
2
100
AcDbSymbolTableRecord
100
AcDbLayerTableRecord
  2
LC-001-002-----0
 70
     0
 62
     1
  6
ByBlock
370
    -3
390
F
  0
LAYER
  5
2DF
330
2
100
AcDbSymbolTableRecord
100
AcDbLayerTableRecord
  2
LC-002-003-----0
 70
     0
 62
     2
  6
ByBlock
370
    -3
390
F
  0
LAYER
  5
2E1
330
2
100
AcDbSymbolTableRecord
100
AcDbLayerTableRecord
  2
Defpoints
 70
     0
 62
     7
  6
Continuous
290
     0
370
    -3
390
F
  0
LAYER
  5
310
330
2
100
AcDbSymbolTableRecord
100
AcDbLayerTableRecord
  2
LC-003-005-----0
 70
     0
 62
     2
  6
ByBlock
370
    -3
390
F
  0
ENDTAB
  0
TABLE
  2
STYLE
  5
3
330
0
100
AcDbSymbolTable
 70
     3
  0
STYLE
  5
11
330
3
100
AcDbSymbolTableRecord
100
AcDbTextStyleTableRecord
  2
Standard
 70
     0
 40
0.0
 41
1.0
 50
0.0
 71
     0
 42
2.5
  3
txt
  4

  0
STYLE
  5
2F
330
3
100
AcDbSymbolTableRecord
100
AcDbTextStyleTableRecord
  2
LCTX15-400-0-0-Arial
 70
     0
 40
0.0
 41
0.9
 50
0.0
 71
     0
 42
3.5
  3

  4

1001
ACAD
1000
Arial
1071
 16777218
  0
STYLE
  5
2DD
330
3
100
AcDbSymbolTableRecord
100
AcDbTextStyleTableRecord
  2
LCTX15-400-0-0pDIN-Schrift
 70
     0
 40
2.5
 41
0.8
 50
15.0
 71
     0
 42
3.5
  3
STANDARD
  4

  0
ENDTAB
  0
TABLE
  2
VIEW
  5
6
330
0
100
AcDbSymbolTable
 70
     0
  0
ENDTAB
  0
TABLE
  2
UCS
  5
7
330
0
100
AcDbSymbolTable
 70
     0
  0
ENDTAB
  0
TABLE
  2
APPID
  5
9
330
0
100
AcDbSymbolTable
 70
     1
  0
APPID
  5
12
330
9
100
AcDbSymbolTableRecord
100
AcDbRegAppTableRecord
  2
ACAD
 70
     0
  0
ENDTAB
  0
TABLE
  2
DIMSTYLE
  5
A
330
0
100
AcDbSymbolTable
 70
     2
100
AcDbDimStyleTable
  0
DIMSTYLE
105
27
330
A
100
AcDbSymbolTableRecord
100
AcDbDimStyleTableRecord
  2
ISO-25
 70
     0
 41
2.5
 42
0.625
 43
3.75
 44
1.25
 73
     0
 74
     0
 77
     1
 78
     8
140
2.5
141
2.5
143
0.03937
147
0.625
171
     3
172
     1
271
     2
272
     2
274
     3
278
    44
283
     0
284
     8
340
11
  0
DIMSTYLE
105
2DE
102
{ACAD_REACTORS
330
2E0
330
2EE
330
36B
102
}
330
A
100
AcDbSymbolTableRecord
100
AcDbDimStyleTableRecord
  2
LC-DIM-L-0140-02-02
 70
     0
 40
2.0
 41
14.0
 42
0.0
 43
7.5
 44
1.8
 73
     0
 74
     0
 77
     1
 78
     8
 79
     2
140
14.0
141
0.0
146
0.71
147
1.5
176
     2
177
     2
178
     2
179
     2
271
     2
278
    44
289
     1
340
2DD
  0
ENDTAB
  0
TABLE
  2
BLOCK_RECORD
  5
1
330
0
100
AcDbSymbolTable
 70
     6
  0
BLOCK_RECORD
  5
1F
330
1
100
AcDbSymbolTableRecord
100
AcDbBlockTableRecord
  2
*Model_Space
340
22
  0
BLOCK_RECORD
  5
1B
330
1
100
AcDbSymbolTableRecord
100
AcDbBlockTableRecord
  2
*Paper_Space
340
1E
  0
BLOCK_RECORD
  5
23
330
1
100
AcDbSymbolTableRecord
100
AcDbBlockTableRecord
  2
*Paper_Space0
340
26
  0
BLOCK_RECORD
  5
2E2
330
1
100
AcDbSymbolTableRecord
100
AcDbBlockTableRecord
  2
*D1
340
0
  0
BLOCK_RECORD
  5
2EF
330
1
100
AcDbSymbolTableRecord
100
AcDbBlockTableRecord
  2
*D2
340
0
  0
BLOCK_RECORD
  5
30D
330
1
100
AcDbSymbolTableRecord
100
AcDbBlockTableRecord
  2
*X13
340
0
102
{BLKREFS
331
336
102
}
  0
BLOCK_RECORD
  5
33A
330
1
100
AcDbSymbolTableRecord
100
AcDbBlockTableRecord
  2
*X24
340
0
102
{BLKREFS
331
363
102
}
  0
BLOCK_RECORD
  5
36C
330
1
100
AcDbSymbolTableRecord
100
AcDbBlockTableRecord
  2
*D5
340
0
  0
ENDTAB
  0
ENDSEC
  0
SECTION
  2
BLOCKS
  0
BLOCK
  5
20
330
1F
100
AcDbEntity
  8
0
100
AcDbBlockBegin
  2
*Model_Space
 70
     0
 71
     0
 10
0.0
 20
0.0
 30
0.0
  3
*Model_Space
  1

  0
ENDBLK
  5
21
330
1F
100
AcDbEntity
  8
0
100
AcDbBlockEnd
  0
BLOCK
  5
1C
330
1B
100
AcDbEntity
 67
     1
  8
0
100
AcDbBlockBegin
  2
*Paper_Space
 70
     0
 71
     0
 10
0.0
 20
0.0
 30
0.0
  3
*Paper_Space
  1

  0
ENDBLK
  5
1D
330
1B
100
AcDbEntity
 67
     1
  8
0
100
AcDbBlockEnd
  0
BLOCK
  5
24
330
23
100
AcDbEntity
  8
0
100
AcDbBlockBegin
  2
*Paper_Space0
 70
     0
 71
     0
 10
0.0
 20
0.0
 30
0.0
  3
*Paper_Space0
  1

  0
ENDBLK
  5
25
330
23
100
AcDbEntity
  8
0
100
AcDbBlockEnd
  0
BLOCK
  5
2EC
330
2E2
100
AcDbEntity
  8
0
100
AcDbBlockBegin
  2
*D1
 70
     1
 71
     0
 10
0.0
 20
0.0
 30
0.0
  3
*D1
  1

  0
LINE
  5
2E3
330
2E2
100
AcDbEntity
  8
LC-002-003-----0
 62
     2
370
    -2
100
AcDbLine
 10
214.206667
 20
394.392036
 30
0.0
 11
214.206667
 21
415.932462
 31
0.0
  0
LINE
  5
2E4
330
2E2
100
AcDbEntity
  8
LC-002-003-----0
 62
     2
370
    -2
100
AcDbLine
 10
464.706667
 20
387.392036
 30
0.0
 11
464.706667
 21
415.932462
 31
0.0
  0
LINE
  5
2E5
330
2E2
100
AcDbEntity
  8
LC-002-003-----0
 62
     2
370
    -2
100
AcDbLine
 10
242.206667
 20
412.332462
 30
0.0
 11
436.706667
 21
412.332462
 31
0.0
  0
SOLID
  5
2E6
330
2E2
100
AcDbEntity
  8
LC-002-003-----0
 62
     2
100
AcDbTrace
 10
242.206667
 20
416.999128
 30
0.0
 11
242.206667
 21
407.665795
 31
0.0
 12
214.206667
 22
412.332462
 32
0.0
 13
214.206667
 23
412.332462
 33
0.0
  0
SOLID
  5
2E7
330
2E2
100
AcDbEntity
  8
LC-002-003-----0
 62
     2
100
AcDbTrace
 10
436.706667
 20
407.665795
 30
0.0
 11
436.706667
 21
416.999128
 31
0.0
 12
464.706667
 22
412.332462
 32
0.0
 13
464.706667
 23
412.332462
 33
0.0
  0
MTEXT
  5
2E8
330
2E2
100
AcDbEntity
  8
LC-002-003-----0
 62
     2
100
AcDbMText
 10
331.177783
 20
443.132462
 30
0.0
 40
28.0
 41
0.0
 71
     5
 72
     1
  1
\A1;250
  7
LCTX15-400-0-0pDIN-Schrift
 73
     1
 44
1.0
  0
POINT
  5
2E9
330
2E2
100
AcDbEntity
  8
Defpoints
 62
     0
100
AcDbPoint
 10
214.206667
 20
394.392036
 30
0.0
  0
POINT
  5
2EA
330
2E2
100
AcDbEntity
  8
Defpoints
 62
     0
100
AcDbPoint
 10
464.706667
 20
387.392036
 30
0.0
  0
POINT
  5
2EB
330
2E2
100
AcDbEntity
  8
Defpoints
 62
     0
100
AcDbPoint
 10
464.706667
 20
412.332462
 30
0.0
  0
ENDBLK
  5
2ED
330
2E2
100
AcDbEntity
  8
0
100
AcDbBlockEnd
  0
BLOCK
  5
2F9
330
2EF
100
AcDbEntity
  8
0
100
AcDbBlockBegin
  2
*D2
 70
     1
 71
     0
 10
0.0
 20
0.0
 30
0.0
  3
*D2
  1

  0
LINE
  5
2F0
330
2EF
100
AcDbEntity
  8
LC-002-003-----0
 62
     2
370
    -2
100
AcDbLine
 10
457.706667
 20
394.392036
 30
0.0
 11
533.6
 21
394.392036
 31
0.0
  0
LINE
  5
2F1
330
2EF
100
AcDbEntity
  8
LC-002-003-----0
 62
     2
370
    -2
100
AcDbLine
 10
457.706667
 20
214.392036
 30
0.0
 11
533.6
 21
214.392036
 31
0.0
  0
LINE
  5
2F2
330
2EF
100
AcDbEntity
  8
LC-002-003-----0
 62
     2
370
    -2
100
AcDbLine
 10
530.0
 20
366.392036
 30
0.0
 11
530.0
 21
242.392036
 31
0.0
  0
SOLID
  5
2F3
330
2EF
100
AcDbEntity
  8
LC-002-003-----0
 62
     2
100
AcDbTrace
 10
534.666667
 20
366.392036
 30
0.0
 11
525.333333
 21
366.392036
 31
0.0
 12
530.0
 22
394.392036
 32
0.0
 13
530.0
 23
394.392036
 33
0.0
  0
SOLID
  5
2F4
330
2EF
100
AcDbEntity
  8
LC-002-003-----0
 62
     2
100
AcDbTrace
 10
525.333333
 20
242.392036
 30
0.0
 11
534.666667
 21
242.392036
 31
0.0
 12
530.0
 22
214.392036
 32
0.0
 13
530.0
 23
214.392036
 33
0.0
  0
MTEXT
  5
2F5
330
2EF
100
AcDbEntity
  8
LC-002-003-----0
 62
     2
100
AcDbMText
 10
499.2
 20
303.00313
 30
0.0
 40
28.0
 41
0.0
 71
     5
 72
     1
  1
\A1;180
  7
LCTX15-400-0-0pDIN-Schrift
 11
6.123031769111886E-17
 21
1.0
 31
0.0
 73
     1
 44
1.0
  0
POINT
  5
2F6
330
2EF
100
AcDbEntity
  8
Defpoints
 62
     0
100
AcDbPoint
 10
457.706667
 20
394.392036
 30
0.0
  0
POINT
  5
2F7
330
2EF
100
AcDbEntity
  8
Defpoints
 62
     0
100
AcDbPoint
 10
457.706667
 20
214.392036
 30
0.0
  0
POINT
  5
2F8
330
2EF
100
AcDbEntity
  8
Defpoints
 62
     0
100
AcDbPoint
 10
530.0
 20
214.392036
 30
0.0
  0
ENDBLK
  5
2FA
330
2EF
100
AcDbEntity
  8
0
100
AcDbBlockEnd
  0
BLOCK
  5
30E
330
30D
100
AcDbEntity
  8
0
100
AcDbBlockBegin
  2
*X13
 70
     1
 71
     0
 10
0.0
 20
0.0
 30
0.0
  3
*X13
  1

  4
*X1
  0
LINE
  5
311
330
30D
100
AcDbEntity
  8
LC-003-005-----0
 62
     7
370
    25
100
AcDbLine
 10
344.261329
 20
480.025284
 30
0.0
 11
344.267588
 21
480.031543
 31
0.0
  0
LINE
  5
312
330
30D
100
AcDbEntity
  8
LC-003-005-----0
 62
     7
370
    25
100
AcDbLine
 10
341.344313
 20
481.35091
 30
0.0
 11
344.267588
 21
484.274181
 31
0.0
  0
LINE
  5
313
330
30D
100
AcDbEntity
  8
LC-003-005-----0
 62
     7
370
    25
100
AcDbLine
 10
341.201156
 20
485.450391
 30
0.0
 11
344.267588
 21
488.516818
 31
0.0
  0
LINE
  5
314
330
30D
100
AcDbEntity
  8
LC-003-005-----0
 62
     7
370
    25
100
AcDbLine
 10
341.057999
 20
489.549872
 30
0.0
 11
344.267588
 21
492.759456
 31
0.0
  0
LINE
  5
315
330
30D
100
AcDbEntity
  8
LC-003-005-----0
 62
     7
370
    25
100
AcDbLine
 10
340.914842
 20
493.649353
 30
0.0
 11
344.267588
 21
497.002094
 31
0.0
  0
LINE
  5
316
330
30D
100
AcDbEntity
  8
LC-003-005-----0
 62
     7
370
    25
100
AcDbLine
 10
339.053555
 20
496.030707
 30
0.0
 11
344.267588
 21
501.244732
 31
0.0
  0
LINE
  5
317
330
30D
100
AcDbEntity
  8
LC-003-005-----0
 62
     7
370
    25
100
AcDbLine
 10
334.810912
 20
496.030707
 30
0.0
 11
343.805499
 21
505.025282
 31
0.0
  0
LINE
  5
318
330
30D
100
AcDbEntity
  8
LC-003-005-----0
 62
     7
370
    25
100
AcDbLine
 10
332.780754
 20
498.243189
 30
0.0
 11
339.562853
 21
505.02528
 31
0.0
  0
LINE
  5
319
330
30D
100
AcDbEntity
  8
LC-003-005-----0
 62
     7
370
    25
100
AcDbLine
 10
332.934271
 20
502.639344
 30
0.0
 11
335.320208
 21
505.025278
 31
0.0
  0
LINE
  5
31A
330
30D
100
AcDbEntity
  8
LC-003-005-----0
 62
     7
370
    25
100
AcDbLine
 10
322.082981
 20
496.030707
 30
0.0
 11
322.323291
 21
496.271016
 31
0.0
  0
LINE
  5
31B
330
30D
100
AcDbEntity
  8
LC-003-005-----0
 62
     7
370
    25
100
AcDbLine
 10
317.840338
 20
496.030707
 30
0.0
 11
322.180134
 21
500.370497
 31
0.0
  0
LINE
  5
31C
330
30D
100
AcDbEntity
  8
LC-003-005-----0
 62
     7
370
    25
100
AcDbLine
 10
313.597694
 20
496.030707
 30
0.0
 11
322.036977
 21
504.469978
 31
0.0
  0
LINE
  5
31D
330
30D
100
AcDbEntity
  8
LC-003-005-----0
 62
     7
370
    25
100
AcDbLine
 10
310.752285
 20
497.427939
 30
0.0
 11
318.349626
 21
505.02527
 31
0.0
  0
LINE
  5
31E
330
30D
100
AcDbEntity
  8
LC-003-005-----0
 62
     7
370
    25
100
AcDbLine
 10
310.905802
 20
501.824093
 30
0.0
 11
314.106981
 21
505.025268
 31
0.0
  0
LINE
  5
31F
330
30D
100
AcDbEntity
  8
LC-003-005-----0
 62
     7
370
    25
100
AcDbLine
 10
296.62712
 20
496.030707
 30
0.0
 11
300.206682
 21
499.610264
 31
0.0
  0
LINE
  5
320
330
30D
100
AcDbEntity
  8
LC-003-005-----0
 62
     7
370
    25
100
AcDbLine
 10
292.384477
 20
496.030707
 30
0.0
 11
300.063525
 21
503.709745
 31
0.0
  0
LINE
  5
321
330
30D
100
AcDbEntity
  8
LC-003-005-----0
 62
     7
370
    25
100
AcDbLine
 10
288.723815
 20
496.612688
 30
0.0
 11
297.136399
 21
505.025261
 31
0.0
  0
LINE
  5
322
330
30D
100
AcDbEntity
  8
LC-003-005-----0
 62
     7
370
    25
100
AcDbLine
 10
288.877332
 20
501.008843
 30
0.0
 11
292.893754
 21
505.025259
 31
0.0
  0
LINE
  5
323
330
30D
100
AcDbEntity
  8
LC-003-005-----0
 62
     7
370
    25
100
AcDbLine
 10
275.413903
 20
496.030707
 30
0.0
 11
278.23323
 21
498.85003
 31
0.0
  0
LINE
  5
324
330
30D
100
AcDbEntity
  8
LC-003-005-----0
 62
     7
370
    25
100
AcDbLine
 10
271.171259
 20
496.030707
 30
0.0
 11
278.090073
 21
502.949511
 31
0.0
  0
LINE
  5
325
330
30D
100
AcDbEntity
  8
LC-003-005-----0
 62
     7
370
    25
100
AcDbLine
 10
266.928616
 20
496.030707
 30
0.0
 11
275.923172
 21
505.025251
 31
0.0
  0
LINE
  5
326
330
30D
100
AcDbEntity
  8
LC-003-005-----0
 62
     7
370
    25
100
AcDbLine
 10
266.848863
 20
500.193592
 30
0.0
 11
271.680527
 21
505.025249
 31
0.0
  0
LINE
  5
327
330
30D
100
AcDbEntity
  8
LC-003-005-----0
 62
     7
370
    25
100
AcDbLine
 10
267.00238
 20
504.589747
 30
0.0
 11
267.437881
 21
505.025247
 31
0.0
  0
LINE
  5
328
330
30D
100
AcDbEntity
  8
LC-003-005-----0
 62
     7
370
    25
100
AcDbLine
 10
254.200685
 20
496.030707
 30
0.0
 11
256.259778
 21
498.089797
 31
0.0
  0
LINE
  5
329
330
30D
100
AcDbEntity
  8
LC-003-005-----0
 62
     7
370
    25
100
AcDbLine
 10
249.958042
 20
496.030707
 30
0.0
 11
256.116621
 21
502.189278
 31
0.0
  0
LINE
  5
32A
330
30D
100
AcDbEntity
  8
LC-003-005-----0
 62
     7
370
    25
100
AcDbLine
 10
245.715398
 20
496.030707
 30
0.0
 11
254.709945
 21
505.025241
 31
0.0
  0
LINE
  5
32B
330
30D
100
AcDbEntity
  8
LC-003-005-----0
 62
     7
370
    25
100
AcDbLine
 10
244.820394
 20
499.378342
 30
0.0
 11
250.467299
 21
505.025239
 31
0.0
  0
LINE
  5
32C
330
30D
100
AcDbEntity
  8
LC-003-005-----0
 62
     7
370
    25
100
AcDbLine
 10
221.224607
 20
480.025224
 30
0.0
 11
225.540248
 21
484.340859
 31
0.0
  0
LINE
  5
32D
330
30D
100
AcDbEntity
  8
LC-003-005-----0
 62
     7
370
    25
100
AcDbLine
 10
244.973911
 20
503.774496
 30
0.0
 11
246.224654
 21
505.025238
 31
0.0
  0
LINE
  5
32E
330
30D
100
AcDbEntity
  8
LC-003-005-----0
 62
     7
370
    25
100
AcDbLine
 10
218.343076
 20
481.386334
 30
0.0
 11
225.693766
 21
488.737014
 31
0.0
  0
LINE
  5
32F
330
30D
100
AcDbEntity
  8
LC-003-005-----0
 62
     7
370
    25
100
AcDbLine
 10
232.987468
 20
496.030707
 30
0.0
 11
234.286326
 21
497.329563
 31
0.0
  0
LINE
  5
330
330
30D
100
AcDbEntity
  8
LC-003-005-----0
 62
     7
370
    25
100
AcDbLine
 10
218.199919
 20
485.485815
 30
0.0
 11
225.847283
 21
493.133169
 31
0.0
  0
LINE
  5
331
330
30D
100
AcDbEntity
  8
LC-003-005-----0
 62
     7
370
    25
100
AcDbLine
 10
228.744824
 20
496.030707
 30
0.0
 11
234.143169
 21
501.429044
 31
0.0
  0
LINE
  5
332
330
30D
100
AcDbEntity
  8
LC-003-005-----0
 62
     7
370
    25
100
AcDbLine
 10
218.056762
 20
489.585296
 30
0.0
 11
233.496718
 21
505.025232
 31
0.0
  0
LINE
  5
333
330
30D
100
AcDbEntity
  8
LC-003-005-----0
 62
     7
370
    25
100
AcDbLine
 10
217.913605
 20
493.684777
 30
0.0
 11
229.254072
 21
505.02523
 31
0.0
  0
LINE
  5
334
330
30D
100
AcDbEntity
  8
LC-003-005-----0
 62
     7
370
    25
100
AcDbLine
 10
217.770448
 20
497.784258
 30
0.0
 11
225.011427
 21
505.025228
 31
0.0
  0
LINE
  5
335
330
30D
100
AcDbEntity
  8
LC-003-005-----0
 62
     7
370
    25
100
AcDbLine
 10
217.627291
 20
501.883739
 30
0.0
 11
220.768781
 21
505.025226
 31
0.0
  0
ENDBLK
  5
30F
330
30D
100
AcDbEntity
  8
0
100
AcDbBlockEnd
  0
BLOCK
  5
33B
330
33A
100
AcDbEntity
  8
0
100
AcDbBlockBegin
  2
*X24
 70
     1
 71
     0
 10
0.0
 20
0.0
 30
0.0
  3
*X24
  1

  4
*X2
  0
LINE
  5
33D
330
33A
100
AcDbEntity
  8
LC-003-005-----0
 62
     7
370
    25
100
AcDbLine
 10
467.298049
 20
480.025343
 30
0.0
 11
470.247895
 21
482.975184
 31
0.0
  0
LINE
  5
33E
330
33A
100
AcDbEntity
  8
LC-003-005-----0
 62
     7
370
    25
100
AcDbLine
 10
463.142892
 20
480.112829
 30
0.0
 11
470.401412
 21
487.371339
 31
0.0
  0
LINE
  5
33F
330
33A
100
AcDbEntity
  8
LC-003-005-----0
 62
     7
370
    25
100
AcDbLine
 10
462.999735
 20
484.21231
 30
0.0
 11
470.554929
 21
491.767494
 31
0.0
  0
LINE
  5
340
330
33A
100
AcDbEntity
  8
LC-003-005-----0
 62
     7
370
    25
100
AcDbLine
 10
462.856578
 20
488.311791
 30
0.0
 11
470.708446
 21
496.163649
 31
0.0
  0
LINE
  5
341
330
33A
100
AcDbEntity
  8
LC-003-005-----0
 62
     7
370
    25
100
AcDbLine
 10
462.713421
 20
492.411272
 30
0.0
 11
470.861963
 21
500.559803
 31
0.0
  0
LINE
  5
342
330
33A
100
AcDbEntity
  8
LC-003-005-----0
 62
     7
370
    25
100
AcDbLine
 10
462.090333
 20
496.030823
 30
0.0
 11
471.01548
 21
504.955958
 31
0.0
  0
LINE
  5
343
330
33A
100
AcDbEntity
  8
LC-003-005-----0
 62
     7
370
    25
100
AcDbLine
 10
457.847689
 20
496.030823
 30
0.0
 11
466.842216
 21
505.025338
 31
0.0
  0
LINE
  5
344
330
33A
100
AcDbEntity
  8
LC-003-005-----0
 62
     7
370
    25
100
AcDbLine
 10
453.605046
 20
496.030823
 30
0.0
 11
462.599571
 21
505.025336
 31
0.0
  0
LINE
  5
345
330
33A
100
AcDbEntity
  8
LC-003-005-----0
 62
     7
370
    25
100
AcDbLine
 10
449.362402
 20
496.030823
 30
0.0
 11
458.356926
 21
505.025334
 31
0.0
  0
LINE
  5
346
330
33A
100
AcDbEntity
  8
LC-003-005-----0
 62
     7
370
    25
100
AcDbLine
 10
445.119759
 20
496.030823
 30
0.0
 11
454.11428
 21
505.025332
 31
0.0
  0
LINE
  5
347
330
33A
100
AcDbEntity
  8
LC-003-005-----0
 62
     7
370
    25
100
AcDbLine
 10
440.877115
 20
496.030823
 30
0.0
 11
449.871635
 21
505.02533
 31
0.0
  0
LINE
  5
348
330
33A
100
AcDbEntity
  8
LC-003-005-----0
 62
     7
370
    25
100
AcDbLine
 10
436.634472
 20
496.030823
 30
0.0
 11
445.628989
 21
505.025328
 31
0.0
  0
LINE
  5
349
330
33A
100
AcDbEntity
  8
LC-003-005-----0
 62
     7
370
    25
100
AcDbLine
 10
432.391828
 20
496.030823
 30
0.0
 11
441.386344
 21
505.025326
 31
0.0
  0
LINE
  5
34A
330
33A
100
AcDbEntity
  8
LC-003-005-----0
 62
     7
370
    25
100
AcDbLine
 10
428.149185
 20
496.030823
 30
0.0
 11
437.143698
 21
505.025324
 31
0.0
  0
LINE
  5
34B
330
33A
100
AcDbEntity
  8
LC-003-005-----0
 62
     7
370
    25
100
AcDbLine
 10
423.906541
 20
496.030823
 30
0.0
 11
432.901053
 21
505.025322
 31
0.0
  0
LINE
  5
34C
330
33A
100
AcDbEntity
  8
LC-003-005-----0
 62
     7
370
    25
100
AcDbLine
 10
419.663898
 20
496.030823
 30
0.0
 11
428.658408
 21
505.02532
 31
0.0
  0
LINE
  5
34D
330
33A
100
AcDbEntity
  8
LC-003-005-----0
 62
     7
370
    25
100
AcDbLine
 10
415.421254
 20
496.030823
 30
0.0
 11
424.415762
 21
505.025319
 31
0.0
  0
LINE
  5
34E
330
33A
100
AcDbEntity
  8
LC-003-005-----0
 62
     7
370
    25
100
AcDbLine
 10
411.178611
 20
496.030823
 30
0.0
 11
420.173117
 21
505.025317
 31
0.0
  0
LINE
  5
34F
330
33A
100
AcDbEntity
  8
LC-003-005-----0
 62
     7
370
    25
100
AcDbLine
 10
406.935967
 20
496.030823
 30
0.0
 11
415.930471
 21
505.025315
 31
0.0
  0
LINE
  5
350
330
33A
100
AcDbEntity
  8
LC-003-005-----0
 62
     7
370
    25
100
AcDbLine
 10
402.693324
 20
496.030823
 30
0.0
 11
411.687826
 21
505.025313
 31
0.0
  0
LINE
  5
351
330
33A
100
AcDbEntity
  8
LC-003-005-----0
 62
     7
370
    25
100
AcDbLine
 10
398.45068
 20
496.030823
 30
0.0
 11
407.44518
 21
505.025311
 31
0.0
  0
LINE
  5
352
330
33A
100
AcDbEntity
  8
LC-003-005-----0
 62
     7
370
    25
100
AcDbLine
 10
394.208037
 20
496.030823
 30
0.0
 11
403.202535
 21
505.025309
 31
0.0
  0
LINE
  5
353
330
33A
100
AcDbEntity
  8
LC-003-005-----0
 62
     7
370
    25
100
AcDbLine
 10
389.965393
 20
496.030823
 30
0.0
 11
398.95989
 21
505.025307
 31
0.0
  0
LINE
  5
354
330
33A
100
AcDbEntity
  8
LC-003-005-----0
 62
     7
370
    25
100
AcDbLine
 10
385.72275
 20
496.030823
 30
0.0
 11
394.717244
 21
505.025305
 31
0.0
  0
LINE
  5
355
330
33A
100
AcDbEntity
  8
LC-003-005-----0
 62
     7
370
    25
100
AcDbLine
 10
381.480106
 20
496.030823
 30
0.0
 11
390.474599
 21
505.025303
 31
0.0
  0
LINE
  5
356
330
33A
100
AcDbEntity
  8
LC-003-005-----0
 62
     7
370
    25
100
AcDbLine
 10
377.237463
 20
496.030823
 30
0.0
 11
386.231953
 21
505.025301
 31
0.0
  0
LINE
  5
357
330
33A
100
AcDbEntity
  8
LC-003-005-----0
 62
     7
370
    25
100
AcDbLine
 10
372.994819
 20
496.030823
 30
0.0
 11
381.989308
 21
505.025299
 31
0.0
  0
LINE
  5
358
330
33A
100
AcDbEntity
  8
LC-003-005-----0
 62
     7
370
    25
100
AcDbLine
 10
368.752176
 20
496.030823
 30
0.0
 11
377.746662
 21
505.025297
 31
0.0
  0
LINE
  5
359
330
33A
100
AcDbEntity
  8
LC-003-005-----0
 62
     7
370
    25
100
AcDbLine
 10
364.509532
 20
496.030823
 30
0.0
 11
373.504017
 21
505.025295
 31
0.0
  0
LINE
  5
35A
330
33A
100
AcDbEntity
  8
LC-003-005-----0
 62
     7
370
    25
100
AcDbLine
 10
344.267588
 20
480.031543
 30
0.0
 11
348.02083
 21
483.78478
 31
0.0
  0
LINE
  5
35B
330
33A
100
AcDbEntity
  8
LC-003-005-----0
 62
     7
370
    25
100
AcDbLine
 10
360.266889
 20
496.030823
 30
0.0
 11
369.261371
 21
505.025293
 31
0.0
  0
LINE
  5
35C
330
33A
100
AcDbEntity
  8
LC-003-005-----0
 62
     7
370
    25
100
AcDbLine
 10
344.267588
 20
484.274181
 30
0.0
 11
348.174347
 21
488.180935
 31
0.0
  0
LINE
  5
35D
330
33A
100
AcDbEntity
  8
LC-003-005-----0
 62
     7
370
    25
100
AcDbLine
 10
356.024245
 20
496.030823
 30
0.0
 11
365.018726
 21
505.025292
 31
0.0
  0
LINE
  5
35E
330
33A
100
AcDbEntity
  8
LC-003-005-----0
 62
     7
370
    25
100
AcDbLine
 10
344.267588
 20
488.516818
 30
0.0
 11
348.327864
 21
492.577089
 31
0.0
  0
LINE
  5
35F
330
33A
100
AcDbEntity
  8
LC-003-005-----0
 62
     7
370
    25
100
AcDbLine
 10
351.781602
 20
496.030823
 30
0.0
 11
360.776081
 21
505.02529
 31
0.0
  0
LINE
  5
360
330
33A
100
AcDbEntity
  8
LC-003-005-----0
 62
     7
370
    25
100
AcDbLine
 10
344.267588
 20
492.759456
 30
0.0
 11
356.533435
 21
505.025288
 31
0.0
  0
LINE
  5
361
330
33A
100
AcDbEntity
  8
LC-003-005-----0
 62
     7
370
    25
100
AcDbLine
 10
344.267588
 20
497.002094
 30
0.0
 11
352.29079
 21
505.025286
 31
0.0
  0
LINE
  5
362
330
33A
100
AcDbEntity
  8
LC-003-005-----0
 62
     7
370
    25
100
AcDbLine
 10
344.267588
 20
501.244732
 30
0.0
 11
348.048144
 21
505.025284
 31
0.0
  0
ENDBLK
  5
33C
330
33A
100
AcDbEntity
  8
0
100
AcDbBlockEnd
  0
BLOCK
  5
377
330
36C
100
AcDbEntity
  8
0
100
AcDbBlockBegin
  2
*D5
 70
     1
 71
     0
 10
0.0
 20
0.0
 30
0.0
  3
*D5
  1

  0
LINE
  5
36D
330
36C
100
AcDbEntity
  8
LC-002-003-----0
 62
     2
370
    -2
100
AcDbLine
 10
218.390075
 20
480.025221
 30
0.0
 11
180.567682
 21
480.025221
 31
0.0
  0
LINE
  5
36E
330
36C
100
AcDbEntity
  8
LC-002-003-----0
 62
     2
370
    -2
100
AcDbLine
 10
217.517588
 20
505.025224
 30
0.0
 11
180.567682
 21
505.025224
 31
0.0
  0
LINE
  5
36F
330
36C
100
AcDbEntity
  8
LC-002-003-----0
 62
     2
370
    -2
100
AcDbLine
 10
184.167682
 20
533.025224
 30
0.0
 11
184.167682
 21
561.025224
 31
0.0
  0
LINE
  5
370
330
36C
100
AcDbEntity
  8
LC-002-003-----0
 62
     2
370
    -2
100
AcDbLine
 10
184.167682
 20
452.025221
 30
0.0
 11
184.167682
 21
438.717365
 31
0.0
  0
SOLID
  5
371
330
36C
100
AcDbEntity
  8
LC-002-003-----0
 62
     2
100
AcDbTrace
 10
188.834349
 20
452.025221
 30
0.0
 11
179.501016
 21
452.025221
 31
0.0
 12
184.167682
 22
480.025221
 32
0.0
 13
184.167682
 23
480.025221
 33
0.0
  0
SOLID
  5
372
330
36C
100
AcDbEntity
  8
LC-002-003-----0
 62
     2
100
AcDbTrace
 10
179.501016
 20
533.025224
 30
0.0
 11
188.834349
 21
533.025224
 31
0.0
 12
184.167682
 22
505.025224
 32
0.0
 13
184.167682
 23
505.025224
 33
0.0
  0
MTEXT
  5
373
330
36C
100
AcDbEntity
  8
LC-002-003-----0
 62
     2
100
AcDbMText
 10
153.367682
 20
461.634462
 30
0.0
 40
28.0
 41
0.0
 71
     5
 72
     1
  1
\A1;24
  7
LCTX15-400-0-0pDIN-Schrift
 11
6.123031769111886E-17
 21
1.0
 31
0.0
 73
     1
 44
1.0
  0
POINT
  5
374
330
36C
100
AcDbEntity
  8
Defpoints
 62
     0
100
AcDbPoint
 10
218.390075
 20
480.025221
 30
0.0
  0
POINT
  5
375
330
36C
100
AcDbEntity
  8
Defpoints
 62
     0
100
AcDbPoint
 10
217.517588
 20
505.025224
 30
0.0
  0
POINT
  5
376
330
36C
100
AcDbEntity
  8
Defpoints
 62
     0
100
AcDbPoint
 10
184.167682
 20
505.025224
 30
0.0
  0
ENDBLK
  5
378
330
36C
100
AcDbEntity
  8
0
100
AcDbBlockEnd
  0
ENDSEC
  0
SECTION
  2
ENTITIES
  0
LINE
  5
31
330
1F
100
AcDbEntity
  8
LC-001-002-----0
 62
     7
370
    50
100
AcDbLine
 10
214.206667
 20
394.392036
 30
0.0
 11
339.206667
 21
394.392036
 31
0.0
  0
LINE
  5
32
330
1F
100
AcDbEntity
  8
LC-001-002-----0
 62
     7
370
    50
100
AcDbLine
 10
339.206667
 20
394.392036
 30
0.0
 11
339.206667
 21
304.392036
 31
0.0
  0
LINE
  5
33
330
1F
100
AcDbEntity
  8
LC-001-002-----0
 62
     7
370
    50
100
AcDbLine
 10
214.206667
 20
394.392036
 30
0.0
 11
214.206667
 21
304.392036
 31
0.0
  0
ARC
  5
34
330
1F
100
AcDbEntity
  8
LC-001-002-----0
 62
     7
370
    50
100
AcDbCircle
 10
229.206667
 20
320.392036
 30
0.0
 40
4.000000000000172
100
AcDbArc
 50
179.999829
 51
0.0
  0
ARC
  5
35
330
1F
100
AcDbEntity
  8
LC-001-002-----0
 62
     7
370
    50
100
AcDbCircle
 10
229.206667
 20
378.392036
 30
0.0
 40
4.000000000000171
100
AcDbArc
 50
0.0
 51
179.999829
  0
LINE
  5
36
330
1F
100
AcDbEntity
  8
LC-001-002-----0
 62
     7
370
    50
100
AcDbLine
 10
225.206667
 20
378.392036
 30
0.0
 11
225.206667
 21
320.392036
 31
0.0
  0
LINE
  5
37
330
1F
100
AcDbEntity
  8
LC-001-002-----0
 62
     7
370
    50
100
AcDbLine
 10
233.206667
 20
378.392036
 30
0.0
 11
233.206667
 21
320.392036
 31
0.0
  0
ARC
  5
38
102
{ACAD_REACTORS
330
398
102
}
330
1F
100
AcDbEntity
  8
LC-001-002-----0
 62
     7
370
    50
100
AcDbCircle
 10
245.206667
 20
320.392036
 30
0.0
 40
4.000000000000172
100
AcDbArc
 50
179.999829
 51
359.999981
  0
ARC
  5
39
102
{ACAD_REACTORS
330
398
102
}
330
1F
100
AcDbEntity
  8
LC-001-002-----0
 62
     7
370
    50
100
AcDbCircle
 10
245.206667
 20
378.392036
 30
0.0
 40
4.000000000000171
100
AcDbArc
 50
0.0
 51
179.999829
  0
LINE
  5
3A
102
{ACAD_REACTORS
330
398
102
}
330
1F
100
AcDbEntity
  8
LC-001-002-----0
 62
     7
370
    50
100
AcDbLine
 10
241.206667
 20
378.392036
 30
0.0
 11
241.206667
 21
320.392036
 31
0.0
  0
LINE
  5
3B
102
{ACAD_REACTORS
330
398
102
}
330
1F
100
AcDbEntity
  8
LC-001-002-----0
 62
     7
370
    50
100
AcDbLine
 10
249.206667
 20
378.392036
 30
0.0
 11
249.206667
 21
320.392036
 31
0.0
  0
ARC
  5
3C
102
{ACAD_REACTORS
330
397
102
}
330
1F
100
AcDbEntity
  8
LC-001-002-----0
 62
     7
370
    50
100
AcDbCircle
 10
261.206667
 20
320.392036
 30
0.0
 40
4.000000000000201
100
AcDbArc
 50
179.999829
 51
359.999981
  0
ARC
  5
3D
102
{ACAD_REACTORS
330
397
102
}
330
1F
100
AcDbEntity
  8
LC-001-002-----0
 62
     7
370
    50
100
AcDbCircle
 10
261.206667
 20
378.392036
 30
0.0
 40
4.000000000000114
100
AcDbArc
 50
0.0
 51
179.999829
  0
LINE
  5
3E
102
{ACAD_REACTORS
330
397
102
}
330
1F
100
AcDbEntity
  8
LC-001-002-----0
 62
     7
370
    50
100
AcDbLine
 10
257.206667
 20
378.392036
 30
0.0
 11
257.206667
 21
320.392036
 31
0.0
  0
LINE
  5
3F
102
{ACAD_REACTORS
330
397
102
}
330
1F
100
AcDbEntity
  8
LC-001-002-----0
 62
     7
370
    50
100
AcDbLine
 10
265.206667
 20
378.392036
 30
0.0
 11
265.206667
 21
320.392036
 31
0.0
  0
ARC
  5
40
102
{ACAD_REACTORS
330
396
102
}
330
1F
100
AcDbEntity
  8
LC-001-002-----0
 62
     7
370
    50
100
AcDbCircle
 10
277.206667
 20
320.392036
 30
0.0
 40
4.000000000000201
100
AcDbArc
 50
179.999829
 51
359.999981
  0
ARC
  5
41
102
{ACAD_REACTORS
330
396
102
}
330
1F
100
AcDbEntity
  8
LC-001-002-----0
 62
     7
370
    50
100
AcDbCircle
 10
277.206667
 20
378.392036
 30
0.0
 40
4.000000000000114
100
AcDbArc
 50
0.0
 51
179.999829
  0
LINE
  5
42
102
{ACAD_REACTORS
330
396
102
}
330
1F
100
AcDbEntity
  8
LC-001-002-----0
 62
     7
370
    50
100
AcDbLine
 10
273.206667
 20
378.392036
 30
0.0
 11
273.206667
 21
320.392036
 31
0.0
  0
LINE
  5
43
102
{ACAD_REACTORS
330
396
102
}
330
1F
100
AcDbEntity
  8
LC-001-002-----0
 62
     7
370
    50
100
AcDbLine
 10
281.206667
 20
378.392036
 30
0.0
 11
281.206667
 21
320.392036
 31
0.0
  0
ARC
  5
44
102
{ACAD_REACTORS
330
3AA
102
}
330
1F
100
AcDbEntity
  8
LC-001-002-----0
 62
     7
370
    50
100
AcDbCircle
 10
293.206667
 20
320.392036
 30
0.0
 40
4.000000000000201
100
AcDbArc
 50
179.999829
 51
359.999981
  0
ARC
  5
45
102
{ACAD_REACTORS
330
3AA
102
}
330
1F
100
AcDbEntity
  8
LC-001-002-----0
 62
     7
370
    50
100
AcDbCircle
 10
293.206667
 20
378.392036
 30
0.0
 40
4.000000000000114
100
AcDbArc
 50
0.0
 51
179.999829
  0
LINE
  5
46
102
{ACAD_REACTORS
330
3AA
102
}
330
1F
100
AcDbEntity
  8
LC-001-002-----0
 62
     7
370
    50
100
AcDbLine
 10
289.206667
 20
378.392036
 30
0.0
 11
289.206667
 21
320.392036
 31
0.0
  0
LINE
  5
47
102
{ACAD_REACTORS
330
3AA
102
}
330
1F
100
AcDbEntity
  8
LC-001-002-----0
 62
     7
370
    50
100
AcDbLine
 10
297.206667
 20
378.392036
 30
0.0
 11
297.206667
 21
320.392036
 31
0.0
  0
ARC
  5
48
102
{ACAD_REACTORS
330
3A9
102
}
330
1F
100
AcDbEntity
  8
LC-001-002-----0
 62
     7
370
    50
100
AcDbCircle
 10
309.206667
 20
320.392036
 30
0.0
 40
4.000000000000201
100
AcDbArc
 50
179.999829
 51
359.999981
  0
ARC
  5
49
102
{ACAD_REACTORS
330
3A9
102
}
330
1F
100
AcDbEntity
  8
LC-001-002-----0
 62
     7
370
    50
100
AcDbCircle
 10
309.206667
 20
378.392036
 30
0.0
 40
4.000000000000114
100
AcDbArc
 50
0.0
 51
179.999829
  0
LINE
  5
4A
102
{ACAD_REACTORS
330
3A9
102
}
330
1F
100
AcDbEntity
  8
LC-001-002-----0
 62
     7
370
    50
100
AcDbLine
 10
305.206667
 20
378.392036
 30
0.0
 11
305.206667
 21
320.392036
 31
0.0
  0
LINE
  5
4B
102
{ACAD_REACTORS
330
3A9
102
}
330
1F
100
AcDbEntity
  8
LC-001-002-----0
 62
     7
370
    50
100
AcDbLine
 10
313.206667
 20
378.392036
 30
0.0
 11
313.206667
 21
320.392036
 31
0.0
  0
ARC
  5
4C
102
{ACAD_REACTORS
330
3A8
102
}
330
1F
100
AcDbEntity
  8
LC-001-002-----0
 62
     7
370
    50
100
AcDbCircle
 10
325.206667
 20
320.392036
 30
0.0
 40
4.000000000000201
100
AcDbArc
 50
179.999829
 51
359.999981
  0
ARC
  5
4D
102
{ACAD_REACTORS
330
3A8
102
}
330
1F
100
AcDbEntity
  8
LC-001-002-----0
 62
     7
370
    50
100
AcDbCircle
 10
325.206667
 20
378.392036
 30
0.0
 40
4.000000000000114
100
AcDbArc
 50
0.0
 51
179.999829
  0
LINE
  5
4E
102
{ACAD_REACTORS
330
3A8
102
}
330
1F
100
AcDbEntity
  8
LC-001-002-----0
 62
     7
370
    50
100
AcDbLine
 10
321.206667
 20
378.392036
 30
0.0
 11
321.206667
 21
320.392036
 31
0.0
  0
LINE
  5
4F
102
{ACAD_REACTORS
330
3A8
102
}
330
1F
100
AcDbEntity
  8
LC-001-002-----0
 62
     7
370
    50
100
AcDbLine
 10
329.206667
 20
378.392036
 30
0.0
 11
329.206667
 21
320.392036
 31
0.0
  0
LINE
  5
50
102
{ACAD_REACTORS
330
3B9
102
}
330
1F
100
AcDbEntity
  8
LC-001-002-----0
 62
     7
370
    50
100
AcDbLine
 10
214.204705
 20
214.391436
 30
0.0
 11
339.204705
 21
214.390773
 31
0.0
  0
LINE
  5
51
102
{ACAD_REACTORS
330
3B9
102
}
330
1F
100
AcDbEntity
  8
LC-001-002-----0
 62
     7
370
    50
100
AcDbLine
 10
339.204705
 20
214.390773
 30
0.0
 11
339.205183
 21
304.390773
 31
0.0
  0
LINE
  5
52
102
{ACAD_REACTORS
330
3B9
102
}
330
1F
100
AcDbEntity
  8
LC-001-002-----0
 62
     7
370
    50
100
AcDbLine
 10
214.204705
 20
214.391436
 30
0.0
 11
214.205183
 21
304.391436
 31
0.0
  0
ARC
  5
53
102
{ACAD_REACTORS
330
3B9
102
}
330
1F
100
AcDbEntity
  8
LC-001-002-----0
 62
     7
370
    50
100
AcDbCircle
 10
229.205098
 20
288.391357
 30
0.0
 40
4.000000000000501
100
AcDbArc
 50
359.999677
 51
179.999867
  0
ARC
  5
54
102
{ACAD_REACTORS
330
3B9
102
}
330
1F
100
AcDbEntity
  8
LC-001-002-----0
 62
     7
370
    50
100
AcDbCircle
 10
229.20479
 20
230.391357
 30
0.0
 40
4.000000000000518
100
AcDbArc
 50
179.999925
 51
359.999696
  0
LINE
  5
55
102
{ACAD_REACTORS
330
3B9
102
}
330
1F
100
AcDbEntity
  8
LC-001-002-----0
 62
     7
370
    50
100
AcDbLine
 10
225.20479
 20
230.391378
 30
0.0
 11
225.205098
 21
288.391378
 31
0.0
  0
LINE
  5
56
102
{ACAD_REACTORS
330
3B9
102
}
330
1F
100
AcDbEntity
  8
LC-001-002-----0
 62
     7
370
    50
100
AcDbLine
 10
233.20479
 20
230.391335
 30
0.0
 11
233.205098
 21
288.391335
 31
0.0
  0
ARC
  5
57
102
{ACAD_REACTORS
330
3B8
102
}
330
1F
100
AcDbEntity
  8
LC-001-002-----0
 62
     7
370
    50
100
AcDbCircle
 10
245.205098
 20
288.391272
 30
0.0
 40
4.000000000000501
100
AcDbArc
 50
359.999677
 51
179.999867
  0
ARC
  5
58
102
{ACAD_REACTORS
330
3B8
102
}
330
1F
100
AcDbEntity
  8
LC-001-002-----0
 62
     7
370
    50
100
AcDbCircle
 10
245.20479
 20
230.391272
 30
0.0
 40
4.000000000000518
100
AcDbArc
 50
179.999925
 51
359.999696
  0
LINE
  5
59
102
{ACAD_REACTORS
330
3B8
102
}
330
1F
100
AcDbEntity
  8
LC-001-002-----0
 62
     7
370
    50
100
AcDbLine
 10
241.20479
 20
230.391293
 30
0.0
 11
241.205098
 21
288.391293
 31
0.0
  0
LINE
  5
5A
102
{ACAD_REACTORS
330
3B8
102
}
330
1F
100
AcDbEntity
  8
LC-001-002-----0
 62
     7
370
    50
100
AcDbLine
 10
249.20479
 20
230.391251
 30
0.0
 11
249.205098
 21
288.391251
 31
0.0
  0
ARC
  5
5B
102
{ACAD_REACTORS
330
3B7
102
}
330
1F
100
AcDbEntity
  8
LC-001-002-----0
 62
     7
370
    50
100
AcDbCircle
 10
261.205098
 20
288.391187
 30
0.0
 40
4.000000000000501
100
AcDbArc
 50
359.999677
 51
179.999867
  0
ARC
  5
5C
102
{ACAD_REACTORS
330
3B7
102
}
330
1F
100
AcDbEntity
  8
LC-001-002-----0
 62
     7
370
    50
100
AcDbCircle
 10
261.20479
 20
230.391187
 30
0.0
 40
4.000000000000461
100
AcDbArc
 50
179.999925
 51
359.999696
  0
LINE
  5
5D
102
{ACAD_REACTORS
330
3B7
102
}
330
1F
100
AcDbEntity
  8
LC-001-002-----0
 62
     7
370
    50
100
AcDbLine
 10
257.20479
 20
230.391208
 30
0.0
 11
257.205098
 21
288.391208
 31
0.0
  0
LINE
  5
5E
102
{ACAD_REACTORS
330
3B7
102
}
330
1F
100
AcDbEntity
  8
LC-001-002-----0
 62
     7
370
    50
100
AcDbLine
 10
265.20479
 20
230.391166
 30
0.0
 11
265.205098
 21
288.391166
 31
0.0
  0
ARC
  5
5F
102
{ACAD_REACTORS
330
3C5
102
}
330
1F
100
AcDbEntity
  8
LC-001-002-----0
 62
     7
370
    50
100
AcDbCircle
 10
277.205098
 20
288.391102
 30
0.0
 40
4.000000000000501
100
AcDbArc
 50
359.999677
 51
179.999867
  0
ARC
  5
60
102
{ACAD_REACTORS
330
3C5
102
}
330
1F
100
AcDbEntity
  8
LC-001-002-----0
 62
     7
370
    50
100
AcDbCircle
 10
277.20479
 20
230.391102
 30
0.0
 40
4.000000000000461
100
AcDbArc
 50
179.999925
 51
359.999696
  0
LINE
  5
61
102
{ACAD_REACTORS
330
3C5
102
}
330
1F
100
AcDbEntity
  8
LC-001-002-----0
 62
     7
370
    50
100
AcDbLine
 10
273.20479
 20
230.391123
 30
0.0
 11
273.205098
 21
288.391123
 31
0.0
  0
LINE
  5
62
102
{ACAD_REACTORS
330
3C5
102
}
330
1F
100
AcDbEntity
  8
LC-001-002-----0
 62
     7
370
    50
100
AcDbLine
 10
281.20479
 20
230.391081
 30
0.0
 11
281.205098
 21
288.391081
 31
0.0
  0
ARC
  5
63
102
{ACAD_REACTORS
330
3C4
102
}
330
1F
100
AcDbEntity
  8
LC-001-002-----0
 62
     7
370
    50
100
AcDbCircle
 10
293.205098
 20
288.391017
 30
0.0
 40
4.000000000000501
100
AcDbArc
 50
359.999677
 51
179.999867
  0
ARC
  5
64
102
{ACAD_REACTORS
330
3C4
102
}
330
1F
100
AcDbEntity
  8
LC-001-002-----0
 62
     7
370
    50
100
AcDbCircle
 10
293.20479
 20
230.391017
 30
0.0
 40
4.000000000000461
100
AcDbArc
 50
179.999925
 51
359.999696
  0
LINE
  5
65
102
{ACAD_REACTORS
330
3C4
102
}
330
1F
100
AcDbEntity
  8
LC-001-002-----0
 62
     7
370
    50
100
AcDbLine
 10
289.20479
 20
230.391038
 30
0.0
 11
289.205098
 21
288.391038
 31
0.0
  0
LINE
  5
66
102
{ACAD_REACTORS
330
3C4
102
}
330
1F
100
AcDbEntity
  8
LC-001-002-----0
 62
     7
370
    50
100
AcDbLine
 10
297.20479
 20
230.390996
 30
0.0
 11
297.205098
 21
288.390996
 31
0.0
  0
ARC
  5
67
102
{ACAD_REACTORS
330
3C3
102
}
330
1F
100
AcDbEntity
  8
LC-001-002-----0
 62
     7
370
    50
100
AcDbCircle
 10
309.205098
 20
288.390932
 30
0.0
 40
4.000000000000501
100
AcDbArc
 50
359.999677
 51
179.999867
  0
ARC
  5
68
102
{ACAD_REACTORS
330
3C3
102
}
330
1F
100
AcDbEntity
  8
LC-001-002-----0
 62
     7
370
    50
100
AcDbCircle
 10
309.20479
 20
230.390932
 30
0.0
 40
4.000000000000518
100
AcDbArc
 50
179.999925
 51
359.999696
  0
LINE
  5
69
102
{ACAD_REACTORS
330
3C3
102
}
330
1F
100
AcDbEntity
  8
LC-001-002-----0
 62
     7
370
    50
100
AcDbLine
 10
305.20479
 20
230.390953
 30
0.0
 11
305.205098
 21
288.390953
 31
0.0
  0
LINE
  5
6A
102
{ACAD_REACTORS
330
3C3
102
}
330
1F
100
AcDbEntity
  8
LC-001-002-----0
 62
     7
370
    50
100
AcDbLine
 10
313.20479
 20
230.390911
 30
0.0
 11
313.205098
 21
288.390911
 31
0.0
  0
ARC
  5
6B
102
{ACAD_REACTORS
330
3D0
102
}
330
1F
100
AcDbEntity
  8
LC-001-002-----0
 62
     7
370
    50
100
AcDbCircle
 10
325.205098
 20
288.390847
 30
0.0
 40
4.000000000000501
100
AcDbArc
 50
359.999677
 51
179.999867
  0
ARC
  5
6C
102
{ACAD_REACTORS
330
3D0
102
}
330
1F
100
AcDbEntity
  8
LC-001-002-----0
 62
     7
370
    50
100
AcDbCircle
 10
325.20479
 20
230.390847
 30
0.0
 40
4.000000000000518
100
AcDbArc
 50
179.999925
 51
359.999696
  0
LINE
  5
6D
102
{ACAD_REACTORS
330
3D0
102
}
330
1F
100
AcDbEntity
  8
LC-001-002-----0
 62
     7
370
    50
100
AcDbLine
 10
321.20479
 20
230.390868
 30
0.0
 11
321.205098
 21
288.390868
 31
0.0
  0
LINE
  5
6E
102
{ACAD_REACTORS
330
3D0
102
}
330
1F
100
AcDbEntity
  8
LC-001-002-----0
 62
     7
370
    50
100
AcDbLine
 10
329.20479
 20
230.390826
 30
0.0
 11
329.205098
 21
288.390826
 31
0.0
  0
LINE
  5
6F
330
1F
100
AcDbEntity
  8
LC-001-002-----0
 62
     7
370
    50
100
AcDbLine
 10
339.706667
 20
394.392036
 30
0.0
 11
339.706667
 21
214.392036
 31
0.0
  0
LINE
  5
70
330
1F
100
AcDbEntity
  8
LC-001-002-----0
 62
     7
370
    50
100
AcDbLine
 10
339.706667
 20
394.392036
 30
0.0
 11
457.706667
 21
394.392036
 31
0.0
  0
LINE
  5
71
330
1F
100
AcDbEntity
  8
LC-001-002-----0
 62
     7
370
    50
100
AcDbLine
 10
464.706667
 20
387.392036
 30
0.0
 11
464.706667
 21
221.392036
 31
0.0
  0
LINE
  5
72
330
1F
100
AcDbEntity
  8
LC-001-002-----0
 62
     7
370
    50
100
AcDbLine
 10
457.706667
 20
214.392036
 30
0.0
 11
339.706667
 21
214.392036
 31
0.0
  0
LINE
  5
73
330
1F
100
AcDbEntity
  8
LC-001-002-----0
 62
     7
370
    50
100
AcDbLine
 10
352.206667
 20
385.392036
 30
0.0
 11
454.206667
 21
385.392036
 31
0.0
  0
LINE
  5
74
330
1F
100
AcDbEntity
  8
LC-001-002-----0
 62
     7
370
    50
100
AcDbLine
 10
454.206667
 20
224.392036
 30
0.0
 11
352.206667
 21
224.392036
 31
0.0
  0
LINE
  5
75
330
1F
100
AcDbEntity
  8
LC-001-002-----0
 62
     7
370
    50
100
AcDbLine
 10
352.206667
 20
224.392036
 30
0.0
 11
352.206667
 21
385.392036
 31
0.0
  0
LINE
  5
76
330
1F
100
AcDbEntity
  8
LC-001-002-----0
 62
     7
370
    50
100
AcDbLine
 10
457.706667
 20
394.392036
 30
0.0
 11
464.706667
 21
387.392036
 31
0.0
  0
LINE
  5
77
330
1F
100
AcDbEntity
  8
LC-001-002-----0
 62
     7
370
    50
100
AcDbLine
 10
457.706667
 20
214.392036
 30
0.0
 11
464.706667
 21
221.392036
 31
0.0
  0
LINE
  5
78
330
1F
100
AcDbEntity
  8
LC-001-002-----0
 62
     7
370
    50
100
AcDbLine
 10
414.206667
 20
312.392036
 30
0.0
 11
414.206667
 21
305.392036
 31
0.0
  0
LINE
  5
79
330
1F
100
AcDbEntity
  8
LC-001-002-----0
 62
     7
370
    50
100
AcDbLine
 10
390.206667
 20
305.392036
 30
0.0
 11
414.206667
 21
305.392036
 31
0.0
  0
LINE
  5
7A
330
1F
100
AcDbEntity
  8
LC-001-002-----0
 62
     7
370
    50
100
AcDbLine
 10
390.206667
 20
305.392036
 30
0.0
 11
390.206667
 21
312.392072
 31
0.0
  0
LINE
  5
7B
330
1F
100
AcDbEntity
  8
LC-001-002-----0
 62
     7
370
    50
100
AcDbLine
 10
354.206667
 20
383.392036
 30
0.0
 11
362.206667
 21
383.392036
 31
0.0
  0
LINE
  5
7C
330
1F
100
AcDbEntity
  8
LC-001-002-----0
 62
     7
370
    50
100
AcDbLine
 10
362.206667
 20
383.392036
 30
0.0
 11
362.206667
 21
375.392036
 31
0.0
  0
LINE
  5
7D
330
1F
100
AcDbEntity
  8
LC-001-002-----0
 62
     7
370
    50
100
AcDbLine
 10
362.206667
 20
375.392036
 30
0.0
 11
354.206667
 21
375.392036
 31
0.0
  0
LINE
  5
7E
330
1F
100
AcDbEntity
  8
LC-001-002-----0
 62
     7
370
    50
100
AcDbLine
 10
354.206667
 20
375.392036
 30
0.0
 11
354.206667
 21
383.392036
 31
0.0
  0
LINE
  5
7F
102
{ACAD_REACTORS
330
3DE
102
}
330
1F
100
AcDbEntity
  8
LC-001-002-----0
 62
     7
370
    50
100
AcDbLine
 10
372.206667
 20
383.392036
 30
0.0
 11
372.206667
 21
375.392036
 31
0.0
  0
LINE
  5
80
102
{ACAD_REACTORS
330
3DE
102
}
330
1F
100
AcDbEntity
  8
LC-001-002-----0
 62
     7
370
    50
100
AcDbLine
 10
372.206667
 20
375.392036
 30
0.0
 11
364.206667
 21
375.392036
 31
0.0
  0
LINE
  5
81
102
{ACAD_REACTORS
330
3DE
102
}
330
1F
100
AcDbEntity
  8
LC-001-002-----0
 62
     7
370
    50
100
AcDbLine
 10
364.206667
 20
375.392036
 30
0.0
 11
364.206667
 21
383.392036
 31
0.0
  0
LINE
  5
82
102
{ACAD_REACTORS
330
3DD
102
}
330
1F
100
AcDbEntity
  8
LC-001-002-----0
 62
     7
370
    50
100
AcDbLine
 10
364.206667
 20
383.392036
 30
0.0
 11
372.206667
 21
383.392036
 31
0.0
  0
LINE
  5
83
102
{ACAD_REACTORS
330
3DC
102
}
330
1F
100
AcDbEntity
  8
LC-001-002-----0
 62
     7
370
    50
100
AcDbLine
 10
382.206667
 20
383.392036
 30
0.0
 11
382.206667
 21
375.392036
 31
0.0
  0
LINE
  5
84
102
{ACAD_REACTORS
330
3DC
102
}
330
1F
100
AcDbEntity
  8
LC-001-002-----0
 62
     7
370
    50
100
AcDbLine
 10
382.206667
 20
375.392036
 30
0.0
 11
374.206667
 21
375.392036
 31
0.0
  0
LINE
  5
85
102
{ACAD_REACTORS
330
3DC
102
}
330
1F
100
AcDbEntity
  8
LC-001-002-----0
 62
     7
370
    50
100
AcDbLine
 10
374.206667
 20
375.392036
 30
0.0
 11
374.206667
 21
383.392036
 31
0.0
  0
LINE
  5
86
102
{ACAD_REACTORS
330
3EE
102
}
330
1F
100
AcDbEntity
  8
LC-001-002-----0
 62
     7
370
    50
100
AcDbLine
 10
374.206667
 20
383.392036
 30
0.0
 11
382.206667
 21
383.392036
 31
0.0
  0
LINE
  5
87
102
{ACAD_REACTORS
330
3ED
102
}
330
1F
100
AcDbEntity
  8
LC-001-002-----0
 62
     7
370
    50
100
AcDbLine
 10
392.206667
 20
383.392036
 30
0.0
 11
392.206667
 21
375.392036
 31
0.0
  0
LINE
  5
88
102
{ACAD_REACTORS
330
3ED
102
}
330
1F
100
AcDbEntity
  8
LC-001-002-----0
 62
     7
370
    50
100
AcDbLine
 10
392.206667
 20
375.392036
 30
0.0
 11
384.206667
 21
375.392036
 31
0.0
  0
LINE
  5
89
102
{ACAD_REACTORS
330
3ED
102
}
330
1F
100
AcDbEntity
  8
LC-001-002-----0
 62
     7
370
    50
100
AcDbLine
 10
384.206667
 20
375.392036
 30
0.0
 11
384.206667
 21
383.392036
 31
0.0
  0
LINE
  5
8A
102
{ACAD_REACTORS
330
3EC
102
}
330
1F
100
AcDbEntity
  8
LC-001-002-----0
 62
     7
370
    50
100
AcDbLine
 10
384.206667
 20
383.392036
 30
0.0
 11
392.206667
 21
383.392036
 31
0.0
  0
LINE
  5
8B
102
{ACAD_REACTORS
330
3EB
102
}
330
1F
100
AcDbEntity
  8
LC-001-002-----0
 62
     7
370
    50
100
AcDbLine
 10
402.206667
 20
383.392036
 30
0.0
 11
402.206667
 21
375.392036
 31
0.0
  0
LINE
  5
8C
102
{ACAD_REACTORS
330
3EB
102
}
330
1F
100
AcDbEntity
  8
LC-001-002-----0
 62
     7
370
    50
100
AcDbLine
 10
402.206667
 20
375.392036
 30
0.0
 11
394.206667
 21
375.392036
 31
0.0
  0
LINE
  5
8D
102
{ACAD_REACTORS
330
3EB
102
}
330
1F
100
AcDbEntity
  8
LC-001-002-----0
 62
     7
370
    50
100
AcDbLine
 10
394.206667
 20
375.392036
 30
0.0
 11
394.206667
 21
383.392036
 31
0.0
  0
LINE
  5
8E
102
{ACAD_REACTORS
330
3EA
102
}
330
1F
100
AcDbEntity
  8
LC-001-002-----0
 62
     7
370
    50
100
AcDbLine
 10
394.206667
 20
383.392036
 30
0.0
 11
402.206667
 21
383.392036
 31
0.0
  0
LINE
  5
8F
102
{ACAD_REACTORS
330
3E9
102
}
330
1F
100
AcDbEntity
  8
LC-001-002-----0
 62
     7
370
    50
100
AcDbLine
 10
412.206667
 20
383.392036
 30
0.0
 11
412.206667
 21
375.392036
 31
0.0
  0
LINE
  5
90
102
{ACAD_REACTORS
330
3E9
102
}
330
1F
100
AcDbEntity
  8
LC-001-002-----0
 62
     7
370
    50
100
AcDbLine
 10
412.206667
 20
375.392036
 30
0.0
 11
404.206667
 21
375.392036
 31
0.0
  0
LINE
  5
91
102
{ACAD_REACTORS
330
3E9
102
}
330
1F
100
AcDbEntity
  8
LC-001-002-----0
 62
     7
370
    50
100
AcDbLine
 10
404.206667
 20
375.392036
 30
0.0
 11
404.206667
 21
383.392036
 31
0.0
  0
LINE
  5
92
102
{ACAD_REACTORS
330
3FD
102
}
330
1F
100
AcDbEntity
  8
LC-001-002-----0
 62
     7
370
    50
100
AcDbLine
 10
404.206667
 20
383.392036
 30
0.0
 11
412.206667
 21
383.392036
 31
0.0
  0
LINE
  5
93
102
{ACAD_REACTORS
330
3FC
102
}
330
1F
100
AcDbEntity
  8
LC-001-002-----0
 62
     7
370
    50
100
AcDbLine
 10
422.206667
 20
383.392036
 30
0.0
 11
422.206667
 21
375.392036
 31
0.0
  0
LINE
  5
94
102
{ACAD_REACTORS
330
3FC
102
}
330
1F
100
AcDbEntity
  8
LC-001-002-----0
 62
     7
370
    50
100
AcDbLine
 10
422.206667
 20
375.392036
 30
0.0
 11
414.206667
 21
375.392036
 31
0.0
  0
LINE
  5
95
102
{ACAD_REACTORS
330
3FC
102
}
330
1F
100
AcDbEntity
  8
LC-001-002-----0
 62
     7
370
    50
100
AcDbLine
 10
414.206667
 20
375.392036
 30
0.0
 11
414.206667
 21
383.392036
 31
0.0
  0
LINE
  5
96
102
{ACAD_REACTORS
330
3FB
102
}
330
1F
100
AcDbEntity
  8
LC-001-002-----0
 62
     7
370
    50
100
AcDbLine
 10
414.206667
 20
383.392036
 30
0.0
 11
422.206667
 21
383.392036
 31
0.0
  0
LINE
  5
97
102
{ACAD_REACTORS
330
3FA
102
}
330
1F
100
AcDbEntity
  8
LC-001-002-----0
 62
     7
370
    50
100
AcDbLine
 10
432.206667
 20
383.392036
 30
0.0
 11
432.206667
 21
375.392036
 31
0.0
  0
LINE
  5
98
102
{ACAD_REACTORS
330
3FA
102
}
330
1F
100
AcDbEntity
  8
LC-001-002-----0
 62
     7
370
    50
100
AcDbLine
 10
432.206667
 20
375.392036
 30
0.0
 11
424.206667
 21
375.392036
 31
0.0
  0
LINE
  5
99
102
{ACAD_REACTORS
330
3FA
102
}
330
1F
100
AcDbEntity
  8
LC-001-002-----0
 62
     7
370
    50
100
AcDbLine
 10
424.206667
 20
375.392036
 30
0.0
 11
424.206667
 21
383.392036
 31
0.0
  0
LINE
  5
9A
102
{ACAD_REACTORS
330
3F9
102
}
330
1F
100
AcDbEntity
  8
LC-001-002-----0
 62
     7
370
    50
100
AcDbLine
 10
424.206667
 20
383.392036
 30
0.0
 11
432.206667
 21
383.392036
 31
0.0
  0
LINE
  5
9B
102
{ACAD_REACTORS
330
410
102
}
330
1F
100
AcDbEntity
  8
LC-001-002-----0
 62
     7
370
    50
100
AcDbLine
 10
442.206667
 20
383.392036
 30
0.0
 11
442.206667
 21
375.392036
 31
0.0
  0
LINE
  5
9C
102
{ACAD_REACTORS
330
410
102
}
330
1F
100
AcDbEntity
  8
LC-001-002-----0
 62
     7
370
    50
100
AcDbLine
 10
442.206667
 20
375.392036
 30
0.0
 11
434.206667
 21
375.392036
 31
0.0
  0
LINE
  5
9D
102
{ACAD_REACTORS
330
410
102
}
330
1F
100
AcDbEntity
  8
LC-001-002-----0
 62
     7
370
    50
100
AcDbLine
 10
434.206667
 20
375.392036
 30
0.0
 11
434.206667
 21
383.392036
 31
0.0
  0
LINE
  5
9E
102
{ACAD_REACTORS
330
40F
102
}
330
1F
100
AcDbEntity
  8
LC-001-002-----0
 62
     7
370
    50
100
AcDbLine
 10
434.206667
 20
383.392036
 30
0.0
 11
442.206667
 21
383.392036
 31
0.0
  0
LINE
  5
9F
102
{ACAD_REACTORS
330
40E
102
}
330
1F
100
AcDbEntity
  8
LC-001-002-----0
 62
     7
370
    50
100
AcDbLine
 10
452.206667
 20
383.392036
 30
0.0
 11
452.206667
 21
375.392036
 31
0.0
  0
LINE
  5
A0
102
{ACAD_REACTORS
330
40E
102
}
330
1F
100
AcDbEntity
  8
LC-001-002-----0
 62
     7
370
    50
100
AcDbLine
 10
452.206667
 20
375.392036
 30
0.0
 11
444.206667
 21
375.392036
 31
0.0
  0
LINE
  5
A1
102
{ACAD_REACTORS
330
40E
102
}
330
1F
100
AcDbEntity
  8
LC-001-002-----0
 62
     7
370
    50
100
AcDbLine
 10
444.206667
 20
375.392036
 30
0.0
 11
444.206667
 21
383.392036
 31
0.0
  0
LINE
  5
A2
102
{ACAD_REACTORS
330
40D
102
}
330
1F
100
AcDbEntity
  8
LC-001-002-----0
 62
     7
370
    50
100
AcDbLine
 10
444.206667
 20
383.392036
 30
0.0
 11
452.206667
 21
383.392036
 31
0.0
  0
LINE
  5
A3
330
1F
100
AcDbEntity
  8
LC-001-002-----0
 62
     7
370
    50
100
AcDbLine
 10
454.206667
 20
385.392036
 30
0.0
 11
454.206667
 21
224.392036
 31
0.0
  0
LINE
  5
A4
102
{ACAD_REACTORS
330
40C
102
}
330
1F
100
AcDbEntity
  8
LC-001-002-----0
 62
     7
370
    50
100
AcDbLine
 10
354.206667
 20
373.392036
 30
0.0
 11
362.206667
 21
373.392036
 31
0.0
  0
LINE
  5
A5
102
{ACAD_REACTORS
330
40C
102
}
330
1F
100
AcDbEntity
  8
LC-001-002-----0
 62
     7
370
    50
100
AcDbLine
 10
362.206667
 20
373.392036
 30
0.0
 11
362.206667
 21
365.392036
 31
0.0
  0
LINE
  5
A6
102
{ACAD_REACTORS
330
40C
102
}
330
1F
100
AcDbEntity
  8
LC-001-002-----0
 62
     7
370
    50
100
AcDbLine
 10
362.206667
 20
365.392036
 30
0.0
 11
354.206667
 21
365.392036
 31
0.0
  0
LINE
  5
A7
102
{ACAD_REACTORS
330
40C
102
}
330
1F
100
AcDbEntity
  8
LC-001-002-----0
 62
     7
370
    50
100
AcDbLine
 10
354.206667
 20
365.392036
 30
0.0
 11
354.206667
 21
373.392036
 31
0.0
  0
LINE
  5
A8
102
{ACAD_REACTORS
330
421
102
}
330
1F
100
AcDbEntity
  8
LC-001-002-----0
 62
     7
370
    50
100
AcDbLine
 10
372.206667
 20
373.392036
 30
0.0
 11
372.206667
 21
365.392036
 31
0.0
  0
LINE
  5
A9
102
{ACAD_REACTORS
330
421
102
}
330
1F
100
AcDbEntity
  8
LC-001-002-----0
 62
     7
370
    50
100
AcDbLine
 10
372.206667
 20
365.392036
 30
0.0
 11
364.206667
 21
365.392036
 31
0.0
  0
LINE
  5
AA
102
{ACAD_REACTORS
330
421
102
}
330
1F
100
AcDbEntity
  8
LC-001-002-----0
 62
     7
370
    50
100
AcDbLine
 10
364.206667
 20
365.392036
 30
0.0
 11
364.206667
 21
373.392036
 31
0.0
  0
LINE
  5
AB
102
{ACAD_REACTORS
330
420
102
}
330
1F
100
AcDbEntity
  8
LC-001-002-----0
 62
     7
370
    50
100
AcDbLine
 10
364.206667
 20
373.392036
 30
0.0
 11
372.206667
 21
373.392036
 31
0.0
  0
LINE
  5
AC
102
{ACAD_REACTORS
330
41F
102
}
330
1F
100
AcDbEntity
  8
LC-001-002-----0
 62
     7
370
    50
100
AcDbLine
 10
382.206667
 20
373.392036
 30
0.0
 11
382.206667
 21
365.392036
 31
0.0
  0
LINE
  5
AD
102
{ACAD_REACTORS
330
41F
102
}
330
1F
100
AcDbEntity
  8
LC-001-002-----0
 62
     7
370
    50
100
AcDbLine
 10
382.206667
 20
365.392036
 30
0.0
 11
374.206667
 21
365.392036
 31
0.0
  0
LINE
  5
AE
102
{ACAD_REACTORS
330
41F
102
}
330
1F
100
AcDbEntity
  8
LC-001-002-----0
 62
     7
370
    50
100
AcDbLine
 10
374.206667
 20
365.392036
 30
0.0
 11
374.206667
 21
373.392036
 31
0.0
  0
LINE
  5
AF
102
{ACAD_REACTORS
330
41E
102
}
330
1F
100
AcDbEntity
  8
LC-001-002-----0
 62
     7
370
    50
100
AcDbLine
 10
374.206667
 20
373.392036
 30
0.0
 11
382.206667
 21
373.392036
 31
0.0
  0
LINE
  5
B0
102
{ACAD_REACTORS
330
41D
102
}
330
1F
100
AcDbEntity
  8
LC-001-002-----0
 62
     7
370
    50
100
AcDbLine
 10
392.206667
 20
373.392036
 30
0.0
 11
392.206667
 21
365.392036
 31
0.0
  0
LINE
  5
B1
102
{ACAD_REACTORS
330
41D
102
}
330
1F
100
AcDbEntity
  8
LC-001-002-----0
 62
     7
370
    50
100
AcDbLine
 10
392.206667
 20
365.392036
 30
0.0
 11
384.206667
 21
365.392036
 31
0.0
  0
LINE
  5
B2
102
{ACAD_REACTORS
330
41D
102
}
330
1F
100
AcDbEntity
  8
LC-001-002-----0
 62
     7
370
    50
100
AcDbLine
 10
384.206667
 20
365.392036
 30
0.0
 11
384.206667
 21
373.392036
 31
0.0
  0
LINE
  5
B3
102
{ACAD_REACTORS
330
42F
102
}
330
1F
100
AcDbEntity
  8
LC-001-002-----0
 62
     7
370
    50
100
AcDbLine
 10
384.206667
 20
373.392036
 30
0.0
 11
392.206667
 21
373.392036
 31
0.0
  0
LINE
  5
B4
102
{ACAD_REACTORS
330
42E
102
}
330
1F
100
AcDbEntity
  8
LC-001-002-----0
 62
     7
370
    50
100
AcDbLine
 10
402.206667
 20
373.392036
 30
0.0
 11
402.206667
 21
365.392036
 31
0.0
  0
LINE
  5
B5
102
{ACAD_REACTORS
330
42E
102
}
330
1F
100
AcDbEntity
  8
LC-001-002-----0
 62
     7
370
    50
100
AcDbLine
 10
402.206667
 20
365.392036
 30
0.0
 11
394.206667
 21
365.392036
 31
0.0
  0
LINE
  5
B6
102
{ACAD_REACTORS
330
42E
102
}
330
1F
100
AcDbEntity
  8
LC-001-002-----0
 62
     7
370
    50
100
AcDbLine
 10
394.206667
 20
365.392036
 30
0.0
 11
394.206667
 21
373.392036
 31
0.0
  0
LINE
  5
B7
102
{ACAD_REACTORS
330
42D
102
}
330
1F
100
AcDbEntity
  8
LC-001-002-----0
 62
     7
370
    50
100
AcDbLine
 10
394.206667
 20
373.392036
 30
0.0
 11
402.206667
 21
373.392036
 31
0.0
  0
LINE
  5
B8
102
{ACAD_REACTORS
330
42C
102
}
330
1F
100
AcDbEntity
  8
LC-001-002-----0
 62
     7
370
    50
100
AcDbLine
 10
412.206667
 20
373.392036
 30
0.0
 11
412.206667
 21
365.392036
 31
0.0
  0
LINE
  5
B9
102
{ACAD_REACTORS
330
42C
102
}
330
1F
100
AcDbEntity
  8
LC-001-002-----0
 62
     7
370
    50
100
AcDbLine
 10
412.206667
 20
365.392036
 30
0.0
 11
404.206667
 21
365.392036
 31
0.0
  0
LINE
  5
BA
102
{ACAD_REACTORS
330
42C
102
}
330
1F
100
AcDbEntity
  8
LC-001-002-----0
 62
     7
370
    50
100
AcDbLine
 10
404.206667
 20
365.392036
 30
0.0
 11
404.206667
 21
373.392036
 31
0.0
  0
LINE
  5
BB
102
{ACAD_REACTORS
330
42B
102
}
330
1F
100
AcDbEntity
  8
LC-001-002-----0
 62
     7
370
    50
100
AcDbLine
 10
404.206667
 20
373.392036
 30
0.0
 11
412.206667
 21
373.392036
 31
0.0
  0
LINE
  5
BC
102
{ACAD_REACTORS
330
43E
102
}
330
1F
100
AcDbEntity
  8
LC-001-002-----0
 62
     7
370
    50
100
AcDbLine
 10
422.206667
 20
373.392036
 30
0.0
 11
422.206667
 21
365.392036
 31
0.0
  0
LINE
  5
BD
102
{ACAD_REACTORS
330
43E
102
}
330
1F
100
AcDbEntity
  8
LC-001-002-----0
 62
     7
370
    50
100
AcDbLine
 10
422.206667
 20
365.392036
 30
0.0
 11
414.206667
 21
365.392036
 31
0.0
  0
LINE
  5
BE
102
{ACAD_REACTORS
330
43E
102
}
330
1F
100
AcDbEntity
  8
LC-001-002-----0
 62
     7
370
    50
100
AcDbLine
 10
414.206667
 20
365.392036
 30
0.0
 11
414.206667
 21
373.392036
 31
0.0
  0
LINE
  5
BF
102
{ACAD_REACTORS
330
43D
102
}
330
1F
100
AcDbEntity
  8
LC-001-002-----0
 62
     7
370
    50
100
AcDbLine
 10
414.206667
 20
373.392036
 30
0.0
 11
422.206667
 21
373.392036
 31
0.0
  0
LINE
  5
C0
102
{ACAD_REACTORS
330
43C
102
}
330
1F
100
AcDbEntity
  8
LC-001-002-----0
 62
     7
370
    50
100
AcDbLine
 10
432.206667
 20
373.392036
 30
0.0
 11
432.206667
 21
365.392036
 31
0.0
  0
LINE
  5
C1
102
{ACAD_REACTORS
330
43C
102
}
330
1F
100
AcDbEntity
  8
LC-001-002-----0
 62
     7
370
    50
100
AcDbLine
 10
432.206667
 20
365.392036
 30
0.0
 11
424.206667
 21
365.392036
 31
0.0
  0
LINE
  5
C2
102
{ACAD_REACTORS
330
43C
102
}
330
1F
100
AcDbEntity
  8
LC-001-002-----0
 62
     7
370
    50
100
AcDbLine
 10
424.206667
 20
365.392036
 30
0.0
 11
424.206667
 21
373.392036
 31
0.0
  0
LINE
  5
C3
102
{ACAD_REACTORS
330
43B
102
}
330
1F
100
AcDbEntity
  8
LC-001-002-----0
 62
     7
370
    50
100
AcDbLine
 10
424.206667
 20
373.392036
 30
0.0
 11
432.206667
 21
373.392036
 31
0.0
  0
LINE
  5
C4
102
{ACAD_REACTORS
330
43A
102
}
330
1F
100
AcDbEntity
  8
LC-001-002-----0
 62
     7
370
    50
100
AcDbLine
 10
442.206667
 20
373.392036
 30
0.0
 11
442.206667
 21
365.392036
 31
0.0
  0
LINE
  5
C5
102
{ACAD_REACTORS
330
43A
102
}
330
1F
100
AcDbEntity
  8
LC-001-002-----0
 62
     7
370
    50
100
AcDbLine
 10
442.206667
 20
365.392036
 30
0.0
 11
434.206667
 21
365.392036
 31
0.0
  0
LINE
  5
C6
102
{ACAD_REACTORS
330
43A
102
}
330
1F
100
AcDbEntity
  8
LC-001-002-----0
 62
     7
370
    50
100
AcDbLine
 10
434.206667
 20
365.392036
 30
0.0
 11
434.206667
 21
373.392036
 31
0.0
  0
LINE
  5
C7
102
{ACAD_REACTORS
330
44E
102
}
330
1F
100
AcDbEntity
  8
LC-001-002-----0
 62
     7
370
    50
100
AcDbLine
 10
434.206667
 20
373.392036
 30
0.0
 11
442.206667
 21
373.392036
 31
0.0
  0
LINE
  5
C8
102
{ACAD_REACTORS
330
44D
102
}
330
1F
100
AcDbEntity
  8
LC-001-002-----0
 62
     7
370
    50
100
AcDbLine
 10
452.206667
 20
373.392036
 30
0.0
 11
452.206667
 21
365.392036
 31
0.0
  0
LINE
  5
C9
102
{ACAD_REACTORS
330
44D
102
}
330
1F
100
AcDbEntity
  8
LC-001-002-----0
 62
     7
370
    50
100
AcDbLine
 10
452.206667
 20
365.392036
 30
0.0
 11
444.206667
 21
365.392036
 31
0.0
  0
LINE
  5
CA
102
{ACAD_REACTORS
330
44D
102
}
330
1F
100
AcDbEntity
  8
LC-001-002-----0
 62
     7
370
    50
100
AcDbLine
 10
444.206667
 20
365.392036
 30
0.0
 11
444.206667
 21
373.392036
 31
0.0
  0
LINE
  5
CB
102
{ACAD_REACTORS
330
44C
102
}
330
1F
100
AcDbEntity
  8
LC-001-002-----0
 62
     7
370
    50
100
AcDbLine
 10
444.206667
 20
373.392036
 30
0.0
 11
452.206667
 21
373.392036
 31
0.0
  0
LINE
  5
CC
102
{ACAD_REACTORS
330
44B
102
}
330
1F
100
AcDbEntity
  8
LC-001-002-----0
 62
     7
370
    50
100
AcDbLine
 10
354.206667
 20
363.392036
 30
0.0
 11
362.206667
 21
363.392036
 31
0.0
  0
LINE
  5
CD
102
{ACAD_REACTORS
330
44B
102
}
330
1F
100
AcDbEntity
  8
LC-001-002-----0
 62
     7
370
    50
100
AcDbLine
 10
362.206667
 20
363.392036
 30
0.0
 11
362.206667
 21
355.392036
 31
0.0
  0
LINE
  5
CE
102
{ACAD_REACTORS
330
44B
102
}
330
1F
100
AcDbEntity
  8
LC-001-002-----0
 62
     7
370
    50
100
AcDbLine
 10
362.206667
 20
355.392036
 30
0.0
 11
354.206667
 21
355.392036
 31
0.0
  0
LINE
  5
CF
102
{ACAD_REACTORS
330
44B
102
}
330
1F
100
AcDbEntity
  8
LC-001-002-----0
 62
     7
370
    50
100
AcDbLine
 10
354.206667
 20
355.392036
 30
0.0
 11
354.206667
 21
363.392036
 31
0.0
  0
LINE
  5
D0
102
{ACAD_REACTORS
330
44A
102
}
330
1F
100
AcDbEntity
  8
LC-001-002-----0
 62
     7
370
    50
100
AcDbLine
 10
372.206667
 20
363.392036
 30
0.0
 11
372.206667
 21
355.392036
 31
0.0
  0
LINE
  5
D1
102
{ACAD_REACTORS
330
44A
102
}
330
1F
100
AcDbEntity
  8
LC-001-002-----0
 62
     7
370
    50
100
AcDbLine
 10
372.206667
 20
355.392036
 30
0.0
 11
364.206667
 21
355.392036
 31
0.0
  0
LINE
  5
D2
102
{ACAD_REACTORS
330
44A
102
}
330
1F
100
AcDbEntity
  8
LC-001-002-----0
 62
     7
370
    50
100
AcDbLine
 10
364.206667
 20
355.392036
 30
0.0
 11
364.206667
 21
363.392036
 31
0.0
  0
LINE
  5
D3
102
{ACAD_REACTORS
330
45E
102
}
330
1F
100
AcDbEntity
  8
LC-001-002-----0
 62
     7
370
    50
100
AcDbLine
 10
364.206667
 20
363.392036
 30
0.0
 11
372.206667
 21
363.392036
 31
0.0
  0
LINE
  5
D4
102
{ACAD_REACTORS
330
45D
102
}
330
1F
100
AcDbEntity
  8
LC-001-002-----0
 62
     7
370
    50
100
AcDbLine
 10
382.206667
 20
363.392036
 30
0.0
 11
382.206667
 21
355.392036
 31
0.0
  0
LINE
  5
D5
102
{ACAD_REACTORS
330
45D
102
}
330
1F
100
AcDbEntity
  8
LC-001-002-----0
 62
     7
370
    50
100
AcDbLine
 10
382.206667
 20
355.392036
 30
0.0
 11
374.206667
 21
355.392036
 31
0.0
  0
LINE
  5
D6
102
{ACAD_REACTORS
330
45D
102
}
330
1F
100
AcDbEntity
  8
LC-001-002-----0
 62
     7
370
    50
100
AcDbLine
 10
374.206667
 20
355.392036
 30
0.0
 11
374.206667
 21
363.392036
 31
0.0
  0
LINE
  5
D7
102
{ACAD_REACTORS
330
45C
102
}
330
1F
100
AcDbEntity
  8
LC-001-002-----0
 62
     7
370
    50
100
AcDbLine
 10
374.206667
 20
363.392036
 30
0.0
 11
382.206667
 21
363.392036
 31
0.0
  0
LINE
  5
D8
102
{ACAD_REACTORS
330
45B
102
}
330
1F
100
AcDbEntity
  8
LC-001-002-----0
 62
     7
370
    50
100
AcDbLine
 10
392.206667
 20
363.392036
 30
0.0
 11
392.206667
 21
355.392036
 31
0.0
  0
LINE
  5
D9
102
{ACAD_REACTORS
330
45B
102
}
330
1F
100
AcDbEntity
  8
LC-001-002-----0
 62
     7
370
    50
100
AcDbLine
 10
392.206667
 20
355.392036
 30
0.0
 11
384.206667
 21
355.392036
 31
0.0
  0
LINE
  5
DA
102
{ACAD_REACTORS
330
45B
102
}
330
1F
100
AcDbEntity
  8
LC-001-002-----0
 62
     7
370
    50
100
AcDbLine
 10
384.206667
 20
355.392036
 30
0.0
 11
384.206667
 21
363.392036
 31
0.0
  0
LINE
  5
DB
102
{ACAD_REACTORS
330
45A
102
}
330
1F
100
AcDbEntity
  8
LC-001-002-----0
 62
     7
370
    50
100
AcDbLine
 10
384.206667
 20
363.392036
 30
0.0
 11
392.206667
 21
363.392036
 31
0.0
  0
LINE
  5
DC
102
{ACAD_REACTORS
330
459
102
}
330
1F
100
AcDbEntity
  8
LC-001-002-----0
 62
     7
370
    50
100
AcDbLine
 10
402.206667
 20
363.392036
 30
0.0
 11
402.206667
 21
355.392036
 31
0.0
  0
LINE
  5
DD
102
{ACAD_REACTORS
330
459
102
}
330
1F
100
AcDbEntity
  8
LC-001-002-----0
 62
     7
370
    50
100
AcDbLine
 10
402.206667
 20
355.392036
 30
0.0
 11
394.206667
 21
355.392036
 31
0.0
  0
LINE
  5
DE
102
{ACAD_REACTORS
330
459
102
}
330
1F
100
AcDbEntity
  8
LC-001-002-----0
 62
     7
370
    50
100
AcDbLine
 10
394.206667
 20
355.392036
 30
0.0
 11
394.206667
 21
363.392036
 31
0.0
  0
LINE
  5
DF
102
{ACAD_REACTORS
330
46E
102
}
330
1F
100
AcDbEntity
  8
LC-001-002-----0
 62
     7
370
    50
100
AcDbLine
 10
394.206667
 20
363.392036
 30
0.0
 11
402.206667
 21
363.392036
 31
0.0
  0
LINE
  5
E0
102
{ACAD_REACTORS
330
46D
102
}
330
1F
100
AcDbEntity
  8
LC-001-002-----0
 62
     7
370
    50
100
AcDbLine
 10
412.206667
 20
363.392036
 30
0.0
 11
412.206667
 21
355.392036
 31
0.0
  0
LINE
  5
E1
102
{ACAD_REACTORS
330
46D
102
}
330
1F
100
AcDbEntity
  8
LC-001-002-----0
 62
     7
370
    50
100
AcDbLine
 10
412.206667
 20
355.392036
 30
0.0
 11
404.206667
 21
355.392036
 31
0.0
  0
LINE
  5
E2
102
{ACAD_REACTORS
330
46D
102
}
330
1F
100
AcDbEntity
  8
LC-001-002-----0
 62
     7
370
    50
100
AcDbLine
 10
404.206667
 20
355.392036
 30
0.0
 11
404.206667
 21
363.392036
 31
0.0
  0
LINE
  5
E3
102
{ACAD_REACTORS
330
46C
102
}
330
1F
100
AcDbEntity
  8
LC-001-002-----0
 62
     7
370
    50
100
AcDbLine
 10
404.206667
 20
363.392036
 30
0.0
 11
412.206667
 21
363.392036
 31
0.0
  0
LINE
  5
E4
102
{ACAD_REACTORS
330
46B
102
}
330
1F
100
AcDbEntity
  8
LC-001-002-----0
 62
     7
370
    50
100
AcDbLine
 10
422.206667
 20
363.392036
 30
0.0
 11
422.206667
 21
355.392036
 31
0.0
  0
LINE
  5
E5
102
{ACAD_REACTORS
330
46B
102
}
330
1F
100
AcDbEntity
  8
LC-001-002-----0
 62
     7
370
    50
100
AcDbLine
 10
422.206667
 20
355.392036
 30
0.0
 11
414.206667
 21
355.392036
 31
0.0
  0
LINE
  5
E6
102
{ACAD_REACTORS
330
46B
102
}
330
1F
100
AcDbEntity
  8
LC-001-002-----0
 62
     7
370
    50
100
AcDbLine
 10
414.206667
 20
355.392036
 30
0.0
 11
414.206667
 21
363.392036
 31
0.0
  0
LINE
  5
E7
102
{ACAD_REACTORS
330
46A
102
}
330
1F
100
AcDbEntity
  8
LC-001-002-----0
 62
     7
370
    50
100
AcDbLine
 10
414.206667
 20
363.392036
 30
0.0
 11
422.206667
 21
363.392036
 31
0.0
  0
LINE
  5
E8
102
{ACAD_REACTORS
330
47D
102
}
330
1F
100
AcDbEntity
  8
LC-001-002-----0
 62
     7
370
    50
100
AcDbLine
 10
432.206667
 20
363.392036
 30
0.0
 11
432.206667
 21
355.392036
 31
0.0
  0
LINE
  5
E9
102
{ACAD_REACTORS
330
47D
102
}
330
1F
100
AcDbEntity
  8
LC-001-002-----0
 62
     7
370
    50
100
AcDbLine
 10
432.206667
 20
355.392036
 30
0.0
 11
424.206667
 21
355.392036
 31
0.0
  0
LINE
  5
EA
102
{ACAD_REACTORS
330
47D
102
}
330
1F
100
AcDbEntity
  8
LC-001-002-----0
 62
     7
370
    50
100
AcDbLine
 10
424.206667
 20
355.392036
 30
0.0
 11
424.206667
 21
363.392036
 31
0.0
  0
LINE
  5
EB
102
{ACAD_REACTORS
330
47C
102
}
330
1F
100
AcDbEntity
  8
LC-001-002-----0
 62
     7
370
    50
100
AcDbLine
 10
424.206667
 20
363.392036
 30
0.0
 11
432.206667
 21
363.392036
 31
0.0
  0
LINE
  5
EC
102
{ACAD_REACTORS
330
47B
102
}
330
1F
100
AcDbEntity
  8
LC-001-002-----0
 62
     7
370
    50
100
AcDbLine
 10
442.206667
 20
363.392036
 30
0.0
 11
442.206667
 21
355.392036
 31
0.0
  0
LINE
  5
ED
102
{ACAD_REACTORS
330
47B
102
}
330
1F
100
AcDbEntity
  8
LC-001-002-----0
 62
     7
370
    50
100
AcDbLine
 10
442.206667
 20
355.392036
 30
0.0
 11
434.206667
 21
355.392036
 31
0.0
  0
LINE
  5
EE
102
{ACAD_REACTORS
330
47B
102
}
330
1F
100
AcDbEntity
  8
LC-001-002-----0
 62
     7
370
    50
100
AcDbLine
 10
434.206667
 20
355.392036
 30
0.0
 11
434.206667
 21
363.392036
 31
0.0
  0
LINE
  5
EF
102
{ACAD_REACTORS
330
47A
102
}
330
1F
100
AcDbEntity
  8
LC-001-002-----0
 62
     7
370
    50
100
AcDbLine
 10
434.206667
 20
363.392036
 30
0.0
 11
442.206667
 21
363.392036
 31
0.0
  0
LINE
  5
F0
102
{ACAD_REACTORS
330
479
102
}
330
1F
100
AcDbEntity
  8
LC-001-002-----0
 62
     7
370
    50
100
AcDbLine
 10
452.206667
 20
363.392036
 30
0.0
 11
452.206667
 21
355.392036
 31
0.0
  0
LINE
  5
F1
102
{ACAD_REACTORS
330
479
102
}
330
1F
100
AcDbEntity
  8
LC-001-002-----0
 62
     7
370
    50
100
AcDbLine
 10
452.206667
 20
355.392036
 30
0.0
 11
444.206667
 21
355.392036
 31
0.0
  0
LINE
  5
F2
102
{ACAD_REACTORS
330
479
102
}
330
1F
100
AcDbEntity
  8
LC-001-002-----0
 62
     7
370
    50
100
AcDbLine
 10
444.206667
 20
355.392036
 30
0.0
 11
444.206667
 21
363.392036
 31
0.0
  0
LINE
  5
F3
102
{ACAD_REACTORS
330
387
102
}
330
1F
100
AcDbEntity
  8
LC-001-002-----0
 62
     7
370
    50
100
AcDbLine
 10
444.206667
 20
363.392036
 30
0.0
 11
452.206667
 21
363.392036
 31
0.0
  0
LINE
  5
F4
102
{ACAD_REACTORS
330
386
102
}
330
1F
100
AcDbEntity
  8
LC-001-002-----0
 62
     7
370
    50
100
AcDbLine
 10
354.206667
 20
353.392036
 30
0.0
 11
362.206667
 21
353.392036
 31
0.0
  0
LINE
  5
F5
102
{ACAD_REACTORS
330
386
102
}
330
1F
100
AcDbEntity
  8
LC-001-002-----0
 62
     7
370
    50
100
AcDbLine
 10
362.206667
 20
353.392036
 30
0.0
 11
362.206667
 21
345.392036
 31
0.0
  0
LINE
  5
F6
102
{ACAD_REACTORS
330
386
102
}
330
1F
100
AcDbEntity
  8
LC-001-002-----0
 62
     7
370
    50
100
AcDbLine
 10
362.206667
 20
345.392036
 30
0.0
 11
354.206667
 21
345.392036
 31
0.0
  0
LINE
  5
F7
102
{ACAD_REACTORS
330
386
102
}
330
1F
100
AcDbEntity
  8
LC-001-002-----0
 62
     7
370
    50
100
AcDbLine
 10
354.206667
 20
345.392036
 30
0.0
 11
354.206667
 21
353.392036
 31
0.0
  0
LINE
  5
F8
102
{ACAD_REACTORS
330
385
102
}
330
1F
100
AcDbEntity
  8
LC-001-002-----0
 62
     7
370
    50
100
AcDbLine
 10
372.206667
 20
353.392036
 30
0.0
 11
372.206667
 21
345.392036
 31
0.0
  0
LINE
  5
F9
102
{ACAD_REACTORS
330
385
102
}
330
1F
100
AcDbEntity
  8
LC-001-002-----0
 62
     7
370
    50
100
AcDbLine
 10
372.206667
 20
345.392036
 30
0.0
 11
364.206667
 21
345.392036
 31
0.0
  0
LINE
  5
FA
102
{ACAD_REACTORS
330
385
102
}
330
1F
100
AcDbEntity
  8
LC-001-002-----0
 62
     7
370
    50
100
AcDbLine
 10
364.206667
 20
345.392036
 30
0.0
 11
364.206667
 21
353.392036
 31
0.0
  0
LINE
  5
FB
102
{ACAD_REACTORS
330
384
102
}
330
1F
100
AcDbEntity
  8
LC-001-002-----0
 62
     7
370
    50
100
AcDbLine
 10
364.206667
 20
353.392036
 30
0.0
 11
372.206667
 21
353.392036
 31
0.0
  0
LINE
  5
FC
102
{ACAD_REACTORS
330
383
102
}
330
1F
100
AcDbEntity
  8
LC-001-002-----0
 62
     7
370
    50
100
AcDbLine
 10
382.206667
 20
353.392036
 30
0.0
 11
382.206667
 21
345.392036
 31
0.0
  0
LINE
  5
FD
102
{ACAD_REACTORS
330
383
102
}
330
1F
100
AcDbEntity
  8
LC-001-002-----0
 62
     7
370
    50
100
AcDbLine
 10
382.206667
 20
345.392036
 30
0.0
 11
374.206667
 21
345.392036
 31
0.0
  0
LINE
  5
FE
102
{ACAD_REACTORS
330
383
102
}
330
1F
100
AcDbEntity
  8
LC-001-002-----0
 62
     7
370
    50
100
AcDbLine
 10
374.206667
 20
345.392036
 30
0.0
 11
374.206667
 21
353.392036
 31
0.0
  0
LINE
  5
FF
102
{ACAD_REACTORS
330
395
102
}
330
1F
100
AcDbEntity
  8
LC-001-002-----0
 62
     7
370
    50
100
AcDbLine
 10
374.206667
 20
353.392036
 30
0.0
 11
382.206667
 21
353.392036
 31
0.0
  0
LINE
  5
100
102
{ACAD_REACTORS
330
394
102
}
330
1F
100
AcDbEntity
  8
LC-001-002-----0
 62
     7
370
    50
100
AcDbLine
 10
392.206667
 20
353.392036
 30
0.0
 11
392.206667
 21
345.392036
 31
0.0
  0
LINE
  5
101
102
{ACAD_REACTORS
330
394
102
}
330
1F
100
AcDbEntity
  8
LC-001-002-----0
 62
     7
370
    50
100
AcDbLine
 10
392.206667
 20
345.392036
 30
0.0
 11
384.206667
 21
345.392036
 31
0.0
  0
LINE
  5
102
102
{ACAD_REACTORS
330
394
102
}
330
1F
100
AcDbEntity
  8
LC-001-002-----0
 62
     7
370
    50
100
AcDbLine
 10
384.206667
 20
345.392036
 30
0.0
 11
384.206667
 21
353.392036
 31
0.0
  0
LINE
  5
103
102
{ACAD_REACTORS
330
393
102
}
330
1F
100
AcDbEntity
  8
LC-001-002-----0
 62
     7
370
    50
100
AcDbLine
 10
384.206667
 20
353.392036
 30
0.0
 11
392.206667
 21
353.392036
 31
0.0
  0
LINE
  5
104
102
{ACAD_REACTORS
330
392
102
}
330
1F
100
AcDbEntity
  8
LC-001-002-----0
 62
     7
370
    50
100
AcDbLine
 10
402.206667
 20
353.392036
 30
0.0
 11
402.206667
 21
345.392036
 31
0.0
  0
LINE
  5
105
102
{ACAD_REACTORS
330
392
102
}
330
1F
100
AcDbEntity
  8
LC-001-002-----0
 62
     7
370
    50
100
AcDbLine
 10
402.206667
 20
345.392036
 30
0.0
 11
394.206667
 21
345.392036
 31
0.0
  0
LINE
  5
106
102
{ACAD_REACTORS
330
392
102
}
330
1F
100
AcDbEntity
  8
LC-001-002-----0
 62
     7
370
    50
100
AcDbLine
 10
394.206667
 20
345.392036
 30
0.0
 11
394.206667
 21
353.392036
 31
0.0
  0
LINE
  5
107
102
{ACAD_REACTORS
330
391
102
}
330
1F
100
AcDbEntity
  8
LC-001-002-----0
 62
     7
370
    50
100
AcDbLine
 10
394.206667
 20
353.392036
 30
0.0
 11
402.206667
 21
353.392036
 31
0.0
  0
LINE
  5
108
102
{ACAD_REACTORS
330
3A7
102
}
330
1F
100
AcDbEntity
  8
LC-001-002-----0
 62
     7
370
    50
100
AcDbLine
 10
412.206667
 20
353.392036
 30
0.0
 11
412.206667
 21
345.392036
 31
0.0
  0
LINE
  5
109
102
{ACAD_REACTORS
330
3A7
102
}
330
1F
100
AcDbEntity
  8
LC-001-002-----0
 62
     7
370
    50
100
AcDbLine
 10
412.206667
 20
345.392036
 30
0.0
 11
404.206667
 21
345.392036
 31
0.0
  0
LINE
  5
10A
102
{ACAD_REACTORS
330
3A7
102
}
330
1F
100
AcDbEntity
  8
LC-001-002-----0
 62
     7
370
    50
100
AcDbLine
 10
404.206667
 20
345.392036
 30
0.0
 11
404.206667
 21
353.392036
 31
0.0
  0
LINE
  5
10B
102
{ACAD_REACTORS
330
3A6
102
}
330
1F
100
AcDbEntity
  8
LC-001-002-----0
 62
     7
370
    50
100
AcDbLine
 10
404.206667
 20
353.392036
 30
0.0
 11
412.206667
 21
353.392036
 31
0.0
  0
LINE
  5
10C
102
{ACAD_REACTORS
330
3A5
102
}
330
1F
100
AcDbEntity
  8
LC-001-002-----0
 62
     7
370
    50
100
AcDbLine
 10
422.206667
 20
353.392036
 30
0.0
 11
422.206667
 21
345.392036
 31
0.0
  0
LINE
  5
10D
102
{ACAD_REACTORS
330
3A5
102
}
330
1F
100
AcDbEntity
  8
LC-001-002-----0
 62
     7
370
    50
100
AcDbLine
 10
422.206667
 20
345.392036
 30
0.0
 11
414.206667
 21
345.392036
 31
0.0
  0
LINE
  5
10E
102
{ACAD_REACTORS
330
3A5
102
}
330
1F
100
AcDbEntity
  8
LC-001-002-----0
 62
     7
370
    50
100
AcDbLine
 10
414.206667
 20
345.392036
 30
0.0
 11
414.206667
 21
353.392036
 31
0.0
  0
LINE
  5
10F
102
{ACAD_REACTORS
330
3A4
102
}
330
1F
100
AcDbEntity
  8
LC-001-002-----0
 62
     7
370
    50
100
AcDbLine
 10
414.206667
 20
353.392036
 30
0.0
 11
422.206667
 21
353.392036
 31
0.0
  0
LINE
  5
110
102
{ACAD_REACTORS
330
3A3
102
}
330
1F
100
AcDbEntity
  8
LC-001-002-----0
 62
     7
370
    50
100
AcDbLine
 10
432.206667
 20
353.392036
 30
0.0
 11
432.206667
 21
345.392036
 31
0.0
  0
LINE
  5
111
102
{ACAD_REACTORS
330
3A3
102
}
330
1F
100
AcDbEntity
  8
LC-001-002-----0
 62
     7
370
    50
100
AcDbLine
 10
432.206667
 20
345.392036
 30
0.0
 11
424.206667
 21
345.392036
 31
0.0
  0
LINE
  5
112
102
{ACAD_REACTORS
330
3A3
102
}
330
1F
100
AcDbEntity
  8
LC-001-002-----0
 62
     7
370
    50
100
AcDbLine
 10
424.206667
 20
345.392036
 30
0.0
 11
424.206667
 21
353.392036
 31
0.0
  0
LINE
  5
113
102
{ACAD_REACTORS
330
3B6
102
}
330
1F
100
AcDbEntity
  8
LC-001-002-----0
 62
     7
370
    50
100
AcDbLine
 10
424.206667
 20
353.392036
 30
0.0
 11
432.206667
 21
353.392036
 31
0.0
  0
LINE
  5
114
102
{ACAD_REACTORS
330
3B5
102
}
330
1F
100
AcDbEntity
  8
LC-001-002-----0
 62
     7
370
    50
100
AcDbLine
 10
442.206667
 20
353.392036
 30
0.0
 11
442.206667
 21
345.392036
 31
0.0
  0
LINE
  5
115
102
{ACAD_REACTORS
330
3B5
102
}
330
1F
100
AcDbEntity
  8
LC-001-002-----0
 62
     7
370
    50
100
AcDbLine
 10
442.206667
 20
345.392036
 30
0.0
 11
434.206667
 21
345.392036
 31
0.0
  0
LINE
  5
116
102
{ACAD_REACTORS
330
3B5
102
}
330
1F
100
AcDbEntity
  8
LC-001-002-----0
 62
     7
370
    50
100
AcDbLine
 10
434.206667
 20
345.392036
 30
0.0
 11
434.206667
 21
353.392036
 31
0.0
  0
LINE
  5
117
102
{ACAD_REACTORS
330
3B4
102
}
330
1F
100
AcDbEntity
  8
LC-001-002-----0
 62
     7
370
    50
100
AcDbLine
 10
434.206667
 20
353.392036
 30
0.0
 11
442.206667
 21
353.392036
 31
0.0
  0
LINE
  5
118
102
{ACAD_REACTORS
330
3B3
102
}
330
1F
100
AcDbEntity
  8
LC-001-002-----0
 62
     7
370
    50
100
AcDbLine
 10
452.206667
 20
353.392036
 30
0.0
 11
452.206667
 21
345.392036
 31
0.0
  0
LINE
  5
119
102
{ACAD_REACTORS
330
3B3
102
}
330
1F
100
AcDbEntity
  8
LC-001-002-----0
 62
     7
370
    50
100
AcDbLine
 10
452.206667
 20
345.392036
 30
0.0
 11
444.206667
 21
345.392036
 31
0.0
  0
LINE
  5
11A
102
{ACAD_REACTORS
330
3B3
102
}
330
1F
100
AcDbEntity
  8
LC-001-002-----0
 62
     7
370
    50
100
AcDbLine
 10
444.206667
 20
345.392036
 30
0.0
 11
444.206667
 21
353.392036
 31
0.0
  0
LINE
  5
11B
102
{ACAD_REACTORS
330
3B2
102
}
330
1F
100
AcDbEntity
  8
LC-001-002-----0
 62
     7
370
    50
100
AcDbLine
 10
444.206667
 20
353.392036
 30
0.0
 11
452.206667
 21
353.392036
 31
0.0
  0
LINE
  5
11C
102
{ACAD_REACTORS
330
3B1
102
}
330
1F
100
AcDbEntity
  8
LC-001-002-----0
 62
     7
370
    50
100
AcDbLine
 10
354.206667
 20
343.392036
 30
0.0
 11
362.206667
 21
343.392036
 31
0.0
  0
LINE
  5
11D
102
{ACAD_REACTORS
330
3B1
102
}
330
1F
100
AcDbEntity
  8
LC-001-002-----0
 62
     7
370
    50
100
AcDbLine
 10
362.206667
 20
343.392036
 30
0.0
 11
362.206667
 21
335.392036
 31
0.0
  0
LINE
  5
11E
102
{ACAD_REACTORS
330
3B1
102
}
330
1F
100
AcDbEntity
  8
LC-001-002-----0
 62
     7
370
    50
100
AcDbLine
 10
362.206667
 20
335.392036
 30
0.0
 11
354.206667
 21
335.392036
 31
0.0
  0
LINE
  5
11F
102
{ACAD_REACTORS
330
3B1
102
}
330
1F
100
AcDbEntity
  8
LC-001-002-----0
 62
     7
370
    50
100
AcDbLine
 10
354.206667
 20
335.392036
 30
0.0
 11
354.206667
 21
343.392036
 31
0.0
  0
LINE
  5
120
102
{ACAD_REACTORS
330
3C2
102
}
330
1F
100
AcDbEntity
  8
LC-001-002-----0
 62
     7
370
    50
100
AcDbLine
 10
372.206667
 20
343.392036
 30
0.0
 11
372.206667
 21
335.392036
 31
0.0
  0
LINE
  5
121
102
{ACAD_REACTORS
330
3C2
102
}
330
1F
100
AcDbEntity
  8
LC-001-002-----0
 62
     7
370
    50
100
AcDbLine
 10
372.206667
 20
335.392036
 30
0.0
 11
364.206667
 21
335.392036
 31
0.0
  0
LINE
  5
122
102
{ACAD_REACTORS
330
3C2
102
}
330
1F
100
AcDbEntity
  8
LC-001-002-----0
 62
     7
370
    50
100
AcDbLine
 10
364.206667
 20
335.392036
 30
0.0
 11
364.206667
 21
343.392036
 31
0.0
  0
LINE
  5
123
102
{ACAD_REACTORS
330
3C1
102
}
330
1F
100
AcDbEntity
  8
LC-001-002-----0
 62
     7
370
    50
100
AcDbLine
 10
364.206667
 20
343.392036
 30
0.0
 11
372.206667
 21
343.392036
 31
0.0
  0
LINE
  5
124
102
{ACAD_REACTORS
330
3C0
102
}
330
1F
100
AcDbEntity
  8
LC-001-002-----0
 62
     7
370
    50
100
AcDbLine
 10
382.206667
 20
343.392036
 30
0.0
 11
382.206667
 21
335.392036
 31
0.0
  0
LINE
  5
125
102
{ACAD_REACTORS
330
3C0
102
}
330
1F
100
AcDbEntity
  8
LC-001-002-----0
 62
     7
370
    50
100
AcDbLine
 10
382.206667
 20
335.392036
 30
0.0
 11
374.206667
 21
335.392036
 31
0.0
  0
LINE
  5
126
102
{ACAD_REACTORS
330
3C0
102
}
330
1F
100
AcDbEntity
  8
LC-001-002-----0
 62
     7
370
    50
100
AcDbLine
 10
374.206667
 20
335.392036
 30
0.0
 11
374.206667
 21
343.392036
 31
0.0
  0
LINE
  5
127
102
{ACAD_REACTORS
330
3BF
102
}
330
1F
100
AcDbEntity
  8
LC-001-002-----0
 62
     7
370
    50
100
AcDbLine
 10
374.206667
 20
343.392036
 30
0.0
 11
382.206667
 21
343.392036
 31
0.0
  0
LINE
  5
128
102
{ACAD_REACTORS
330
3BE
102
}
330
1F
100
AcDbEntity
  8
LC-001-002-----0
 62
     7
370
    50
100
AcDbLine
 10
392.206667
 20
343.392036
 30
0.0
 11
392.206667
 21
335.392036
 31
0.0
  0
LINE
  5
129
102
{ACAD_REACTORS
330
3BE
102
}
330
1F
100
AcDbEntity
  8
LC-001-002-----0
 62
     7
370
    50
100
AcDbLine
 10
392.206667
 20
335.392036
 30
0.0
 11
384.206667
 21
335.392036
 31
0.0
  0
LINE
  5
12A
102
{ACAD_REACTORS
330
3BE
102
}
330
1F
100
AcDbEntity
  8
LC-001-002-----0
 62
     7
370
    50
100
AcDbLine
 10
384.206667
 20
335.392036
 30
0.0
 11
384.206667
 21
343.392036
 31
0.0
  0
LINE
  5
12B
102
{ACAD_REACTORS
330
3CF
102
}
330
1F
100
AcDbEntity
  8
LC-001-002-----0
 62
     7
370
    50
100
AcDbLine
 10
384.206667
 20
343.392036
 30
0.0
 11
392.206667
 21
343.392036
 31
0.0
  0
LINE
  5
12C
102
{ACAD_REACTORS
330
3CE
102
}
330
1F
100
AcDbEntity
  8
LC-001-002-----0
 62
     7
370
    50
100
AcDbLine
 10
402.206667
 20
343.392036
 30
0.0
 11
402.206667
 21
335.392036
 31
0.0
  0
LINE
  5
12D
102
{ACAD_REACTORS
330
3CE
102
}
330
1F
100
AcDbEntity
  8
LC-001-002-----0
 62
     7
370
    50
100
AcDbLine
 10
402.206667
 20
335.392036
 30
0.0
 11
394.206667
 21
335.392036
 31
0.0
  0
LINE
  5
12E
102
{ACAD_REACTORS
330
3CE
102
}
330
1F
100
AcDbEntity
  8
LC-001-002-----0
 62
     7
370
    50
100
AcDbLine
 10
394.206667
 20
335.392036
 30
0.0
 11
394.206667
 21
343.392036
 31
0.0
  0
LINE
  5
12F
102
{ACAD_REACTORS
330
3CD
102
}
330
1F
100
AcDbEntity
  8
LC-001-002-----0
 62
     7
370
    50
100
AcDbLine
 10
394.206667
 20
343.392036
 30
0.0
 11
402.206667
 21
343.392036
 31
0.0
  0
LINE
  5
130
102
{ACAD_REACTORS
330
3CC
102
}
330
1F
100
AcDbEntity
  8
LC-001-002-----0
 62
     7
370
    50
100
AcDbLine
 10
412.206667
 20
343.392036
 30
0.0
 11
412.206667
 21
335.392036
 31
0.0
  0
LINE
  5
131
102
{ACAD_REACTORS
330
3CC
102
}
330
1F
100
AcDbEntity
  8
LC-001-002-----0
 62
     7
370
    50
100
AcDbLine
 10
412.206667
 20
335.392036
 30
0.0
 11
404.206667
 21
335.392036
 31
0.0
  0
LINE
  5
132
102
{ACAD_REACTORS
330
3CC
102
}
330
1F
100
AcDbEntity
  8
LC-001-002-----0
 62
     7
370
    50
100
AcDbLine
 10
404.206667
 20
335.392036
 30
0.0
 11
404.206667
 21
343.392036
 31
0.0
  0
LINE
  5
133
102
{ACAD_REACTORS
330
3CB
102
}
330
1F
100
AcDbEntity
  8
LC-001-002-----0
 62
     7
370
    50
100
AcDbLine
 10
404.206667
 20
343.392036
 30
0.0
 11
412.206667
 21
343.392036
 31
0.0
  0
LINE
  5
134
102
{ACAD_REACTORS
330
3DB
102
}
330
1F
100
AcDbEntity
  8
LC-001-002-----0
 62
     7
370
    50
100
AcDbLine
 10
422.206667
 20
343.392036
 30
0.0
 11
422.206667
 21
335.392036
 31
0.0
  0
LINE
  5
135
102
{ACAD_REACTORS
330
3DB
102
}
330
1F
100
AcDbEntity
  8
LC-001-002-----0
 62
     7
370
    50
100
AcDbLine
 10
422.206667
 20
335.392036
 30
0.0
 11
414.206667
 21
335.392036
 31
0.0
  0
LINE
  5
136
102
{ACAD_REACTORS
330
3DB
102
}
330
1F
100
AcDbEntity
  8
LC-001-002-----0
 62
     7
370
    50
100
AcDbLine
 10
414.206667
 20
335.392036
 30
0.0
 11
414.206667
 21
343.392036
 31
0.0
  0
LINE
  5
137
102
{ACAD_REACTORS
330
3DA
102
}
330
1F
100
AcDbEntity
  8
LC-001-002-----0
 62
     7
370
    50
100
AcDbLine
 10
414.206667
 20
343.392036
 30
0.0
 11
422.206667
 21
343.392036
 31
0.0
  0
LINE
  5
138
102
{ACAD_REACTORS
330
3D9
102
}
330
1F
100
AcDbEntity
  8
LC-001-002-----0
 62
     7
370
    50
100
AcDbLine
 10
432.206667
 20
343.392036
 30
0.0
 11
432.206667
 21
335.392036
 31
0.0
  0
LINE
  5
139
102
{ACAD_REACTORS
330
3D9
102
}
330
1F
100
AcDbEntity
  8
LC-001-002-----0
 62
     7
370
    50
100
AcDbLine
 10
432.206667
 20
335.392036
 30
0.0
 11
424.206667
 21
335.392036
 31
0.0
  0
LINE
  5
13A
102
{ACAD_REACTORS
330
3D9
102
}
330
1F
100
AcDbEntity
  8
LC-001-002-----0
 62
     7
370
    50
100
AcDbLine
 10
424.206667
 20
335.392036
 30
0.0
 11
424.206667
 21
343.392036
 31
0.0
  0
LINE
  5
13B
102
{ACAD_REACTORS
330
3D8
102
}
330
1F
100
AcDbEntity
  8
LC-001-002-----0
 62
     7
370
    50
100
AcDbLine
 10
424.206667
 20
343.392036
 30
0.0
 11
432.206667
 21
343.392036
 31
0.0
  0
LINE
  5
13C
102
{ACAD_REACTORS
330
3D7
102
}
330
1F
100
AcDbEntity
  8
LC-001-002-----0
 62
     7
370
    50
100
AcDbLine
 10
442.206667
 20
343.392036
 30
0.0
 11
442.206667
 21
335.392036
 31
0.0
  0
LINE
  5
13D
102
{ACAD_REACTORS
330
3D7
102
}
330
1F
100
AcDbEntity
  8
LC-001-002-----0
 62
     7
370
    50
100
AcDbLine
 10
442.206667
 20
335.392036
 30
0.0
 11
434.206667
 21
335.392036
 31
0.0
  0
LINE
  5
13E
102
{ACAD_REACTORS
330
3D7
102
}
330
1F
100
AcDbEntity
  8
LC-001-002-----0
 62
     7
370
    50
100
AcDbLine
 10
434.206667
 20
335.392036
 30
0.0
 11
434.206667
 21
343.392036
 31
0.0
  0
LINE
  5
13F
102
{ACAD_REACTORS
330
3E8
102
}
330
1F
100
AcDbEntity
  8
LC-001-002-----0
 62
     7
370
    50
100
AcDbLine
 10
434.206667
 20
343.392036
 30
0.0
 11
442.206667
 21
343.392036
 31
0.0
  0
LINE
  5
140
102
{ACAD_REACTORS
330
3E7
102
}
330
1F
100
AcDbEntity
  8
LC-001-002-----0
 62
     7
370
    50
100
AcDbLine
 10
452.206667
 20
343.392036
 30
0.0
 11
452.206667
 21
335.392036
 31
0.0
  0
LINE
  5
141
102
{ACAD_REACTORS
330
3E7
102
}
330
1F
100
AcDbEntity
  8
LC-001-002-----0
 62
     7
370
    50
100
AcDbLine
 10
452.206667
 20
335.392036
 30
0.0
 11
444.206667
 21
335.392036
 31
0.0
  0
LINE
  5
142
102
{ACAD_REACTORS
330
3E7
102
}
330
1F
100
AcDbEntity
  8
LC-001-002-----0
 62
     7
370
    50
100
AcDbLine
 10
444.206667
 20
335.392036
 30
0.0
 11
444.206667
 21
343.392036
 31
0.0
  0
LINE
  5
143
102
{ACAD_REACTORS
330
3E6
102
}
330
1F
100
AcDbEntity
  8
LC-001-002-----0
 62
     7
370
    50
100
AcDbLine
 10
444.206667
 20
343.392036
 30
0.0
 11
452.206667
 21
343.392036
 31
0.0
  0
LINE
  5
144
102
{ACAD_REACTORS
330
3E5
102
}
330
1F
100
AcDbEntity
  8
LC-001-002-----0
 62
     7
370
    50
100
AcDbLine
 10
354.206667
 20
333.392036
 30
0.0
 11
362.206667
 21
333.392036
 31
0.0
  0
LINE
  5
145
102
{ACAD_REACTORS
330
3E5
102
}
330
1F
100
AcDbEntity
  8
LC-001-002-----0
 62
     7
370
    50
100
AcDbLine
 10
362.206667
 20
333.392036
 30
0.0
 11
362.206667
 21
325.392036
 31
0.0
  0
LINE
  5
146
102
{ACAD_REACTORS
330
3E5
102
}
330
1F
100
AcDbEntity
  8
LC-001-002-----0
 62
     7
370
    50
100
AcDbLine
 10
362.206667
 20
325.392036
 30
0.0
 11
354.206667
 21
325.392036
 31
0.0
  0
LINE
  5
147
102
{ACAD_REACTORS
330
3E5
102
}
330
1F
100
AcDbEntity
  8
LC-001-002-----0
 62
     7
370
    50
100
AcDbLine
 10
354.206667
 20
325.392036
 30
0.0
 11
354.206667
 21
333.392036
 31
0.0
  0
LINE
  5
148
102
{ACAD_REACTORS
330
3E4
102
}
330
1F
100
AcDbEntity
  8
LC-001-002-----0
 62
     7
370
    50
100
AcDbLine
 10
372.206667
 20
333.392036
 30
0.0
 11
372.206667
 21
325.392036
 31
0.0
  0
LINE
  5
149
102
{ACAD_REACTORS
330
3E4
102
}
330
1F
100
AcDbEntity
  8
LC-001-002-----0
 62
     7
370
    50
100
AcDbLine
 10
372.206667
 20
325.392036
 30
0.0
 11
364.206667
 21
325.392036
 31
0.0
  0
LINE
  5
14A
102
{ACAD_REACTORS
330
3E4
102
}
330
1F
100
AcDbEntity
  8
LC-001-002-----0
 62
     7
370
    50
100
AcDbLine
 10
364.206667
 20
325.392036
 30
0.0
 11
364.206667
 21
333.392036
 31
0.0
  0
LINE
  5
14B
102
{ACAD_REACTORS
330
3F8
102
}
330
1F
100
AcDbEntity
  8
LC-001-002-----0
 62
     7
370
    50
100
AcDbLine
 10
364.206667
 20
333.392036
 30
0.0
 11
372.206667
 21
333.392036
 31
0.0
  0
LINE
  5
14C
102
{ACAD_REACTORS
330
3F7
102
}
330
1F
100
AcDbEntity
  8
LC-001-002-----0
 62
     7
370
    50
100
AcDbLine
 10
382.206667
 20
333.392036
 30
0.0
 11
382.206667
 21
325.392036
 31
0.0
  0
LINE
  5
14D
102
{ACAD_REACTORS
330
3F7
102
}
330
1F
100
AcDbEntity
  8
LC-001-002-----0
 62
     7
370
    50
100
AcDbLine
 10
382.206667
 20
325.392036
 30
0.0
 11
374.206667
 21
325.392036
 31
0.0
  0
LINE
  5
14E
102
{ACAD_REACTORS
330
3F7
102
}
330
1F
100
AcDbEntity
  8
LC-001-002-----0
 62
     7
370
    50
100
AcDbLine
 10
374.206667
 20
325.392036
 30
0.0
 11
374.206667
 21
333.392036
 31
0.0
  0
LINE
  5
14F
102
{ACAD_REACTORS
330
3F6
102
}
330
1F
100
AcDbEntity
  8
LC-001-002-----0
 62
     7
370
    50
100
AcDbLine
 10
374.206667
 20
333.392036
 30
0.0
 11
382.206667
 21
333.392036
 31
0.0
  0
LINE
  5
150
102
{ACAD_REACTORS
330
3F5
102
}
330
1F
100
AcDbEntity
  8
LC-001-002-----0
 62
     7
370
    50
100
AcDbLine
 10
392.206667
 20
333.392036
 30
0.0
 11
392.206667
 21
325.392036
 31
0.0
  0
LINE
  5
151
102
{ACAD_REACTORS
330
3F5
102
}
330
1F
100
AcDbEntity
  8
LC-001-002-----0
 62
     7
370
    50
100
AcDbLine
 10
392.206667
 20
325.392036
 30
0.0
 11
384.206667
 21
325.392036
 31
0.0
  0
LINE
  5
152
102
{ACAD_REACTORS
330
3F5
102
}
330
1F
100
AcDbEntity
  8
LC-001-002-----0
 62
     7
370
    50
100
AcDbLine
 10
384.206667
 20
325.392036
 30
0.0
 11
384.206667
 21
333.392036
 31
0.0
  0
LINE
  5
153
102
{ACAD_REACTORS
330
3F4
102
}
330
1F
100
AcDbEntity
  8
LC-001-002-----0
 62
     7
370
    50
100
AcDbLine
 10
384.206667
 20
333.392036
 30
0.0
 11
392.206667
 21
333.392036
 31
0.0
  0
LINE
  5
154
102
{ACAD_REACTORS
330
40B
102
}
330
1F
100
AcDbEntity
  8
LC-001-002-----0
 62
     7
370
    50
100
AcDbLine
 10
402.206667
 20
333.392036
 30
0.0
 11
402.206667
 21
325.392036
 31
0.0
  0
LINE
  5
155
102
{ACAD_REACTORS
330
40B
102
}
330
1F
100
AcDbEntity
  8
LC-001-002-----0
 62
     7
370
    50
100
AcDbLine
 10
402.206667
 20
325.392036
 30
0.0
 11
394.206667
 21
325.392036
 31
0.0
  0
LINE
  5
156
102
{ACAD_REACTORS
330
40B
102
}
330
1F
100
AcDbEntity
  8
LC-001-002-----0
 62
     7
370
    50
100
AcDbLine
 10
394.206667
 20
325.392036
 30
0.0
 11
394.206667
 21
333.392036
 31
0.0
  0
LINE
  5
157
102
{ACAD_REACTORS
330
40A
102
}
330
1F
100
AcDbEntity
  8
LC-001-002-----0
 62
     7
370
    50
100
AcDbLine
 10
394.206667
 20
333.392036
 30
0.0
 11
402.206667
 21
333.392036
 31
0.0
  0
LINE
  5
158
102
{ACAD_REACTORS
330
409
102
}
330
1F
100
AcDbEntity
  8
LC-001-002-----0
 62
     7
370
    50
100
AcDbLine
 10
412.206667
 20
333.392036
 30
0.0
 11
412.206667
 21
325.392036
 31
0.0
  0
LINE
  5
159
102
{ACAD_REACTORS
330
409
102
}
330
1F
100
AcDbEntity
  8
LC-001-002-----0
 62
     7
370
    50
100
AcDbLine
 10
412.206667
 20
325.392036
 30
0.0
 11
404.206667
 21
325.392036
 31
0.0
  0
LINE
  5
15A
102
{ACAD_REACTORS
330
409
102
}
330
1F
100
AcDbEntity
  8
LC-001-002-----0
 62
     7
370
    50
100
AcDbLine
 10
404.206667
 20
325.392036
 30
0.0
 11
404.206667
 21
333.392036
 31
0.0
  0
LINE
  5
15B
102
{ACAD_REACTORS
330
408
102
}
330
1F
100
AcDbEntity
  8
LC-001-002-----0
 62
     7
370
    50
100
AcDbLine
 10
404.206667
 20
333.392036
 30
0.0
 11
412.206667
 21
333.392036
 31
0.0
  0
LINE
  5
15C
102
{ACAD_REACTORS
330
407
102
}
330
1F
100
AcDbEntity
  8
LC-001-002-----0
 62
     7
370
    50
100
AcDbLine
 10
422.206667
 20
333.392036
 30
0.0
 11
422.206667
 21
325.392036
 31
0.0
  0
LINE
  5
15D
102
{ACAD_REACTORS
330
407
102
}
330
1F
100
AcDbEntity
  8
LC-001-002-----0
 62
     7
370
    50
100
AcDbLine
 10
422.206667
 20
325.392036
 30
0.0
 11
414.206667
 21
325.392036
 31
0.0
  0
LINE
  5
15E
102
{ACAD_REACTORS
330
407
102
}
330
1F
100
AcDbEntity
  8
LC-001-002-----0
 62
     7
370
    50
100
AcDbLine
 10
414.206667
 20
325.392036
 30
0.0
 11
414.206667
 21
333.392036
 31
0.0
  0
LINE
  5
15F
102
{ACAD_REACTORS
330
41C
102
}
330
1F
100
AcDbEntity
  8
LC-001-002-----0
 62
     7
370
    50
100
AcDbLine
 10
414.206667
 20
333.392036
 30
0.0
 11
422.206667
 21
333.392036
 31
0.0
  0
LINE
  5
160
102
{ACAD_REACTORS
330
41B
102
}
330
1F
100
AcDbEntity
  8
LC-001-002-----0
 62
     7
370
    50
100
AcDbLine
 10
432.206667
 20
333.392036
 30
0.0
 11
432.206667
 21
325.392036
 31
0.0
  0
LINE
  5
161
102
{ACAD_REACTORS
330
41B
102
}
330
1F
100
AcDbEntity
  8
LC-001-002-----0
 62
     7
370
    50
100
AcDbLine
 10
432.206667
 20
325.392036
 30
0.0
 11
424.206667
 21
325.392036
 31
0.0
  0
LINE
  5
162
102
{ACAD_REACTORS
330
41B
102
}
330
1F
100
AcDbEntity
  8
LC-001-002-----0
 62
     7
370
    50
100
AcDbLine
 10
424.206667
 20
325.392036
 30
0.0
 11
424.206667
 21
333.392036
 31
0.0
  0
LINE
  5
163
102
{ACAD_REACTORS
330
41A
102
}
330
1F
100
AcDbEntity
  8
LC-001-002-----0
 62
     7
370
    50
100
AcDbLine
 10
424.206667
 20
333.392036
 30
0.0
 11
432.206667
 21
333.392036
 31
0.0
  0
LINE
  5
164
102
{ACAD_REACTORS
330
419
102
}
330
1F
100
AcDbEntity
  8
LC-001-002-----0
 62
     7
370
    50
100
AcDbLine
 10
442.206667
 20
333.392036
 30
0.0
 11
442.206667
 21
325.392036
 31
0.0
  0
LINE
  5
165
102
{ACAD_REACTORS
330
419
102
}
330
1F
100
AcDbEntity
  8
LC-001-002-----0
 62
     7
370
    50
100
AcDbLine
 10
442.206667
 20
325.392036
 30
0.0
 11
434.206667
 21
325.392036
 31
0.0
  0
LINE
  5
166
102
{ACAD_REACTORS
330
419
102
}
330
1F
100
AcDbEntity
  8
LC-001-002-----0
 62
     7
370
    50
100
AcDbLine
 10
434.206667
 20
325.392036
 30
0.0
 11
434.206667
 21
333.392036
 31
0.0
  0
LINE
  5
167
102
{ACAD_REACTORS
330
418
102
}
330
1F
100
AcDbEntity
  8
LC-001-002-----0
 62
     7
370
    50
100
AcDbLine
 10
434.206667
 20
333.392036
 30
0.0
 11
442.206667
 21
333.392036
 31
0.0
  0
LINE
  5
168
102
{ACAD_REACTORS
330
417
102
}
330
1F
100
AcDbEntity
  8
LC-001-002-----0
 62
     7
370
    50
100
AcDbLine
 10
452.206667
 20
333.392036
 30
0.0
 11
452.206667
 21
325.392036
 31
0.0
  0
LINE
  5
169
102
{ACAD_REACTORS
330
417
102
}
330
1F
100
AcDbEntity
  8
LC-001-002-----0
 62
     7
370
    50
100
AcDbLine
 10
452.206667
 20
325.392036
 30
0.0
 11
444.206667
 21
325.392036
 31
0.0
  0
LINE
  5
16A
102
{ACAD_REACTORS
330
417
102
}
330
1F
100
AcDbEntity
  8
LC-001-002-----0
 62
     7
370
    50
100
AcDbLine
 10
444.206667
 20
325.392036
 30
0.0
 11
444.206667
 21
333.392036
 31
0.0
  0
LINE
  5
16B
102
{ACAD_REACTORS
330
42A
102
}
330
1F
100
AcDbEntity
  8
LC-001-002-----0
 62
     7
370
    50
100
AcDbLine
 10
444.206667
 20
333.392036
 30
0.0
 11
452.206667
 21
333.392036
 31
0.0
  0
LINE
  5
16C
102
{ACAD_REACTORS
330
429
102
}
330
1F
100
AcDbEntity
  8
LC-001-002-----0
 62
     7
370
    50
100
AcDbLine
 10
354.206667
 20
323.392036
 30
0.0
 11
362.206667
 21
323.392036
 31
0.0
  0
LINE
  5
16D
102
{ACAD_REACTORS
330
429
102
}
330
1F
100
AcDbEntity
  8
LC-001-002-----0
 62
     7
370
    50
100
AcDbLine
 10
362.206667
 20
323.392036
 30
0.0
 11
362.206667
 21
315.392036
 31
0.0
  0
LINE
  5
16E
102
{ACAD_REACTORS
330
429
102
}
330
1F
100
AcDbEntity
  8
LC-001-002-----0
 62
     7
370
    50
100
AcDbLine
 10
362.206667
 20
315.392036
 30
0.0
 11
354.206667
 21
315.392036
 31
0.0
  0
LINE
  5
16F
102
{ACAD_REACTORS
330
429
102
}
330
1F
100
AcDbEntity
  8
LC-001-002-----0
 62
     7
370
    50
100
AcDbLine
 10
354.206667
 20
315.392036
 30
0.0
 11
354.206667
 21
323.392036
 31
0.0
  0
LINE
  5
170
102
{ACAD_REACTORS
330
428
102
}
330
1F
100
AcDbEntity
  8
LC-001-002-----0
 62
     7
370
    50
100
AcDbLine
 10
372.206667
 20
323.392036
 30
0.0
 11
372.206667
 21
315.392036
 31
0.0
  0
LINE
  5
171
102
{ACAD_REACTORS
330
428
102
}
330
1F
100
AcDbEntity
  8
LC-001-002-----0
 62
     7
370
    50
100
AcDbLine
 10
372.206667
 20
315.392036
 30
0.0
 11
364.206667
 21
315.392036
 31
0.0
  0
LINE
  5
172
102
{ACAD_REACTORS
330
428
102
}
330
1F
100
AcDbEntity
  8
LC-001-002-----0
 62
     7
370
    50
100
AcDbLine
 10
364.206667
 20
315.392036
 30
0.0
 11
364.206667
 21
323.392036
 31
0.0
  0
LINE
  5
173
102
{ACAD_REACTORS
330
427
102
}
330
1F
100
AcDbEntity
  8
LC-001-002-----0
 62
     7
370
    50
100
AcDbLine
 10
364.206667
 20
323.392036
 30
0.0
 11
372.206667
 21
323.392036
 31
0.0
  0
LINE
  5
174
102
{ACAD_REACTORS
330
426
102
}
330
1F
100
AcDbEntity
  8
LC-001-002-----0
 62
     7
370
    50
100
AcDbLine
 10
382.206667
 20
323.392036
 30
0.0
 11
382.206667
 21
315.392036
 31
0.0
  0
LINE
  5
175
102
{ACAD_REACTORS
330
426
102
}
330
1F
100
AcDbEntity
  8
LC-001-002-----0
 62
     7
370
    50
100
AcDbLine
 10
382.206667
 20
315.392036
 30
0.0
 11
374.206667
 21
315.392036
 31
0.0
  0
LINE
  5
176
102
{ACAD_REACTORS
330
426
102
}
330
1F
100
AcDbEntity
  8
LC-001-002-----0
 62
     7
370
    50
100
AcDbLine
 10
374.206667
 20
315.392036
 30
0.0
 11
374.206667
 21
323.392036
 31
0.0
  0
LINE
  5
177
102
{ACAD_REACTORS
330
439
102
}
330
1F
100
AcDbEntity
  8
LC-001-002-----0
 62
     7
370
    50
100
AcDbLine
 10
374.206667
 20
323.392036
 30
0.0
 11
382.206667
 21
323.392036
 31
0.0
  0
LINE
  5
178
102
{ACAD_REACTORS
330
438
102
}
330
1F
100
AcDbEntity
  8
LC-001-002-----0
 62
     7
370
    50
100
AcDbLine
 10
392.206667
 20
323.392036
 30
0.0
 11
392.206667
 21
319.025285
 31
0.0
  0
LINE
  5
179
102
{ACAD_REACTORS
330
438
102
}
330
1F
100
AcDbEntity
  8
LC-001-002-----0
 62
     7
370
    50
100
AcDbLine
 10
390.587717
 20
315.392036
 30
0.0
 11
384.206667
 21
315.392036
 31
0.0
  0
LINE
  5
17A
102
{ACAD_REACTORS
330
438
102
}
330
1F
100
AcDbEntity
  8
LC-001-002-----0
 62
     7
370
    50
100
AcDbLine
 10
384.206667
 20
315.392036
 30
0.0
 11
384.206667
 21
323.392036
 31
0.0
  0
LINE
  5
17B
102
{ACAD_REACTORS
330
437
102
}
330
1F
100
AcDbEntity
  8
LC-001-002-----0
 62
     7
370
    50
100
AcDbLine
 10
384.206667
 20
323.392036
 30
0.0
 11
392.206667
 21
323.392036
 31
0.0
  0
LINE
  5
17C
102
{ACAD_REACTORS
330
436
102
}
330
1F
100
AcDbEntity
  8
LC-001-002-----0
 62
     7
370
    50
100
AcDbLine
 10
422.206667
 20
323.392036
 30
0.0
 11
422.206667
 21
315.392036
 31
0.0
  0
LINE
  5
17D
102
{ACAD_REACTORS
330
436
102
}
330
1F
100
AcDbEntity
  8
LC-001-002-----0
 62
     7
370
    50
100
AcDbLine
 10
422.206667
 20
315.392036
 30
0.0
 11
414.206667
 21
315.392036
 31
0.0
  0
LINE
  5
17E
102
{ACAD_REACTORS
330
436
102
}
330
1F
100
AcDbEntity
  8
LC-001-002-----0
 62
     7
370
    50
100
AcDbLine
 10
414.206667
 20
315.392036
 30
0.0
 11
414.206667
 21
323.392036
 31
0.0
  0
LINE
  5
17F
102
{ACAD_REACTORS
330
435
102
}
330
1F
100
AcDbEntity
  8
LC-001-002-----0
 62
     7
370
    50
100
AcDbLine
 10
414.206667
 20
323.392036
 30
0.0
 11
422.206667
 21
323.392036
 31
0.0
  0
LINE
  5
180
102
{ACAD_REACTORS
330
449
102
}
330
1F
100
AcDbEntity
  8
LC-001-002-----0
 62
     7
370
    50
100
AcDbLine
 10
432.206667
 20
323.392036
 30
0.0
 11
432.206667
 21
315.392036
 31
0.0
  0
LINE
  5
181
102
{ACAD_REACTORS
330
449
102
}
330
1F
100
AcDbEntity
  8
LC-001-002-----0
 62
     7
370
    50
100
AcDbLine
 10
432.206667
 20
315.392036
 30
0.0
 11
424.206667
 21
315.392036
 31
0.0
  0
LINE
  5
182
102
{ACAD_REACTORS
330
449
102
}
330
1F
100
AcDbEntity
  8
LC-001-002-----0
 62
     7
370
    50
100
AcDbLine
 10
424.206667
 20
315.392036
 30
0.0
 11
424.206667
 21
323.392036
 31
0.0
  0
LINE
  5
183
102
{ACAD_REACTORS
330
448
102
}
330
1F
100
AcDbEntity
  8
LC-001-002-----0
 62
     7
370
    50
100
AcDbLine
 10
424.206667
 20
323.392036
 30
0.0
 11
432.206667
 21
323.392036
 31
0.0
  0
LINE
  5
184
102
{ACAD_REACTORS
330
447
102
}
330
1F
100
AcDbEntity
  8
LC-001-002-----0
 62
     7
370
    50
100
AcDbLine
 10
442.206667
 20
323.392036
 30
0.0
 11
442.206667
 21
315.392036
 31
0.0
  0
LINE
  5
185
102
{ACAD_REACTORS
330
447
102
}
330
1F
100
AcDbEntity
  8
LC-001-002-----0
 62
     7
370
    50
100
AcDbLine
 10
442.206667
 20
315.392036
 30
0.0
 11
434.206667
 21
315.392036
 31
0.0
  0
LINE
  5
186
102
{ACAD_REACTORS
330
447
102
}
330
1F
100
AcDbEntity
  8
LC-001-002-----0
 62
     7
370
    50
100
AcDbLine
 10
434.206667
 20
315.392036
 30
0.0
 11
434.206667
 21
323.392036
 31
0.0
  0
LINE
  5
187
102
{ACAD_REACTORS
330
446
102
}
330
1F
100
AcDbEntity
  8
LC-001-002-----0
 62
     7
370
    50
100
AcDbLine
 10
434.206667
 20
323.392036
 30
0.0
 11
442.206667
 21
323.392036
 31
0.0
  0
LINE
  5
188
102
{ACAD_REACTORS
330
445
102
}
330
1F
100
AcDbEntity
  8
LC-001-002-----0
 62
     7
370
    50
100
AcDbLine
 10
452.206667
 20
323.392036
 30
0.0
 11
452.206667
 21
315.392036
 31
0.0
  0
LINE
  5
189
102
{ACAD_REACTORS
330
445
102
}
330
1F
100
AcDbEntity
  8
LC-001-002-----0
 62
     7
370
    50
100
AcDbLine
 10
452.206667
 20
315.392036
 30
0.0
 11
444.206667
 21
315.392036
 31
0.0
  0
LINE
  5
18A
102
{ACAD_REACTORS
330
445
102
}
330
1F
100
AcDbEntity
  8
LC-001-002-----0
 62
     7
370
    50
100
AcDbLine
 10
444.206667
 20
315.392036
 30
0.0
 11
444.206667
 21
323.392036
 31
0.0
  0
LINE
  5
18B
102
{ACAD_REACTORS
330
458
102
}
330
1F
100
AcDbEntity
  8
LC-001-002-----0
 62
     7
370
    50
100
AcDbLine
 10
444.206667
 20
323.392036
 30
0.0
 11
452.206667
 21
323.392036
 31
0.0
  0
LINE
  5
18C
102
{ACAD_REACTORS
330
457
102
}
330
1F
100
AcDbEntity
  8
LC-001-002-----0
 62
     7
370
    50
100
AcDbLine
 10
354.206667
 20
313.392036
 30
0.0
 11
362.206667
 21
313.392036
 31
0.0
  0
LINE
  5
18D
102
{ACAD_REACTORS
330
457
102
}
330
1F
100
AcDbEntity
  8
LC-001-002-----0
 62
     7
370
    50
100
AcDbLine
 10
362.206667
 20
313.392036
 30
0.0
 11
362.206667
 21
305.392036
 31
0.0
  0
LINE
  5
18E
102
{ACAD_REACTORS
330
457
102
}
330
1F
100
AcDbEntity
  8
LC-001-002-----0
 62
     7
370
    50
100
AcDbLine
 10
362.206667
 20
305.392036
 30
0.0
 11
354.206667
 21
305.392036
 31
0.0
  0
LINE
  5
18F
102
{ACAD_REACTORS
330
457
102
}
330
1F
100
AcDbEntity
  8
LC-001-002-----0
 62
     7
370
    50
100
AcDbLine
 10
354.206667
 20
305.392036
 30
0.0
 11
354.206667
 21
313.392036
 31
0.0
  0
LINE
  5
190
102
{ACAD_REACTORS
330
456
102
}
330
1F
100
AcDbEntity
  8
LC-001-002-----0
 62
     7
370
    50
100
AcDbLine
 10
372.206667
 20
313.392036
 30
0.0
 11
372.206667
 21
305.392036
 31
0.0
  0
LINE
  5
191
102
{ACAD_REACTORS
330
456
102
}
330
1F
100
AcDbEntity
  8
LC-001-002-----0
 62
     7
370
    50
100
AcDbLine
 10
372.206667
 20
305.392036
 30
0.0
 11
364.206667
 21
305.392036
 31
0.0
  0
LINE
  5
192
102
{ACAD_REACTORS
330
456
102
}
330
1F
100
AcDbEntity
  8
LC-001-002-----0
 62
     7
370
    50
100
AcDbLine
 10
364.206667
 20
305.392036
 30
0.0
 11
364.206667
 21
313.392036
 31
0.0
  0
LINE
  5
193
102
{ACAD_REACTORS
330
455
102
}
330
1F
100
AcDbEntity
  8
LC-001-002-----0
 62
     7
370
    50
100
AcDbLine
 10
364.206667
 20
313.392036
 30
0.0
 11
372.206667
 21
313.392036
 31
0.0
  0
LINE
  5
194
102
{ACAD_REACTORS
330
454
102
}
330
1F
100
AcDbEntity
  8
LC-001-002-----0
 62
     7
370
    50
100
AcDbLine
 10
382.206667
 20
313.392036
 30
0.0
 11
382.206667
 21
305.392036
 31
0.0
  0
LINE
  5
195
102
{ACAD_REACTORS
330
454
102
}
330
1F
100
AcDbEntity
  8
LC-001-002-----0
 62
     7
370
    50
100
AcDbLine
 10
382.206667
 20
305.392036
 30
0.0
 11
374.206667
 21
305.392036
 31
0.0
  0
LINE
  5
196
102
{ACAD_REACTORS
330
454
102
}
330
1F
100
AcDbEntity
  8
LC-001-002-----0
 62
     7
370
    50
100
AcDbLine
 10
374.206667
 20
305.392036
 30
0.0
 11
374.206667
 21
313.392036
 31
0.0
  0
LINE
  5
197
102
{ACAD_REACTORS
330
469
102
}
330
1F
100
AcDbEntity
  8
LC-001-002-----0
 62
     7
370
    50
100
AcDbLine
 10
374.206667
 20
313.392036
 30
0.0
 11
382.206667
 21
313.392036
 31
0.0
  0
LINE
  5
198
102
{ACAD_REACTORS
330
468
102
}
330
1F
100
AcDbEntity
  8
LC-001-002-----0
 62
     7
370
    50
100
AcDbLine
 10
390.206667
 20
305.392036
 30
0.0
 11
384.206667
 21
305.392036
 31
0.0
  0
LINE
  5
199
102
{ACAD_REACTORS
330
468
102
}
330
1F
100
AcDbEntity
  8
LC-001-002-----0
 62
     7
370
    50
100
AcDbLine
 10
384.206667
 20
305.392036
 30
0.0
 11
384.206667
 21
313.392036
 31
0.0
  0
LINE
  5
19A
102
{ACAD_REACTORS
330
467
102
}
330
1F
100
AcDbEntity
  8
LC-001-002-----0
 62
     7
370
    50
100
AcDbLine
 10
384.206667
 20
313.392036
 30
0.0
 11
390.248406
 21
313.392036
 31
0.0
  0
LINE
  5
19B
102
{ACAD_REACTORS
330
466
102
}
330
1F
100
AcDbEntity
  8
LC-001-002-----0
 62
     7
370
    50
100
AcDbLine
 10
422.206667
 20
313.392036
 30
0.0
 11
422.206667
 21
305.392036
 31
0.0
  0
LINE
  5
19C
102
{ACAD_REACTORS
330
466
102
}
330
1F
100
AcDbEntity
  8
LC-001-002-----0
 62
     7
370
    50
100
AcDbLine
 10
422.206667
 20
305.392036
 30
0.0
 11
414.206667
 21
305.392036
 31
0.0
  0
LINE
  5
19D
102
{ACAD_REACTORS
330
465
102
}
330
1F
100
AcDbEntity
  8
LC-001-002-----0
 62
     7
370
    50
100
AcDbLine
 10
414.206667
 20
313.392036
 30
0.0
 11
422.206667
 21
313.392036
 31
0.0
  0
LINE
  5
19E
102
{ACAD_REACTORS
330
464
102
}
330
1F
100
AcDbEntity
  8
LC-001-002-----0
 62
     7
370
    50
100
AcDbLine
 10
432.206667
 20
313.392036
 30
0.0
 11
432.206667
 21
305.392036
 31
0.0
  0
LINE
  5
19F
102
{ACAD_REACTORS
330
464
102
}
330
1F
100
AcDbEntity
  8
LC-001-002-----0
 62
     7
370
    50
100
AcDbLine
 10
432.206667
 20
305.392036
 30
0.0
 11
424.206667
 21
305.392036
 31
0.0
  0
LINE
  5
1A0
102
{ACAD_REACTORS
330
464
102
}
330
1F
100
AcDbEntity
  8
LC-001-002-----0
 62
     7
370
    50
100
AcDbLine
 10
424.206667
 20
305.392036
 30
0.0
 11
424.206667
 21
313.392036
 31
0.0
  0
LINE
  5
1A1
102
{ACAD_REACTORS
330
478
102
}
330
1F
100
AcDbEntity
  8
LC-001-002-----0
 62
     7
370
    50
100
AcDbLine
 10
424.206667
 20
313.392036
 30
0.0
 11
432.206667
 21
313.392036
 31
0.0
  0
LINE
  5
1A2
102
{ACAD_REACTORS
330
477
102
}
330
1F
100
AcDbEntity
  8
LC-001-002-----0
 62
     7
370
    50
100
AcDbLine
 10
442.206667
 20
313.392036
 30
0.0
 11
442.206667
 21
305.392036
 31
0.0
  0
LINE
  5
1A3
102
{ACAD_REACTORS
330
477
102
}
330
1F
100
AcDbEntity
  8
LC-001-002-----0
 62
     7
370
    50
100
AcDbLine
 10
442.206667
 20
305.392036
 30
0.0
 11
434.206667
 21
305.392036
 31
0.0
  0
LINE
  5
1A4
102
{ACAD_REACTORS
330
477
102
}
330
1F
100
AcDbEntity
  8
LC-001-002-----0
 62
     7
370
    50
100
AcDbLine
 10
434.206667
 20
305.392036
 30
0.0
 11
434.206667
 21
313.392036
 31
0.0
  0
LINE
  5
1A5
102
{ACAD_REACTORS
330
476
102
}
330
1F
100
AcDbEntity
  8
LC-001-002-----0
 62
     7
370
    50
100
AcDbLine
 10
434.206667
 20
313.392036
 30
0.0
 11
442.206667
 21
313.392036
 31
0.0
  0
LINE
  5
1A6
102
{ACAD_REACTORS
330
475
102
}
330
1F
100
AcDbEntity
  8
LC-001-002-----0
 62
     7
370
    50
100
AcDbLine
 10
452.206667
 20
313.392036
 30
0.0
 11
452.206667
 21
305.392036
 31
0.0
  0
LINE
  5
1A7
102
{ACAD_REACTORS
330
475
102
}
330
1F
100
AcDbEntity
  8
LC-001-002-----0
 62
     7
370
    50
100
AcDbLine
 10
452.206667
 20
305.392036
 30
0.0
 11
444.206667
 21
305.392036
 31
0.0
  0
LINE
  5
1A8
102
{ACAD_REACTORS
330
475
102
}
330
1F
100
AcDbEntity
  8
LC-001-002-----0
 62
     7
370
    50
100
AcDbLine
 10
444.206667
 20
305.392036
 30
0.0
 11
444.206667
 21
313.392036
 31
0.0
  0
LINE
  5
1A9
102
{ACAD_REACTORS
330
474
102
}
330
1F
100
AcDbEntity
  8
LC-001-002-----0
 62
     7
370
    50
100
AcDbLine
 10
444.206667
 20
313.392036
 30
0.0
 11
452.206667
 21
313.392036
 31
0.0
  0
ARC
  5
1AA
330
1F
100
AcDbEntity
  8
LC-001-002-----0
 62
     7
370
    50
100
AcDbCircle
 10
402.205225
 20
312.390439
 30
0.0
 40
12.00000000000156
100
AcDbArc
 50
359.999677
 51
179.999867
  0
LINE
  5
1AB
102
{ACAD_REACTORS
330
382
102
}
330
1F
100
AcDbEntity
  8
LC-001-002-----0
 62
     7
370
    50
100
AcDbLine
 10
414.20514
 20
296.390375
 30
0.0
 11
414.205178
 21
303.390375
 31
0.0
  0
LINE
  5
1AC
102
{ACAD_REACTORS
330
382
102
}
330
1F
100
AcDbEntity
  8
LC-001-002-----0
 62
     7
370
    50
100
AcDbLine
 10
390.205178
 20
303.390502
 30
0.0
 11
414.205178
 21
303.390375
 31
0.0
  0
LINE
  5
1AD
102
{ACAD_REACTORS
330
382
102
}
330
1F
100
AcDbEntity
  8
LC-001-002-----0
 62
     7
370
    50
100
AcDbLine
 10
390.205178
 20
303.390502
 30
0.0
 11
390.20514
 21
296.390467
 31
0.0
  0
LINE
  5
1AE
102
{ACAD_REACTORS
330
382
102
}
330
1F
100
AcDbEntity
  8
LC-001-002-----0
 62
     7
370
    50
100
AcDbLine
 10
354.204764
 20
225.390693
 30
0.0
 11
362.204764
 21
225.390651
 31
0.0
  0
LINE
  5
1AF
102
{ACAD_REACTORS
330
382
102
}
330
1F
100
AcDbEntity
  8
LC-001-002-----0
 62
     7
370
    50
100
AcDbLine
 10
362.204764
 20
225.390651
 30
0.0
 11
362.204806
 21
233.390651
 31
0.0
  0
LINE
  5
1B0
102
{ACAD_REACTORS
330
382
102
}
330
1F
100
AcDbEntity
  8
LC-001-002-----0
 62
     7
370
    50
100
AcDbLine
 10
362.204806
 20
233.390651
 30
0.0
 11
354.204806
 21
233.390693
 31
0.0
  0
LINE
  5
1B1
102
{ACAD_REACTORS
330
382
102
}
330
1F
100
AcDbEntity
  8
LC-001-002-----0
 62
     7
370
    50
100
AcDbLine
 10
354.204806
 20
233.390693
 30
0.0
 11
354.204764
 21
225.390693
 31
0.0
  0
LINE
  5
1B2
102
{ACAD_REACTORS
330
381
102
}
330
1F
100
AcDbEntity
  8
LC-001-002-----0
 62
     7
370
    50
100
AcDbLine
 10
372.204764
 20
225.390598
 30
0.0
 11
372.204806
 21
233.390598
 31
0.0
  0
LINE
  5
1B3
102
{ACAD_REACTORS
330
381
102
}
330
1F
100
AcDbEntity
  8
LC-001-002-----0
 62
     7
370
    50
100
AcDbLine
 10
372.204806
 20
233.390598
 30
0.0
 11
364.204806
 21
233.39064
 31
0.0
  0
LINE
  5
1B4
102
{ACAD_REACTORS
330
381
102
}
330
1F
100
AcDbEntity
  8
LC-001-002-----0
 62
     7
370
    50
100
AcDbLine
 10
364.204806
 20
233.39064
 30
0.0
 11
364.204764
 21
225.39064
 31
0.0
  0
LINE
  5
1B5
102
{ACAD_REACTORS
330
380
102
}
330
1F
100
AcDbEntity
  8
LC-001-002-----0
 62
     7
370
    50
100
AcDbLine
 10
364.204764
 20
225.39064
 30
0.0
 11
372.204764
 21
225.390598
 31
0.0
  0
LINE
  5
1B6
102
{ACAD_REACTORS
330
37F
102
}
330
1F
100
AcDbEntity
  8
LC-001-002-----0
 62
     7
370
    50
100
AcDbLine
 10
382.204764
 20
225.390545
 30
0.0
 11
382.204806
 21
233.390545
 31
0.0
  0
LINE
  5
1B7
102
{ACAD_REACTORS
330
37F
102
}
330
1F
100
AcDbEntity
  8
LC-001-002-----0
 62
     7
370
    50
100
AcDbLine
 10
382.204806
 20
233.390545
 30
0.0
 11
374.204806
 21
233.390587
 31
0.0
  0
LINE
  5
1B8
102
{ACAD_REACTORS
330
37F
102
}
330
1F
100
AcDbEntity
  8
LC-001-002-----0
 62
     7
370
    50
100
AcDbLine
 10
374.204806
 20
233.390587
 30
0.0
 11
374.204764
 21
225.390587
 31
0.0
  0
LINE
  5
1B9
102
{ACAD_REACTORS
330
390
102
}
330
1F
100
AcDbEntity
  8
LC-001-002-----0
 62
     7
370
    50
100
AcDbLine
 10
374.204764
 20
225.390587
 30
0.0
 11
382.204764
 21
225.390545
 31
0.0
  0
LINE
  5
1BA
102
{ACAD_REACTORS
330
38F
102
}
330
1F
100
AcDbEntity
  8
LC-001-002-----0
 62
     7
370
    50
100
AcDbLine
 10
392.204764
 20
225.390492
 30
0.0
 11
392.204806
 21
233.390492
 31
0.0
  0
LINE
  5
1BB
102
{ACAD_REACTORS
330
38F
102
}
330
1F
100
AcDbEntity
  8
LC-001-002-----0
 62
     7
370
    50
100
AcDbLine
 10
392.204806
 20
233.390492
 30
0.0
 11
384.204806
 21
233.390534
 31
0.0
  0
LINE
  5
1BC
102
{ACAD_REACTORS
330
38F
102
}
330
1F
100
AcDbEntity
  8
LC-001-002-----0
 62
     7
370
    50
100
AcDbLine
 10
384.204806
 20
233.390534
 30
0.0
 11
384.204764
 21
225.390534
 31
0.0
  0
LINE
  5
1BD
102
{ACAD_REACTORS
330
38E
102
}
330
1F
100
AcDbEntity
  8
LC-001-002-----0
 62
     7
370
    50
100
AcDbLine
 10
384.204764
 20
225.390534
 30
0.0
 11
392.204764
 21
225.390492
 31
0.0
  0
LINE
  5
1BE
102
{ACAD_REACTORS
330
38D
102
}
330
1F
100
AcDbEntity
  8
LC-001-002-----0
 62
     7
370
    50
100
AcDbLine
 10
402.204764
 20
225.390439
 30
0.0
 11
402.204806
 21
233.390439
 31
0.0
  0
LINE
  5
1BF
102
{ACAD_REACTORS
330
38D
102
}
330
1F
100
AcDbEntity
  8
LC-001-002-----0
 62
     7
370
    50
100
AcDbLine
 10
402.204806
 20
233.390439
 30
0.0
 11
394.204806
 21
233.390481
 31
0.0
  0
LINE
  5
1C0
102
{ACAD_REACTORS
330
38D
102
}
330
1F
100
AcDbEntity
  8
LC-001-002-----0
 62
     7
370
    50
100
AcDbLine
 10
394.204806
 20
233.390481
 30
0.0
 11
394.204764
 21
225.390481
 31
0.0
  0
LINE
  5
1C1
102
{ACAD_REACTORS
330
38C
102
}
330
1F
100
AcDbEntity
  8
LC-001-002-----0
 62
     7
370
    50
100
AcDbLine
 10
394.204764
 20
225.390481
 30
0.0
 11
402.204764
 21
225.390439
 31
0.0
  0
LINE
  5
1C2
102
{ACAD_REACTORS
330
3A2
102
}
330
1F
100
AcDbEntity
  8
LC-001-002-----0
 62
     7
370
    50
100
AcDbLine
 10
412.204764
 20
225.390386
 30
0.0
 11
412.204806
 21
233.390386
 31
0.0
  0
LINE
  5
1C3
102
{ACAD_REACTORS
330
3A2
102
}
330
1F
100
AcDbEntity
  8
LC-001-002-----0
 62
     7
370
    50
100
AcDbLine
 10
412.204806
 20
233.390386
 30
0.0
 11
404.204806
 21
233.390428
 31
0.0
  0
LINE
  5
1C4
102
{ACAD_REACTORS
330
3A2
102
}
330
1F
100
AcDbEntity
  8
LC-001-002-----0
 62
     7
370
    50
100
AcDbLine
 10
404.204806
 20
233.390428
 30
0.0
 11
404.204764
 21
225.390428
 31
0.0
  0
LINE
  5
1C5
102
{ACAD_REACTORS
330
3A1
102
}
330
1F
100
AcDbEntity
  8
LC-001-002-----0
 62
     7
370
    50
100
AcDbLine
 10
404.204764
 20
225.390428
 30
0.0
 11
412.204764
 21
225.390386
 31
0.0
  0
LINE
  5
1C6
102
{ACAD_REACTORS
330
3A0
102
}
330
1F
100
AcDbEntity
  8
LC-001-002-----0
 62
     7
370
    50
100
AcDbLine
 10
422.204764
 20
225.390332
 30
0.0
 11
422.204806
 21
233.390332
 31
0.0
  0
LINE
  5
1C7
102
{ACAD_REACTORS
330
3A0
102
}
330
1F
100
AcDbEntity
  8
LC-001-002-----0
 62
     7
370
    50
100
AcDbLine
 10
422.204806
 20
233.390332
 30
0.0
 11
414.204806
 21
233.390375
 31
0.0
  0
LINE
  5
1C8
102
{ACAD_REACTORS
330
3A0
102
}
330
1F
100
AcDbEntity
  8
LC-001-002-----0
 62
     7
370
    50
100
AcDbLine
 10
414.204806
 20
233.390375
 30
0.0
 11
414.204764
 21
225.390375
 31
0.0
  0
LINE
  5
1C9
102
{ACAD_REACTORS
330
39F
102
}
330
1F
100
AcDbEntity
  8
LC-001-002-----0
 62
     7
370
    50
100
AcDbLine
 10
414.204764
 20
225.390375
 30
0.0
 11
422.204764
 21
225.390332
 31
0.0
  0
LINE
  5
1CA
102
{ACAD_REACTORS
330
39E
102
}
330
1F
100
AcDbEntity
  8
LC-001-002-----0
 62
     7
370
    50
100
AcDbLine
 10
432.204764
 20
225.390279
 30
0.0
 11
432.204806
 21
233.390279
 31
0.0
  0
LINE
  5
1CB
102
{ACAD_REACTORS
330
39E
102
}
330
1F
100
AcDbEntity
  8
LC-001-002-----0
 62
     7
370
    50
100
AcDbLine
 10
432.204806
 20
233.390279
 30
0.0
 11
424.204806
 21
233.390322
 31
0.0
  0
LINE
  5
1CC
102
{ACAD_REACTORS
330
39E
102
}
330
1F
100
AcDbEntity
  8
LC-001-002-----0
 62
     7
370
    50
100
AcDbLine
 10
424.204806
 20
233.390322
 30
0.0
 11
424.204764
 21
225.390322
 31
0.0
  0
LINE
  5
1CD
102
{ACAD_REACTORS
330
3B0
102
}
330
1F
100
AcDbEntity
  8
LC-001-002-----0
 62
     7
370
    50
100
AcDbLine
 10
424.204764
 20
225.390322
 30
0.0
 11
432.204764
 21
225.390279
 31
0.0
  0
LINE
  5
1CE
102
{ACAD_REACTORS
330
3AF
102
}
330
1F
100
AcDbEntity
  8
LC-001-002-----0
 62
     7
370
    50
100
AcDbLine
 10
442.204764
 20
225.390226
 30
0.0
 11
442.204806
 21
233.390226
 31
0.0
  0
LINE
  5
1CF
102
{ACAD_REACTORS
330
3AF
102
}
330
1F
100
AcDbEntity
  8
LC-001-002-----0
 62
     7
370
    50
100
AcDbLine
 10
442.204806
 20
233.390226
 30
0.0
 11
434.204806
 21
233.390269
 31
0.0
  0
LINE
  5
1D0
102
{ACAD_REACTORS
330
3AF
102
}
330
1F
100
AcDbEntity
  8
LC-001-002-----0
 62
     7
370
    50
100
AcDbLine
 10
434.204806
 20
233.390269
 30
0.0
 11
434.204764
 21
225.390269
 31
0.0
  0
LINE
  5
1D1
102
{ACAD_REACTORS
330
3AE
102
}
330
1F
100
AcDbEntity
  8
LC-001-002-----0
 62
     7
370
    50
100
AcDbLine
 10
434.204764
 20
225.390269
 30
0.0
 11
442.204764
 21
225.390226
 31
0.0
  0
LINE
  5
1D2
102
{ACAD_REACTORS
330
3AD
102
}
330
1F
100
AcDbEntity
  8
LC-001-002-----0
 62
     7
370
    50
100
AcDbLine
 10
452.204764
 20
225.390173
 30
0.0
 11
452.204806
 21
233.390173
 31
0.0
  0
LINE
  5
1D3
102
{ACAD_REACTORS
330
3AD
102
}
330
1F
100
AcDbEntity
  8
LC-001-002-----0
 62
     7
370
    50
100
AcDbLine
 10
452.204806
 20
233.390173
 30
0.0
 11
444.204806
 21
233.390216
 31
0.0
  0
LINE
  5
1D4
102
{ACAD_REACTORS
330
3AD
102
}
330
1F
100
AcDbEntity
  8
LC-001-002-----0
 62
     7
370
    50
100
AcDbLine
 10
444.204806
 20
233.390216
 30
0.0
 11
444.204764
 21
225.390216
 31
0.0
  0
LINE
  5
1D5
102
{ACAD_REACTORS
330
3AC
102
}
330
1F
100
AcDbEntity
  8
LC-001-002-----0
 62
     7
370
    50
100
AcDbLine
 10
444.204764
 20
225.390216
 30
0.0
 11
452.204764
 21
225.390173
 31
0.0
  0
LINE
  5
1D6
102
{ACAD_REACTORS
330
3AB
102
}
330
1F
100
AcDbEntity
  8
LC-001-002-----0
 62
     7
370
    50
100
AcDbLine
 10
354.204817
 20
235.390693
 30
0.0
 11
362.204817
 21
235.390651
 31
0.0
  0
LINE
  5
1D7
102
{ACAD_REACTORS
330
3AB
102
}
330
1F
100
AcDbEntity
  8
LC-001-002-----0
 62
     7
370
    50
100
AcDbLine
 10
362.204817
 20
235.390651
 30
0.0
 11
362.204859
 21
243.390651
 31
0.0
  0
LINE
  5
1D8
102
{ACAD_REACTORS
330
3AB
102
}
330
1F
100
AcDbEntity
  8
LC-001-002-----0
 62
     7
370
    50
100
AcDbLine
 10
362.204859
 20
243.390651
 30
0.0
 11
354.204859
 21
243.390693
 31
0.0
  0
LINE
  5
1D9
102
{ACAD_REACTORS
330
3AB
102
}
330
1F
100
AcDbEntity
  8
LC-001-002-----0
 62
     7
370
    50
100
AcDbLine
 10
354.204859
 20
243.390693
 30
0.0
 11
354.204817
 21
235.390693
 31
0.0
  0
LINE
  5
1DA
102
{ACAD_REACTORS
330
3BD
102
}
330
1F
100
AcDbEntity
  8
LC-001-002-----0
 62
     7
370
    50
100
AcDbLine
 10
372.204817
 20
235.390598
 30
0.0
 11
372.204859
 21
243.390598
 31
0.0
  0
LINE
  5
1DB
102
{ACAD_REACTORS
330
3BD
102
}
330
1F
100
AcDbEntity
  8
LC-001-002-----0
 62
     7
370
    50
100
AcDbLine
 10
372.204859
 20
243.390598
 30
0.0
 11
364.204859
 21
243.39064
 31
0.0
  0
LINE
  5
1DC
102
{ACAD_REACTORS
330
3BD
102
}
330
1F
100
AcDbEntity
  8
LC-001-002-----0
 62
     7
370
    50
100
AcDbLine
 10
364.204859
 20
243.39064
 30
0.0
 11
364.204817
 21
235.39064
 31
0.0
  0
LINE
  5
1DD
102
{ACAD_REACTORS
330
3BC
102
}
330
1F
100
AcDbEntity
  8
LC-001-002-----0
 62
     7
370
    50
100
AcDbLine
 10
364.204817
 20
235.39064
 30
0.0
 11
372.204817
 21
235.390598
 31
0.0
  0
LINE
  5
1DE
102
{ACAD_REACTORS
330
3BB
102
}
330
1F
100
AcDbEntity
  8
LC-001-002-----0
 62
     7
370
    50
100
AcDbLine
 10
382.204817
 20
235.390545
 30
0.0
 11
382.204859
 21
243.390545
 31
0.0
  0
LINE
  5
1DF
102
{ACAD_REACTORS
330
3BB
102
}
330
1F
100
AcDbEntity
  8
LC-001-002-----0
 62
     7
370
    50
100
AcDbLine
 10
382.204859
 20
243.390545
 30
0.0
 11
374.204859
 21
243.390587
 31
0.0
  0
LINE
  5
1E0
102
{ACAD_REACTORS
330
3BB
102
}
330
1F
100
AcDbEntity
  8
LC-001-002-----0
 62
     7
370
    50
100
AcDbLine
 10
374.204859
 20
243.390587
 30
0.0
 11
374.204817
 21
235.390587
 31
0.0
  0
LINE
  5
1E1
102
{ACAD_REACTORS
330
3BA
102
}
330
1F
100
AcDbEntity
  8
LC-001-002-----0
 62
     7
370
    50
100
AcDbLine
 10
374.204817
 20
235.390587
 30
0.0
 11
382.204817
 21
235.390545
 31
0.0
  0
LINE
  5
1E2
102
{ACAD_REACTORS
330
3CA
102
}
330
1F
100
AcDbEntity
  8
LC-001-002-----0
 62
     7
370
    50
100
AcDbLine
 10
392.204817
 20
235.390492
 30
0.0
 11
392.204859
 21
243.390492
 31
0.0
  0
LINE
  5
1E3
102
{ACAD_REACTORS
330
3CA
102
}
330
1F
100
AcDbEntity
  8
LC-001-002-----0
 62
     7
370
    50
100
AcDbLine
 10
392.204859
 20
243.390492
 30
0.0
 11
384.204859
 21
243.390534
 31
0.0
  0
LINE
  5
1E4
102
{ACAD_REACTORS
330
3CA
102
}
330
1F
100
AcDbEntity
  8
LC-001-002-----0
 62
     7
370
    50
100
AcDbLine
 10
384.204859
 20
243.390534
 30
0.0
 11
384.204817
 21
235.390534
 31
0.0
  0
LINE
  5
1E5
102
{ACAD_REACTORS
330
3C9
102
}
330
1F
100
AcDbEntity
  8
LC-001-002-----0
 62
     7
370
    50
100
AcDbLine
 10
384.204817
 20
235.390534
 30
0.0
 11
392.204817
 21
235.390492
 31
0.0
  0
LINE
  5
1E6
102
{ACAD_REACTORS
330
3C8
102
}
330
1F
100
AcDbEntity
  8
LC-001-002-----0
 62
     7
370
    50
100
AcDbLine
 10
402.204817
 20
235.390439
 30
0.0
 11
402.204859
 21
243.390439
 31
0.0
  0
LINE
  5
1E7
102
{ACAD_REACTORS
330
3C8
102
}
330
1F
100
AcDbEntity
  8
LC-001-002-----0
 62
     7
370
    50
100
AcDbLine
 10
402.204859
 20
243.390439
 30
0.0
 11
394.204859
 21
243.390481
 31
0.0
  0
LINE
  5
1E8
102
{ACAD_REACTORS
330
3C8
102
}
330
1F
100
AcDbEntity
  8
LC-001-002-----0
 62
     7
370
    50
100
AcDbLine
 10
394.204859
 20
243.390481
 30
0.0
 11
394.204817
 21
235.390481
 31
0.0
  0
LINE
  5
1E9
102
{ACAD_REACTORS
330
3C7
102
}
330
1F
100
AcDbEntity
  8
LC-001-002-----0
 62
     7
370
    50
100
AcDbLine
 10
394.204817
 20
235.390481
 30
0.0
 11
402.204817
 21
235.390439
 31
0.0
  0
LINE
  5
1EA
102
{ACAD_REACTORS
330
3C6
102
}
330
1F
100
AcDbEntity
  8
LC-001-002-----0
 62
     7
370
    50
100
AcDbLine
 10
412.204817
 20
235.390386
 30
0.0
 11
412.204859
 21
243.390386
 31
0.0
  0
LINE
  5
1EB
102
{ACAD_REACTORS
330
3C6
102
}
330
1F
100
AcDbEntity
  8
LC-001-002-----0
 62
     7
370
    50
100
AcDbLine
 10
412.204859
 20
243.390386
 30
0.0
 11
404.204859
 21
243.390428
 31
0.0
  0
LINE
  5
1EC
102
{ACAD_REACTORS
330
3C6
102
}
330
1F
100
AcDbEntity
  8
LC-001-002-----0
 62
     7
370
    50
100
AcDbLine
 10
404.204859
 20
243.390428
 30
0.0
 11
404.204817
 21
235.390428
 31
0.0
  0
LINE
  5
1ED
102
{ACAD_REACTORS
330
3D6
102
}
330
1F
100
AcDbEntity
  8
LC-001-002-----0
 62
     7
370
    50
100
AcDbLine
 10
404.204817
 20
235.390428
 30
0.0
 11
412.204817
 21
235.390386
 31
0.0
  0
LINE
  5
1EE
102
{ACAD_REACTORS
330
3D5
102
}
330
1F
100
AcDbEntity
  8
LC-001-002-----0
 62
     7
370
    50
100
AcDbLine
 10
422.204817
 20
235.390332
 30
0.0
 11
422.204859
 21
243.390332
 31
0.0
  0
LINE
  5
1EF
102
{ACAD_REACTORS
330
3D5
102
}
330
1F
100
AcDbEntity
  8
LC-001-002-----0
 62
     7
370
    50
100
AcDbLine
 10
422.204859
 20
243.390332
 30
0.0
 11
414.204859
 21
243.390375
 31
0.0
  0
LINE
  5
1F0
102
{ACAD_REACTORS
330
3D5
102
}
330
1F
100
AcDbEntity
  8
LC-001-002-----0
 62
     7
370
    50
100
AcDbLine
 10
414.204859
 20
243.390375
 30
0.0
 11
414.204817
 21
235.390375
 31
0.0
  0
LINE
  5
1F1
102
{ACAD_REACTORS
330
3D4
102
}
330
1F
100
AcDbEntity
  8
LC-001-002-----0
 62
     7
370
    50
100
AcDbLine
 10
414.204817
 20
235.390375
 30
0.0
 11
422.204817
 21
235.390332
 31
0.0
  0
LINE
  5
1F2
102
{ACAD_REACTORS
330
3D3
102
}
330
1F
100
AcDbEntity
  8
LC-001-002-----0
 62
     7
370
    50
100
AcDbLine
 10
432.204817
 20
235.390279
 30
0.0
 11
432.204859
 21
243.390279
 31
0.0
  0
LINE
  5
1F3
102
{ACAD_REACTORS
330
3D3
102
}
330
1F
100
AcDbEntity
  8
LC-001-002-----0
 62
     7
370
    50
100
AcDbLine
 10
432.204859
 20
243.390279
 30
0.0
 11
424.204859
 21
243.390322
 31
0.0
  0
LINE
  5
1F4
102
{ACAD_REACTORS
330
3D3
102
}
330
1F
100
AcDbEntity
  8
LC-001-002-----0
 62
     7
370
    50
100
AcDbLine
 10
424.204859
 20
243.390322
 30
0.0
 11
424.204817
 21
235.390322
 31
0.0
  0
LINE
  5
1F5
102
{ACAD_REACTORS
330
3D2
102
}
330
1F
100
AcDbEntity
  8
LC-001-002-----0
 62
     7
370
    50
100
AcDbLine
 10
424.204817
 20
235.390322
 30
0.0
 11
432.204817
 21
235.390279
 31
0.0
  0
LINE
  5
1F6
102
{ACAD_REACTORS
330
3D1
102
}
330
1F
100
AcDbEntity
  8
LC-001-002-----0
 62
     7
370
    50
100
AcDbLine
 10
442.204817
 20
235.390226
 30
0.0
 11
442.204859
 21
243.390226
 31
0.0
  0
LINE
  5
1F7
102
{ACAD_REACTORS
330
3D1
102
}
330
1F
100
AcDbEntity
  8
LC-001-002-----0
 62
     7
370
    50
100
AcDbLine
 10
442.204859
 20
243.390226
 30
0.0
 11
434.204859
 21
243.390269
 31
0.0
  0
LINE
  5
1F8
102
{ACAD_REACTORS
330
3D1
102
}
330
1F
100
AcDbEntity
  8
LC-001-002-----0
 62
     7
370
    50
100
AcDbLine
 10
434.204859
 20
243.390269
 30
0.0
 11
434.204817
 21
235.390269
 31
0.0
  0
LINE
  5
1F9
102
{ACAD_REACTORS
330
3E3
102
}
330
1F
100
AcDbEntity
  8
LC-001-002-----0
 62
     7
370
    50
100
AcDbLine
 10
434.204817
 20
235.390269
 30
0.0
 11
442.204817
 21
235.390226
 31
0.0
  0
LINE
  5
1FA
102
{ACAD_REACTORS
330
3E2
102
}
330
1F
100
AcDbEntity
  8
LC-001-002-----0
 62
     7
370
    50
100
AcDbLine
 10
452.204817
 20
235.390173
 30
0.0
 11
452.204859
 21
243.390173
 31
0.0
  0
LINE
  5
1FB
102
{ACAD_REACTORS
330
3E2
102
}
330
1F
100
AcDbEntity
  8
LC-001-002-----0
 62
     7
370
    50
100
AcDbLine
 10
452.204859
 20
243.390173
 30
0.0
 11
444.204859
 21
243.390216
 31
0.0
  0
LINE
  5
1FC
102
{ACAD_REACTORS
330
3E2
102
}
330
1F
100
AcDbEntity
  8
LC-001-002-----0
 62
     7
370
    50
100
AcDbLine
 10
444.204859
 20
243.390216
 30
0.0
 11
444.204817
 21
235.390216
 31
0.0
  0
LINE
  5
1FD
102
{ACAD_REACTORS
330
3E1
102
}
330
1F
100
AcDbEntity
  8
LC-001-002-----0
 62
     7
370
    50
100
AcDbLine
 10
444.204817
 20
235.390216
 30
0.0
 11
452.204817
 21
235.390173
 31
0.0
  0
LINE
  5
1FE
102
{ACAD_REACTORS
330
3E0
102
}
330
1F
100
AcDbEntity
  8
LC-001-002-----0
 62
     7
370
    50
100
AcDbLine
 10
354.20487
 20
245.390693
 30
0.0
 11
362.20487
 21
245.390651
 31
0.0
  0
LINE
  5
1FF
102
{ACAD_REACTORS
330
3E0
102
}
330
1F
100
AcDbEntity
  8
LC-001-002-----0
 62
     7
370
    50
100
AcDbLine
 10
362.20487
 20
245.390651
 30
0.0
 11
362.204912
 21
253.390651
 31
0.0
  0
LINE
  5
200
102
{ACAD_REACTORS
330
3E0
102
}
330
1F
100
AcDbEntity
  8
LC-001-002-----0
 62
     7
370
    50
100
AcDbLine
 10
362.204912
 20
253.390651
 30
0.0
 11
354.204912
 21
253.390693
 31
0.0
  0
LINE
  5
201
102
{ACAD_REACTORS
330
3E0
102
}
330
1F
100
AcDbEntity
  8
LC-001-002-----0
 62
     7
370
    50
100
AcDbLine
 10
354.204912
 20
253.390693
 30
0.0
 11
354.20487
 21
245.390693
 31
0.0
  0
LINE
  5
202
102
{ACAD_REACTORS
330
3DF
102
}
330
1F
100
AcDbEntity
  8
LC-001-002-----0
 62
     7
370
    50
100
AcDbLine
 10
372.20487
 20
245.390598
 30
0.0
 11
372.204912
 21
253.390598
 31
0.0
  0
LINE
  5
203
102
{ACAD_REACTORS
330
3DF
102
}
330
1F
100
AcDbEntity
  8
LC-001-002-----0
 62
     7
370
    50
100
AcDbLine
 10
372.204912
 20
253.390598
 30
0.0
 11
364.204912
 21
253.39064
 31
0.0
  0
LINE
  5
204
102
{ACAD_REACTORS
330
3DF
102
}
330
1F
100
AcDbEntity
  8
LC-001-002-----0
 62
     7
370
    50
100
AcDbLine
 10
364.204912
 20
253.39064
 30
0.0
 11
364.20487
 21
245.39064
 31
0.0
  0
LINE
  5
205
102
{ACAD_REACTORS
330
3F3
102
}
330
1F
100
AcDbEntity
  8
LC-001-002-----0
 62
     7
370
    50
100
AcDbLine
 10
364.20487
 20
245.39064
 30
0.0
 11
372.20487
 21
245.390598
 31
0.0
  0
LINE
  5
206
102
{ACAD_REACTORS
330
3F2
102
}
330
1F
100
AcDbEntity
  8
LC-001-002-----0
 62
     7
370
    50
100
AcDbLine
 10
382.20487
 20
245.390545
 30
0.0
 11
382.204912
 21
253.390545
 31
0.0
  0
LINE
  5
207
102
{ACAD_REACTORS
330
3F2
102
}
330
1F
100
AcDbEntity
  8
LC-001-002-----0
 62
     7
370
    50
100
AcDbLine
 10
382.204912
 20
253.390545
 30
0.0
 11
374.204912
 21
253.390587
 31
0.0
  0
LINE
  5
208
102
{ACAD_REACTORS
330
3F2
102
}
330
1F
100
AcDbEntity
  8
LC-001-002-----0
 62
     7
370
    50
100
AcDbLine
 10
374.204912
 20
253.390587
 30
0.0
 11
374.20487
 21
245.390587
 31
0.0
  0
LINE
  5
209
102
{ACAD_REACTORS
330
3F1
102
}
330
1F
100
AcDbEntity
  8
LC-001-002-----0
 62
     7
370
    50
100
AcDbLine
 10
374.20487
 20
245.390587
 30
0.0
 11
382.20487
 21
245.390545
 31
0.0
  0
LINE
  5
20A
102
{ACAD_REACTORS
330
3F0
102
}
330
1F
100
AcDbEntity
  8
LC-001-002-----0
 62
     7
370
    50
100
AcDbLine
 10
392.20487
 20
245.390492
 30
0.0
 11
392.204912
 21
253.390492
 31
0.0
  0
LINE
  5
20B
102
{ACAD_REACTORS
330
3F0
102
}
330
1F
100
AcDbEntity
  8
LC-001-002-----0
 62
     7
370
    50
100
AcDbLine
 10
392.204912
 20
253.390492
 30
0.0
 11
384.204912
 21
253.390534
 31
0.0
  0
LINE
  5
20C
102
{ACAD_REACTORS
330
3F0
102
}
330
1F
100
AcDbEntity
  8
LC-001-002-----0
 62
     7
370
    50
100
AcDbLine
 10
384.204912
 20
253.390534
 30
0.0
 11
384.20487
 21
245.390534
 31
0.0
  0
LINE
  5
20D
102
{ACAD_REACTORS
330
3EF
102
}
330
1F
100
AcDbEntity
  8
LC-001-002-----0
 62
     7
370
    50
100
AcDbLine
 10
384.20487
 20
245.390534
 30
0.0
 11
392.20487
 21
245.390492
 31
0.0
  0
LINE
  5
20E
102
{ACAD_REACTORS
330
406
102
}
330
1F
100
AcDbEntity
  8
LC-001-002-----0
 62
     7
370
    50
100
AcDbLine
 10
402.20487
 20
245.390439
 30
0.0
 11
402.204912
 21
253.390439
 31
0.0
  0
LINE
  5
20F
102
{ACAD_REACTORS
330
406
102
}
330
1F
100
AcDbEntity
  8
LC-001-002-----0
 62
     7
370
    50
100
AcDbLine
 10
402.204912
 20
253.390439
 30
0.0
 11
394.204912
 21
253.390481
 31
0.0
  0
LINE
  5
210
102
{ACAD_REACTORS
330
406
102
}
330
1F
100
AcDbEntity
  8
LC-001-002-----0
 62
     7
370
    50
100
AcDbLine
 10
394.204912
 20
253.390481
 30
0.0
 11
394.20487
 21
245.390481
 31
0.0
  0
LINE
  5
211
102
{ACAD_REACTORS
330
405
102
}
330
1F
100
AcDbEntity
  8
LC-001-002-----0
 62
     7
370
    50
100
AcDbLine
 10
394.20487
 20
245.390481
 30
0.0
 11
402.20487
 21
245.390439
 31
0.0
  0
LINE
  5
212
102
{ACAD_REACTORS
330
404
102
}
330
1F
100
AcDbEntity
  8
LC-001-002-----0
 62
     7
370
    50
100
AcDbLine
 10
412.20487
 20
245.390386
 30
0.0
 11
412.204912
 21
253.390386
 31
0.0
  0
LINE
  5
213
102
{ACAD_REACTORS
330
404
102
}
330
1F
100
AcDbEntity
  8
LC-001-002-----0
 62
     7
370
    50
100
AcDbLine
 10
412.204912
 20
253.390386
 30
0.0
 11
404.204912
 21
253.390428
 31
0.0
  0
LINE
  5
214
102
{ACAD_REACTORS
330
404
102
}
330
1F
100
AcDbEntity
  8
LC-001-002-----0
 62
     7
370
    50
100
AcDbLine
 10
404.204912
 20
253.390428
 30
0.0
 11
404.20487
 21
245.390428
 31
0.0
  0
LINE
  5
215
102
{ACAD_REACTORS
330
403
102
}
330
1F
100
AcDbEntity
  8
LC-001-002-----0
 62
     7
370
    50
100
AcDbLine
 10
404.20487
 20
245.390428
 30
0.0
 11
412.20487
 21
245.390386
 31
0.0
  0
LINE
  5
216
102
{ACAD_REACTORS
330
402
102
}
330
1F
100
AcDbEntity
  8
LC-001-002-----0
 62
     7
370
    50
100
AcDbLine
 10
422.20487
 20
245.390332
 30
0.0
 11
422.204912
 21
253.390332
 31
0.0
  0
LINE
  5
217
102
{ACAD_REACTORS
330
402
102
}
330
1F
100
AcDbEntity
  8
LC-001-002-----0
 62
     7
370
    50
100
AcDbLine
 10
422.204912
 20
253.390332
 30
0.0
 11
414.204912
 21
253.390375
 31
0.0
  0
LINE
  5
218
102
{ACAD_REACTORS
330
402
102
}
330
1F
100
AcDbEntity
  8
LC-001-002-----0
 62
     7
370
    50
100
AcDbLine
 10
414.204912
 20
253.390375
 30
0.0
 11
414.20487
 21
245.390375
 31
0.0
  0
LINE
  5
219
102
{ACAD_REACTORS
330
416
102
}
330
1F
100
AcDbEntity
  8
LC-001-002-----0
 62
     7
370
    50
100
AcDbLine
 10
414.20487
 20
245.390375
 30
0.0
 11
422.20487
 21
245.390332
 31
0.0
  0
LINE
  5
21A
102
{ACAD_REACTORS
330
415
102
}
330
1F
100
AcDbEntity
  8
LC-001-002-----0
 62
     7
370
    50
100
AcDbLine
 10
432.20487
 20
245.390279
 30
0.0
 11
432.204912
 21
253.390279
 31
0.0
  0
LINE
  5
21B
102
{ACAD_REACTORS
330
415
102
}
330
1F
100
AcDbEntity
  8
LC-001-002-----0
 62
     7
370
    50
100
AcDbLine
 10
432.204912
 20
253.390279
 30
0.0
 11
424.204912
 21
253.390322
 31
0.0
  0
LINE
  5
21C
102
{ACAD_REACTORS
330
415
102
}
330
1F
100
AcDbEntity
  8
LC-001-002-----0
 62
     7
370
    50
100
AcDbLine
 10
424.204912
 20
253.390322
 30
0.0
 11
424.20487
 21
245.390322
 31
0.0
  0
LINE
  5
21D
102
{ACAD_REACTORS
330
414
102
}
330
1F
100
AcDbEntity
  8
LC-001-002-----0
 62
     7
370
    50
100
AcDbLine
 10
424.20487
 20
245.390322
 30
0.0
 11
432.20487
 21
245.390279
 31
0.0
  0
LINE
  5
21E
102
{ACAD_REACTORS
330
413
102
}
330
1F
100
AcDbEntity
  8
LC-001-002-----0
 62
     7
370
    50
100
AcDbLine
 10
442.20487
 20
245.390226
 30
0.0
 11
442.204912
 21
253.390226
 31
0.0
  0
LINE
  5
21F
102
{ACAD_REACTORS
330
413
102
}
330
1F
100
AcDbEntity
  8
LC-001-002-----0
 62
     7
370
    50
100
AcDbLine
 10
442.204912
 20
253.390226
 30
0.0
 11
434.204912
 21
253.390269
 31
0.0
  0
LINE
  5
220
102
{ACAD_REACTORS
330
413
102
}
330
1F
100
AcDbEntity
  8
LC-001-002-----0
 62
     7
370
    50
100
AcDbLine
 10
434.204912
 20
253.390269
 30
0.0
 11
434.20487
 21
245.390269
 31
0.0
  0
LINE
  5
221
102
{ACAD_REACTORS
330
412
102
}
330
1F
100
AcDbEntity
  8
LC-001-002-----0
 62
     7
370
    50
100
AcDbLine
 10
434.20487
 20
245.390269
 30
0.0
 11
442.20487
 21
245.390226
 31
0.0
  0
LINE
  5
222
102
{ACAD_REACTORS
330
411
102
}
330
1F
100
AcDbEntity
  8
LC-001-002-----0
 62
     7
370
    50
100
AcDbLine
 10
452.20487
 20
245.390173
 30
0.0
 11
452.204912
 21
253.390173
 31
0.0
  0
LINE
  5
223
102
{ACAD_REACTORS
330
411
102
}
330
1F
100
AcDbEntity
  8
LC-001-002-----0
 62
     7
370
    50
100
AcDbLine
 10
452.204912
 20
253.390173
 30
0.0
 11
444.204912
 21
253.390216
 31
0.0
  0
LINE
  5
224
102
{ACAD_REACTORS
330
411
102
}
330
1F
100
AcDbEntity
  8
LC-001-002-----0
 62
     7
370
    50
100
AcDbLine
 10
444.204912
 20
253.390216
 30
0.0
 11
444.20487
 21
245.390216
 31
0.0
  0
LINE
  5
225
102
{ACAD_REACTORS
330
425
102
}
330
1F
100
AcDbEntity
  8
LC-001-002-----0
 62
     7
370
    50
100
AcDbLine
 10
444.20487
 20
245.390216
 30
0.0
 11
452.20487
 21
245.390173
 31
0.0
  0
LINE
  5
226
102
{ACAD_REACTORS
330
424
102
}
330
1F
100
AcDbEntity
  8
LC-001-002-----0
 62
     7
370
    50
100
AcDbLine
 10
354.204923
 20
255.390693
 30
0.0
 11
362.204923
 21
255.390651
 31
0.0
  0
LINE
  5
227
102
{ACAD_REACTORS
330
424
102
}
330
1F
100
AcDbEntity
  8
LC-001-002-----0
 62
     7
370
    50
100
AcDbLine
 10
362.204923
 20
255.390651
 30
0.0
 11
362.204965
 21
263.390651
 31
0.0
  0
LINE
  5
228
102
{ACAD_REACTORS
330
424
102
}
330
1F
100
AcDbEntity
  8
LC-001-002-----0
 62
     7
370
    50
100
AcDbLine
 10
362.204965
 20
263.390651
 30
0.0
 11
354.204965
 21
263.390693
 31
0.0
  0
LINE
  5
229
102
{ACAD_REACTORS
330
424
102
}
330
1F
100
AcDbEntity
  8
LC-001-002-----0
 62
     7
370
    50
100
AcDbLine
 10
354.204965
 20
263.390693
 30
0.0
 11
354.204923
 21
255.390693
 31
0.0
  0
LINE
  5
22A
102
{ACAD_REACTORS
330
423
102
}
330
1F
100
AcDbEntity
  8
LC-001-002-----0
 62
     7
370
    50
100
AcDbLine
 10
372.204923
 20
255.390598
 30
0.0
 11
372.204965
 21
263.390598
 31
0.0
  0
LINE
  5
22B
102
{ACAD_REACTORS
330
423
102
}
330
1F
100
AcDbEntity
  8
LC-001-002-----0
 62
     7
370
    50
100
AcDbLine
 10
372.204965
 20
263.390598
 30
0.0
 11
364.204965
 21
263.39064
 31
0.0
  0
LINE
  5
22C
102
{ACAD_REACTORS
330
423
102
}
330
1F
100
AcDbEntity
  8
LC-001-002-----0
 62
     7
370
    50
100
AcDbLine
 10
364.204965
 20
263.39064
 30
0.0
 11
364.204923
 21
255.39064
 31
0.0
  0
LINE
  5
22D
102
{ACAD_REACTORS
330
422
102
}
330
1F
100
AcDbEntity
  8
LC-001-002-----0
 62
     7
370
    50
100
AcDbLine
 10
364.204923
 20
255.39064
 30
0.0
 11
372.204923
 21
255.390598
 31
0.0
  0
LINE
  5
22E
102
{ACAD_REACTORS
330
434
102
}
330
1F
100
AcDbEntity
  8
LC-001-002-----0
 62
     7
370
    50
100
AcDbLine
 10
382.204923
 20
255.390545
 30
0.0
 11
382.204965
 21
263.390545
 31
0.0
  0
LINE
  5
22F
102
{ACAD_REACTORS
330
434
102
}
330
1F
100
AcDbEntity
  8
LC-001-002-----0
 62
     7
370
    50
100
AcDbLine
 10
382.204965
 20
263.390545
 30
0.0
 11
374.204965
 21
263.390587
 31
0.0
  0
LINE
  5
230
102
{ACAD_REACTORS
330
434
102
}
330
1F
100
AcDbEntity
  8
LC-001-002-----0
 62
     7
370
    50
100
AcDbLine
 10
374.204965
 20
263.390587
 30
0.0
 11
374.204923
 21
255.390587
 31
0.0
  0
LINE
  5
231
102
{ACAD_REACTORS
330
433
102
}
330
1F
100
AcDbEntity
  8
LC-001-002-----0
 62
     7
370
    50
100
AcDbLine
 10
374.204923
 20
255.390587
 30
0.0
 11
382.204923
 21
255.390545
 31
0.0
  0
LINE
  5
232
102
{ACAD_REACTORS
330
432
102
}
330
1F
100
AcDbEntity
  8
LC-001-002-----0
 62
     7
370
    50
100
AcDbLine
 10
392.204923
 20
255.390492
 30
0.0
 11
392.204965
 21
263.390492
 31
0.0
  0
LINE
  5
233
102
{ACAD_REACTORS
330
432
102
}
330
1F
100
AcDbEntity
  8
LC-001-002-----0
 62
     7
370
    50
100
AcDbLine
 10
392.204965
 20
263.390492
 30
0.0
 11
384.204965
 21
263.390534
 31
0.0
  0
LINE
  5
234
102
{ACAD_REACTORS
330
432
102
}
330
1F
100
AcDbEntity
  8
LC-001-002-----0
 62
     7
370
    50
100
AcDbLine
 10
384.204965
 20
263.390534
 30
0.0
 11
384.204923
 21
255.390534
 31
0.0
  0
LINE
  5
235
102
{ACAD_REACTORS
330
431
102
}
330
1F
100
AcDbEntity
  8
LC-001-002-----0
 62
     7
370
    50
100
AcDbLine
 10
384.204923
 20
255.390534
 30
0.0
 11
392.204923
 21
255.390492
 31
0.0
  0
LINE
  5
236
102
{ACAD_REACTORS
330
430
102
}
330
1F
100
AcDbEntity
  8
LC-001-002-----0
 62
     7
370
    50
100
AcDbLine
 10
402.204923
 20
255.390439
 30
0.0
 11
402.204965
 21
263.390439
 31
0.0
  0
LINE
  5
237
102
{ACAD_REACTORS
330
430
102
}
330
1F
100
AcDbEntity
  8
LC-001-002-----0
 62
     7
370
    50
100
AcDbLine
 10
402.204965
 20
263.390439
 30
0.0
 11
394.204965
 21
263.390481
 31
0.0
  0
LINE
  5
238
102
{ACAD_REACTORS
330
430
102
}
330
1F
100
AcDbEntity
  8
LC-001-002-----0
 62
     7
370
    50
100
AcDbLine
 10
394.204965
 20
263.390481
 30
0.0
 11
394.204923
 21
255.390481
 31
0.0
  0
LINE
  5
239
102
{ACAD_REACTORS
330
444
102
}
330
1F
100
AcDbEntity
  8
LC-001-002-----0
 62
     7
370
    50
100
AcDbLine
 10
394.204923
 20
255.390481
 30
0.0
 11
402.204923
 21
255.390439
 31
0.0
  0
LINE
  5
23A
102
{ACAD_REACTORS
330
443
102
}
330
1F
100
AcDbEntity
  8
LC-001-002-----0
 62
     7
370
    50
100
AcDbLine
 10
412.204923
 20
255.390386
 30
0.0
 11
412.204965
 21
263.390386
 31
0.0
  0
LINE
  5
23B
102
{ACAD_REACTORS
330
443
102
}
330
1F
100
AcDbEntity
  8
LC-001-002-----0
 62
     7
370
    50
100
AcDbLine
 10
412.204965
 20
263.390386
 30
0.0
 11
404.204965
 21
263.390428
 31
0.0
  0
LINE
  5
23C
102
{ACAD_REACTORS
330
443
102
}
330
1F
100
AcDbEntity
  8
LC-001-002-----0
 62
     7
370
    50
100
AcDbLine
 10
404.204965
 20
263.390428
 30
0.0
 11
404.204923
 21
255.390428
 31
0.0
  0
LINE
  5
23D
102
{ACAD_REACTORS
330
442
102
}
330
1F
100
AcDbEntity
  8
LC-001-002-----0
 62
     7
370
    50
100
AcDbLine
 10
404.204923
 20
255.390428
 30
0.0
 11
412.204923
 21
255.390386
 31
0.0
  0
LINE
  5
23E
102
{ACAD_REACTORS
330
441
102
}
330
1F
100
AcDbEntity
  8
LC-001-002-----0
 62
     7
370
    50
100
AcDbLine
 10
422.204923
 20
255.390332
 30
0.0
 11
422.204965
 21
263.390332
 31
0.0
  0
LINE
  5
23F
102
{ACAD_REACTORS
330
441
102
}
330
1F
100
AcDbEntity
  8
LC-001-002-----0
 62
     7
370
    50
100
AcDbLine
 10
422.204965
 20
263.390332
 30
0.0
 11
414.204965
 21
263.390375
 31
0.0
  0
LINE
  5
240
102
{ACAD_REACTORS
330
441
102
}
330
1F
100
AcDbEntity
  8
LC-001-002-----0
 62
     7
370
    50
100
AcDbLine
 10
414.204965
 20
263.390375
 30
0.0
 11
414.204923
 21
255.390375
 31
0.0
  0
LINE
  5
241
102
{ACAD_REACTORS
330
440
102
}
330
1F
100
AcDbEntity
  8
LC-001-002-----0
 62
     7
370
    50
100
AcDbLine
 10
414.204923
 20
255.390375
 30
0.0
 11
422.204923
 21
255.390332
 31
0.0
  0
LINE
  5
242
102
{ACAD_REACTORS
330
43F
102
}
330
1F
100
AcDbEntity
  8
LC-001-002-----0
 62
     7
370
    50
100
AcDbLine
 10
432.204923
 20
255.390279
 30
0.0
 11
432.204965
 21
263.390279
 31
0.0
  0
LINE
  5
243
102
{ACAD_REACTORS
330
43F
102
}
330
1F
100
AcDbEntity
  8
LC-001-002-----0
 62
     7
370
    50
100
AcDbLine
 10
432.204965
 20
263.390279
 30
0.0
 11
424.204965
 21
263.390322
 31
0.0
  0
LINE
  5
244
102
{ACAD_REACTORS
330
43F
102
}
330
1F
100
AcDbEntity
  8
LC-001-002-----0
 62
     7
370
    50
100
AcDbLine
 10
424.204965
 20
263.390322
 30
0.0
 11
424.204923
 21
255.390322
 31
0.0
  0
LINE
  5
245
102
{ACAD_REACTORS
330
453
102
}
330
1F
100
AcDbEntity
  8
LC-001-002-----0
 62
     7
370
    50
100
AcDbLine
 10
424.204923
 20
255.390322
 30
0.0
 11
432.204923
 21
255.390279
 31
0.0
  0
LINE
  5
246
102
{ACAD_REACTORS
330
452
102
}
330
1F
100
AcDbEntity
  8
LC-001-002-----0
 62
     7
370
    50
100
AcDbLine
 10
442.204923
 20
255.390226
 30
0.0
 11
442.204965
 21
263.390226
 31
0.0
  0
LINE
  5
247
102
{ACAD_REACTORS
330
452
102
}
330
1F
100
AcDbEntity
  8
LC-001-002-----0
 62
     7
370
    50
100
AcDbLine
 10
442.204965
 20
263.390226
 30
0.0
 11
434.204965
 21
263.390269
 31
0.0
  0
LINE
  5
248
102
{ACAD_REACTORS
330
452
102
}
330
1F
100
AcDbEntity
  8
LC-001-002-----0
 62
     7
370
    50
100
AcDbLine
 10
434.204965
 20
263.390269
 30
0.0
 11
434.204923
 21
255.390269
 31
0.0
  0
LINE
  5
249
102
{ACAD_REACTORS
330
451
102
}
330
1F
100
AcDbEntity
  8
LC-001-002-----0
 62
     7
370
    50
100
AcDbLine
 10
434.204923
 20
255.390269
 30
0.0
 11
442.204923
 21
255.390226
 31
0.0
  0
LINE
  5
24A
102
{ACAD_REACTORS
330
450
102
}
330
1F
100
AcDbEntity
  8
LC-001-002-----0
 62
     7
370
    50
100
AcDbLine
 10
452.204923
 20
255.390173
 30
0.0
 11
452.204965
 21
263.390173
 31
0.0
  0
LINE
  5
24B
102
{ACAD_REACTORS
330
450
102
}
330
1F
100
AcDbEntity
  8
LC-001-002-----0
 62
     7
370
    50
100
AcDbLine
 10
452.204965
 20
263.390173
 30
0.0
 11
444.204965
 21
263.390216
 31
0.0
  0
LINE
  5
24C
102
{ACAD_REACTORS
330
450
102
}
330
1F
100
AcDbEntity
  8
LC-001-002-----0
 62
     7
370
    50
100
AcDbLine
 10
444.204965
 20
263.390216
 30
0.0
 11
444.204923
 21
255.390216
 31
0.0
  0
LINE
  5
24D
102
{ACAD_REACTORS
330
44F
102
}
330
1F
100
AcDbEntity
  8
LC-001-002-----0
 62
     7
370
    50
100
AcDbLine
 10
444.204923
 20
255.390216
 30
0.0
 11
452.204923
 21
255.390173
 31
0.0
  0
LINE
  5
24E
102
{ACAD_REACTORS
330
463
102
}
330
1F
100
AcDbEntity
  8
LC-001-002-----0
 62
     7
370
    50
100
AcDbLine
 10
354.204976
 20
265.390693
 30
0.0
 11
362.204976
 21
265.390651
 31
0.0
  0
LINE
  5
24F
102
{ACAD_REACTORS
330
463
102
}
330
1F
100
AcDbEntity
  8
LC-001-002-----0
 62
     7
370
    50
100
AcDbLine
 10
362.204976
 20
265.390651
 30
0.0
 11
362.205018
 21
273.390651
 31
0.0
  0
LINE
  5
250
102
{ACAD_REACTORS
330
463
102
}
330
1F
100
AcDbEntity
  8
LC-001-002-----0
 62
     7
370
    50
100
AcDbLine
 10
362.205018
 20
273.390651
 30
0.0
 11
354.205018
 21
273.390693
 31
0.0
  0
LINE
  5
251
102
{ACAD_REACTORS
330
463
102
}
330
1F
100
AcDbEntity
  8
LC-001-002-----0
 62
     7
370
    50
100
AcDbLine
 10
354.205018
 20
273.390693
 30
0.0
 11
354.204976
 21
265.390693
 31
0.0
  0
LINE
  5
252
102
{ACAD_REACTORS
330
462
102
}
330
1F
100
AcDbEntity
  8
LC-001-002-----0
 62
     7
370
    50
100
AcDbLine
 10
372.204976
 20
265.390598
 30
0.0
 11
372.205018
 21
273.390598
 31
0.0
  0
LINE
  5
253
102
{ACAD_REACTORS
330
462
102
}
330
1F
100
AcDbEntity
  8
LC-001-002-----0
 62
     7
370
    50
100
AcDbLine
 10
372.205018
 20
273.390598
 30
0.0
 11
364.205018
 21
273.39064
 31
0.0
  0
LINE
  5
254
102
{ACAD_REACTORS
330
462
102
}
330
1F
100
AcDbEntity
  8
LC-001-002-----0
 62
     7
370
    50
100
AcDbLine
 10
364.205018
 20
273.39064
 30
0.0
 11
364.204976
 21
265.39064
 31
0.0
  0
LINE
  5
255
102
{ACAD_REACTORS
330
461
102
}
330
1F
100
AcDbEntity
  8
LC-001-002-----0
 62
     7
370
    50
100
AcDbLine
 10
364.204976
 20
265.39064
 30
0.0
 11
372.204976
 21
265.390598
 31
0.0
  0
LINE
  5
256
102
{ACAD_REACTORS
330
460
102
}
330
1F
100
AcDbEntity
  8
LC-001-002-----0
 62
     7
370
    50
100
AcDbLine
 10
382.204976
 20
265.390545
 30
0.0
 11
382.205018
 21
273.390545
 31
0.0
  0
LINE
  5
257
102
{ACAD_REACTORS
330
460
102
}
330
1F
100
AcDbEntity
  8
LC-001-002-----0
 62
     7
370
    50
100
AcDbLine
 10
382.205018
 20
273.390545
 30
0.0
 11
374.205018
 21
273.390587
 31
0.0
  0
LINE
  5
258
102
{ACAD_REACTORS
330
460
102
}
330
1F
100
AcDbEntity
  8
LC-001-002-----0
 62
     7
370
    50
100
AcDbLine
 10
374.205018
 20
273.390587
 30
0.0
 11
374.204976
 21
265.390587
 31
0.0
  0
LINE
  5
259
102
{ACAD_REACTORS
330
45F
102
}
330
1F
100
AcDbEntity
  8
LC-001-002-----0
 62
     7
370
    50
100
AcDbLine
 10
374.204976
 20
265.390587
 30
0.0
 11
382.204976
 21
265.390545
 31
0.0
  0
LINE
  5
25A
102
{ACAD_REACTORS
330
473
102
}
330
1F
100
AcDbEntity
  8
LC-001-002-----0
 62
     7
370
    50
100
AcDbLine
 10
392.204976
 20
265.390492
 30
0.0
 11
392.205018
 21
273.390492
 31
0.0
  0
LINE
  5
25B
102
{ACAD_REACTORS
330
473
102
}
330
1F
100
AcDbEntity
  8
LC-001-002-----0
 62
     7
370
    50
100
AcDbLine
 10
392.205018
 20
273.390492
 30
0.0
 11
384.205018
 21
273.390534
 31
0.0
  0
LINE
  5
25C
102
{ACAD_REACTORS
330
473
102
}
330
1F
100
AcDbEntity
  8
LC-001-002-----0
 62
     7
370
    50
100
AcDbLine
 10
384.205018
 20
273.390534
 30
0.0
 11
384.204976
 21
265.390534
 31
0.0
  0
LINE
  5
25D
102
{ACAD_REACTORS
330
472
102
}
330
1F
100
AcDbEntity
  8
LC-001-002-----0
 62
     7
370
    50
100
AcDbLine
 10
384.204976
 20
265.390534
 30
0.0
 11
392.204976
 21
265.390492
 31
0.0
  0
LINE
  5
25E
102
{ACAD_REACTORS
330
471
102
}
330
1F
100
AcDbEntity
  8
LC-001-002-----0
 62
     7
370
    50
100
AcDbLine
 10
402.204976
 20
265.390439
 30
0.0
 11
402.205018
 21
273.390439
 31
0.0
  0
LINE
  5
25F
102
{ACAD_REACTORS
330
471
102
}
330
1F
100
AcDbEntity
  8
LC-001-002-----0
 62
     7
370
    50
100
AcDbLine
 10
402.205018
 20
273.390439
 30
0.0
 11
394.205018
 21
273.390481
 31
0.0
  0
LINE
  5
260
102
{ACAD_REACTORS
330
471
102
}
330
1F
100
AcDbEntity
  8
LC-001-002-----0
 62
     7
370
    50
100
AcDbLine
 10
394.205018
 20
273.390481
 30
0.0
 11
394.204976
 21
265.390481
 31
0.0
  0
LINE
  5
261
102
{ACAD_REACTORS
330
470
102
}
330
1F
100
AcDbEntity
  8
LC-001-002-----0
 62
     7
370
    50
100
AcDbLine
 10
394.204976
 20
265.390481
 30
0.0
 11
402.204976
 21
265.390439
 31
0.0
  0
LINE
  5
262
102
{ACAD_REACTORS
330
46F
102
}
330
1F
100
AcDbEntity
  8
LC-001-002-----0
 62
     7
370
    50
100
AcDbLine
 10
412.204976
 20
265.390386
 30
0.0
 11
412.205018
 21
273.390386
 31
0.0
  0
LINE
  5
263
102
{ACAD_REACTORS
330
46F
102
}
330
1F
100
AcDbEntity
  8
LC-001-002-----0
 62
     7
370
    50
100
AcDbLine
 10
412.205018
 20
273.390386
 30
0.0
 11
404.205018
 21
273.390428
 31
0.0
  0
LINE
  5
264
102
{ACAD_REACTORS
330
46F
102
}
330
1F
100
AcDbEntity
  8
LC-001-002-----0
 62
     7
370
    50
100
AcDbLine
 10
404.205018
 20
273.390428
 30
0.0
 11
404.204976
 21
265.390428
 31
0.0
  0
LINE
  5
265
102
{ACAD_REACTORS
330
37E
102
}
330
1F
100
AcDbEntity
  8
LC-001-002-----0
 62
     7
370
    50
100
AcDbLine
 10
404.204976
 20
265.390428
 30
0.0
 11
412.204976
 21
265.390386
 31
0.0
  0
LINE
  5
266
102
{ACAD_REACTORS
330
37D
102
}
330
1F
100
AcDbEntity
  8
LC-001-002-----0
 62
     7
370
    50
100
AcDbLine
 10
422.204976
 20
265.390332
 30
0.0
 11
422.205018
 21
273.390332
 31
0.0
  0
LINE
  5
267
102
{ACAD_REACTORS
330
37D
102
}
330
1F
100
AcDbEntity
  8
LC-001-002-----0
 62
     7
370
    50
100
AcDbLine
 10
422.205018
 20
273.390332
 30
0.0
 11
414.205018
 21
273.390375
 31
0.0
  0
LINE
  5
268
102
{ACAD_REACTORS
330
37D
102
}
330
1F
100
AcDbEntity
  8
LC-001-002-----0
 62
     7
370
    50
100
AcDbLine
 10
414.205018
 20
273.390375
 30
0.0
 11
414.204976
 21
265.390375
 31
0.0
  0
LINE
  5
269
102
{ACAD_REACTORS
330
37C
102
}
330
1F
100
AcDbEntity
  8
LC-001-002-----0
 62
     7
370
    50
100
AcDbLine
 10
414.204976
 20
265.390375
 30
0.0
 11
422.204976
 21
265.390332
 31
0.0
  0
LINE
  5
26A
102
{ACAD_REACTORS
330
37B
102
}
330
1F
100
AcDbEntity
  8
LC-001-002-----0
 62
     7
370
    50
100
AcDbLine
 10
432.204976
 20
265.390279
 30
0.0
 11
432.205018
 21
273.390279
 31
0.0
  0
LINE
  5
26B
102
{ACAD_REACTORS
330
37B
102
}
330
1F
100
AcDbEntity
  8
LC-001-002-----0
 62
     7
370
    50
100
AcDbLine
 10
432.205018
 20
273.390279
 30
0.0
 11
424.205018
 21
273.390322
 31
0.0
  0
LINE
  5
26C
102
{ACAD_REACTORS
330
37B
102
}
330
1F
100
AcDbEntity
  8
LC-001-002-----0
 62
     7
370
    50
100
AcDbLine
 10
424.205018
 20
273.390322
 30
0.0
 11
424.204976
 21
265.390322
 31
0.0
  0
LINE
  5
26D
102
{ACAD_REACTORS
330
37A
102
}
330
1F
100
AcDbEntity
  8
LC-001-002-----0
 62
     7
370
    50
100
AcDbLine
 10
424.204976
 20
265.390322
 30
0.0
 11
432.204976
 21
265.390279
 31
0.0
  0
LINE
  5
26E
102
{ACAD_REACTORS
330
379
102
}
330
1F
100
AcDbEntity
  8
LC-001-002-----0
 62
     7
370
    50
100
AcDbLine
 10
442.204976
 20
265.390226
 30
0.0
 11
442.205018
 21
273.390226
 31
0.0
  0
LINE
  5
26F
102
{ACAD_REACTORS
330
379
102
}
330
1F
100
AcDbEntity
  8
LC-001-002-----0
 62
     7
370
    50
100
AcDbLine
 10
442.205018
 20
273.390226
 30
0.0
 11
434.205018
 21
273.390269
 31
0.0
  0
LINE
  5
270
102
{ACAD_REACTORS
330
379
102
}
330
1F
100
AcDbEntity
  8
LC-001-002-----0
 62
     7
370
    50
100
AcDbLine
 10
434.205018
 20
273.390269
 30
0.0
 11
434.204976
 21
265.390269
 31
0.0
  0
LINE
  5
271
102
{ACAD_REACTORS
330
38B
102
}
330
1F
100
AcDbEntity
  8
LC-001-002-----0
 62
     7
370
    50
100
AcDbLine
 10
434.204976
 20
265.390269
 30
0.0
 11
442.204976
 21
265.390226
 31
0.0
  0
LINE
  5
272
102
{ACAD_REACTORS
330
38A
102
}
330
1F
100
AcDbEntity
  8
LC-001-002-----0
 62
     7
370
    50
100
AcDbLine
 10
452.204976
 20
265.390173
 30
0.0
 11
452.205018
 21
273.390173
 31
0.0
  0
LINE
  5
273
102
{ACAD_REACTORS
330
38A
102
}
330
1F
100
AcDbEntity
  8
LC-001-002-----0
 62
     7
370
    50
100
AcDbLine
 10
452.205018
 20
273.390173
 30
0.0
 11
444.205018
 21
273.390216
 31
0.0
  0
LINE
  5
274
102
{ACAD_REACTORS
330
38A
102
}
330
1F
100
AcDbEntity
  8
LC-001-002-----0
 62
     7
370
    50
100
AcDbLine
 10
444.205018
 20
273.390216
 30
0.0
 11
444.204976
 21
265.390216
 31
0.0
  0
LINE
  5
275
102
{ACAD_REACTORS
330
389
102
}
330
1F
100
AcDbEntity
  8
LC-001-002-----0
 62
     7
370
    50
100
AcDbLine
 10
444.204976
 20
265.390216
 30
0.0
 11
452.204976
 21
265.390173
 31
0.0
  0
LINE
  5
276
102
{ACAD_REACTORS
330
388
102
}
330
1F
100
AcDbEntity
  8
LC-001-002-----0
 62
     7
370
    50
100
AcDbLine
 10
354.205029
 20
275.390693
 30
0.0
 11
362.205029
 21
275.390651
 31
0.0
  0
LINE
  5
277
102
{ACAD_REACTORS
330
388
102
}
330
1F
100
AcDbEntity
  8
LC-001-002-----0
 62
     7
370
    50
100
AcDbLine
 10
362.205029
 20
275.390651
 30
0.0
 11
362.205071
 21
283.390651
 31
0.0
  0
LINE
  5
278
102
{ACAD_REACTORS
330
388
102
}
330
1F
100
AcDbEntity
  8
LC-001-002-----0
 62
     7
370
    50
100
AcDbLine
 10
362.205071
 20
283.390651
 30
0.0
 11
354.205071
 21
283.390693
 31
0.0
  0
LINE
  5
279
102
{ACAD_REACTORS
330
388
102
}
330
1F
100
AcDbEntity
  8
LC-001-002-----0
 62
     7
370
    50
100
AcDbLine
 10
354.205071
 20
283.390693
 30
0.0
 11
354.205029
 21
275.390693
 31
0.0
  0
LINE
  5
27A
102
{ACAD_REACTORS
330
39D
102
}
330
1F
100
AcDbEntity
  8
LC-001-002-----0
 62
     7
370
    50
100
AcDbLine
 10
372.205029
 20
275.390598
 30
0.0
 11
372.205071
 21
283.390598
 31
0.0
  0
LINE
  5
27B
102
{ACAD_REACTORS
330
39D
102
}
330
1F
100
AcDbEntity
  8
LC-001-002-----0
 62
     7
370
    50
100
AcDbLine
 10
372.205071
 20
283.390598
 30
0.0
 11
364.205071
 21
283.39064
 31
0.0
  0
LINE
  5
27C
102
{ACAD_REACTORS
330
39D
102
}
330
1F
100
AcDbEntity
  8
LC-001-002-----0
 62
     7
370
    50
100
AcDbLine
 10
364.205071
 20
283.39064
 30
0.0
 11
364.205029
 21
275.39064
 31
0.0
  0
LINE
  5
27D
102
{ACAD_REACTORS
330
39C
102
}
330
1F
100
AcDbEntity
  8
LC-001-002-----0
 62
     7
370
    50
100
AcDbLine
 10
364.205029
 20
275.39064
 30
0.0
 11
372.205029
 21
275.390598
 31
0.0
  0
LINE
  5
27E
102
{ACAD_REACTORS
330
39B
102
}
330
1F
100
AcDbEntity
  8
LC-001-002-----0
 62
     7
370
    50
100
AcDbLine
 10
382.205029
 20
275.390545
 30
0.0
 11
382.205071
 21
283.390545
 31
0.0
  0
LINE
  5
27F
102
{ACAD_REACTORS
330
39B
102
}
330
1F
100
AcDbEntity
  8
LC-001-002-----0
 62
     7
370
    50
100
AcDbLine
 10
382.205071
 20
283.390545
 30
0.0
 11
374.205071
 21
283.390587
 31
0.0
  0
LINE
  5
280
102
{ACAD_REACTORS
330
39B
102
}
330
1F
100
AcDbEntity
  8
LC-001-002-----0
 62
     7
370
    50
100
AcDbLine
 10
374.205071
 20
283.390587
 30
0.0
 11
374.205029
 21
275.390587
 31
0.0
  0
LINE
  5
281
102
{ACAD_REACTORS
330
39A
102
}
330
1F
100
AcDbEntity
  8
LC-001-002-----0
 62
     7
370
    50
100
AcDbLine
 10
374.205029
 20
275.390587
 30
0.0
 11
382.205029
 21
275.390545
 31
0.0
  0
LINE
  5
282
102
{ACAD_REACTORS
330
399
102
}
330
1F
100
AcDbEntity
  8
LC-001-002-----0
 62
     7
370
    50
100
AcDbLine
 10
392.205029
 20
275.390492
 30
0.0
 11
392.205071
 21
283.390492
 31
0.0
  0
LINE
  5
283
102
{ACAD_REACTORS
330
399
102
}
330
1F
100
AcDbEntity
  8
LC-001-002-----0
 62
     7
370
    50
100
AcDbLine
 10
392.205071
 20
283.390492
 30
0.0
 11
384.205071
 21
283.390534
 31
0.0
  0
LINE
  5
284
102
{ACAD_REACTORS
330
399
102
}
330
1F
100
AcDbEntity
  8
LC-001-002-----0
 62
     7
370
    50
100
AcDbLine
 10
384.205071
 20
283.390534
 30
0.0
 11
384.205029
 21
275.390534
 31
0.0
  0
LINE
  5
285
102
{ACAD_REACTORS
330
382
102
}
330
1F
100
AcDbEntity
  8
LC-001-002-----0
 62
     7
370
    50
100
AcDbLine
 10
384.205029
 20
275.390534
 30
0.0
 11
392.205029
 21
275.390492
 31
0.0
  0
LINE
  5
286
102
{ACAD_REACTORS
330
382
102
}
330
1F
100
AcDbEntity
  8
LC-001-002-----0
 62
     7
370
    50
100
AcDbLine
 10
402.205029
 20
275.390439
 30
0.0
 11
402.205071
 21
283.390439
 31
0.0
  0
LINE
  5
287
102
{ACAD_REACTORS
330
382
102
}
330
1F
100
AcDbEntity
  8
LC-001-002-----0
 62
     7
370
    50
100
AcDbLine
 10
402.205071
 20
283.390439
 30
0.0
 11
394.205071
 21
283.390481
 31
0.0
  0
LINE
  5
288
102
{ACAD_REACTORS
330
382
102
}
330
1F
100
AcDbEntity
  8
LC-001-002-----0
 62
     7
370
    50
100
AcDbLine
 10
394.205071
 20
283.390481
 30
0.0
 11
394.205029
 21
275.390481
 31
0.0
  0
LINE
  5
289
102
{ACAD_REACTORS
330
382
102
}
330
1F
100
AcDbEntity
  8
LC-001-002-----0
 62
     7
370
    50
100
AcDbLine
 10
394.205029
 20
275.390481
 30
0.0
 11
402.205029
 21
275.390439
 31
0.0
  0
LINE
  5
28A
102
{ACAD_REACTORS
330
382
102
}
330
1F
100
AcDbEntity
  8
LC-001-002-----0
 62
     7
370
    50
100
AcDbLine
 10
412.205029
 20
275.390386
 30
0.0
 11
412.205071
 21
283.390386
 31
0.0
  0
LINE
  5
28B
102
{ACAD_REACTORS
330
382
102
}
330
1F
100
AcDbEntity
  8
LC-001-002-----0
 62
     7
370
    50
100
AcDbLine
 10
412.205071
 20
283.390386
 30
0.0
 11
404.205071
 21
283.390428
 31
0.0
  0
LINE
  5
28C
102
{ACAD_REACTORS
330
382
102
}
330
1F
100
AcDbEntity
  8
LC-001-002-----0
 62
     7
370
    50
100
AcDbLine
 10
404.205071
 20
283.390428
 30
0.0
 11
404.205029
 21
275.390428
 31
0.0
  0
LINE
  5
28D
102
{ACAD_REACTORS
330
382
102
}
330
1F
100
AcDbEntity
  8
LC-001-002-----0
 62
     7
370
    50
100
AcDbLine
 10
404.205029
 20
275.390428
 30
0.0
 11
412.205029
 21
275.390386
 31
0.0
  0
LINE
  5
28E
102
{ACAD_REACTORS
330
382
102
}
330
1F
100
AcDbEntity
  8
LC-001-002-----0
 62
     7
370
    50
100
AcDbLine
 10
422.205029
 20
275.390332
 30
0.0
 11
422.205071
 21
283.390332
 31
0.0
  0
LINE
  5
28F
102
{ACAD_REACTORS
330
382
102
}
330
1F
100
AcDbEntity
  8
LC-001-002-----0
 62
     7
370
    50
100
AcDbLine
 10
422.205071
 20
283.390332
 30
0.0
 11
414.205071
 21
283.390375
 31
0.0
  0
LINE
  5
290
102
{ACAD_REACTORS
330
382
102
}
330
1F
100
AcDbEntity
  8
LC-001-002-----0
 62
     7
370
    50
100
AcDbLine
 10
414.205071
 20
283.390375
 30
0.0
 11
414.205029
 21
275.390375
 31
0.0
  0
LINE
  5
291
102
{ACAD_REACTORS
330
382
102
}
330
1F
100
AcDbEntity
  8
LC-001-002-----0
 62
     7
370
    50
100
AcDbLine
 10
414.205029
 20
275.390375
 30
0.0
 11
422.205029
 21
275.390332
 31
0.0
  0
LINE
  5
292
102
{ACAD_REACTORS
330
382
102
}
330
1F
100
AcDbEntity
  8
LC-001-002-----0
 62
     7
370
    50
100
AcDbLine
 10
432.205029
 20
275.390279
 30
0.0
 11
432.205071
 21
283.390279
 31
0.0
  0
LINE
  5
293
102
{ACAD_REACTORS
330
382
102
}
330
1F
100
AcDbEntity
  8
LC-001-002-----0
 62
     7
370
    50
100
AcDbLine
 10
432.205071
 20
283.390279
 30
0.0
 11
424.205071
 21
283.390322
 31
0.0
  0
LINE
  5
294
102
{ACAD_REACTORS
330
382
102
}
330
1F
100
AcDbEntity
  8
LC-001-002-----0
 62
     7
370
    50
100
AcDbLine
 10
424.205071
 20
283.390322
 30
0.0
 11
424.205029
 21
275.390322
 31
0.0
  0
LINE
  5
295
102
{ACAD_REACTORS
330
382
102
}
330
1F
100
AcDbEntity
  8
LC-001-002-----0
 62
     7
370
    50
100
AcDbLine
 10
424.205029
 20
275.390322
 30
0.0
 11
432.205029
 21
275.390279
 31
0.0
  0
LINE
  5
296
102
{ACAD_REACTORS
330
382
102
}
330
1F
100
AcDbEntity
  8
LC-001-002-----0
 62
     7
370
    50
100
AcDbLine
 10
442.205029
 20
275.390226
 30
0.0
 11
442.205071
 21
283.390226
 31
0.0
  0
LINE
  5
297
102
{ACAD_REACTORS
330
382
102
}
330
1F
100
AcDbEntity
  8
LC-001-002-----0
 62
     7
370
    50
100
AcDbLine
 10
442.205071
 20
283.390226
 30
0.0
 11
434.205071
 21
283.390269
 31
0.0
  0
LINE
  5
298
102
{ACAD_REACTORS
330
382
102
}
330
1F
100
AcDbEntity
  8
LC-001-002-----0
 62
     7
370
    50
100
AcDbLine
 10
434.205071
 20
283.390269
 30
0.0
 11
434.205029
 21
275.390269
 31
0.0
  0
LINE
  5
299
102
{ACAD_REACTORS
330
382
102
}
330
1F
100
AcDbEntity
  8
LC-001-002-----0
 62
     7
370
    50
100
AcDbLine
 10
434.205029
 20
275.390269
 30
0.0
 11
442.205029
 21
275.390226
 31
0.0
  0
LINE
  5
29A
102
{ACAD_REACTORS
330
382
102
}
330
1F
100
AcDbEntity
  8
LC-001-002-----0
 62
     7
370
    50
100
AcDbLine
 10
452.205029
 20
275.390173
 30
0.0
 11
452.205071
 21
283.390173
 31
0.0
  0
LINE
  5
29B
102
{ACAD_REACTORS
330
382
102
}
330
1F
100
AcDbEntity
  8
LC-001-002-----0
 62
     7
370
    50
100
AcDbLine
 10
452.205071
 20
283.390173
 30
0.0
 11
444.205071
 21
283.390216
 31
0.0
  0
LINE
  5
29C
102
{ACAD_REACTORS
330
382
102
}
330
1F
100
AcDbEntity
  8
LC-001-002-----0
 62
     7
370
    50
100
AcDbLine
 10
444.205071
 20
283.390216
 30
0.0
 11
444.205029
 21
275.390216
 31
0.0
  0
LINE
  5
29D
102
{ACAD_REACTORS
330
382
102
}
330
1F
100
AcDbEntity
  8
LC-001-002-----0
 62
     7
370
    50
100
AcDbLine
 10
444.205029
 20
275.390216
 30
0.0
 11
452.205029
 21
275.390173
 31
0.0
  0
LINE
  5
29E
102
{ACAD_REACTORS
330
382
102
}
330
1F
100
AcDbEntity
  8
LC-001-002-----0
 62
     7
370
    50
100
AcDbLine
 10
354.205082
 20
285.390693
 30
0.0
 11
362.205082
 21
285.390651
 31
0.0
  0
LINE
  5
29F
102
{ACAD_REACTORS
330
382
102
}
330
1F
100
AcDbEntity
  8
LC-001-002-----0
 62
     7
370
    50
100
AcDbLine
 10
362.205082
 20
285.390651
 30
0.0
 11
362.205124
 21
293.390651
 31
0.0
  0
LINE
  5
2A0
102
{ACAD_REACTORS
330
382
102
}
330
1F
100
AcDbEntity
  8
LC-001-002-----0
 62
     7
370
    50
100
AcDbLine
 10
362.205124
 20
293.390651
 30
0.0
 11
354.205124
 21
293.390693
 31
0.0
  0
LINE
  5
2A1
102
{ACAD_REACTORS
330
382
102
}
330
1F
100
AcDbEntity
  8
LC-001-002-----0
 62
     7
370
    50
100
AcDbLine
 10
354.205124
 20
293.390693
 30
0.0
 11
354.205082
 21
285.390693
 31
0.0
  0
LINE
  5
2A2
102
{ACAD_REACTORS
330
382
102
}
330
1F
100
AcDbEntity
  8
LC-001-002-----0
 62
     7
370
    50
100
AcDbLine
 10
372.205082
 20
285.390598
 30
0.0
 11
372.205124
 21
293.390598
 31
0.0
  0
LINE
  5
2A3
102
{ACAD_REACTORS
330
382
102
}
330
1F
100
AcDbEntity
  8
LC-001-002-----0
 62
     7
370
    50
100
AcDbLine
 10
372.205124
 20
293.390598
 30
0.0
 11
364.205124
 21
293.39064
 31
0.0
  0
LINE
  5
2A4
102
{ACAD_REACTORS
330
382
102
}
330
1F
100
AcDbEntity
  8
LC-001-002-----0
 62
     7
370
    50
100
AcDbLine
 10
364.205124
 20
293.39064
 30
0.0
 11
364.205082
 21
285.39064
 31
0.0
  0
LINE
  5
2A5
102
{ACAD_REACTORS
330
382
102
}
330
1F
100
AcDbEntity
  8
LC-001-002-----0
 62
     7
370
    50
100
AcDbLine
 10
364.205082
 20
285.39064
 30
0.0
 11
372.205082
 21
285.390598
 31
0.0
  0
LINE
  5
2A6
102
{ACAD_REACTORS
330
382
102
}
330
1F
100
AcDbEntity
  8
LC-001-002-----0
 62
     7
370
    50
100
AcDbLine
 10
382.205082
 20
285.390545
 30
0.0
 11
382.205124
 21
293.390545
 31
0.0
  0
LINE
  5
2A7
102
{ACAD_REACTORS
330
382
102
}
330
1F
100
AcDbEntity
  8
LC-001-002-----0
 62
     7
370
    50
100
AcDbLine
 10
382.205124
 20
293.390545
 30
0.0
 11
374.205124
 21
293.390587
 31
0.0
  0
LINE
  5
2A8
102
{ACAD_REACTORS
330
382
102
}
330
1F
100
AcDbEntity
  8
LC-001-002-----0
 62
     7
370
    50
100
AcDbLine
 10
374.205124
 20
293.390587
 30
0.0
 11
374.205082
 21
285.390587
 31
0.0
  0
LINE
  5
2A9
102
{ACAD_REACTORS
330
382
102
}
330
1F
100
AcDbEntity
  8
LC-001-002-----0
 62
     7
370
    50
100
AcDbLine
 10
374.205082
 20
285.390587
 30
0.0
 11
382.205082
 21
285.390545
 31
0.0
  0
LINE
  5
2AA
102
{ACAD_REACTORS
330
382
102
}
330
1F
100
AcDbEntity
  8
LC-001-002-----0
 62
     7
370
    50
100
AcDbLine
 10
392.205082
 20
285.390492
 30
0.0
 11
392.205105
 21
289.757242
 31
0.0
  0
LINE
  5
2AB
102
{ACAD_REACTORS
330
382
102
}
330
1F
100
AcDbEntity
  8
LC-001-002-----0
 62
     7
370
    50
100
AcDbLine
 10
390.586174
 20
293.3905
 30
0.0
 11
384.205124
 21
293.390534
 31
0.0
  0
LINE
  5
2AC
102
{ACAD_REACTORS
330
382
102
}
330
1F
100
AcDbEntity
  8
LC-001-002-----0
 62
     7
370
    50
100
AcDbLine
 10
384.205124
 20
293.390534
 30
0.0
 11
384.205082
 21
285.390534
 31
0.0
  0
LINE
  5
2AD
102
{ACAD_REACTORS
330
382
102
}
330
1F
100
AcDbEntity
  8
LC-001-002-----0
 62
     7
370
    50
100
AcDbLine
 10
384.205082
 20
285.390534
 30
0.0
 11
392.205082
 21
285.390492
 31
0.0
  0
LINE
  5
2AE
102
{ACAD_REACTORS
330
382
102
}
330
1F
100
AcDbEntity
  8
LC-001-002-----0
 62
     7
370
    50
100
AcDbLine
 10
422.205082
 20
285.390332
 30
0.0
 11
422.205124
 21
293.390332
 31
0.0
  0
LINE
  5
2AF
102
{ACAD_REACTORS
330
382
102
}
330
1F
100
AcDbEntity
  8
LC-001-002-----0
 62
     7
370
    50
100
AcDbLine
 10
422.205124
 20
293.390332
 30
0.0
 11
414.205124
 21
293.390375
 31
0.0
  0
LINE
  5
2B0
102
{ACAD_REACTORS
330
382
102
}
330
1F
100
AcDbEntity
  8
LC-001-002-----0
 62
     7
370
    50
100
AcDbLine
 10
414.205124
 20
293.390375
 30
0.0
 11
414.205082
 21
285.390375
 31
0.0
  0
LINE
  5
2B1
102
{ACAD_REACTORS
330
382
102
}
330
1F
100
AcDbEntity
  8
LC-001-002-----0
 62
     7
370
    50
100
AcDbLine
 10
414.205082
 20
285.390375
 30
0.0
 11
422.205082
 21
285.390332
 31
0.0
  0
LINE
  5
2B2
102
{ACAD_REACTORS
330
382
102
}
330
1F
100
AcDbEntity
  8
LC-001-002-----0
 62
     7
370
    50
100
AcDbLine
 10
432.205082
 20
285.390279
 30
0.0
 11
432.205124
 21
293.390279
 31
0.0
  0
LINE
  5
2B3
102
{ACAD_REACTORS
330
382
102
}
330
1F
100
AcDbEntity
  8
LC-001-002-----0
 62
     7
370
    50
100
AcDbLine
 10
432.205124
 20
293.390279
 30
0.0
 11
424.205124
 21
293.390322
 31
0.0
  0
LINE
  5
2B4
102
{ACAD_REACTORS
330
382
102
}
330
1F
100
AcDbEntity
  8
LC-001-002-----0
 62
     7
370
    50
100
AcDbLine
 10
424.205124
 20
293.390322
 30
0.0
 11
424.205082
 21
285.390322
 31
0.0
  0
LINE
  5
2B5
102
{ACAD_REACTORS
330
382
102
}
330
1F
100
AcDbEntity
  8
LC-001-002-----0
 62
     7
370
    50
100
AcDbLine
 10
424.205082
 20
285.390322
 30
0.0
 11
432.205082
 21
285.390279
 31
0.0
  0
LINE
  5
2B6
102
{ACAD_REACTORS
330
382
102
}
330
1F
100
AcDbEntity
  8
LC-001-002-----0
 62
     7
370
    50
100
AcDbLine
 10
442.205082
 20
285.390226
 30
0.0
 11
442.205124
 21
293.390226
 31
0.0
  0
LINE
  5
2B7
102
{ACAD_REACTORS
330
382
102
}
330
1F
100
AcDbEntity
  8
LC-001-002-----0
 62
     7
370
    50
100
AcDbLine
 10
442.205124
 20
293.390226
 30
0.0
 11
434.205124
 21
293.390269
 31
0.0
  0
LINE
  5
2B8
102
{ACAD_REACTORS
330
382
102
}
330
1F
100
AcDbEntity
  8
LC-001-002-----0
 62
     7
370
    50
100
AcDbLine
 10
434.205124
 20
293.390269
 30
0.0
 11
434.205082
 21
285.390269
 31
0.0
  0
LINE
  5
2B9
102
{ACAD_REACTORS
330
382
102
}
330
1F
100
AcDbEntity
  8
LC-001-002-----0
 62
     7
370
    50
100
AcDbLine
 10
434.205082
 20
285.390269
 30
0.0
 11
442.205082
 21
285.390226
 31
0.0
  0
LINE
  5
2BA
102
{ACAD_REACTORS
330
382
102
}
330
1F
100
AcDbEntity
  8
LC-001-002-----0
 62
     7
370
    50
100
AcDbLine
 10
452.205082
 20
285.390173
 30
0.0
 11
452.205124
 21
293.390173
 31
0.0
  0
LINE
  5
2BB
102
{ACAD_REACTORS
330
382
102
}
330
1F
100
AcDbEntity
  8
LC-001-002-----0
 62
     7
370
    50
100
AcDbLine
 10
452.205124
 20
293.390173
 30
0.0
 11
444.205124
 21
293.390216
 31
0.0
  0
LINE
  5
2BC
102
{ACAD_REACTORS
330
382
102
}
330
1F
100
AcDbEntity
  8
LC-001-002-----0
 62
     7
370
    50
100
AcDbLine
 10
444.205124
 20
293.390216
 30
0.0
 11
444.205082
 21
285.390216
 31
0.0
  0
LINE
  5
2BD
102
{ACAD_REACTORS
330
382
102
}
330
1F
100
AcDbEntity
  8
LC-001-002-----0
 62
     7
370
    50
100
AcDbLine
 10
444.205082
 20
285.390216
 30
0.0
 11
452.205082
 21
285.390173
 31
0.0
  0
LINE
  5
2BE
102
{ACAD_REACTORS
330
382
102
}
330
1F
100
AcDbEntity
  8
LC-001-002-----0
 62
     7
370
    50
100
AcDbLine
 10
354.205135
 20
295.390693
 30
0.0
 11
362.205135
 21
295.390651
 31
0.0
  0
LINE
  5
2BF
102
{ACAD_REACTORS
330
382
102
}
330
1F
100
AcDbEntity
  8
LC-001-002-----0
 62
     7
370
    50
100
AcDbLine
 10
362.205135
 20
295.390651
 30
0.0
 11
362.205178
 21
303.390651
 31
0.0
  0
LINE
  5
2C0
102
{ACAD_REACTORS
330
382
102
}
330
1F
100
AcDbEntity
  8
LC-001-002-----0
 62
     7
370
    50
100
AcDbLine
 10
362.205178
 20
303.390651
 30
0.0
 11
354.205178
 21
303.390693
 31
0.0
  0
LINE
  5
2C1
102
{ACAD_REACTORS
330
382
102
}
330
1F
100
AcDbEntity
  8
LC-001-002-----0
 62
     7
370
    50
100
AcDbLine
 10
354.205178
 20
303.390693
 30
0.0
 11
354.205135
 21
295.390693
 31
0.0
  0
LINE
  5
2C2
102
{ACAD_REACTORS
330
382
102
}
330
1F
100
AcDbEntity
  8
LC-001-002-----0
 62
     7
370
    50
100
AcDbLine
 10
372.205135
 20
295.390598
 30
0.0
 11
372.205178
 21
303.390598
 31
0.0
  0
LINE
  5
2C3
102
{ACAD_REACTORS
330
382
102
}
330
1F
100
AcDbEntity
  8
LC-001-002-----0
 62
     7
370
    50
100
AcDbLine
 10
372.205178
 20
303.390598
 30
0.0
 11
364.205178
 21
303.39064
 31
0.0
  0
LINE
  5
2C4
102
{ACAD_REACTORS
330
382
102
}
330
1F
100
AcDbEntity
  8
LC-001-002-----0
 62
     7
370
    50
100
AcDbLine
 10
364.205178
 20
303.39064
 30
0.0
 11
364.205135
 21
295.39064
 31
0.0
  0
LINE
  5
2C5
102
{ACAD_REACTORS
330
382
102
}
330
1F
100
AcDbEntity
  8
LC-001-002-----0
 62
     7
370
    50
100
AcDbLine
 10
364.205135
 20
295.39064
 30
0.0
 11
372.205135
 21
295.390598
 31
0.0
  0
LINE
  5
2C6
102
{ACAD_REACTORS
330
382
102
}
330
1F
100
AcDbEntity
  8
LC-001-002-----0
 62
     7
370
    50
100
AcDbLine
 10
382.205135
 20
295.390545
 30
0.0
 11
382.205178
 21
303.390545
 31
0.0
  0
LINE
  5
2C7
102
{ACAD_REACTORS
330
382
102
}
330
1F
100
AcDbEntity
  8
LC-001-002-----0
 62
     7
370
    50
100
AcDbLine
 10
382.205178
 20
303.390545
 30
0.0
 11
374.205178
 21
303.390587
 31
0.0
  0
LINE
  5
2C8
102
{ACAD_REACTORS
330
382
102
}
330
1F
100
AcDbEntity
  8
LC-001-002-----0
 62
     7
370
    50
100
AcDbLine
 10
374.205178
 20
303.390587
 30
0.0
 11
374.205135
 21
295.390587
 31
0.0
  0
LINE
  5
2C9
102
{ACAD_REACTORS
330
382
102
}
330
1F
100
AcDbEntity
  8
LC-001-002-----0
 62
     7
370
    50
100
AcDbLine
 10
374.205135
 20
295.390587
 30
0.0
 11
382.205135
 21
295.390545
 31
0.0
  0
LINE
  5
2CA
102
{ACAD_REACTORS
330
382
102
}
330
1F
100
AcDbEntity
  8
LC-001-002-----0
 62
     7
370
    50
100
AcDbLine
 10
390.205178
 20
303.390502
 30
0.0
 11
384.205178
 21
303.390534
 31
0.0
  0
LINE
  5
2CB
102
{ACAD_REACTORS
330
382
102
}
330
1F
100
AcDbEntity
  8
LC-001-002-----0
 62
     7
370
    50
100
AcDbLine
 10
384.205178
 20
303.390534
 30
0.0
 11
384.205135
 21
295.390534
 31
0.0
  0
LINE
  5
2CC
102
{ACAD_REACTORS
330
382
102
}
330
1F
100
AcDbEntity
  8
LC-001-002-----0
 62
     7
370
    50
100
AcDbLine
 10
384.205135
 20
295.390534
 30
0.0
 11
390.246874
 21
295.390502
 31
0.0
  0
LINE
  5
2CD
102
{ACAD_REACTORS
330
382
102
}
330
1F
100
AcDbEntity
  8
LC-001-002-----0
 62
     7
370
    50
100
AcDbLine
 10
422.205135
 20
295.390332
 30
0.0
 11
422.205178
 21
303.390332
 31
0.0
  0
LINE
  5
2CE
102
{ACAD_REACTORS
330
382
102
}
330
1F
100
AcDbEntity
  8
LC-001-002-----0
 62
     7
370
    50
100
AcDbLine
 10
422.205178
 20
303.390332
 30
0.0
 11
414.205178
 21
303.390375
 31
0.0
  0
LINE
  5
2CF
102
{ACAD_REACTORS
330
382
102
}
330
1F
100
AcDbEntity
  8
LC-001-002-----0
 62
     7
370
    50
100
AcDbLine
 10
414.205135
 20
295.390375
 30
0.0
 11
422.205135
 21
295.390332
 31
0.0
  0
LINE
  5
2D0
102
{ACAD_REACTORS
330
382
102
}
330
1F
100
AcDbEntity
  8
LC-001-002-----0
 62
     7
370
    50
100
AcDbLine
 10
432.205135
 20
295.390279
 30
0.0
 11
432.205178
 21
303.390279
 31
0.0
  0
LINE
  5
2D1
102
{ACAD_REACTORS
330
382
102
}
330
1F
100
AcDbEntity
  8
LC-001-002-----0
 62
     7
370
    50
100
AcDbLine
 10
432.205178
 20
303.390279
 30
0.0
 11
424.205178
 21
303.390322
 31
0.0
  0
LINE
  5
2D2
102
{ACAD_REACTORS
330
382
102
}
330
1F
100
AcDbEntity
  8
LC-001-002-----0
 62
     7
370
    50
100
AcDbLine
 10
424.205178
 20
303.390322
 30
0.0
 11
424.205135
 21
295.390322
 31
0.0
  0
LINE
  5
2D3
102
{ACAD_REACTORS
330
382
102
}
330
1F
100
AcDbEntity
  8
LC-001-002-----0
 62
     7
370
    50
100
AcDbLine
 10
424.205135
 20
295.390322
 30
0.0
 11
432.205135
 21
295.390279
 31
0.0
  0
LINE
  5
2D4
102
{ACAD_REACTORS
330
382
102
}
330
1F
100
AcDbEntity
  8
LC-001-002-----0
 62
     7
370
    50
100
AcDbLine
 10
442.205135
 20
295.390226
 30
0.0
 11
442.205178
 21
303.390226
 31
0.0
  0
LINE
  5
2D5
102
{ACAD_REACTORS
330
382
102
}
330
1F
100
AcDbEntity
  8
LC-001-002-----0
 62
     7
370
    50
100
AcDbLine
 10
442.205178
 20
303.390226
 30
0.0
 11
434.205178
 21
303.390269
 31
0.0
  0
LINE
  5
2D6
102
{ACAD_REACTORS
330
382
102
}
330
1F
100
AcDbEntity
  8
LC-001-002-----0
 62
     7
370
    50
100
AcDbLine
 10
434.205178
 20
303.390269
 30
0.0
 11
434.205135
 21
295.390269
 31
0.0
  0
LINE
  5
2D7
102
{ACAD_REACTORS
330
382
102
}
330
1F
100
AcDbEntity
  8
LC-001-002-----0
 62
     7
370
    50
100
AcDbLine
 10
434.205135
 20
295.390269
 30
0.0
 11
442.205135
 21
295.390226
 31
0.0
  0
LINE
  5
2D8
102
{ACAD_REACTORS
330
382
102
}
330
1F
100
AcDbEntity
  8
LC-001-002-----0
 62
     7
370
    50
100
AcDbLine
 10
452.205135
 20
295.390173
 30
0.0
 11
452.205178
 21
303.390173
 31
0.0
  0
LINE
  5
2D9
102
{ACAD_REACTORS
330
382
102
}
330
1F
100
AcDbEntity
  8
LC-001-002-----0
 62
     7
370
    50
100
AcDbLine
 10
452.205178
 20
303.390173
 30
0.0
 11
444.205178
 21
303.390216
 31
0.0
  0
LINE
  5
2DA
102
{ACAD_REACTORS
330
382
102
}
330
1F
100
AcDbEntity
  8
LC-001-002-----0
 62
     7
370
    50
100
AcDbLine
 10
444.205178
 20
303.390216
 30
0.0
 11
444.205135
 21
295.390216
 31
0.0
  0
LINE
  5
2DB
102
{ACAD_REACTORS
330
382
102
}
330
1F
100
AcDbEntity
  8
LC-001-002-----0
 62
     7
370
    50
100
AcDbLine
 10
444.205135
 20
295.390216
 30
0.0
 11
452.205135
 21
295.390173
 31
0.0
  0
ARC
  5
2DC
102
{ACAD_REACTORS
330
382
102
}
330
1F
100
AcDbEntity
  8
LC-001-002-----0
 62
     7
370
    50
100
AcDbCircle
 10
402.203699
 20
296.392036
 30
0.0
 40
12.00000000000157
100
AcDbArc
 50
179.999829
 51
359.999981
  0
DIMENSION
  5
2E0
330
1F
100
AcDbEntity
  8
LC-002-003-----0
 62
     7
370
    25
100
AcDbDimension
  2
*D1
 10
464.706667
 20
412.332462
 30
0.0
 11
331.177783
 21
443.132462
 31
0.0
 70
   160
  1
250
 71
     5
 42
250.5
  3
LC-DIM-L-0140-02-02
100
AcDbAlignedDimension
 13
214.206667
 23
394.392036
 33
0.0
 14
464.706667
 24
387.392036
 34
0.0
100
AcDbRotatedDimension
  0
DIMENSION
  5
2EE
330
1F
100
AcDbEntity
  8
LC-002-003-----0
 62
     7
370
    25
100
AcDbDimension
  2
*D2
 10
530.0
 20
214.392036
 30
0.0
 11
499.2
 21
303.00313
 31
0.0
 70
   160
 71
     5
 42
180.0
 53
90.0
  3
LC-DIM-L-0140-02-02
100
AcDbAlignedDimension
 13
457.706667
 23
394.392036
 33
0.0
 14
457.706667
 24
214.392036
 34
0.0
 50
90.0
100
AcDbRotatedDimension
  0
LINE
  5
2FB
330
1F
100
AcDbEntity
  8
LC-001-002-----0
 62
     7
370
    50
100
AcDbLine
 10
223.767588
 20
480.025224
 30
0.0
 11
464.767887
 21
480.025345
 31
0.0
  0
LINE
  5
2FC
330
1F
100
AcDbEntity
  8
LC-001-002-----0
 62
     7
370
    50
100
AcDbLine
 10
217.517588
 20
505.025224
 30
0.0
 11
471.017903
 21
505.02534
 31
0.0
  0
LINE
  5
2FD
330
1F
100
AcDbEntity
  8
LC-001-002-----0
 62
     7
370
    50
100
AcDbLine
 10
218.390075
 20
480.025221
 30
0.0
 11
470.144884
 21
480.025347
 31
0.0
  0
LINE
  5
2FE
330
1F
100
AcDbEntity
  8
LC-001-002-----0
 62
     7
370
    50
100
AcDbLine
 10
217.517588
 20
505.025224
 30
0.0
 11
471.017903
 21
505.02534
 31
0.0
  0
LINE
  5
2FF
330
1F
100
AcDbEntity
  8
LC-001-002-----0
 62
     7
370
    50
100
AcDbLine
 10
217.517588
 20
505.025224
 30
0.0
 11
218.390075
 21
480.040453
 31
0.0
  0
LINE
  5
300
330
1F
100
AcDbEntity
  8
LC-001-002-----0
 62
     7
370
    50
100
AcDbLine
 10
225.390075
 20
480.040453
 30
0.0
 11
225.948467
 21
496.030707
 31
0.0
  0
LINE
  5
301
330
1F
100
AcDbEntity
  8
LC-001-002-----0
 62
     7
370
    50
100
AcDbLine
 10
341.390075
 20
480.040453
 30
0.0
 11
340.831683
 21
496.030707
 31
0.0
  0
LINE
  5
302
330
1F
100
AcDbEntity
  8
LC-001-002-----0
 62
     7
370
    50
100
AcDbLine
 10
340.831683
 20
496.030707
 30
0.0
 11
225.948467
 21
496.030707
 31
0.0
  0
LINE
  5
303
330
1F
100
AcDbEntity
  8
LC-001-002-----0
 62
     7
370
    50
100
AcDbLine
 10
347.890075
 20
480.040453
 30
0.0
 11
348.448467
 21
496.030707
 31
0.0
  0
LINE
  5
304
330
1F
100
AcDbEntity
  8
LC-001-002-----0
 62
     7
370
    50
100
AcDbLine
 10
471.017903
 20
505.02534
 30
0.0
 11
470.459511
 21
489.035087
 31
0.0
  0
LINE
  5
305
330
1F
100
AcDbEntity
  8
LC-001-002-----0
 62
     7
370
    50
100
AcDbLine
 10
470.459511
 20
489.035087
 30
0.0
 11
470.145416
 21
480.04057
 31
0.0
  0
LINE
  5
306
330
1F
100
AcDbEntity
  8
LC-001-002-----0
 62
     7
370
    50
100
AcDbLine
 10
463.145416
 20
480.04057
 30
0.0
 11
462.587024
 21
496.030823
 31
0.0
  0
LINE
  5
307
330
1F
100
AcDbEntity
  8
LC-001-002-----0
 62
     7
370
    50
100
AcDbLine
 10
462.587024
 20
496.030823
 30
0.0
 11
348.448467
 21
496.030823
 31
0.0
  0
LINE
  5
308
330
1F
100
AcDbEntity
  8
LC-001-002-----0
 62
     7
370
    50
100
AcDbLine
 10
245.017588
 20
505.025224
 30
0.0
 11
244.703492
 21
496.030707
 31
0.0
  0
LINE
  5
309
102
{ACAD_REACTORS
330
401
102
}
330
1F
100
AcDbEntity
  8
LC-001-002-----0
 62
     7
370
    50
100
AcDbLine
 10
267.017588
 20
505.025224
 30
0.0
 11
266.703492
 21
496.030707
 31
0.0
  0
LINE
  5
30A
102
{ACAD_REACTORS
330
400
102
}
330
1F
100
AcDbEntity
  8
LC-001-002-----0
 62
     7
370
    50
100
AcDbLine
 10
289.017588
 20
505.025224
 30
0.0
 11
288.703492
 21
496.030707
 31
0.0
  0
LINE
  5
30B
102
{ACAD_REACTORS
330
3FF
102
}
330
1F
100
AcDbEntity
  8
LC-001-002-----0
 62
     7
370
    50
100
AcDbLine
 10
311.017588
 20
505.025224
 30
0.0
 11
310.703492
 21
496.030707
 31
0.0
  0
LINE
  5
30C
102
{ACAD_REACTORS
330
3FE
102
}
330
1F
100
AcDbEntity
  8
LC-001-002-----0
 62
     7
370
    50
100
AcDbLine
 10
333.017588
 20
505.025224
 30
0.0
 11
332.703492
 21
496.030707
 31
0.0
  0
INSERT
  5
336
330
1F
100
AcDbEntity
  8
LC-003-005-----0
 62
     7
370
    25
100
AcDbBlockReference
  2
*X13
 10
0.0
 20
0.0
 30
0.0
  0
LINE
  5
337
330
1F
100
AcDbEntity
  8
LC-001-002-----0
 62
     7
370
    50
100
AcDbLine
 10
457.017903
 20
504.02534
 30
0.0
 11
350.017903
 21
504.02534
 31
0.0
  0
LINE
  5
338
330
1F
100
AcDbEntity
  8
LC-001-002-----0
 62
     7
370
    50
100
AcDbLine
 10
457.017903
 20
505.02534
 30
0.0
 11
457.017903
 21
504.02534
 31
0.0
  0
LINE
  5
339
330
1F
100
AcDbEntity
  8
LC-001-002-----0
 62
     7
370
    50
100
AcDbLine
 10
350.017903
 20
504.02534
 30
0.0
 11
350.017903
 21
505.02534
 31
0.0
  0
INSERT
  5
363
330
1F
100
AcDbEntity
  8
LC-003-005-----0
 62
     7
370
    25
100
AcDbBlockReference
  2
*X24
 10
0.0
 20
0.0
 30
0.0
  0
LINE
  5
364
102
{ACAD_REACTORS
330
3FE
102
}
330
1F
100
AcDbEntity
  8
LC-001-002-----0
 62
     7
370
    50
100
AcDbLine
 10
322.017588
 20
505.025224
 30
0.0
 11
322.331683
 21
496.030707
 31
0.0
  0
LINE
  5
365
102
{ACAD_REACTORS
330
3FF
102
}
330
1F
100
AcDbEntity
  8
LC-001-002-----0
 62
     7
370
    50
100
AcDbLine
 10
300.017588
 20
505.025224
 30
0.0
 11
300.331683
 21
496.030707
 31
0.0
  0
LINE
  5
366
102
{ACAD_REACTORS
330
400
102
}
330
1F
100
AcDbEntity
  8
LC-001-002-----0
 62
     7
370
    50
100
AcDbLine
 10
278.017588
 20
505.025224
 30
0.0
 11
278.331683
 21
496.030707
 31
0.0
  0
LINE
  5
367
102
{ACAD_REACTORS
330
401
102
}
330
1F
100
AcDbEntity
  8
LC-001-002-----0
 62
     7
370
    50
100
AcDbLine
 10
256.017588
 20
505.025224
 30
0.0
 11
256.331683
 21
496.030707
 31
0.0
  0
LINE
  5
368
330
1F
100
AcDbEntity
  8
LC-001-002-----0
 62
     7
370
    50
100
AcDbLine
 10
234.017588
 20
505.025224
 30
0.0
 11
234.331683
 21
496.030707
 31
0.0
  0
LINE
  5
36A
330
1F
100
AcDbEntity
  8
LC-001-002-----0
  6
DASHDOT
 62
     7
370
    25
100
AcDbLine
 10
344.267322
 20
480.025284
 30
0.0
 11
344.267322
 21
504.02534
 31
0.0
  0
DIMENSION
  5
36B
330
1F
100
AcDbEntity
  8
LC-002-003-----0
 62
     7
370
    25
100
AcDbDimension
  2
*D5
 10
184.167682
 20
505.025224
 30
0.0
 11
153.367682
 21
461.634462
 31
0.0
 70
   160
  1
24
 71
     5
 42
25.000003
 53
90.0
  3
LC-DIM-L-0140-02-02
100
AcDbAlignedDimension
 13
218.390075
 23
480.025221
 33
0.0
 14
217.517588
 24
505.025224
 34
0.0
 50
90.0
100
AcDbRotatedDimension
  0
ENDSEC
  0
SECTION
  2
OBJECTS
  0
DICTIONARY
  5
C
330
0
100
AcDbDictionary
281
     1
  3
ACAD_GROUP
350
D
  3
ACAD_LAYOUT
350
1A
  3
ACAD_MLINESTYLE
350
17
  3
ACAD_PLOTSETTINGS
350
19
  3
ACAD_PLOTSTYLENAME
350
E
  0
DICTIONARY
  5
D
102
{ACAD_REACTORS
330
C
102
}
330
C
100
AcDbDictionary
281
     1
  3
LCGROUP102
350
3DE
  3
LCGROUP106
350
3DD
  3
LCGROUP108
350
3DC
  3
LCGROUP112
350
3EE
  3
LCGROUP114
350
3ED
  3
LCGROUP118
350
3EC
  3
LCGROUP120
350
3EB
  3
LCGROUP124
350
3EA
  3
LCGROUP126
350
3E9
  3
LCGROUP130
350
3FD
  3
LCGROUP132
350
3FC
  3
LCGROUP136
350
3FB
  3
LCGROUP138
350
3FA
  3
LCGROUP142
350
3F9
  3
LCGROUP144
350
410
  3
LCGROUP148
350
40F
  3
LCGROUP150
350
40E
  3
LCGROUP154
350
40D
  3
LCGROUP157
350
40C
  3
LCGROUP162
350
421
  3
LCGROUP166
350
420
  3
LCGROUP168
350
41F
  3
LCGROUP172
350
41E
  3
LCGROUP174
350
41D
  3
LCGROUP178
350
42F
  3
LCGROUP18
350
398
  3
LCGROUP180
350
42E
  3
LCGROUP184
350
42D
  3
LCGROUP186
350
42C
  3
LCGROUP190
350
42B
  3
LCGROUP192
350
43E
  3
LCGROUP196
350
43D
  3
LCGROUP198
350
43C
  3
LCGROUP202
350
43B
  3
LCGROUP204
350
43A
  3
LCGROUP208
350
44E
  3
LCGROUP210
350
44D
  3
LCGROUP214
350
44C
  3
LCGROUP216
350
44B
  3
LCGROUP221
350
44A
  3
LCGROUP225
350
45E
  3
LCGROUP227
350
45D
  3
LCGROUP23
350
397
  3
LCGROUP231
350
45C
  3
LCGROUP233
350
45B
  3
LCGROUP237
350
45A
  3
LCGROUP239
350
459
  3
LCGROUP243
350
46E
  3
LCGROUP245
350
46D
  3
LCGROUP249
350
46C
  3
LCGROUP251
350
46B
  3
LCGROUP255
350
46A
  3
LCGROUP257
350
47D
  3
LCGROUP261
350
47C
  3
LCGROUP263
350
47B
  3
LCGROUP267
350
47A
  3
LCGROUP269
350
479
  3
LCGROUP273
350
387
  3
LCGROUP275
350
386
  3
LCGROUP28
350
396
  3
LCGROUP280
350
385
  3
LCGROUP284
350
384
  3
LCGROUP286
350
383
  3
LCGROUP290
350
395
  3
LCGROUP292
350
394
  3
LCGROUP296
350
393
  3
LCGROUP298
350
392
  3
LCGROUP302
350
391
  3
LCGROUP304
350
3A7
  3
LCGROUP308
350
3A6
  3
LCGROUP310
350
3A5
  3
LCGROUP314
350
3A4
  3
LCGROUP316
350
3A3
  3
LCGROUP320
350
3B6
  3
LCGROUP322
350
3B5
  3
LCGROUP326
350
3B4
  3
LCGROUP328
350
3B3
  3
LCGROUP33
350
3AA
  3
LCGROUP332
350
3B2
  3
LCGROUP334
350
3B1
  3
LCGROUP339
350
3C2
  3
LCGROUP343
350
3C1
  3
LCGROUP345
350
3C0
  3
LCGROUP349
350
3BF
  3
LCGROUP351
350
3BE
  3
LCGROUP355
350
3CF
  3
LCGROUP357
350
3CE
  3
LCGROUP361
350
3CD
  3
LCGROUP363
350
3CC
  3
LCGROUP367
350
3CB
  3
LCGROUP369
350
3DB
  3
LCGROUP373
350
3DA
  3
LCGROUP375
350
3D9
  3
LCGROUP379
350
3D8
  3
LCGROUP38
350
3A9
  3
LCGROUP381
350
3D7
  3
LCGROUP385
350
3E8
  3
LCGROUP387
350
3E7
  3
LCGROUP391
350
3E6
  3
LCGROUP393
350
3E5
  3
LCGROUP398
350
3E4
  3
LCGROUP402
350
3F8
  3
LCGROUP404
350
3F7
  3
LCGROUP408
350
3F6
  3
LCGROUP410
350
3F5
  3
LCGROUP414
350
3F4
  3
LCGROUP416
350
40B
  3
LCGROUP420
350
40A
  3
LCGROUP422
350
409
  3
LCGROUP426
350
408
  3
LCGROUP428
350
407
  3
LCGROUP43
350
3A8
  3
LCGROUP432
350
41C
  3
LCGROUP434
350
41B
  3
LCGROUP438
350
41A
  3
LCGROUP440
350
419
  3
LCGROUP444
350
418
  3
LCGROUP446
350
417
  3
LCGROUP450
350
42A
  3
LCGROUP452
350
429
  3
LCGROUP457
350
428
  3
LCGROUP461
350
427
  3
LCGROUP463
350
426
  3
LCGROUP467
350
439
  3
LCGROUP469
350
438
  3
LCGROUP473
350
437
  3
LCGROUP475
350
436
  3
LCGROUP479
350
435
  3
LCGROUP48
350
3B9
  3
LCGROUP481
350
449
  3
LCGROUP485
350
448
  3
LCGROUP487
350
447
  3
LCGROUP491
350
446
  3
LCGROUP493
350
445
  3
LCGROUP497
350
458
  3
LCGROUP499
350
457
  3
LCGROUP504
350
456
  3
LCGROUP508
350
455
  3
LCGROUP510
350
454
  3
LCGROUP514
350
469
  3
LCGROUP516
350
468
  3
LCGROUP519
350
467
  3
LCGROUP521
350
466
  3
LCGROUP524
350
465
  3
LCGROUP526
350
464
  3
LCGROUP530
350
478
  3
LCGROUP532
350
477
  3
LCGROUP536
350
476
  3
LCGROUP538
350
475
  3
LCGROUP542
350
474
  3
LCGROUP545
350
382
  3
LCGROUP553
350
381
  3
LCGROUP557
350
380
  3
LCGROUP559
350
37F
  3
LCGROUP56
350
3B8
  3
LCGROUP563
350
390
  3
LCGROUP565
350
38F
  3
LCGROUP569
350
38E
  3
LCGROUP571
350
38D
  3
LCGROUP575
350
38C
  3
LCGROUP577
350
3A2
  3
LCGROUP581
350
3A1
  3
LCGROUP583
350
3A0
  3
LCGROUP587
350
39F
  3
LCGROUP589
350
39E
  3
LCGROUP593
350
3B0
  3
LCGROUP595
350
3AF
  3
LCGROUP599
350
3AE
  3
LCGROUP601
350
3AD
  3
LCGROUP605
350
3AC
  3
LCGROUP607
350
3AB
  3
LCGROUP61
350
3B7
  3
LCGROUP612
350
3BD
  3
LCGROUP616
350
3BC
  3
LCGROUP618
350
3BB
  3
LCGROUP622
350
3BA
  3
LCGROUP624
350
3CA
  3
LCGROUP628
350
3C9
  3
LCGROUP630
350
3C8
  3
LCGROUP634
350
3C7
  3
LCGROUP636
350
3C6
  3
LCGROUP640
350
3D6
  3
LCGROUP642
350
3D5
  3
LCGROUP646
350
3D4
  3
LCGROUP648
350
3D3
  3
LCGROUP652
350
3D2
  3
LCGROUP654
350
3D1
  3
LCGROUP658
350
3E3
  3
LCGROUP66
350
3C5
  3
LCGROUP660
350
3E2
  3
LCGROUP664
350
3E1
  3
LCGROUP666
350
3E0
  3
LCGROUP671
350
3DF
  3
LCGROUP675
350
3F3
  3
LCGROUP677
350
3F2
  3
LCGROUP681
350
3F1
  3
LCGROUP683
350
3F0
  3
LCGROUP687
350
3EF
  3
LCGROUP689
350
406
  3
LCGROUP693
350
405
  3
LCGROUP695
350
404
  3
LCGROUP699
350
403
  3
LCGROUP701
350
402
  3
LCGROUP705
350
416
  3
LCGROUP707
350
415
  3
LCGROUP71
350
3C4
  3
LCGROUP711
350
414
  3
LCGROUP713
350
413
  3
LCGROUP717
350
412
  3
LCGROUP719
350
411
  3
LCGROUP723
350
425
  3
LCGROUP725
350
424
  3
LCGROUP730
350
423
  3
LCGROUP734
350
422
  3
LCGROUP736
350
434
  3
LCGROUP740
350
433
  3
LCGROUP742
350
432
  3
LCGROUP746
350
431
  3
LCGROUP748
350
430
  3
LCGROUP752
350
444
  3
LCGROUP754
350
443
  3
LCGROUP758
350
442
  3
LCGROUP76
350
3C3
  3
LCGROUP760
350
441
  3
LCGROUP764
350
440
  3
LCGROUP766
350
43F
  3
LCGROUP770
350
453
  3
LCGROUP772
350
452
  3
LCGROUP776
350
451
  3
LCGROUP778
350
450
  3
LCGROUP782
350
44F
  3
LCGROUP784
350
463
  3
LCGROUP789
350
462
  3
LCGROUP793
350
461
  3
LCGROUP795
350
460
  3
LCGROUP799
350
45F
  3
LCGROUP801
350
473
  3
LCGROUP805
350
472
  3
LCGROUP807
350
471
  3
LCGROUP81
350
3D0
  3
LCGROUP811
350
470
  3
LCGROUP813
350
46F
  3
LCGROUP817
350
37E
  3
LCGROUP819
350
37D
  3
LCGROUP823
350
37C
  3
LCGROUP825
350
37B
  3
LCGROUP829
350
37A
  3
LCGROUP831
350
379
  3
LCGROUP835
350
38B
  3
LCGROUP837
350
38A
  3
LCGROUP841
350
389
  3
LCGROUP843
350
388
  3
LCGROUP848
350
39D
  3
LCGROUP852
350
39C
  3
LCGROUP854
350
39B
  3
LCGROUP858
350
39A
  3
LCGROUP860
350
399
  3
LCGROUP967
350
401
  3
LCGROUP969
350
400
  3
LCGROUP971
350
3FF
  3
LCGROUP973
350
3FE
  0
DICTIONARY
  5
1A
102
{ACAD_REACTORS
330
C
102
}
330
C
100
AcDbDictionary
281
     1
  3
Layout1
350
1E
  3
Layout2
350
26
  3
Model
350
22
  0
DICTIONARY
  5
17
102
{ACAD_REACTORS
330
C
102
}
330
C
100
AcDbDictionary
281
     1
  3
Standard
350
18
  0
DICTIONARY
  5
19
102
{ACAD_REACTORS
330
C
102
}
330
C
100
AcDbDictionary
281
     1
  0
ACDBDICTIONARYWDFLT
  5
E
102
{ACAD_REACTORS
330
C
102
}
330
C
100
AcDbDictionary
281
     1
  3
Normal
350
F
100
AcDbDictionaryWithDefault
340
F
  0
GROUP
  5
3DE
102
{ACAD_REACTORS
330
D
102
}
330
D
100
AcDbGroup
300
GRP102
 70
     1
 71
     1
340
7F
340
80
340
81
  0
GROUP
  5
3DD
102
{ACAD_REACTORS
330
D
102
}
330
D
100
AcDbGroup
300
GRP106
 70
     1
 71
     1
340
82
  0
GROUP
  5
3DC
102
{ACAD_REACTORS
330
D
102
}
330
D
100
AcDbGroup
300
GRP108
 70
     1
 71
     1
340
83
340
84
340
85
  0
GROUP
  5
3EE
102
{ACAD_REACTORS
330
D
102
}
330
D
100
AcDbGroup
300
GRP112
 70
     1
 71
     1
340
86
  0
GROUP
  5
3ED
102
{ACAD_REACTORS
330
D
102
}
330
D
100
AcDbGroup
300
GRP114
 70
     1
 71
     1
340
87
340
88
340
89
  0
GROUP
  5
3EC
102
{ACAD_REACTORS
330
D
102
}
330
D
100
AcDbGroup
300
GRP118
 70
     1
 71
     1
340
8A
  0
GROUP
  5
3EB
102
{ACAD_REACTORS
330
D
102
}
330
D
100
AcDbGroup
300
GRP120
 70
     1
 71
     1
340
8B
340
8C
340
8D
  0
GROUP
  5
3EA
102
{ACAD_REACTORS
330
D
102
}
330
D
100
AcDbGroup
300
GRP124
 70
     1
 71
     1
340
8E
  0
GROUP
  5
3E9
102
{ACAD_REACTORS
330
D
102
}
330
D
100
AcDbGroup
300
GRP126
 70
     1
 71
     1
340
8F
340
90
340
91
  0
GROUP
  5
3FD
102
{ACAD_REACTORS
330
D
102
}
330
D
100
AcDbGroup
300
GRP130
 70
     1
 71
     1
340
92
  0
GROUP
  5
3FC
102
{ACAD_REACTORS
330
D
102
}
330
D
100
AcDbGroup
300
GRP132
 70
     1
 71
     1
340
93
340
94
340
95
  0
GROUP
  5
3FB
102
{ACAD_REACTORS
330
D
102
}
330
D
100
AcDbGroup
300
GRP136
 70
     1
 71
     1
340
96
  0
GROUP
  5
3FA
102
{ACAD_REACTORS
330
D
102
}
330
D
100
AcDbGroup
300
GRP138
 70
     1
 71
     1
340
97
340
98
340
99
  0
GROUP
  5
3F9
102
{ACAD_REACTORS
330
D
102
}
330
D
100
AcDbGroup
300
GRP142
 70
     1
 71
     1
340
9A
  0
GROUP
  5
410
102
{ACAD_REACTORS
330
D
102
}
330
D
100
AcDbGroup
300
GRP144
 70
     1
 71
     1
340
9B
340
9C
340
9D
  0
GROUP
  5
40F
102
{ACAD_REACTORS
330
D
102
}
330
D
100
AcDbGroup
300
GRP148
 70
     1
 71
     1
340
9E
  0
GROUP
  5
40E
102
{ACAD_REACTORS
330
D
102
}
330
D
100
AcDbGroup
300
GRP150
 70
     1
 71
     1
340
9F
340
A0
340
A1
  0
GROUP
  5
40D
102
{ACAD_REACTORS
330
D
102
}
330
D
100
AcDbGroup
300
GRP154
 70
     1
 71
     1
340
A2
  0
GROUP
  5
40C
102
{ACAD_REACTORS
330
D
102
}
330
D
100
AcDbGroup
300
GRP157
 70
     1
 71
     1
340
A4
340
A5
340
A6
340
A7
  0
GROUP
  5
421
102
{ACAD_REACTORS
330
D
102
}
330
D
100
AcDbGroup
300
GRP162
 70
     1
 71
     1
340
A8
340
A9
340
AA
  0
GROUP
  5
420
102
{ACAD_REACTORS
330
D
102
}
330
D
100
AcDbGroup
300
GRP166
 70
     1
 71
     1
340
AB
  0
GROUP
  5
41F
102
{ACAD_REACTORS
330
D
102
}
330
D
100
AcDbGroup
300
GRP168
 70
     1
 71
     1
340
AC
340
AD
340
AE
  0
GROUP
  5
41E
102
{ACAD_REACTORS
330
D
102
}
330
D
100
AcDbGroup
300
GRP172
 70
     1
 71
     1
340
AF
  0
GROUP
  5
41D
102
{ACAD_REACTORS
330
D
102
}
330
D
100
AcDbGroup
300
GRP174
 70
     1
 71
     1
340
B0
340
B1
340
B2
  0
GROUP
  5
42F
102
{ACAD_REACTORS
330
D
102
}
330
D
100
AcDbGroup
300
GRP178
 70
     1
 71
     1
340
B3
  0
GROUP
  5
398
102
{ACAD_REACTORS
330
D
102
}
330
D
100
AcDbGroup
300
GRP18
 70
     1
 71
     1
340
38
340
39
340
3A
340
3B
  0
GROUP
  5
42E
102
{ACAD_REACTORS
330
D
102
}
330
D
100
AcDbGroup
300
GRP180
 70
     1
 71
     1
340
B4
340
B5
340
B6
  0
GROUP
  5
42D
102
{ACAD_REACTORS
330
D
102
}
330
D
100
AcDbGroup
300
GRP184
 70
     1
 71
     1
340
B7
  0
GROUP
  5
42C
102
{ACAD_REACTORS
330
D
102
}
330
D
100
AcDbGroup
300
GRP186
 70
     1
 71
     1
340
B8
340
B9
340
BA
  0
GROUP
  5
42B
102
{ACAD_REACTORS
330
D
102
}
330
D
100
AcDbGroup
300
GRP190
 70
     1
 71
     1
340
BB
  0
GROUP
  5
43E
102
{ACAD_REACTORS
330
D
102
}
330
D
100
AcDbGroup
300
GRP192
 70
     1
 71
     1
340
BC
340
BD
340
BE
  0
GROUP
  5
43D
102
{ACAD_REACTORS
330
D
102
}
330
D
100
AcDbGroup
300
GRP196
 70
     1
 71
     1
340
BF
  0
GROUP
  5
43C
102
{ACAD_REACTORS
330
D
102
}
330
D
100
AcDbGroup
300
GRP198
 70
     1
 71
     1
340
C0
340
C1
340
C2
  0
GROUP
  5
43B
102
{ACAD_REACTORS
330
D
102
}
330
D
100
AcDbGroup
300
GRP202
 70
     1
 71
     1
340
C3
  0
GROUP
  5
43A
102
{ACAD_REACTORS
330
D
102
}
330
D
100
AcDbGroup
300
GRP204
 70
     1
 71
     1
340
C4
340
C5
340
C6
  0
GROUP
  5
44E
102
{ACAD_REACTORS
330
D
102
}
330
D
100
AcDbGroup
300
GRP208
 70
     1
 71
     1
340
C7
  0
GROUP
  5
44D
102
{ACAD_REACTORS
330
D
102
}
330
D
100
AcDbGroup
300
GRP210
 70
     1
 71
     1
340
C8
340
C9
340
CA
  0
GROUP
  5
44C
102
{ACAD_REACTORS
330
D
102
}
330
D
100
AcDbGroup
300
GRP214
 70
     1
 71
     1
340
CB
  0
GROUP
  5
44B
102
{ACAD_REACTORS
330
D
102
}
330
D
100
AcDbGroup
300
GRP216
 70
     1
 71
     1
340
CC
340
CD
340
CE
340
CF
  0
GROUP
  5
44A
102
{ACAD_REACTORS
330
D
102
}
330
D
100
AcDbGroup
300
GRP221
 70
     1
 71
     1
340
D0
340
D1
340
D2
  0
GROUP
  5
45E
102
{ACAD_REACTORS
330
D
102
}
330
D
100
AcDbGroup
300
GRP225
 70
     1
 71
     1
340
D3
  0
GROUP
  5
45D
102
{ACAD_REACTORS
330
D
102
}
330
D
100
AcDbGroup
300
GRP227
 70
     1
 71
     1
340
D4
340
D5
340
D6
  0
GROUP
  5
397
102
{ACAD_REACTORS
330
D
102
}
330
D
100
AcDbGroup
300
GRP23
 70
     1
 71
     1
340
3C
340
3D
340
3E
340
3F
  0
GROUP
  5
45C
102
{ACAD_REACTORS
330
D
102
}
330
D
100
AcDbGroup
300
GRP231
 70
     1
 71
     1
340
D7
  0
GROUP
  5
45B
102
{ACAD_REACTORS
330
D
102
}
330
D
100
AcDbGroup
300
GRP233
 70
     1
 71
     1
340
D8
340
D9
340
DA
  0
GROUP
  5
45A
102
{ACAD_REACTORS
330
D
102
}
330
D
100
AcDbGroup
300
GRP237
 70
     1
 71
     1
340
DB
  0
GROUP
  5
459
102
{ACAD_REACTORS
330
D
102
}
330
D
100
AcDbGroup
300
GRP239
 70
     1
 71
     1
340
DC
340
DD
340
DE
  0
GROUP
  5
46E
102
{ACAD_REACTORS
330
D
102
}
330
D
100
AcDbGroup
300
GRP243
 70
     1
 71
     1
340
DF
  0
GROUP
  5
46D
102
{ACAD_REACTORS
330
D
102
}
330
D
100
AcDbGroup
300
GRP245
 70
     1
 71
     1
340
E0
340
E1
340
E2
  0
GROUP
  5
46C
102
{ACAD_REACTORS
330
D
102
}
330
D
100
AcDbGroup
300
GRP249
 70
     1
 71
     1
340
E3
  0
GROUP
  5
46B
102
{ACAD_REACTORS
330
D
102
}
330
D
100
AcDbGroup
300
GRP251
 70
     1
 71
     1
340
E4
340
E5
340
E6
  0
GROUP
  5
46A
102
{ACAD_REACTORS
330
D
102
}
330
D
100
AcDbGroup
300
GRP255
 70
     1
 71
     1
340
E7
  0
GROUP
  5
47D
102
{ACAD_REACTORS
330
D
102
}
330
D
100
AcDbGroup
300
GRP257
 70
     1
 71
     1
340
E8
340
E9
340
EA
  0
GROUP
  5
47C
102
{ACAD_REACTORS
330
D
102
}
330
D
100
AcDbGroup
300
GRP261
 70
     1
 71
     1
340
EB
  0
GROUP
  5
47B
102
{ACAD_REACTORS
330
D
102
}
330
D
100
AcDbGroup
300
GRP263
 70
     1
 71
     1
340
EC
340
ED
340
EE
  0
GROUP
  5
47A
102
{ACAD_REACTORS
330
D
102
}
330
D
100
AcDbGroup
300
GRP267
 70
     1
 71
     1
340
EF
  0
GROUP
  5
479
102
{ACAD_REACTORS
330
D
102
}
330
D
100
AcDbGroup
300
GRP269
 70
     1
 71
     1
340
F0
340
F1
340
F2
  0
GROUP
  5
387
102
{ACAD_REACTORS
330
D
102
}
330
D
100
AcDbGroup
300
GRP273
 70
     1
 71
     1
340
F3
  0
GROUP
  5
386
102
{ACAD_REACTORS
330
D
102
}
330
D
100
AcDbGroup
300
GRP275
 70
     1
 71
     1
340
F4
340
F5
340
F6
340
F7
  0
GROUP
  5
396
102
{ACAD_REACTORS
330
D
102
}
330
D
100
AcDbGroup
300
GRP28
 70
     1
 71
     1
340
40
340
41
340
42
340
43
  0
GROUP
  5
385
102
{ACAD_REACTORS
330
D
102
}
330
D
100
AcDbGroup
300
GRP280
 70
     1
 71
     1
340
F8
340
F9
340
FA
  0
GROUP
  5
384
102
{ACAD_REACTORS
330
D
102
}
330
D
100
AcDbGroup
300
GRP284
 70
     1
 71
     1
340
FB
  0
GROUP
  5
383
102
{ACAD_REACTORS
330
D
102
}
330
D
100
AcDbGroup
300
GRP286
 70
     1
 71
     1
340
FC
340
FD
340
FE
  0
GROUP
  5
395
102
{ACAD_REACTORS
330
D
102
}
330
D
100
AcDbGroup
300
GRP290
 70
     1
 71
     1
340
FF
  0
GROUP
  5
394
102
{ACAD_REACTORS
330
D
102
}
330
D
100
AcDbGroup
300
GRP292
 70
     1
 71
     1
340
100
340
101
340
102
  0
GROUP
  5
393
102
{ACAD_REACTORS
330
D
102
}
330
D
100
AcDbGroup
300
GRP296
 70
     1
 71
     1
340
103
  0
GROUP
  5
392
102
{ACAD_REACTORS
330
D
102
}
330
D
100
AcDbGroup
300
GRP298
 70
     1
 71
     1
340
104
340
105
340
106
  0
GROUP
  5
391
102
{ACAD_REACTORS
330
D
102
}
330
D
100
AcDbGroup
300
GRP302
 70
     1
 71
     1
340
107
  0
GROUP
  5
3A7
102
{ACAD_REACTORS
330
D
102
}
330
D
100
AcDbGroup
300
GRP304
 70
     1
 71
     1
340
108
340
109
340
10A
  0
GROUP
  5
3A6
102
{ACAD_REACTORS
330
D
102
}
330
D
100
AcDbGroup
300
GRP308
 70
     1
 71
     1
340
10B
  0
GROUP
  5
3A5
102
{ACAD_REACTORS
330
D
102
}
330
D
100
AcDbGroup
300
GRP310
 70
     1
 71
     1
340
10C
340
10D
340
10E
  0
GROUP
  5
3A4
102
{ACAD_REACTORS
330
D
102
}
330
D
100
AcDbGroup
300
GRP314
 70
     1
 71
     1
340
10F
  0
GROUP
  5
3A3
102
{ACAD_REACTORS
330
D
102
}
330
D
100
AcDbGroup
300
GRP316
 70
     1
 71
     1
340
110
340
111
340
112
  0
GROUP
  5
3B6
102
{ACAD_REACTORS
330
D
102
}
330
D
100
AcDbGroup
300
GRP320
 70
     1
 71
     1
340
113
  0
GROUP
  5
3B5
102
{ACAD_REACTORS
330
D
102
}
330
D
100
AcDbGroup
300
GRP322
 70
     1
 71
     1
340
114
340
115
340
116
  0
GROUP
  5
3B4
102
{ACAD_REACTORS
330
D
102
}
330
D
100
AcDbGroup
300
GRP326
 70
     1
 71
     1
340
117
  0
GROUP
  5
3B3
102
{ACAD_REACTORS
330
D
102
}
330
D
100
AcDbGroup
300
GRP328
 70
     1
 71
     1
340
118
340
119
340
11A
  0
GROUP
  5
3AA
102
{ACAD_REACTORS
330
D
102
}
330
D
100
AcDbGroup
300
GRP33
 70
     1
 71
     1
340
44
340
45
340
46
340
47
  0
GROUP
  5
3B2
102
{ACAD_REACTORS
330
D
102
}
330
D
100
AcDbGroup
300
GRP332
 70
     1
 71
     1
340
11B
  0
GROUP
  5
3B1
102
{ACAD_REACTORS
330
D
102
}
330
D
100
AcDbGroup
300
GRP334
 70
     1
 71
     1
340
11C
340
11D
340
11E
340
11F
  0
GROUP
  5
3C2
102
{ACAD_REACTORS
330
D
102
}
330
D
100
AcDbGroup
300
GRP339
 70
     1
 71
     1
340
120
340
121
340
122
  0
GROUP
  5
3C1
102
{ACAD_REACTORS
330
D
102
}
330
D
100
AcDbGroup
300
GRP343
 70
     1
 71
     1
340
123
  0
GROUP
  5
3C0
102
{ACAD_REACTORS
330
D
102
}
330
D
100
AcDbGroup
300
GRP345
 70
     1
 71
     1
340
124
340
125
340
126
  0
GROUP
  5
3BF
102
{ACAD_REACTORS
330
D
102
}
330
D
100
AcDbGroup
300
GRP349
 70
     1
 71
     1
340
127
  0
GROUP
  5
3BE
102
{ACAD_REACTORS
330
D
102
}
330
D
100
AcDbGroup
300
GRP351
 70
     1
 71
     1
340
128
340
129
340
12A
  0
GROUP
  5
3CF
102
{ACAD_REACTORS
330
D
102
}
330
D
100
AcDbGroup
300
GRP355
 70
     1
 71
     1
340
12B
  0
GROUP
  5
3CE
102
{ACAD_REACTORS
330
D
102
}
330
D
100
AcDbGroup
300
GRP357
 70
     1
 71
     1
340
12C
340
12D
340
12E
  0
GROUP
  5
3CD
102
{ACAD_REACTORS
330
D
102
}
330
D
100
AcDbGroup
300
GRP361
 70
     1
 71
     1
340
12F
  0
GROUP
  5
3CC
102
{ACAD_REACTORS
330
D
102
}
330
D
100
AcDbGroup
300
GRP363
 70
     1
 71
     1
340
130
340
131
340
132
  0
GROUP
  5
3CB
102
{ACAD_REACTORS
330
D
102
}
330
D
100
AcDbGroup
300
GRP367
 70
     1
 71
     1
340
133
  0
GROUP
  5
3DB
102
{ACAD_REACTORS
330
D
102
}
330
D
100
AcDbGroup
300
GRP369
 70
     1
 71
     1
340
134
340
135
340
136
  0
GROUP
  5
3DA
102
{ACAD_REACTORS
330
D
102
}
330
D
100
AcDbGroup
300
GRP373
 70
     1
 71
     1
340
137
  0
GROUP
  5
3D9
102
{ACAD_REACTORS
330
D
102
}
330
D
100
AcDbGroup
300
GRP375
 70
     1
 71
     1
340
138
340
139
340
13A
  0
GROUP
  5
3D8
102
{ACAD_REACTORS
330
D
102
}
330
D
100
AcDbGroup
300
GRP379
 70
     1
 71
     1
340
13B
  0
GROUP
  5
3A9
102
{ACAD_REACTORS
330
D
102
}
330
D
100
AcDbGroup
300
GRP38
 70
     1
 71
     1
340
48
340
49
340
4A
340
4B
  0
GROUP
  5
3D7
102
{ACAD_REACTORS
330
D
102
}
330
D
100
AcDbGroup
300
GRP381
 70
     1
 71
     1
340
13C
340
13D
340
13E
  0
GROUP
  5
3E8
102
{ACAD_REACTORS
330
D
102
}
330
D
100
AcDbGroup
300
GRP385
 70
     1
 71
     1
340
13F
  0
GROUP
  5
3E7
102
{ACAD_REACTORS
330
D
102
}
330
D
100
AcDbGroup
300
GRP387
 70
     1
 71
     1
340
140
340
141
340
142
  0
GROUP
  5
3E6
102
{ACAD_REACTORS
330
D
102
}
330
D
100
AcDbGroup
300
GRP391
 70
     1
 71
     1
340
143
  0
GROUP
  5
3E5
102
{ACAD_REACTORS
330
D
102
}
330
D
100
AcDbGroup
300
GRP393
 70
     1
 71
     1
340
144
340
145
340
146
340
147
  0
GROUP
  5
3E4
102
{ACAD_REACTORS
330
D
102
}
330
D
100
AcDbGroup
300
GRP398
 70
     1
 71
     1
340
148
340
149
340
14A
  0
GROUP
  5
3F8
102
{ACAD_REACTORS
330
D
102
}
330
D
100
AcDbGroup
300
GRP402
 70
     1
 71
     1
340
14B
  0
GROUP
  5
3F7
102
{ACAD_REACTORS
330
D
102
}
330
D
100
AcDbGroup
300
GRP404
 70
     1
 71
     1
340
14C
340
14D
340
14E
  0
GROUP
  5
3F6
102
{ACAD_REACTORS
330
D
102
}
330
D
100
AcDbGroup
300
GRP408
 70
     1
 71
     1
340
14F
  0
GROUP
  5
3F5
102
{ACAD_REACTORS
330
D
102
}
330
D
100
AcDbGroup
300
GRP410
 70
     1
 71
     1
340
150
340
151
340
152
  0
GROUP
  5
3F4
102
{ACAD_REACTORS
330
D
102
}
330
D
100
AcDbGroup
300
GRP414
 70
     1
 71
     1
340
153
  0
GROUP
  5
40B
102
{ACAD_REACTORS
330
D
102
}
330
D
100
AcDbGroup
300
GRP416
 70
     1
 71
     1
340
154
340
155
340
156
  0
GROUP
  5
40A
102
{ACAD_REACTORS
330
D
102
}
330
D
100
AcDbGroup
300
GRP420
 70
     1
 71
     1
340
157
  0
GROUP
  5
409
102
{ACAD_REACTORS
330
D
102
}
330
D
100
AcDbGroup
300
GRP422
 70
     1
 71
     1
340
158
340
159
340
15A
  0
GROUP
  5
408
102
{ACAD_REACTORS
330
D
102
}
330
D
100
AcDbGroup
300
GRP426
 70
     1
 71
     1
340
15B
  0
GROUP
  5
407
102
{ACAD_REACTORS
330
D
102
}
330
D
100
AcDbGroup
300
GRP428
 70
     1
 71
     1
340
15C
340
15D
340
15E
  0
GROUP
  5
3A8
102
{ACAD_REACTORS
330
D
102
}
330
D
100
AcDbGroup
300
GRP43
 70
     1
 71
     1
340
4C
340
4D
340
4E
340
4F
  0
GROUP
  5
41C
102
{ACAD_REACTORS
330
D
102
}
330
D
100
AcDbGroup
300
GRP432
 70
     1
 71
     1
340
15F
  0
GROUP
  5
41B
102
{ACAD_REACTORS
330
D
102
}
330
D
100
AcDbGroup
300
GRP434
 70
     1
 71
     1
340
160
340
161
340
162
  0
GROUP
  5
41A
102
{ACAD_REACTORS
330
D
102
}
330
D
100
AcDbGroup
300
GRP438
 70
     1
 71
     1
340
163
  0
GROUP
  5
419
102
{ACAD_REACTORS
330
D
102
}
330
D
100
AcDbGroup
300
GRP440
 70
     1
 71
     1
340
164
340
165
340
166
  0
GROUP
  5
418
102
{ACAD_REACTORS
330
D
102
}
330
D
100
AcDbGroup
300
GRP444
 70
     1
 71
     1
340
167
  0
GROUP
  5
417
102
{ACAD_REACTORS
330
D
102
}
330
D
100
AcDbGroup
300
GRP446
 70
     1
 71
     1
340
168
340
169
340
16A
  0
GROUP
  5
42A
102
{ACAD_REACTORS
330
D
102
}
330
D
100
AcDbGroup
300
GRP450
 70
     1
 71
     1
340
16B
  0
GROUP
  5
429
102
{ACAD_REACTORS
330
D
102
}
330
D
100
AcDbGroup
300
GRP452
 70
     1
 71
     1
340
16C
340
16D
340
16E
340
16F
  0
GROUP
  5
428
102
{ACAD_REACTORS
330
D
102
}
330
D
100
AcDbGroup
300
GRP457
 70
     1
 71
     1
340
170
340
171
340
172
  0
GROUP
  5
427
102
{ACAD_REACTORS
330
D
102
}
330
D
100
AcDbGroup
300
GRP461
 70
     1
 71
     1
340
173
  0
GROUP
  5
426
102
{ACAD_REACTORS
330
D
102
}
330
D
100
AcDbGroup
300
GRP463
 70
     1
 71
     1
340
174
340
175
340
176
  0
GROUP
  5
439
102
{ACAD_REACTORS
330
D
102
}
330
D
100
AcDbGroup
300
GRP467
 70
     1
 71
     1
340
177
  0
GROUP
  5
438
102
{ACAD_REACTORS
330
D
102
}
330
D
100
AcDbGroup
300
GRP469
 70
     1
 71
     1
340
178
340
179
340
17A
  0
GROUP
  5
437
102
{ACAD_REACTORS
330
D
102
}
330
D
100
AcDbGroup
300
GRP473
 70
     1
 71
     1
340
17B
  0
GROUP
  5
436
102
{ACAD_REACTORS
330
D
102
}
330
D
100
AcDbGroup
300
GRP475
 70
     1
 71
     1
340
17C
340
17D
340
17E
  0
GROUP
  5
435
102
{ACAD_REACTORS
330
D
102
}
330
D
100
AcDbGroup
300
GRP479
 70
     1
 71
     1
340
17F
  0
GROUP
  5
3B9
102
{ACAD_REACTORS
330
D
102
}
330
D
100
AcDbGroup
300
GRP48
 70
     1
 71
     1
340
50
340
51
340
52
340
53
340
54
340
55
340
56
  0
GROUP
  5
449
102
{ACAD_REACTORS
330
D
102
}
330
D
100
AcDbGroup
300
GRP481
 70
     1
 71
     1
340
180
340
181
340
182
  0
GROUP
  5
448
102
{ACAD_REACTORS
330
D
102
}
330
D
100
AcDbGroup
300
GRP485
 70
     1
 71
     1
340
183
  0
GROUP
  5
447
102
{ACAD_REACTORS
330
D
102
}
330
D
100
AcDbGroup
300
GRP487
 70
     1
 71
     1
340
184
340
185
340
186
  0
GROUP
  5
446
102
{ACAD_REACTORS
330
D
102
}
330
D
100
AcDbGroup
300
GRP491
 70
     1
 71
     1
340
187
  0
GROUP
  5
445
102
{ACAD_REACTORS
330
D
102
}
330
D
100
AcDbGroup
300
GRP493
 70
     1
 71
     1
340
188
340
189
340
18A
  0
GROUP
  5
458
102
{ACAD_REACTORS
330
D
102
}
330
D
100
AcDbGroup
300
GRP497
 70
     1
 71
     1
340
18B
  0
GROUP
  5
457
102
{ACAD_REACTORS
330
D
102
}
330
D
100
AcDbGroup
300
GRP499
 70
     1
 71
     1
340
18C
340
18D
340
18E
340
18F
  0
GROUP
  5
456
102
{ACAD_REACTORS
330
D
102
}
330
D
100
AcDbGroup
300
GRP504
 70
     1
 71
     1
340
190
340
191
340
192
  0
GROUP
  5
455
102
{ACAD_REACTORS
330
D
102
}
330
D
100
AcDbGroup
300
GRP508
 70
     1
 71
     1
340
193
  0
GROUP
  5
454
102
{ACAD_REACTORS
330
D
102
}
330
D
100
AcDbGroup
300
GRP510
 70
     1
 71
     1
340
194
340
195
340
196
  0
GROUP
  5
469
102
{ACAD_REACTORS
330
D
102
}
330
D
100
AcDbGroup
300
GRP514
 70
     1
 71
     1
340
197
  0
GROUP
  5
468
102
{ACAD_REACTORS
330
D
102
}
330
D
100
AcDbGroup
300
GRP516
 70
     1
 71
     1
340
198
340
199
  0
GROUP
  5
467
102
{ACAD_REACTORS
330
D
102
}
330
D
100
AcDbGroup
300
GRP519
 70
     1
 71
     1
340
19A
  0
GROUP
  5
466
102
{ACAD_REACTORS
330
D
102
}
330
D
100
AcDbGroup
300
GRP521
 70
     1
 71
     1
340
19B
340
19C
  0
GROUP
  5
465
102
{ACAD_REACTORS
330
D
102
}
330
D
100
AcDbGroup
300
GRP524
 70
     1
 71
     1
340
19D
  0
GROUP
  5
464
102
{ACAD_REACTORS
330
D
102
}
330
D
100
AcDbGroup
300
GRP526
 70
     1
 71
     1
340
19E
340
19F
340
1A0
  0
GROUP
  5
478
102
{ACAD_REACTORS
330
D
102
}
330
D
100
AcDbGroup
300
GRP530
 70
     1
 71
     1
340
1A1
  0
GROUP
  5
477
102
{ACAD_REACTORS
330
D
102
}
330
D
100
AcDbGroup
300
GRP532
 70
     1
 71
     1
340
1A2
340
1A3
340
1A4
  0
GROUP
  5
476
102
{ACAD_REACTORS
330
D
102
}
330
D
100
AcDbGroup
300
GRP536
 70
     1
 71
     1
340
1A5
  0
GROUP
  5
475
102
{ACAD_REACTORS
330
D
102
}
330
D
100
AcDbGroup
300
GRP538
 70
     1
 71
     1
340
1A6
340
1A7
340
1A8
  0
GROUP
  5
474
102
{ACAD_REACTORS
330
D
102
}
330
D
100
AcDbGroup
300
GRP542
 70
     1
 71
     1
340
1A9
  0
GROUP
  5
382
102
{ACAD_REACTORS
330
D
102
}
330
D
100
AcDbGroup
300
GRP545
 70
     1
 71
     1
340
1AB
340
1AC
340
1AD
340
1AE
340
1AF
340
1B0
340
1B1
340
285
340
286
340
287
340
288
340
289
340
28A
340
28B
340
28C
340
28D
340
28E
340
28F
340
290
340
291
340
292
340
293
340
294
340
295
340
296
340
297
340
298
340
299
340
29A
340
29B
340
29C
340
29D
340
29E
340
29F
340
2A0
340
2A1
340
2A2
340
2A3
340
2A4
340
2A5
340
2A6
340
2A7
340
2A8
340
2A9
340
2AA
340
2AB
340
2AC
340
2AD
340
2AE
340
2AF
340
2B0
340
2B1
340
2B2
340
2B3
340
2B4
340
2B5
340
2B6
340
2B7
340
2B8
340
2B9
340
2BA
340
2BB
340
2BC
340
2BD
340
2BE
340
2BF
340
2C0
340
2C1
340
2C2
340
2C3
340
2C4
340
2C5
340
2C6
340
2C7
340
2C8
340
2C9
340
2CA
340
2CB
340
2CC
340
2CD
340
2CE
340
2CF
340
2D0
340
2D1
340
2D2
340
2D3
340
2D4
340
2D5
340
2D6
340
2D7
340
2D8
340
2D9
340
2DA
340
2DB
340
2DC
  0
GROUP
  5
381
102
{ACAD_REACTORS
330
D
102
}
330
D
100
AcDbGroup
300
GRP553
 70
     1
 71
     1
340
1B2
340
1B3
340
1B4
  0
GROUP
  5
380
102
{ACAD_REACTORS
330
D
102
}
330
D
100
AcDbGroup
300
GRP557
 70
     1
 71
     1
340
1B5
  0
GROUP
  5
37F
102
{ACAD_REACTORS
330
D
102
}
330
D
100
AcDbGroup
300
GRP559
 70
     1
 71
     1
340
1B6
340
1B7
340
1B8
  0
GROUP
  5
3B8
102
{ACAD_REACTORS
330
D
102
}
330
D
100
AcDbGroup
300
GRP56
 70
     1
 71
     1
340
57
340
58
340
59
340
5A
  0
GROUP
  5
390
102
{ACAD_REACTORS
330
D
102
}
330
D
100
AcDbGroup
300
GRP563
 70
     1
 71
     1
340
1B9
  0
GROUP
  5
38F
102
{ACAD_REACTORS
330
D
102
}
330
D
100
AcDbGroup
300
GRP565
 70
     1
 71
     1
340
1BA
340
1BB
340
1BC
  0
GROUP
  5
38E
102
{ACAD_REACTORS
330
D
102
}
330
D
100
AcDbGroup
300
GRP569
 70
     1
 71
     1
340
1BD
  0
GROUP
  5
38D
102
{ACAD_REACTORS
330
D
102
}
330
D
100
AcDbGroup
300
GRP571
 70
     1
 71
     1
340
1BE
340
1BF
340
1C0
  0
GROUP
  5
38C
102
{ACAD_REACTORS
330
D
102
}
330
D
100
AcDbGroup
300
GRP575
 70
     1
 71
     1
340
1C1
  0
GROUP
  5
3A2
102
{ACAD_REACTORS
330
D
102
}
330
D
100
AcDbGroup
300
GRP577
 70
     1
 71
     1
340
1C2
340
1C3
340
1C4
  0
GROUP
  5
3A1
102
{ACAD_REACTORS
330
D
102
}
330
D
100
AcDbGroup
300
GRP581
 70
     1
 71
     1
340
1C5
  0
GROUP
  5
3A0
102
{ACAD_REACTORS
330
D
102
}
330
D
100
AcDbGroup
300
GRP583
 70
     1
 71
     1
340
1C6
340
1C7
340
1C8
  0
GROUP
  5
39F
102
{ACAD_REACTORS
330
D
102
}
330
D
100
AcDbGroup
300
GRP587
 70
     1
 71
     1
340
1C9
  0
GROUP
  5
39E
102
{ACAD_REACTORS
330
D
102
}
330
D
100
AcDbGroup
300
GRP589
 70
     1
 71
     1
340
1CA
340
1CB
340
1CC
  0
GROUP
  5
3B0
102
{ACAD_REACTORS
330
D
102
}
330
D
100
AcDbGroup
300
GRP593
 70
     1
 71
     1
340
1CD
  0
GROUP
  5
3AF
102
{ACAD_REACTORS
330
D
102
}
330
D
100
AcDbGroup
300
GRP595
 70
     1
 71
     1
340
1CE
340
1CF
340
1D0
  0
GROUP
  5
3AE
102
{ACAD_REACTORS
330
D
102
}
330
D
100
AcDbGroup
300
GRP599
 70
     1
 71
     1
340
1D1
  0
GROUP
  5
3AD
102
{ACAD_REACTORS
330
D
102
}
330
D
100
AcDbGroup
300
GRP601
 70
     1
 71
     1
340
1D2
340
1D3
340
1D4
  0
GROUP
  5
3AC
102
{ACAD_REACTORS
330
D
102
}
330
D
100
AcDbGroup
300
GRP605
 70
     1
 71
     1
340
1D5
  0
GROUP
  5
3AB
102
{ACAD_REACTORS
330
D
102
}
330
D
100
AcDbGroup
300
GRP607
 70
     1
 71
     1
340
1D6
340
1D7
340
1D8
340
1D9
  0
GROUP
  5
3B7
102
{ACAD_REACTORS
330
D
102
}
330
D
100
AcDbGroup
300
GRP61
 70
     1
 71
     1
340
5B
340
5C
340
5D
340
5E
  0
GROUP
  5
3BD
102
{ACAD_REACTORS
330
D
102
}
330
D
100
AcDbGroup
300
GRP612
 70
     1
 71
     1
340
1DA
340
1DB
340
1DC
  0
GROUP
  5
3BC
102
{ACAD_REACTORS
330
D
102
}
330
D
100
AcDbGroup
300
GRP616
 70
     1
 71
     1
340
1DD
  0
GROUP
  5
3BB
102
{ACAD_REACTORS
330
D
102
}
330
D
100
AcDbGroup
300
GRP618
 70
     1
 71
     1
340
1DE
340
1DF
340
1E0
  0
GROUP
  5
3BA
102
{ACAD_REACTORS
330
D
102
}
330
D
100
AcDbGroup
300
GRP622
 70
     1
 71
     1
340
1E1
  0
GROUP
  5
3CA
102
{ACAD_REACTORS
330
D
102
}
330
D
100
AcDbGroup
300
GRP624
 70
     1
 71
     1
340
1E2
340
1E3
340
1E4
  0
GROUP
  5
3C9
102
{ACAD_REACTORS
330
D
102
}
330
D
100
AcDbGroup
300
GRP628
 70
     1
 71
     1
340
1E5
  0
GROUP
  5
3C8
102
{ACAD_REACTORS
330
D
102
}
330
D
100
AcDbGroup
300
GRP630
 70
     1
 71
     1
340
1E6
340
1E7
340
1E8
  0
GROUP
  5
3C7
102
{ACAD_REACTORS
330
D
102
}
330
D
100
AcDbGroup
300
GRP634
 70
     1
 71
     1
340
1E9
  0
GROUP
  5
3C6
102
{ACAD_REACTORS
330
D
102
}
330
D
100
AcDbGroup
300
GRP636
 70
     1
 71
     1
340
1EA
340
1EB
340
1EC
  0
GROUP
  5
3D6
102
{ACAD_REACTORS
330
D
102
}
330
D
100
AcDbGroup
300
GRP640
 70
     1
 71
     1
340
1ED
  0
GROUP
  5
3D5
102
{ACAD_REACTORS
330
D
102
}
330
D
100
AcDbGroup
300
GRP642
 70
     1
 71
     1
340
1EE
340
1EF
340
1F0
  0
GROUP
  5
3D4
102
{ACAD_REACTORS
330
D
102
}
330
D
100
AcDbGroup
300
GRP646
 70
     1
 71
     1
340
1F1
  0
GROUP
  5
3D3
102
{ACAD_REACTORS
330
D
102
}
330
D
100
AcDbGroup
300
GRP648
 70
     1
 71
     1
340
1F2
340
1F3
340
1F4
  0
GROUP
  5
3D2
102
{ACAD_REACTORS
330
D
102
}
330
D
100
AcDbGroup
300
GRP652
 70
     1
 71
     1
340
1F5
  0
GROUP
  5
3D1
102
{ACAD_REACTORS
330
D
102
}
330
D
100
AcDbGroup
300
GRP654
 70
     1
 71
     1
340
1F6
340
1F7
340
1F8
  0
GROUP
  5
3E3
102
{ACAD_REACTORS
330
D
102
}
330
D
100
AcDbGroup
300
GRP658
 70
     1
 71
     1
340
1F9
  0
GROUP
  5
3C5
102
{ACAD_REACTORS
330
D
102
}
330
D
100
AcDbGroup
300
GRP66
 70
     1
 71
     1
340
5F
340
60
340
61
340
62
  0
GROUP
  5
3E2
102
{ACAD_REACTORS
330
D
102
}
330
D
100
AcDbGroup
300
GRP660
 70
     1
 71
     1
340
1FA
340
1FB
340
1FC
  0
GROUP
  5
3E1
102
{ACAD_REACTORS
330
D
102
}
330
D
100
AcDbGroup
300
GRP664
 70
     1
 71
     1
340
1FD
  0
GROUP
  5
3E0
102
{ACAD_REACTORS
330
D
102
}
330
D
100
AcDbGroup
300
GRP666
 70
     1
 71
     1
340
1FE
340
1FF
340
200
340
201
  0
GROUP
  5
3DF
102
{ACAD_REACTORS
330
D
102
}
330
D
100
AcDbGroup
300
GRP671
 70
     1
 71
     1
340
202
340
203
340
204
  0
GROUP
  5
3F3
102
{ACAD_REACTORS
330
D
102
}
330
D
100
AcDbGroup
300
GRP675
 70
     1
 71
     1
340
205
  0
GROUP
  5
3F2
102
{ACAD_REACTORS
330
D
102
}
330
D
100
AcDbGroup
300
GRP677
 70
     1
 71
     1
340
206
340
207
340
208
  0
GROUP
  5
3F1
102
{ACAD_REACTORS
330
D
102
}
330
D
100
AcDbGroup
300
GRP681
 70
     1
 71
     1
340
209
  0
GROUP
  5
3F0
102
{ACAD_REACTORS
330
D
102
}
330
D
100
AcDbGroup
300
GRP683
 70
     1
 71
     1
340
20A
340
20B
340
20C
  0
GROUP
  5
3EF
102
{ACAD_REACTORS
330
D
102
}
330
D
100
AcDbGroup
300
GRP687
 70
     1
 71
     1
340
20D
  0
GROUP
  5
406
102
{ACAD_REACTORS
330
D
102
}
330
D
100
AcDbGroup
300
GRP689
 70
     1
 71
     1
340
20E
340
20F
340
210
  0
GROUP
  5
405
102
{ACAD_REACTORS
330
D
102
}
330
D
100
AcDbGroup
300
GRP693
 70
     1
 71
     1
340
211
  0
GROUP
  5
404
102
{ACAD_REACTORS
330
D
102
}
330
D
100
AcDbGroup
300
GRP695
 70
     1
 71
     1
340
212
340
213
340
214
  0
GROUP
  5
403
102
{ACAD_REACTORS
330
D
102
}
330
D
100
AcDbGroup
300
GRP699
 70
     1
 71
     1
340
215
  0
GROUP
  5
402
102
{ACAD_REACTORS
330
D
102
}
330
D
100
AcDbGroup
300
GRP701
 70
     1
 71
     1
340
216
340
217
340
218
  0
GROUP
  5
416
102
{ACAD_REACTORS
330
D
102
}
330
D
100
AcDbGroup
300
GRP705
 70
     1
 71
     1
340
219
  0
GROUP
  5
415
102
{ACAD_REACTORS
330
D
102
}
330
D
100
AcDbGroup
300
GRP707
 70
     1
 71
     1
340
21A
340
21B
340
21C
  0
GROUP
  5
3C4
102
{ACAD_REACTORS
330
D
102
}
330
D
100
AcDbGroup
300
GRP71
 70
     1
 71
     1
340
63
340
64
340
65
340
66
  0
GROUP
  5
414
102
{ACAD_REACTORS
330
D
102
}
330
D
100
AcDbGroup
300
GRP711
 70
     1
 71
     1
340
21D
  0
GROUP
  5
413
102
{ACAD_REACTORS
330
D
102
}
330
D
100
AcDbGroup
300
GRP713
 70
     1
 71
     1
340
21E
340
21F
340
220
  0
GROUP
  5
412
102
{ACAD_REACTORS
330
D
102
}
330
D
100
AcDbGroup
300
GRP717
 70
     1
 71
     1
340
221
  0
GROUP
  5
411
102
{ACAD_REACTORS
330
D
102
}
330
D
100
AcDbGroup
300
GRP719
 70
     1
 71
     1
340
222
340
223
340
224
  0
GROUP
  5
425
102
{ACAD_REACTORS
330
D
102
}
330
D
100
AcDbGroup
300
GRP723
 70
     1
 71
     1
340
225
  0
GROUP
  5
424
102
{ACAD_REACTORS
330
D
102
}
330
D
100
AcDbGroup
300
GRP725
 70
     1
 71
     1
340
226
340
227
340
228
340
229
  0
GROUP
  5
423
102
{ACAD_REACTORS
330
D
102
}
330
D
100
AcDbGroup
300
GRP730
 70
     1
 71
     1
340
22A
340
22B
340
22C
  0
GROUP
  5
422
102
{ACAD_REACTORS
330
D
102
}
330
D
100
AcDbGroup
300
GRP734
 70
     1
 71
     1
340
22D
  0
GROUP
  5
434
102
{ACAD_REACTORS
330
D
102
}
330
D
100
AcDbGroup
300
GRP736
 70
     1
 71
     1
340
22E
340
22F
340
230
  0
GROUP
  5
433
102
{ACAD_REACTORS
330
D
102
}
330
D
100
AcDbGroup
300
GRP740
 70
     1
 71
     1
340
231
  0
GROUP
  5
432
102
{ACAD_REACTORS
330
D
102
}
330
D
100
AcDbGroup
300
GRP742
 70
     1
 71
     1
340
232
340
233
340
234
  0
GROUP
  5
431
102
{ACAD_REACTORS
330
D
102
}
330
D
100
AcDbGroup
300
GRP746
 70
     1
 71
     1
340
235
  0
GROUP
  5
430
102
{ACAD_REACTORS
330
D
102
}
330
D
100
AcDbGroup
300
GRP748
 70
     1
 71
     1
340
236
340
237
340
238
  0
GROUP
  5
444
102
{ACAD_REACTORS
330
D
102
}
330
D
100
AcDbGroup
300
GRP752
 70
     1
 71
     1
340
239
  0
GROUP
  5
443
102
{ACAD_REACTORS
330
D
102
}
330
D
100
AcDbGroup
300
GRP754
 70
     1
 71
     1
340
23A
340
23B
340
23C
  0
GROUP
  5
442
102
{ACAD_REACTORS
330
D
102
}
330
D
100
AcDbGroup
300
GRP758
 70
     1
 71
     1
340
23D
  0
GROUP
  5
3C3
102
{ACAD_REACTORS
330
D
102
}
330
D
100
AcDbGroup
300
GRP76
 70
     1
 71
     1
340
67
340
68
340
69
340
6A
  0
GROUP
  5
441
102
{ACAD_REACTORS
330
D
102
}
330
D
100
AcDbGroup
300
GRP760
 70
     1
 71
     1
340
23E
340
23F
340
240
  0
GROUP
  5
440
102
{ACAD_REACTORS
330
D
102
}
330
D
100
AcDbGroup
300
GRP764
 70
     1
 71
     1
340
241
  0
GROUP
  5
43F
102
{ACAD_REACTORS
330
D
102
}
330
D
100
AcDbGroup
300
GRP766
 70
     1
 71
     1
340
242
340
243
340
244
  0
GROUP
  5
453
102
{ACAD_REACTORS
330
D
102
}
330
D
100
AcDbGroup
300
GRP770
 70
     1
 71
     1
340
245
  0
GROUP
  5
452
102
{ACAD_REACTORS
330
D
102
}
330
D
100
AcDbGroup
300
GRP772
 70
     1
 71
     1
340
246
340
247
340
248
  0
GROUP
  5
451
102
{ACAD_REACTORS
330
D
102
}
330
D
100
AcDbGroup
300
GRP776
 70
     1
 71
     1
340
249
  0
GROUP
  5
450
102
{ACAD_REACTORS
330
D
102
}
330
D
100
AcDbGroup
300
GRP778
 70
     1
 71
     1
340
24A
340
24B
340
24C
  0
GROUP
  5
44F
102
{ACAD_REACTORS
330
D
102
}
330
D
100
AcDbGroup
300
GRP782
 70
     1
 71
     1
340
24D
  0
GROUP
  5
463
102
{ACAD_REACTORS
330
D
102
}
330
D
100
AcDbGroup
300
GRP784
 70
     1
 71
     1
340
24E
340
24F
340
250
340
251
  0
GROUP
  5
462
102
{ACAD_REACTORS
330
D
102
}
330
D
100
AcDbGroup
300
GRP789
 70
     1
 71
     1
340
252
340
253
340
254
  0
GROUP
  5
461
102
{ACAD_REACTORS
330
D
102
}
330
D
100
AcDbGroup
300
GRP793
 70
     1
 71
     1
340
255
  0
GROUP
  5
460
102
{ACAD_REACTORS
330
D
102
}
330
D
100
AcDbGroup
300
GRP795
 70
     1
 71
     1
340
256
340
257
340
258
  0
GROUP
  5
45F
102
{ACAD_REACTORS
330
D
102
}
330
D
100
AcDbGroup
300
GRP799
 70
     1
 71
     1
340
259
  0
GROUP
  5
473
102
{ACAD_REACTORS
330
D
102
}
330
D
100
AcDbGroup
300
GRP801
 70
     1
 71
     1
340
25A
340
25B
340
25C
  0
GROUP
  5
472
102
{ACAD_REACTORS
330
D
102
}
330
D
100
AcDbGroup
300
GRP805
 70
     1
 71
     1
340
25D
  0
GROUP
  5
471
102
{ACAD_REACTORS
330
D
102
}
330
D
100
AcDbGroup
300
GRP807
 70
     1
 71
     1
340
25E
340
25F
340
260
  0
GROUP
  5
3D0
102
{ACAD_REACTORS
330
D
102
}
330
D
100
AcDbGroup
300
GRP81
 70
     1
 71
     1
340
6B
340
6C
340
6D
340
6E
  0
GROUP
  5
470
102
{ACAD_REACTORS
330
D
102
}
330
D
100
AcDbGroup
300
GRP811
 70
     1
 71
     1
340
261
  0
GROUP
  5
46F
102
{ACAD_REACTORS
330
D
102
}
330
D
100
AcDbGroup
300
GRP813
 70
     1
 71
     1
340
262
340
263
340
264
  0
GROUP
  5
37E
102
{ACAD_REACTORS
330
D
102
}
330
D
100
AcDbGroup
300
GRP817
 70
     1
 71
     1
340
265
  0
GROUP
  5
37D
102
{ACAD_REACTORS
330
D
102
}
330
D
100
AcDbGroup
300
GRP819
 70
     1
 71
     1
340
266
340
267
340
268
  0
GROUP
  5
37C
102
{ACAD_REACTORS
330
D
102
}
330
D
100
AcDbGroup
300
GRP823
 70
     1
 71
     1
340
269
  0
GROUP
  5
37B
102
{ACAD_REACTORS
330
D
102
}
330
D
100
AcDbGroup
300
GRP825
 70
     1
 71
     1
340
26A
340
26B
340
26C
  0
GROUP
  5
37A
102
{ACAD_REACTORS
330
D
102
}
330
D
100
AcDbGroup
300
GRP829
 70
     1
 71
     1
340
26D
  0
GROUP
  5
379
102
{ACAD_REACTORS
330
D
102
}
330
D
100
AcDbGroup
300
GRP831
 70
     1
 71
     1
340
26E
340
26F
340
270
  0
GROUP
  5
38B
102
{ACAD_REACTORS
330
D
102
}
330
D
100
AcDbGroup
300
GRP835
 70
     1
 71
     1
340
271
  0
GROUP
  5
38A
102
{ACAD_REACTORS
330
D
102
}
330
D
100
AcDbGroup
300
GRP837
 70
     1
 71
     1
340
272
340
273
340
274
  0
GROUP
  5
389
102
{ACAD_REACTORS
330
D
102
}
330
D
100
AcDbGroup
300
GRP841
 70
     1
 71
     1
340
275
  0
GROUP
  5
388
102
{ACAD_REACTORS
330
D
102
}
330
D
100
AcDbGroup
300
GRP843
 70
     1
 71
     1
340
276
340
277
340
278
340
279
  0
GROUP
  5
39D
102
{ACAD_REACTORS
330
D
102
}
330
D
100
AcDbGroup
300
GRP848
 70
     1
 71
     1
340
27A
340
27B
340
27C
  0
GROUP
  5
39C
102
{ACAD_REACTORS
330
D
102
}
330
D
100
AcDbGroup
300
GRP852
 70
     1
 71
     1
340
27D
  0
GROUP
  5
39B
102
{ACAD_REACTORS
330
D
102
}
330
D
100
AcDbGroup
300
GRP854
 70
     1
 71
     1
340
27E
340
27F
340
280
  0
GROUP
  5
39A
102
{ACAD_REACTORS
330
D
102
}
330
D
100
AcDbGroup
300
GRP858
 70
     1
 71
     1
340
281
  0
GROUP
  5
399
102
{ACAD_REACTORS
330
D
102
}
330
D
100
AcDbGroup
300
GRP860
 70
     1
 71
     1
340
282
340
283
340
284
  0
GROUP
  5
401
102
{ACAD_REACTORS
330
D
102
}
330
D
100
AcDbGroup
300
GRP967
 70
     1
 71
     1
340
309
340
367
  0
GROUP
  5
400
102
{ACAD_REACTORS
330
D
102
}
330
D
100
AcDbGroup
300
GRP969
 70
     1
 71
     1
340
30A
340
366
  0
GROUP
  5
3FF
102
{ACAD_REACTORS
330
D
102
}
330
D
100
AcDbGroup
300
GRP971
 70
     1
 71
     1
340
30B
340
365
  0
GROUP
  5
3FE
102
{ACAD_REACTORS
330
D
102
}
330
D
100
AcDbGroup
300
GRP973
 70
     1
 71
     1
340
30C
340
364
  0
LAYOUT
  5
1E
102
{ACAD_REACTORS
330
1A
102
}
330
1A
100
AcDbPlotSettings
  1

  2

  4

  6

 40
0.0
 41
0.0
 42
0.0
 43
0.0
 44
0.0
 45
0.0
 46
0.0
 47
0.0
 48
0.0
 49
0.0
140
0.0
141
0.0
142
1.0
143
1.0
 70
   688
 72
     0
 73
     0
 74
     5
  7

 75
    16
147
1.0
148
0.0
149
0.0
100
AcDbLayout
  1
Layout1
 70
     1
 71
     1
 10
0.0
 20
0.0
 11
840.0
 21
594.0
 12
0.0
 22
0.0
 32
0.0
 14
0.0
 24
0.0
 34
0.0
 15
840.0
 25
594.0
 35
0.0
146
0.0
 13
0.0
 23
0.0
 33
0.0
 16
1.0
 26
0.0
 36
0.0
 17
0.0
 27
1.0
 37
0.0
 76
     0
330
1B
  0
LAYOUT
  5
26
102
{ACAD_REACTORS
330
1A
102
}
330
1A
100
AcDbPlotSettings
  1

  2

  4

  6

 40
0.0
 41
0.0
 42
0.0
 43
0.0
 44
0.0
 45
0.0
 46
0.0
 47
0.0
 48
0.0
 49
0.0
140
0.0
141
0.0
142
1.0
143
1.0
 70
   688
 72
     0
 73
     0
 74
     5
  7

 75
    16
147
1.0
148
0.0
149
0.0
100
AcDbLayout
  1
Layout2
 70
     1
 71
     2
 10
0.0
 20
0.0
 11
0.0
 21
0.0
 12
0.0
 22
0.0
 32
0.0
 14
0.0
 24
0.0
 34
0.0
 15
0.0
 25
0.0
 35
0.0
146
0.0
 13
0.0
 23
0.0
 33
0.0
 16
1.0
 26
0.0
 36
0.0
 17
0.0
 27
1.0
 37
0.0
 76
     0
330
23
  0
LAYOUT
  5
22
102
{ACAD_REACTORS
330
1A
102
}
330
1A
100
AcDbPlotSettings
  1

  2

  4

  6

 40
0.0
 41
0.0
 42
0.0
 43
0.0
 44
0.0
 45
0.0
 46
0.0
 47
0.0
 48
0.0
 49
0.0
140
0.0
141
0.0
142
1.0
143
1.0
 70
  1776
 72
     0
 73
     0
 74
     0
  7

 75
     0
147
1.0
148
0.0
149
0.0
100
AcDbLayout
  1
Model
 70
     1
 71
     0
 10
0.0
 20
0.0
 11
840.0
 21
594.0
 12
0.0
 22
0.0
 32
0.0
 14
0.0
 24
0.0
 34
0.0
 15
840.0
 25
594.0
 35
0.0
146
0.0
 13
0.0
 23
0.0
 33
0.0
 16
1.0
 26
0.0
 36
0.0
 17
0.0
 27
1.0
 37
0.0
 76
     0
330
1F
  0
MLINESTYLE
  5
18
102
{ACAD_REACTORS
330
17
102
}
330
17
100
AcDbMlineStyle
  2
Standard
 70
     0
  3

 62
   256
 51
90.0
 52
90.0
 71
     2
 49
0.5
 62
   256
  6
BYLAYER
 49
-0.5
 62
   256
  6
BYLAYER
  0
ACDBPLACEHOLDER
  5
F
102
{ACAD_REACTORS
330
E
102
}
330
E
  0
ENDSEC
  0
EOF
