  0
SECTION
  2
HEADER
  9
$ACADVER
  1
AC1009
  9
$DWGCODEPAGE
  3
dos850
  9
$INSBASE
 10
0.0
 20
0.0
 30
0.0
  9
$EXTMIN
 10
-210.0
 20
0.0
 30
0.0
  9
$EXTMAX
 10
630.0
 20
594.0
 30
0.0
  9
$LIMMIN
 10
-210.0
 20
0.0
  9
$LIMMAX
 10
630.0
 20
594.0
  9
$ORTHOMODE
 70
     0
  9
$REGENMODE
 70
     1
  9
$FILLMODE
 70
     1
  9
$QTEXTMODE
 70
     0
  9
$MIRRTEXT
 70
     1
  9
$DRAGMODE
 70
     2
  9
$LTSCALE
 40
2.0
  9
$OSMODE
 70
     0
  9
$ATTMODE
 70
     1
  9
$TEXTSIZE
 40
0.2
  9
$TRACEWID
 40
0.05
  9
$TEXTSTYLE
  7
STANDARD
  9
$CLAYER
  8
0
  9
$CELTYPE
  6
BYBLOCK
  9
$CECOLOR
 62
     7
  9
$DIMSCALE
 40
2.0
  9
$DIMASZ
 40
3.5
  9
$DIMEXO
 40
0.0625
  9
$DIMDLI
 40
0.38
  9
$DIMRND
 40
0.0
  9
$DIMDLE
 40
0.0
  9
$DIMEXE
 40
0.18
  9
$DIMTP
 40
0.0
  9
$DIMTM
 40
0.0
  9
$DIMTXT
 40
3.5
  9
$DIMCEN
 40
0.09
  9
$DIMTSZ
 40
0.0
  9
$DIMTOL
 70
     0
  9
$DIMLIM
 70
     0
  9
$DIMTIH
 70
     1
  9
$DIMTOH
 70
     1
  9
$DIMSE1
 70
     0
  9
$DIMSE2
 70
     0
  9
$DIMTAD
 70
     1
  9
$DIMZIN
 70
     0
  9
$DIMBLK
  1

  9
$DIMASO
 70
     1
  9
$DIMSHO
 70
     1
  9
$DIMPOST
  1

  9
$DIMAPOST
  1

  9
$DIMALT
 70
     0
  9
$DIMALTD
 70
     2
  9
$DIMALTF
 40
25.4
  9
$DIMLFAC
 40
1.0
  9
$DIMTOFL
 70
     0
  9
$DIMTVP
 40
0.0
  9
$DIMTIX
 70
     0
  9
$DIMSOXD
 70
     0
  9
$DIMSAH
 70
     0
  9
$DIMBLK1
  1

  9
$DIMBLK2
  1

  9
$DIMSTYLE
  2
STANDARD
  9
$DIMCLRD
 70
     0
  9
$DIMCLRE
 70
     0
  9
$DIMCLRT
 70
     0
  9
$DIMTFAC
 40
1.0
  9
$DIMGAP
 40
0.09
  9
$LUNITS
 70
     2
  9
$LUPREC
 70
     6
  9
$AXISMODE
 70
     0
  9
$AXISUNIT
 10
0.0
 20
0.0
  9
$SKETCHINC
 40
0.1
  9
$FILLETRAD
 40
0.0
  9
$AUNITS
 70
     0
  9
$AUPREC
 70
     0
  9
$MENU
  1
acad
  9
$ELEVATION
 40
0.0
  9
$PELEVATION
 40
0.0
  9
$THICKNESS
 40
0.0
  9
$LIMCHECK
 70
     0
  9
$BLIPMODE
 70
     1
  9
$CHAMFERA
 40
0.0
  9
$CHAMFERB
 40
0.0
  9
$SKPOLY
 70
     0
  9
$TDCREATE
 40
0.000000000
  9
$TDUPDATE
 40
0.000000000
  9
$TDINDWG
 40
0.0000000000
  9
$TDUSRTIMER
 40
0.0000000000
  9
$USRTIMER
 70
     1
  9
$ANGBASE
 50
0.0
  9
$ANGDIR
 70
     0
  9
$PDMODE
 70
     0
  9
$PDSIZE
 40
0.0
  9
$PLINEWID
 40
0.0
  9
$COORDS
 70
     0
  9
$SPLFRAME
 70
     0
  9
$SPLINETYPE
 70
     6
  9
$SPLINESEGS
 70
     8
  9
$ATTDIA
 70
     0
  9
$ATTREQ
 70
     1
  9
$HANDLING
 70
     1
  9
$HANDSEED
  5
67E
  9
$SURFTAB1
 70
     6
  9
$SURFTAB2
 70
     6
  9
$SURFTYPE
 70
     6
  9
$SURFU
 70
     6
  9
$SURFV
 70
     6
  9
$UCSNAME
  2

  9
$UCSORG
 10
0.0
 20
0.0
 30
0.0
  9
$UCSXDIR
 10
1.0
 20
0.0
 30
0.0
  9
$UCSYDIR
 10
0.0
 20
1.0
 30
0.0
  9
$PUCSNAME
  2

  9
$PUCSORG
 10
0.0
 20
0.0
 30
0.0
  9
$PUCSXDIR
 10
1.0
 20
0.0
 30
0.0
  9
$PUCSYDIR
 10
0.0
 20
1.0
 30
0.0
  9
$USERI1
 70
     0
  9
$USERI2
 70
     0
  9
$USERI3
 70
     0
  9
$USERI4
 70
     0
  9
$USERI5
 70
     0
  9
$USERR1
 40
0.0
  9
$USERR2
 40
0.0
  9
$USERR3
 40
0.0
  9
$USERR4
 40
0.0
  9
$USERR5
 40
0.0
  9
$WORLDVIEW
 70
     1
  9
$SHADEDGE
 70
     3
  9
$SHADEDIF
 70
    70
  9
$TILEMODE
 70
     1
  9
$MAXACTVP
 70
    16
  9
$PINSBASE
 10
0.0
 20
0.0
 30
0.0
  9
$PLIMCHECK
 70
     0
  9
$PEXTMIN
 10
-210.0
 20
0.0
 30
0.0
  9
$PEXTMAX
 10
630.0
 20
594.0
 30
0.0
  9
$PLIMMIN
 10
-210.0
 20
0.0
  9
$PLIMMAX
 10
630.0
 20
594.0
  9
$UNITMODE
 70
     0
  9
$VISRETAIN
 70
     0
  9
$PLINEGEN
 70
     1
  9
$PSLTSCALE
 70
     0
  9
$TREEDEPTH
 70
  3020
  0
ENDSEC
  0
SECTION
  2
TABLES
  0
TABLE
  2
VPORT
 70
     1
  0
VPORT
  2
*ACTIVE
 70
     0
 10
0.0
 20
0.0
 11
1.0
 21
1.0
 12
420.0
 22
297.0
 13
0.0
 23
0.0
 14
1.0
 24
1.0
 15
0.0
 25
0.0
 16
0.0
 26
0.0
 36
1.0
 17
-210.0
 27
0.0
 37
0.0
 40
594.0
 41
1.604229
 42
50.0
 43
0.0
 44
0.0
 50
0.0
 51
0.0
 71
     0
 72
   100
 73
     1
 74
     1
 75
     0
 76
     0
 77
     0
 78
     0
  0
ENDTAB
  0
TABLE
  2
LTYPE
 70
     3
  0
LTYPE
  2
CONTINUOUS
 70
    64
  3
Solid line
 72
    65
 73
     0
 40
0.0
  0
LTYPE
  2
DASHED
 70
    64
  3
__ __ __ __ __
 72
    65
 73
     2
 40
6.25
 49
5.0
 49
-1.25
  0
LTYPE
  2
DASHDOT
 70
    64
  3
__ . __ . __ . __ . __
 72
    65
 73
     4
 40
7.5
 49
5.0
 49
-1.25
 49
0.0
 49
-1.25
  0
ENDTAB
  0
TABLE
  2
LAYER
 70
    13
  0
LAYER
  2
0
 70
     0
 62
     7
  6
CONTINUOUS
  0
LAYER
  2
LC-INFO-1-2-MM-A3-0
 70
     1
 62
   255
  6
BYBLOCK
  0
LAYER
  2
LC-3D-HIDDEN
 70
     0
 62
     9
  6
DASHED
  0
LAYER
  2
LC-CUT-HIDDEN
 70
     0
 62
     9
  6
DASHED
  0
LAYER
  2
LC-VIEWPORT
 70
     0
 62
     7
  6
BYBLOCK
  0
LAYER
  2
LC-001-002-----0
 70
     0
 62
     1
  6
BYBLOCK
  0
LAYER
  2
LC-002-002-RND-0
 70
     0
 62
     1
  6
BYBLOCK
  0
LAYER
  2
LC-003-001-RND-0
 70
     0
 62
     1
  6
BYBLOCK
  0
LAYER
  2
LC-004-001-----0
 70
     0
 62
     1
  6
BYBLOCK
  0
LAYER
  2
LC-005-005-----0
 70
     0
 62
     2
  6
BYBLOCK
  0
LAYER
  2
LC-006-003-MTH-0
 70
     0
 62
     2
  6
BYBLOCK
  0
LAYER
  2
LC-007-003-----0
 70
     0
 62
     2
  6
BYBLOCK
  0
LAYER
  2
LC-008-003-MTG-0
 70
     0
 62
     2
  6
BYBLOCK
  0
ENDTAB
  0
TABLE
  2
STYLE
 70
     4
  0
STYLE
  2
STANDARD
 70
     0
 40
0.0
 41
1.0
 50
0.0
 71
     0
 42
0.0
  3
txt
  4

  0
STYLE
  2
LCTX15-400-0-0-ARIAL
 70
    64
 40
3.5
 41
1.0
 50
0.0
 71
     0
 42
0.0
  3
Arial
  4

  0
STYLE
  2
LCTX0-500-0-0-DIN-SCHRIFT
 70
    64
 40
3.5
 41
1.0
 50
0.0
 71
     0
 42
0.0
  3
MONOTXT
  4

  0
STYLE
  2
LCTX15-400-0-0-DIN-SCHRIFT__P_
 70
    64
 40
0.0
 41
1.0
 50
1.5
 71
     0
 42
3.5
  3
STANDARD
  4

  0
ENDTAB
  0
TABLE
  2
VIEW
 70
     0
  0
ENDTAB
  0
TABLE
  2
UCS
 70
     0
  0
ENDTAB
  0
TABLE
  2
APPID
 70
     1
  0
APPID
  2
ACAD
 70
     0
  0
ENDTAB
  0
TABLE
  2
DIMSTYLE
 70
     2
  0
DIMSTYLE
  2
STANDARD
 70
     0
  3

  4

  5

  6

  7

 40
1.0
 41
0.18
 42
0.0625
 43
0.38
 44
0.18
 45
0.0
 46
0.0
 47
0.0
 48
0.0
 71
     0
 72
     0
 73
     1
 74
     1
 75
     0
 76
     0
 77
     0
 78
     0
140
0.18
141
0.09
142
0.0
143
25.4
144
1.0
145
0.0
146
1.0
147
0.09
170
     0
171
     2
172
     0
173
     0
174
     0
175
     0
176
     0
177
     0
178
     0
  0
DIMSTYLE
  2
LC-DIM-L-0140-02-02
 70
     0
  3

  4

  5

  6

  7

 40
2.0
 41
3.5
 42
0.0
 43
7.5
 44
1.8
 45
0.0
 46
0.0
 47
0.0
 48
0.0
 71
     0
 72
     0
 73
     0
 74
     0
 75
     0
 76
     0
 77
     1
 78
     8
140
14.0
141
0.0
142
0.0
143
25.4
144
1.0
145
0.0
146
0.71
147
1.5
170
     0
171
     2
172
     0
173
     0
174
     0
175
     0
176
     2
177
     2
178
     2
  0
ENDTAB
  0
ENDSEC
  0
SECTION
  2
BLOCKS
  0
BLOCK
  8
0
  5
AC
  2
*X0
 70
    65
 10
0.0
 20
0.0
 30
0.0
  3
*X0
  0
LINE
  8
LC-005-005-----0
 62
     2
  5
AE
 10
207.335962
 20
317.64462
 30
0.0
 11
208.22409
 21
318.532748
 31
0.0
  0
LINE
  8
LC-005-005-----0
 62
     2
  5
AF
 10
205.811549
 20
318.948634
 30
0.0
 11
208.22409
 21
321.361175
 31
0.0
  0
LINE
  8
LC-005-005-----0
 62
     2
  5
B0
 10
205.22409
 20
321.189602
 30
0.0
 11
208.22409
 21
324.189602
 31
0.0
  0
LINE
  8
LC-005-005-----0
 62
     2
  5
B1
 10
205.22409
 20
324.01803
 30
0.0
 11
208.22409
 21
327.01803
 31
0.0
  0
LINE
  8
LC-005-005-----0
 62
     2
  5
B2
 10
205.22409
 20
326.846457
 30
0.0
 11
208.22409
 21
329.846457
 31
0.0
  0
LINE
  8
LC-005-005-----0
 62
     2
  5
B3
 10
205.22409
 20
329.674884
 30
0.0
 11
208.22409
 21
332.674884
 31
0.0
  0
LINE
  8
LC-005-005-----0
 62
     2
  5
B4
 10
205.22409
 20
332.503311
 30
0.0
 11
208.22409
 21
335.503311
 31
0.0
  0
LINE
  8
LC-005-005-----0
 62
     2
  5
B5
 10
205.22409
 20
335.331738
 30
0.0
 11
208.22409
 21
338.331738
 31
0.0
  0
LINE
  8
LC-005-005-----0
 62
     2
  5
B6
 10
205.22409
 20
338.160165
 30
0.0
 11
208.22409
 21
341.160165
 31
0.0
  0
LINE
  8
LC-005-005-----0
 62
     2
  5
B7
 10
205.22409
 20
340.988592
 30
0.0
 11
208.22409
 21
343.988592
 31
0.0
  0
LINE
  8
LC-005-005-----0
 62
     2
  5
B8
 10
205.22409
 20
343.817019
 30
0.0
 11
208.22409
 21
346.817019
 31
0.0
  0
LINE
  8
LC-005-005-----0
 62
     2
  5
B9
 10
205.22409
 20
346.645447
 30
0.0
 11
208.22409
 21
349.645447
 31
0.0
  0
LINE
  8
LC-005-005-----0
 62
     2
  5
BA
 10
205.180325
 20
349.430108
 30
0.0
 11
207.651024
 21
351.900807
 31
0.0
  0
LINE
  8
LC-005-005-----0
 62
     2
  5
BB
 10
203.161299
 20
350.239509
 30
0.0
 11
205.966057
 21
353.044267
 31
0.0
  0
LINE
  8
LC-005-005-----0
 62
     2
  5
BC
 10
202.126022
 20
352.032659
 30
0.0
 11
203.716786
 21
353.623424
 31
0.0
  0
LINE
  8
LC-005-005-----0
 62
     2
  5
BD
 10
197.402185
 20
350.13725
 30
0.0
 11
202.705584
 21
355.440649
 31
0.0
  0
LINE
  8
LC-005-005-----0
 62
     2
  5
BE
 10
194.573351
 20
350.136843
 30
0.0
 11
197.757695
 21
353.321187
 31
0.0
  0
LINE
  8
LC-005-005-----0
 62
     2
  5
BF
 10
199.540411
 20
355.103903
 30
0.0
 11
202.679535
 21
358.243027
 31
0.0
  0
LINE
  8
LC-005-005-----0
 62
     2
  5
C0
 10
191.745325
 20
350.137244
 30
0.0
 11
194.745589
 21
353.137508
 31
0.0
  0
LINE
  8
LC-005-005-----0
 62
     2
  5
C1
 10
199.72409
 20
358.116009
 30
0.0
 11
202.655065
 21
361.046984
 31
0.0
  0
LINE
  8
LC-005-005-----0
 62
     2
  5
C2
 10
188.917158
 20
350.137504
 30
0.0
 11
189.474364
 21
350.69471
 31
0.0
  0
LINE
  8
LC-005-005-----0
 62
     2
  5
C3
 10
190.412599
 20
351.632945
 30
0.0
 11
191.917161
 21
353.137508
 31
0.0
  0
LINE
  8
LC-005-005-----0
 62
     2
  5
C4
 10
199.72409
 20
360.944436
 30
0.0
 11
202.630596
 21
363.850942
 31
0.0
  0
LINE
  8
LC-005-005-----0
 62
     2
  5
C5
 10
186.088731
 20
350.137504
 30
0.0
 11
189.088734
 21
353.137508
 31
0.0
  0
LINE
  8
LC-005-005-----0
 62
     2
  5
C6
 10
189.474348
 20
353.523121
 30
0.0
 11
189.813937
 21
353.86271
 31
0.0
  0
LINE
  8
LC-005-005-----0
 62
     2
  5
C7
 10
199.72409
 20
363.772864
 30
0.0
 11
202.606126
 21
366.654899
 31
0.0
  0
LINE
  8
LC-005-005-----0
 62
     2
  5
C8
 10
183.260304
 20
350.137505
 30
0.0
 11
186.260307
 21
353.137508
 31
0.0
  0
LINE
  8
LC-005-005-----0
 62
     2
  5
C9
 10
199.72409
 20
366.601291
 30
0.0
 11
202.581656
 21
369.458856
 31
0.0
  0
LINE
  8
LC-005-005-----0
 62
     2
  5
CA
 10
180.431878
 20
350.137505
 30
0.0
 11
183.43188
 21
353.137508
 31
0.0
  0
LINE
  8
LC-005-005-----0
 62
     2
  5
CB
 10
199.72409
 20
369.429718
 30
0.0
 11
202.557186
 21
372.262814
 31
0.0
  0
LINE
  8
LC-005-005-----0
 62
     2
  5
CC
 10
177.603451
 20
350.137506
 30
0.0
 11
180.603453
 21
353.137508
 31
0.0
  0
LINE
  8
LC-005-005-----0
 62
     2
  5
CD
 10
199.72409
 20
372.258145
 30
0.0
 11
202.532717
 21
375.066771
 31
0.0
  0
LINE
  8
LC-005-005-----0
 62
     2
  5
CE
 10
174.775024
 20
350.137506
 30
0.0
 11
177.775026
 21
353.137508
 31
0.0
  0
LINE
  8
LC-005-005-----0
 62
     2
  5
CF
 10
199.72409
 20
375.086572
 30
0.0
 11
202.508247
 21
377.870729
 31
0.0
  0
LINE
  8
LC-005-005-----0
 62
     2
  5
D0
 10
171.946597
 20
350.137506
 30
0.0
 11
174.946599
 21
353.137508
 31
0.0
  0
LINE
  8
LC-005-005-----0
 62
     2
  5
D1
 10
199.72409
 20
377.914999
 30
0.0
 11
202.483777
 21
380.674686
 31
0.0
  0
LINE
  8
LC-005-005-----0
 62
     2
  5
D2
 10
169.118171
 20
350.137507
 30
0.0
 11
172.118172
 21
353.137508
 31
0.0
  0
LINE
  8
LC-005-005-----0
 62
     2
  5
D3
 10
199.72409
 20
380.743426
 30
0.0
 11
202.459307
 21
383.478643
 31
0.0
  0
LINE
  8
LC-005-005-----0
 62
     2
  5
D4
 10
166.289744
 20
350.137507
 30
0.0
 11
169.289744
 21
353.137508
 31
0.0
  0
LINE
  8
LC-005-005-----0
 62
     2
  5
D5
 10
199.72409
 20
383.571853
 30
0.0
 11
202.434838
 21
386.282601
 31
0.0
  0
LINE
  8
LC-005-005-----0
 62
     2
  5
D6
 10
163.461317
 20
350.137507
 30
0.0
 11
166.461317
 21
353.137508
 31
0.0
  0
LINE
  8
LC-005-005-----0
 62
     2
  5
D7
 10
199.72409
 20
386.400281
 30
0.0
 11
202.410368
 21
389.086558
 31
0.0
  0
LINE
  8
LC-005-005-----0
 62
     2
  5
D8
 10
160.679422
 20
350.184039
 30
0.0
 11
163.63289
 21
353.137508
 31
0.0
  0
LINE
  8
LC-005-005-----0
 62
     2
  5
D9
 10
199.72409
 20
389.228708
 30
0.0
 11
202.385898
 21
391.890515
 31
0.0
  0
LINE
  8
LC-005-005-----0
 62
     2
  5
DA
 10
158.311073
 20
350.644118
 30
0.0
 11
160.847339
 21
353.180384
 31
0.0
  0
LINE
  8
LC-005-005-----0
 62
     2
  5
DB
 10
199.72409
 20
392.057135
 30
0.0
 11
202.361428
 21
394.694473
 31
0.0
  0
LINE
  8
LC-005-005-----0
 62
     2
  5
DC
 10
156.301908
 20
351.46338
 30
0.0
 11
158.553338
 21
353.714809
 31
0.0
  0
LINE
  8
LC-005-005-----0
 62
     2
  5
DD
 10
199.72409
 20
394.885562
 30
0.0
 11
202.336958
 21
397.49843
 31
0.0
  0
LINE
  8
LC-005-005-----0
 62
     2
  5
DE
 10
154.573726
 20
352.563625
 30
0.0
 11
156.688604
 21
354.678503
 31
0.0
  0
LINE
  8
LC-005-005-----0
 62
     2
  5
DF
 10
199.72409
 20
397.713989
 30
0.0
 11
202.312489
 21
400.302387
 31
0.0
  0
LINE
  8
LC-005-005-----0
 62
     2
  5
E0
 10
153.094587
 20
353.912913
 30
0.0
 11
155.161261
 21
355.979587
 31
0.0
  0
LINE
  8
LC-005-005-----0
 62
     2
  5
E1
 10
199.72409
 20
400.542416
 30
0.0
 11
202.288019
 21
403.106345
 31
0.0
  0
LINE
  8
LC-005-005-----0
 62
     2
  5
E2
 10
151.858517
 20
355.50527
 30
0.0
 11
153.952677
 21
357.59943
 31
0.0
  0
LINE
  8
LC-005-005-----0
 62
     2
  5
E3
 10
199.72409
 20
403.370843
 30
0.0
 11
202.263549
 21
405.910302
 31
0.0
  0
LINE
  8
LC-005-005-----0
 62
     2
  5
E4
 10
150.8824
 20
357.35758
 30
0.0
 11
153.097884
 21
359.573064
 31
0.0
  0
LINE
  8
LC-005-005-----0
 62
     2
  5
E5
 10
199.72409
 20
406.19927
 30
0.0
 11
202.239079
 21
408.71426
 31
0.0
  0
LINE
  8
LC-005-005-----0
 62
     2
  5
E6
 10
150.215301
 20
359.518908
 30
0.0
 11
152.725451
 21
362.029058
 31
0.0
  0
LINE
  8
LC-005-005-----0
 62
     2
  5
E7
 10
199.72409
 20
409.027698
 30
0.0
 11
202.21461
 21
411.518217
 31
0.0
  0
LINE
  8
LC-005-005-----0
 62
     2
  5
E8
 10
149.97409
 20
362.106125
 30
0.0
 11
152.724797
 21
364.856832
 31
0.0
  0
LINE
  8
LC-005-005-----0
 62
     2
  5
E9
 10
199.72409
 20
411.856125
 30
0.0
 11
202.19014
 21
414.322174
 31
0.0
  0
LINE
  8
LC-005-005-----0
 62
     2
  5
EA
 10
149.97409
 20
364.934552
 30
0.0
 11
152.724797
 21
367.685259
 31
0.0
  0
LINE
  8
LC-005-005-----0
 62
     2
  5
EB
 10
199.72409
 20
414.684552
 30
0.0
 11
202.16567
 21
417.126132
 31
0.0
  0
LINE
  8
LC-005-005-----0
 62
     2
  5
EC
 10
149.97409
 20
367.762979
 30
0.0
 11
152.724797
 21
370.513686
 31
0.0
  0
LINE
  8
LC-005-005-----0
 62
     2
  5
ED
 10
199.72409
 20
417.512979
 30
0.0
 11
202.1412
 21
419.930089
 31
0.0
  0
LINE
  8
LC-005-005-----0
 62
     2
  5
EE
 10
149.97409
 20
370.591406
 30
0.0
 11
152.724797
 21
373.342113
 31
0.0
  0
LINE
  8
LC-005-005-----0
 62
     2
  5
EF
 10
199.72409
 20
420.341406
 30
0.0
 11
202.116731
 21
422.734046
 31
0.0
  0
LINE
  8
LC-005-005-----0
 62
     2
  5
F0
 10
149.97409
 20
373.419833
 30
0.0
 11
152.724797
 21
376.17054
 31
0.0
  0
LINE
  8
LC-005-005-----0
 62
     2
  5
F1
 10
199.72409
 20
423.169833
 30
0.0
 11
202.092261
 21
425.538004
 31
0.0
  0
LINE
  8
LC-005-005-----0
 62
     2
  5
F2
 10
149.97409
 20
376.24826
 30
0.0
 11
152.724797
 21
378.998967
 31
0.0
  0
LINE
  8
LC-005-005-----0
 62
     2
  5
F3
 10
199.72409
 20
425.99826
 30
0.0
 11
201.863338
 21
428.137508
 31
0.0
  0
LINE
  8
LC-005-005-----0
 62
     2
  5
F4
 10
149.97409
 20
379.076687
 30
0.0
 11
152.724797
 21
381.827394
 31
0.0
  0
LINE
  8
LC-005-005-----0
 62
     2
  5
F5
 10
149.97409
 20
381.905115
 30
0.0
 11
152.724797
 21
384.655822
 31
0.0
  0
LINE
  8
LC-005-005-----0
 62
     2
  5
F6
 10
149.97409
 20
384.733542
 30
0.0
 11
152.724797
 21
387.484249
 31
0.0
  0
LINE
  8
LC-005-005-----0
 62
     2
  5
F7
 10
149.97409
 20
387.561969
 30
0.0
 11
152.724797
 21
390.312676
 31
0.0
  0
LINE
  8
LC-005-005-----0
 62
     2
  5
F8
 10
149.97409
 20
390.390396
 30
0.0
 11
152.724797
 21
393.141103
 31
0.0
  0
LINE
  8
LC-005-005-----0
 62
     2
  5
F9
 10
149.97409
 20
393.218823
 30
0.0
 11
152.724797
 21
395.96953
 31
0.0
  0
LINE
  8
LC-005-005-----0
 62
     2
  5
FA
 10
149.97409
 20
396.04725
 30
0.0
 11
152.724797
 21
398.797957
 31
0.0
  0
LINE
  8
LC-005-005-----0
 62
     2
  5
FB
 10
149.97409
 20
398.875677
 30
0.0
 11
152.724797
 21
401.626384
 31
0.0
  0
LINE
  8
LC-005-005-----0
 62
     2
  5
FC
 10
149.97409
 20
401.704104
 30
0.0
 11
152.724797
 21
404.454811
 31
0.0
  0
LINE
  8
LC-005-005-----0
 62
     2
  5
FD
 10
149.97409
 20
404.532532
 30
0.0
 11
152.724797
 21
407.283239
 31
0.0
  0
LINE
  8
LC-005-005-----0
 62
     2
  5
FE
 10
149.97409
 20
407.360959
 30
0.0
 11
152.724797
 21
410.111666
 31
0.0
  0
LINE
  8
LC-005-005-----0
 62
     2
  5
FF
 10
149.97409
 20
410.189386
 30
0.0
 11
152.724797
 21
412.940093
 31
0.0
  0
LINE
  8
LC-005-005-----0
 62
     2
  5
100
 10
149.97409
 20
413.017813
 30
0.0
 11
152.724797
 21
415.76852
 31
0.0
  0
LINE
  8
LC-005-005-----0
 62
     2
  5
101
 10
149.97409
 20
415.84624
 30
0.0
 11
152.724797
 21
418.596947
 31
0.0
  0
LINE
  8
LC-005-005-----0
 62
     2
  5
102
 10
149.97409
 20
418.674667
 30
0.0
 11
152.724797
 21
421.425374
 31
0.0
  0
LINE
  8
LC-005-005-----0
 62
     2
  5
103
 10
149.97409
 20
421.503094
 30
0.0
 11
152.724797
 21
424.253801
 31
0.0
  0
LINE
  8
LC-005-005-----0
 62
     2
  5
104
 10
149.97409
 20
424.331521
 30
0.0
 11
152.724797
 21
427.082228
 31
0.0
  0
LINE
  8
LC-005-005-----0
 62
     2
  5
105
 10
148.910811
 20
426.096669
 30
0.0
 11
152.174797
 21
429.360656
 31
0.0
  0
LINE
  8
LC-005-005-----0
 62
     2
  5
106
 10
147.745961
 20
427.760246
 30
0.0
 11
152.467798
 21
432.482083
 31
0.0
  0
LINE
  8
LC-005-005-----0
 62
     2
  5
107
 10
146.581112
 20
429.423824
 30
0.0
 11
152.925283
 21
435.767995
 31
0.0
  0
LINE
  8
LC-005-005-----0
 62
     2
  5
108
 10
145.416262
 20
431.087402
 30
0.0
 11
151.116368
 21
436.787508
 31
0.0
  0
LINE
  8
LC-005-005-----0
 62
     2
  5
109
 10
144.251412
 20
432.750979
 30
0.0
 11
148.287941
 21
436.787508
 31
0.0
  0
LINE
  8
LC-005-005-----0
 62
     2
  5
10A
 10
143.086563
 20
434.414557
 30
0.0
 11
145.459514
 21
436.787508
 31
0.0
  0
LINE
  8
LC-005-005-----0
 62
     2
  5
10B
 10
141.921713
 20
436.078134
 30
0.0
 11
143.476179
 21
437.6326
 31
0.0
  0
LINE
  8
LC-005-005-----0
 62
     2
  5
10C
 10
140.756864
 20
437.741712
 30
0.0
 11
143.476179
 21
440.461027
 31
0.0
  0
LINE
  8
LC-005-005-----0
 62
     2
  5
10D
 10
140.724797
 20
440.538073
 30
0.0
 11
143.476179
 21
443.289454
 31
0.0
  0
LINE
  8
LC-005-005-----0
 62
     2
  5
10E
 10
140.724797
 20
443.3665
 30
0.0
 11
143.476179
 21
446.117881
 31
0.0
  0
LINE
  8
LC-005-005-----0
 62
     2
  5
10F
 10
139.920553
 20
445.390682
 30
0.0
 11
143.476179
 21
448.946309
 31
0.0
  0
LINE
  8
LC-005-005-----0
 62
     2
  5
110
 10
137.60887
 20
445.907427
 30
0.0
 11
139.988951
 21
448.287508
 31
0.0
  0
LINE
  8
LC-005-005-----0
 62
     2
  5
111
 10
141.474797
 20
449.773354
 30
0.0
 11
143.476179
 21
451.774736
 31
0.0
  0
LINE
  8
LC-005-005-----0
 62
     2
  5
112
 10
135.970155
 20
447.097139
 30
0.0
 11
138.409349
 21
449.536333
 31
0.0
  0
LINE
  8
LC-005-005-----0
 62
     2
  5
113
 10
141.474797
 20
452.601781
 30
0.0
 11
143.164091
 21
454.291075
 31
0.0
  0
LINE
  8
LC-005-005-----0
 62
     2
  5
114
 10
135.413981
 20
449.369392
 30
0.0
 11
138.268499
 21
452.22391
 31
0.0
  0
LINE
  8
LC-005-005-----0
 62
     2
  5
115
 10
135.273131
 20
452.056969
 30
0.0
 11
138.127649
 21
454.911487
 31
0.0
  0
LINE
  8
LC-005-005-----0
 62
     2
  5
116
 10
134.697918
 20
454.310183
 30
0.0
 11
137.792877
 21
457.405143
 31
0.0
  0
LINE
  8
LC-005-005-----0
 62
     2
  5
117
 10
132.33853
 20
454.779222
 30
0.0
 11
135.149307
 21
457.589999
 31
0.0
  0
LINE
  8
LC-005-005-----0
 62
     2
  5
118
 10
129.694959
 20
454.964078
 30
0.0
 11
132.505736
 21
457.774855
 31
0.0
  0
LINE
  8
LC-005-005-----0
 62
     2
  5
119
 10
127.051388
 20
455.148934
 30
0.0
 11
129.862165
 21
457.959712
 31
0.0
  0
LINE
  8
LC-005-005-----0
 62
     2
  5
11A
 10
124.407817
 20
455.333791
 30
0.0
 11
127.218594
 21
458.144568
 31
0.0
  0
LINE
  8
LC-005-005-----0
 62
     2
  5
11B
 10
121.764246
 20
455.518647
 30
0.0
 11
124.575023
 21
458.329424
 31
0.0
  0
LINE
  8
LC-005-005-----0
 62
     2
  5
11C
 10
119.871063
 20
456.453891
 30
0.0
 11
122.023724
 21
458.606552
 31
0.0
  0
LINE
  8
LC-005-005-----0
 62
     2
  5
11D
 10
117.905624
 20
457.316879
 30
0.0
 11
120.497619
 21
459.908874
 31
0.0
  0
LINE
  8
LC-005-005-----0
 62
     2
  5
11E
 10
115.125721
 20
457.365403
 30
0.0
 11
118.074703
 21
460.314385
 31
0.0
  0
LINE
  8
LC-005-005-----0
 62
     2
  5
11F
 10
112.345817
 20
457.413926
 30
0.0
 11
115.294799
 21
460.362908
 31
0.0
  0
LINE
  8
LC-005-005-----0
 62
     2
  5
120
 10
109.565913
 20
457.46245
 30
0.0
 11
112.514895
 21
460.411432
 31
0.0
  0
LINE
  8
LC-005-005-----0
 62
     2
  5
121
 10
106.786009
 20
457.510973
 30
0.0
 11
109.734992
 21
460.459955
 31
0.0
  0
LINE
  8
LC-005-005-----0
 62
     2
  5
122
 10
104.006106
 20
457.559496
 30
0.0
 11
106.955088
 21
460.508479
 31
0.0
  0
LINE
  8
LC-005-005-----0
 62
     2
  5
123
 10
101.226202
 20
457.60802
 30
0.0
 11
104.175184
 21
460.557002
 31
0.0
  0
LINE
  8
LC-005-005-----0
 62
     2
  5
124
 10
98.446298
 20
457.656543
 30
0.0
 11
101.395281
 21
460.605525
 31
0.0
  0
LINE
  8
LC-005-005-----0
 62
     2
  5
125
 10
95.666395
 20
457.705067
 30
0.0
 11
98.615377
 21
460.654049
 31
0.0
  0
LINE
  8
LC-005-005-----0
 62
     2
  5
126
 10
92.886491
 20
457.75359
 30
0.0
 11
95.835473
 21
460.702572
 31
0.0
  0
LINE
  8
LC-005-005-----0
 62
     2
  5
127
 10
90.106587
 20
457.802113
 30
0.0
 11
93.055569
 21
460.751096
 31
0.0
  0
LINE
  8
LC-005-005-----0
 62
     2
  5
128
 10
87.326683
 20
457.850637
 30
0.0
 11
90.275666
 21
460.799619
 31
0.0
  0
LINE
  8
LC-005-005-----0
 62
     2
  5
129
 10
84.54678
 20
457.89916
 30
0.0
 11
87.495762
 21
460.848142
 31
0.0
  0
LINE
  8
LC-005-005-----0
 62
     2
  5
12A
 10
81.766876
 20
457.947684
 30
0.0
 11
84.715858
 21
460.896666
 31
0.0
  0
LINE
  8
LC-005-005-----0
 62
     2
  5
12B
 10
79.472347
 20
458.481582
 30
0.0
 11
81.935955
 21
460.945189
 31
0.0
  0
ENDBLK
  8
0
  5
12C
  0
BLOCK
  8
0
  5
12F
  2
*X1
 70
    65
 10
0.0
 20
0.0
 30
0.0
  3
*X1
  0
LINE
  8
LC-005-005-----0
 62
     2
  5
130
 10
302.774634
 20
350.857895
 30
0.0
 11
309.75385
 21
357.837111
 31
0.0
  0
LINE
  8
LC-005-005-----0
 62
     2
  5
131
 10
299.237174
 20
350.148863
 30
0.0
 11
303.78201
 21
354.693698
 31
0.0
  0
LINE
  8
LC-005-005-----0
 62
     2
  5
132
 10
306.167193
 20
357.078881
 30
0.0
 11
310.462883
 21
361.374571
 31
0.0
  0
LINE
  8
LC-005-005-----0
 62
     2
  5
133
 10
296.397541
 20
350.137656
 30
0.0
 11
299.424763
 21
353.164879
 31
0.0
  0
LINE
  8
LC-005-005-----0
 62
     2
  5
134
 10
307.696012
 20
361.436128
 30
0.0
 11
310.47409
 21
364.214206
 31
0.0
  0
LINE
  8
LC-005-005-----0
 62
     2
  5
135
 10
293.569115
 20
350.137657
 30
0.0
 11
296.568965
 21
353.137508
 31
0.0
  0
LINE
  8
LC-005-005-----0
 62
     2
  5
136
 10
307.723383
 20
364.291926
 30
0.0
 11
310.47409
 21
367.042633
 31
0.0
  0
LINE
  8
LC-005-005-----0
 62
     2
  5
137
 10
290.740689
 20
350.137658
 30
0.0
 11
293.740538
 21
353.137508
 31
0.0
  0
LINE
  8
LC-005-005-----0
 62
     2
  5
138
 10
307.723383
 20
367.120353
 30
0.0
 11
310.47409
 21
369.87106
 31
0.0
  0
LINE
  8
LC-005-005-----0
 62
     2
  5
139
 10
287.912263
 20
350.13766
 30
0.0
 11
290.912111
 21
353.137508
 31
0.0
  0
LINE
  8
LC-005-005-----0
 62
     2
  5
13A
 10
307.723383
 20
369.94878
 30
0.0
 11
310.47409
 21
372.699487
 31
0.0
  0
LINE
  8
LC-005-005-----0
 62
     2
  5
13B
 10
254.080972
 20
319.134796
 30
0.0
 11
254.467529
 21
319.521353
 31
0.0
  0
LINE
  8
LC-005-005-----0
 62
     2
  5
13C
 10
285.083837
 20
350.137661
 30
0.0
 11
288.083684
 21
353.137508
 31
0.0
  0
LINE
  8
LC-005-005-----0
 62
     2
  5
13D
 10
307.723383
 20
372.777207
 30
0.0
 11
310.47409
 21
375.527914
 31
0.0
  0
LINE
  8
LC-005-005-----0
 62
     2
  5
13E
 10
252.224216
 20
320.106467
 30
0.0
 11
255.22409
 21
323.106341
 31
0.0
  0
LINE
  8
LC-005-005-----0
 62
     2
  5
13F
 10
282.255411
 20
350.137662
 30
0.0
 11
285.255257
 21
353.137508
 31
0.0
  0
LINE
  8
LC-005-005-----0
 62
     2
  5
140
 10
307.723383
 20
375.605634
 30
0.0
 11
310.47409
 21
378.356341
 31
0.0
  0
LINE
  8
LC-005-005-----0
 62
     2
  5
141
 10
252.22422
 20
322.934899
 30
0.0
 11
255.22409
 21
325.934769
 31
0.0
  0
LINE
  8
LC-005-005-----0
 62
     2
  5
142
 10
279.426985
 20
350.137663
 30
0.0
 11
282.426829
 21
353.137508
 31
0.0
  0
LINE
  8
LC-005-005-----0
 62
     2
  5
143
 10
307.723383
 20
378.434062
 30
0.0
 11
310.47409
 21
381.184769
 31
0.0
  0
LINE
  8
LC-005-005-----0
 62
     2
  5
144
 10
252.224225
 20
325.76333
 30
0.0
 11
255.22409
 21
328.763196
 31
0.0
  0
LINE
  8
LC-005-005-----0
 62
     2
  5
145
 10
276.598559
 20
350.137665
 30
0.0
 11
279.598402
 21
353.137508
 31
0.0
  0
LINE
  8
LC-005-005-----0
 62
     2
  5
146
 10
307.723383
 20
381.262489
 30
0.0
 11
310.47409
 21
384.013196
 31
0.0
  0
LINE
  8
LC-005-005-----0
 62
     2
  5
147
 10
252.224229
 20
328.591762
 30
0.0
 11
255.22409
 21
331.591623
 31
0.0
  0
LINE
  8
LC-005-005-----0
 62
     2
  5
148
 10
273.770133
 20
350.137666
 30
0.0
 11
276.769975
 21
353.137508
 31
0.0
  0
LINE
  8
LC-005-005-----0
 62
     2
  5
149
 10
307.723383
 20
384.090916
 30
0.0
 11
310.47409
 21
386.841623
 31
0.0
  0
LINE
  8
LC-005-005-----0
 62
     2
  5
14A
 10
252.224234
 20
331.420193
 30
0.0
 11
255.22409
 21
334.42005
 31
0.0
  0
LINE
  8
LC-005-005-----0
 62
     2
  5
14B
 10
270.974603
 20
350.170562
 30
0.0
 11
273.941548
 21
353.137508
 31
0.0
  0
LINE
  8
LC-005-005-----0
 62
     2
  5
14C
 10
307.723383
 20
386.919343
 30
0.0
 11
310.47409
 21
389.67005
 31
0.0
  0
LINE
  8
LC-005-005-----0
 62
     2
  5
14D
 10
378.752838
 20
457.948797
 30
0.0
 11
380.983548
 21
460.179507
 31
0.0
  0
LINE
  8
LC-005-005-----0
 62
     2
  5
14E
 10
252.224238
 20
334.248625
 30
0.0
 11
255.22409
 21
337.248477
 31
0.0
  0
LINE
  8
LC-005-005-----0
 62
     2
  5
14F
 10
268.103028
 20
350.127415
 30
0.0
 11
270.676197
 21
352.700584
 31
0.0
  0
LINE
  8
LC-005-005-----0
 62
     2
  5
150
 10
270.974586
 20
352.998973
 30
0.0
 11
271.113121
 21
353.137508
 31
0.0
  0
LINE
  8
LC-005-005-----0
 62
     2
  5
151
 10
307.723383
 20
389.74777
 30
0.0
 11
310.47409
 21
392.498477
 31
0.0
  0
LINE
  8
LC-005-005-----0
 62
     2
  5
152
 10
375.874163
 20
457.89855
 30
0.0
 11
378.927924
 21
460.952311
 31
0.0
  0
LINE
  8
LC-005-005-----0
 62
     2
  5
153
 10
252.224241
 20
337.077054
 30
0.0
 11
255.22409
 21
340.076904
 31
0.0
  0
LINE
  8
LC-005-005-----0
 62
     2
  5
154
 10
265.284771
 20
350.137584
 30
0.0
 11
268.284694
 21
353.137508
 31
0.0
  0
LINE
  8
LC-005-005-----0
 62
     2
  5
155
 10
307.723383
 20
392.576197
 30
0.0
 11
310.47409
 21
395.326904
 31
0.0
  0
LINE
  8
LC-005-005-----0
 62
     2
  5
156
 10
372.995489
 20
457.848303
 30
0.0
 11
376.049249
 21
460.902063
 31
0.0
  0
LINE
  8
LC-005-005-----0
 62
     2
  5
157
 10
252.224243
 20
339.905483
 30
0.0
 11
255.22409
 21
342.905331
 31
0.0
  0
LINE
  8
LC-005-005-----0
 62
     2
  5
158
 10
262.45641
 20
350.137651
 30
0.0
 11
265.456267
 21
353.137508
 31
0.0
  0
LINE
  8
LC-005-005-----0
 62
     2
  5
159
 10
307.723383
 20
395.404624
 30
0.0
 11
310.47409
 21
398.155331
 31
0.0
  0
LINE
  8
LC-005-005-----0
 62
     2
  5
15A
 10
370.116814
 20
457.798055
 30
0.0
 11
373.170575
 21
460.851816
 31
0.0
  0
LINE
  8
LC-005-005-----0
 62
     2
  5
15B
 10
252.224244
 20
342.733912
 30
0.0
 11
255.22409
 21
345.733758
 31
0.0
  0
LINE
  8
LC-005-005-----0
 62
     2
  5
15C
 10
260.657227
 20
351.166895
 30
0.0
 11
262.780197
 21
353.289865
 31
0.0
  0
LINE
  8
LC-005-005-----0
 62
     2
  5
15D
 10
307.723383
 20
398.233051
 30
0.0
 11
310.47409
 21
400.983758
 31
0.0
  0
LINE
  8
LC-005-005-----0
 62
     2
  5
15E
 10
367.23814
 20
457.747808
 30
0.0
 11
370.2919
 21
460.801568
 31
0.0
  0
LINE
  8
LC-005-005-----0
 62
     2
  5
15F
 10
252.224246
 20
345.562341
 30
0.0
 11
255.22409
 21
348.562186
 31
0.0
  0
LINE
  8
LC-005-005-----0
 62
     2
  5
160
 10
255.33734
 20
348.675435
 30
0.0
 11
257.813443
 21
351.151538
 31
0.0
  0
LINE
  8
LC-005-005-----0
 62
     2
  5
161
 10
259.282975
 20
352.62107
 30
0.0
 11
261.191427
 21
354.529522
 31
0.0
  0
LINE
  8
LC-005-005-----0
 62
     2
  5
162
 10
307.723383
 20
401.061479
 30
0.0
 11
310.47409
 21
403.812186
 31
0.0
  0
LINE
  8
LC-005-005-----0
 62
     2
  5
163
 10
364.359465
 20
457.69756
 30
0.0
 11
367.413226
 21
460.751321
 31
0.0
  0
LINE
  8
LC-005-005-----0
 62
     2
  5
164
 10
252.224248
 20
348.39077
 30
0.0
 11
260.72409
 21
356.890613
 31
0.0
  0
LINE
  8
LC-005-005-----0
 62
     2
  5
165
 10
307.723383
 20
403.889906
 30
0.0
 11
310.47409
 21
406.640613
 31
0.0
  0
LINE
  8
LC-005-005-----0
 62
     2
  5
166
 10
361.480791
 20
457.647313
 30
0.0
 11
364.534551
 21
460.701073
 31
0.0
  0
LINE
  8
LC-005-005-----0
 62
     2
  5
167
 10
252.604655
 20
351.599605
 30
0.0
 11
253.762152
 21
352.757101
 31
0.0
  0
LINE
  8
LC-005-005-----0
 62
     2
  5
168
 10
257.762327
 20
356.757277
 30
0.0
 11
260.72409
 21
359.71904
 31
0.0
  0
LINE
  8
LC-005-005-----0
 62
     2
  5
169
 10
307.723383
 20
406.718333
 30
0.0
 11
310.47409
 21
409.46904
 31
0.0
  0
LINE
  8
LC-005-005-----0
 62
     2
  5
16A
 10
358.602116
 20
457.597065
 30
0.0
 11
361.655877
 21
460.650826
 31
0.0
  0
LINE
  8
LC-005-005-----0
 62
     2
  5
16B
 10
257.792524
 20
359.615901
 30
0.0
 11
260.72409
 21
362.547467
 31
0.0
  0
LINE
  8
LC-005-005-----0
 62
     2
  5
16C
 10
307.723383
 20
409.54676
 30
0.0
 11
310.47409
 21
412.297467
 31
0.0
  0
LINE
  8
LC-005-005-----0
 62
     2
  5
16D
 10
355.723441
 20
457.546818
 30
0.0
 11
358.777202
 21
460.600578
 31
0.0
  0
LINE
  8
LC-005-005-----0
 62
     2
  5
16E
 10
257.822721
 20
362.474524
 30
0.0
 11
260.72409
 21
365.375894
 31
0.0
  0
LINE
  8
LC-005-005-----0
 62
     2
  5
16F
 10
307.723383
 20
412.375187
 30
0.0
 11
310.47409
 21
415.125894
 31
0.0
  0
LINE
  8
LC-005-005-----0
 62
     2
  5
170
 10
352.844767
 20
457.49657
 30
0.0
 11
355.898527
 21
460.550331
 31
0.0
  0
LINE
  8
LC-005-005-----0
 62
     2
  5
171
 10
257.852918
 20
365.333148
 30
0.0
 11
260.72409
 21
368.204321
 31
0.0
  0
LINE
  8
LC-005-005-----0
 62
     2
  5
172
 10
307.723383
 20
415.203614
 30
0.0
 11
310.47409
 21
417.954321
 31
0.0
  0
LINE
  8
LC-005-005-----0
 62
     2
  5
173
 10
349.966092
 20
457.446323
 30
0.0
 11
353.019853
 21
460.500084
 31
0.0
  0
LINE
  8
LC-005-005-----0
 62
     2
  5
174
 10
257.883114
 20
368.191772
 30
0.0
 11
260.72409
 21
371.032748
 31
0.0
  0
LINE
  8
LC-005-005-----0
 62
     2
  5
175
 10
307.723383
 20
418.032041
 30
0.0
 11
310.47409
 21
420.782748
 31
0.0
  0
LINE
  8
LC-005-005-----0
 62
     2
  5
176
 10
347.087418
 20
457.396076
 30
0.0
 11
350.141178
 21
460.449836
 31
0.0
  0
LINE
  8
LC-005-005-----0
 62
     2
  5
177
 10
257.913311
 20
371.050396
 30
0.0
 11
260.72409
 21
373.861175
 31
0.0
  0
LINE
  8
LC-005-005-----0
 62
     2
  5
178
 10
307.723383
 20
420.860468
 30
0.0
 11
310.47409
 21
423.611175
 31
0.0
  0
LINE
  8
LC-005-005-----0
 62
     2
  5
179
 10
344.208743
 20
457.345828
 30
0.0
 11
347.262504
 21
460.399589
 31
0.0
  0
LINE
  8
LC-005-005-----0
 62
     2
  5
17A
 10
257.943508
 20
373.90902
 30
0.0
 11
260.72409
 21
376.689602
 31
0.0
  0
LINE
  8
LC-005-005-----0
 62
     2
  5
17B
 10
307.723383
 20
423.688896
 30
0.0
 11
314.847512
 21
430.813024
 31
0.0
  0
LINE
  8
LC-005-005-----0
 62
     2
  5
17C
 10
339.617905
 20
455.583417
 30
0.0
 11
344.383829
 21
460.349341
 31
0.0
  0
LINE
  8
LC-005-005-----0
 62
     2
  5
17D
 10
257.973704
 20
376.767644
 30
0.0
 11
260.72409
 21
379.51803
 31
0.0
  0
LINE
  8
LC-005-005-----0
 62
     2
  5
17E
 10
307.723383
 20
426.517323
 30
0.0
 11
319.731098
 21
438.525037
 31
0.0
  0
LINE
  8
LC-005-005-----0
 62
     2
  5
17F
 10
336.576825
 20
455.370764
 30
0.0
 11
341.505154
 21
460.299094
 31
0.0
  0
LINE
  8
LC-005-005-----0
 62
     2
  5
180
 10
258.003901
 20
379.626268
 30
0.0
 11
260.72409
 21
382.346457
 31
0.0
  0
LINE
  8
LC-005-005-----0
 62
     2
  5
181
 10
308.281098
 20
429.903464
 30
0.0
 11
315.165141
 21
436.787508
 31
0.0
  0
LINE
  8
LC-005-005-----0
 62
     2
  5
182
 10
316.981098
 20
438.603464
 30
0.0
 11
319.731098
 21
441.353464
 31
0.0
  0
LINE
  8
LC-005-005-----0
 62
     2
  5
183
 10
333.535745
 20
455.158111
 30
0.0
 11
336.769174
 21
458.39154
 31
0.0
  0
LINE
  8
LC-005-005-----0
 62
     2
  5
184
 10
258.034098
 20
382.484891
 30
0.0
 11
260.72409
 21
385.174884
 31
0.0
  0
LINE
  8
LC-005-005-----0
 62
     2
  5
185
 10
307.282404
 20
431.733197
 30
0.0
 11
308.035408
 21
432.486202
 31
0.0
  0
LINE
  8
LC-005-005-----0
 62
     2
  5
186
 10
308.281098
 20
432.731891
 30
0.0
 11
312.336714
 21
436.787508
 31
0.0
  0
LINE
  8
LC-005-005-----0
 62
     2
  5
187
 10
316.981098
 20
441.431891
 30
0.0
 11
319.78109
 21
444.231884
 31
0.0
  0
LINE
  8
LC-005-005-----0
 62
     2
  5
188
 10
321.286722
 20
445.737515
 30
0.0
 11
325.048734
 21
449.499528
 31
0.0
  0
LINE
  8
LC-005-005-----0
 62
     2
  5
189
 10
330.494665
 20
454.945459
 30
0.0
 11
333.728094
 21
458.178887
 31
0.0
  0
LINE
  8
LC-005-005-----0
 62
     2
  5
18A
 10
258.064295
 20
385.343515
 30
0.0
 11
260.72409
 21
388.003311
 31
0.0
  0
LINE
  8
LC-005-005-----0
 62
     2
  5
18B
 10
307.306869
 20
434.586089
 30
0.0
 11
309.508287
 21
436.787508
 31
0.0
  0
LINE
  8
LC-005-005-----0
 62
     2
  5
18C
 10
322.0349
 20
449.314121
 30
0.0
 11
325.205164
 21
452.484385
 31
0.0
  0
LINE
  8
LC-005-005-----0
 62
     2
  5
18D
 10
327.453585
 20
454.732806
 30
0.0
 11
330.687014
 21
457.966235
 31
0.0
  0
LINE
  8
LC-005-005-----0
 62
     2
  5
18E
 10
258.094491
 20
388.202139
 30
0.0
 11
260.72409
 21
390.831738
 31
0.0
  0
LINE
  8
LC-005-005-----0
 62
     2
  5
18F
 10
316.981098
 20
447.088746
 30
0.0
 11
318.979716
 21
449.087364
 31
0.0
  0
LINE
  8
LC-005-005-----0
 62
     2
  5
190
 10
322.19133
 20
452.298978
 30
0.0
 11
327.645934
 21
457.753582
 31
0.0
  0
LINE
  8
LC-005-005-----0
 62
     2
  5
191
 10
258.124688
 20
391.060763
 30
0.0
 11
260.72409
 21
393.660165
 31
0.0
  0
LINE
  8
LC-005-005-----0
 62
     2
  5
192
 10
316.981098
 20
449.917173
 30
0.0
 11
318.979716
 21
451.915791
 31
0.0
  0
LINE
  8
LC-005-005-----0
 62
     2
  5
193
 10
322.34776
 20
455.283835
 30
0.0
 11
324.604854
 21
457.540929
 31
0.0
  0
LINE
  8
LC-005-005-----0
 62
     2
  5
194
 10
258.154885
 20
393.919387
 30
0.0
 11
260.72409
 21
396.488592
 31
0.0
  0
LINE
  8
LC-005-005-----0
 62
     2
  5
195
 10
316.981098
 20
452.7456
 30
0.0
 11
318.523006
 21
454.287508
 31
0.0
  0
LINE
  8
LC-005-005-----0
 62
     2
  5
196
 10
258.185082
 20
396.778011
 30
0.0
 11
260.72409
 21
399.317019
 31
0.0
  0
LINE
  8
LC-005-005-----0
 62
     2
  5
197
 10
258.215278
 20
399.636635
 30
0.0
 11
260.72409
 21
402.145447
 31
0.0
  0
LINE
  8
LC-005-005-----0
 62
     2
  5
198
 10
258.245475
 20
402.495258
 30
0.0
 11
260.72409
 21
404.973874
 31
0.0
  0
LINE
  8
LC-005-005-----0
 62
     2
  5
199
 10
258.275672
 20
405.353882
 30
0.0
 11
260.72409
 21
407.802301
 31
0.0
  0
LINE
  8
LC-005-005-----0
 62
     2
  5
19A
 10
258.305869
 20
408.212506
 30
0.0
 11
260.72409
 21
410.630728
 31
0.0
  0
LINE
  8
LC-005-005-----0
 62
     2
  5
19B
 10
258.336065
 20
411.07113
 30
0.0
 11
260.72409
 21
413.459155
 31
0.0
  0
LINE
  8
LC-005-005-----0
 62
     2
  5
19C
 10
258.366262
 20
413.929754
 30
0.0
 11
260.72409
 21
416.287582
 31
0.0
  0
LINE
  8
LC-005-005-----0
 62
     2
  5
19D
 10
258.396459
 20
416.788378
 30
0.0
 11
260.72409
 21
419.116009
 31
0.0
  0
LINE
  8
LC-005-005-----0
 62
     2
  5
19E
 10
258.426655
 20
419.647002
 30
0.0
 11
260.72409
 21
421.944436
 31
0.0
  0
LINE
  8
LC-005-005-----0
 62
     2
  5
19F
 10
258.456852
 20
422.505625
 30
0.0
 11
260.72409
 21
424.772864
 31
0.0
  0
LINE
  8
LC-005-005-----0
 62
     2
  5
1A0
 10
258.487049
 20
425.364249
 30
0.0
 11
260.72409
 21
427.601291
 31
0.0
  0
LINE
  8
LC-005-005-----0
 62
     2
  5
1A1
 10
257.756033
 20
427.46166
 30
0.0
 11
258.43188
 21
428.137508
 31
0.0
  0
ENDBLK
  8
0
  5
1A2
  0
BLOCK
  8
0
  5
1AA
  2
*X2
 70
    65
 10
0.0
 20
0.0
 30
0.0
  3
*X2
  0
LINE
  8
LC-005-005-----0
 62
     2
  5
1AB
 10
258.6079
 20
250.122619
 30
0.0
 11
259.224068
 21
250.738786
 31
0.0
  0
LINE
  8
LC-005-005-----0
 62
     2
  5
1AC
 10
255.779473
 20
250.122619
 30
0.0
 11
259.224068
 21
253.567214
 31
0.0
  0
LINE
  8
LC-005-005-----0
 62
     2
  5
1AD
 10
255.224068
 20
252.395641
 30
0.0
 11
259.224068
 21
256.395641
 31
0.0
  0
LINE
  8
LC-005-005-----0
 62
     2
  5
1AE
 10
255.224068
 20
255.224068
 30
0.0
 11
259.224068
 21
259.224068
 31
0.0
  0
LINE
  8
LC-005-005-----0
 62
     2
  5
1AF
 10
255.224068
 20
258.052495
 30
0.0
 11
259.224068
 21
262.052495
 31
0.0
  0
LINE
  8
LC-005-005-----0
 62
     2
  5
1B0
 10
255.224068
 20
260.880922
 30
0.0
 11
259.224068
 21
264.880922
 31
0.0
  0
LINE
  8
LC-005-005-----0
 62
     2
  5
1B1
 10
255.224068
 20
263.709349
 30
0.0
 11
259.224068
 21
267.709349
 31
0.0
  0
LINE
  8
LC-005-005-----0
 62
     2
  5
1B2
 10
255.224068
 20
266.537776
 30
0.0
 11
259.224068
 21
270.537776
 31
0.0
  0
LINE
  8
LC-005-005-----0
 62
     2
  5
1B3
 10
255.224068
 20
269.366203
 30
0.0
 11
259.224068
 21
273.366203
 31
0.0
  0
LINE
  8
LC-005-005-----0
 62
     2
  5
1B4
 10
255.224068
 20
272.194631
 30
0.0
 11
259.224068
 21
276.194631
 31
0.0
  0
LINE
  8
LC-005-005-----0
 62
     2
  5
1B5
 10
255.224068
 20
275.023058
 30
0.0
 11
259.224068
 21
279.023058
 31
0.0
  0
LINE
  8
LC-005-005-----0
 62
     2
  5
1B6
 10
255.224068
 20
277.851485
 30
0.0
 11
259.224068
 21
281.851485
 31
0.0
  0
LINE
  8
LC-005-005-----0
 62
     2
  5
1B7
 10
255.224068
 20
280.679912
 30
0.0
 11
259.224068
 21
284.679912
 31
0.0
  0
LINE
  8
LC-005-005-----0
 62
     2
  5
1B8
 10
255.224068
 20
283.508339
 30
0.0
 11
259.224068
 21
287.508339
 31
0.0
  0
LINE
  8
LC-005-005-----0
 62
     2
  5
1B9
 10
255.224068
 20
286.336766
 30
0.0
 11
259.224068
 21
290.336766
 31
0.0
  0
LINE
  8
LC-005-005-----0
 62
     2
  5
1BA
 10
255.224068
 20
289.165193
 30
0.0
 11
259.224068
 21
293.165193
 31
0.0
  0
LINE
  8
LC-005-005-----0
 62
     2
  5
1BB
 10
255.224068
 20
291.99362
 30
0.0
 11
259.224068
 21
295.99362
 31
0.0
  0
LINE
  8
LC-005-005-----0
 62
     2
  5
1BC
 10
255.224068
 20
294.822048
 30
0.0
 11
259.224068
 21
298.822048
 31
0.0
  0
LINE
  8
LC-005-005-----0
 62
     2
  5
1BD
 10
255.224068
 20
297.650475
 30
0.0
 11
259.224068
 21
301.650475
 31
0.0
  0
LINE
  8
LC-005-005-----0
 62
     2
  5
1BE
 10
204.867785
 20
250.122619
 30
0.0
 11
205.224068
 21
250.478902
 31
0.0
  0
LINE
  8
LC-005-005-----0
 62
     2
  5
1BF
 10
255.224068
 20
300.478902
 30
0.0
 11
259.224068
 21
304.478902
 31
0.0
  0
LINE
  8
LC-005-005-----0
 62
     2
  5
1C0
 10
202.039358
 20
250.122619
 30
0.0
 11
205.224068
 21
253.307329
 31
0.0
  0
LINE
  8
LC-005-005-----0
 62
     2
  5
1C1
 10
255.224068
 20
303.307329
 30
0.0
 11
259.224068
 21
307.307329
 31
0.0
  0
LINE
  8
LC-005-005-----0
 62
     2
  5
1C2
 10
201.224068
 20
252.135756
 30
0.0
 11
205.224068
 21
256.135756
 31
0.0
  0
LINE
  8
LC-005-005-----0
 62
     2
  5
1C3
 10
255.224068
 20
306.135756
 30
0.0
 11
259.224068
 21
310.135756
 31
0.0
  0
LINE
  8
LC-005-005-----0
 62
     2
  5
1C4
 10
201.224068
 20
254.964183
 30
0.0
 11
205.224068
 21
258.964183
 31
0.0
  0
LINE
  8
LC-005-005-----0
 62
     2
  5
1C5
 10
255.224068
 20
308.964183
 30
0.0
 11
259.224068
 21
312.964183
 31
0.0
  0
LINE
  8
LC-005-005-----0
 62
     2
  5
1C6
 10
201.224068
 20
257.79261
 30
0.0
 11
205.224068
 21
261.79261
 31
0.0
  0
LINE
  8
LC-005-005-----0
 62
     2
  5
1C7
 10
255.224068
 20
311.79261
 30
0.0
 11
259.224068
 21
315.79261
 31
0.0
  0
LINE
  8
LC-005-005-----0
 62
     2
  5
1C8
 10
201.224068
 20
260.621037
 30
0.0
 11
205.224068
 21
264.621037
 31
0.0
  0
LINE
  8
LC-005-005-----0
 62
     2
  5
1C9
 10
255.224068
 20
314.621037
 30
0.0
 11
259.224068
 21
318.621037
 31
0.0
  0
LINE
  8
LC-005-005-----0
 62
     2
  5
1CA
 10
201.224068
 20
263.449465
 30
0.0
 11
205.224068
 21
267.449465
 31
0.0
  0
LINE
  8
LC-005-005-----0
 62
     2
  5
1CB
 10
255.224068
 20
317.449465
 30
0.0
 11
259.224068
 21
321.449465
 31
0.0
  0
LINE
  8
LC-005-005-----0
 62
     2
  5
1CC
 10
201.224068
 20
266.277892
 30
0.0
 11
205.224068
 21
270.277892
 31
0.0
  0
LINE
  8
LC-005-005-----0
 62
     2
  5
1CD
 10
255.224068
 20
320.277892
 30
0.0
 11
259.224068
 21
324.277892
 31
0.0
  0
LINE
  8
LC-005-005-----0
 62
     2
  5
1CE
 10
201.224068
 20
269.106319
 30
0.0
 11
205.224068
 21
273.106319
 31
0.0
  0
LINE
  8
LC-005-005-----0
 62
     2
  5
1CF
 10
255.224068
 20
323.106319
 30
0.0
 11
259.224068
 21
327.106319
 31
0.0
  0
LINE
  8
LC-005-005-----0
 62
     2
  5
1D0
 10
201.224068
 20
271.934746
 30
0.0
 11
205.224068
 21
275.934746
 31
0.0
  0
LINE
  8
LC-005-005-----0
 62
     2
  5
1D1
 10
255.224068
 20
325.934746
 30
0.0
 11
259.224068
 21
329.934746
 31
0.0
  0
LINE
  8
LC-005-005-----0
 62
     2
  5
1D2
 10
201.224068
 20
274.763173
 30
0.0
 11
205.224068
 21
278.763173
 31
0.0
  0
LINE
  8
LC-005-005-----0
 62
     2
  5
1D3
 10
255.224068
 20
328.763173
 30
0.0
 11
259.224068
 21
332.763173
 31
0.0
  0
LINE
  8
LC-005-005-----0
 62
     2
  5
1D4
 10
201.224068
 20
277.5916
 30
0.0
 11
205.224068
 21
281.5916
 31
0.0
  0
LINE
  8
LC-005-005-----0
 62
     2
  5
1D5
 10
255.224068
 20
331.5916
 30
0.0
 11
259.224068
 21
335.5916
 31
0.0
  0
LINE
  8
LC-005-005-----0
 62
     2
  5
1D6
 10
201.224068
 20
280.420027
 30
0.0
 11
205.224068
 21
284.420027
 31
0.0
  0
LINE
  8
LC-005-005-----0
 62
     2
  5
1D7
 10
255.224068
 20
334.420027
 30
0.0
 11
259.224068
 21
338.420027
 31
0.0
  0
LINE
  8
LC-005-005-----0
 62
     2
  5
1D8
 10
201.224068
 20
283.248454
 30
0.0
 11
205.224068
 21
287.248454
 31
0.0
  0
LINE
  8
LC-005-005-----0
 62
     2
  5
1D9
 10
255.224068
 20
337.248454
 30
0.0
 11
259.224068
 21
341.248454
 31
0.0
  0
LINE
  8
LC-005-005-----0
 62
     2
  5
1DA
 10
201.224068
 20
286.076882
 30
0.0
 11
205.224068
 21
290.076882
 31
0.0
  0
LINE
  8
LC-005-005-----0
 62
     2
  5
1DB
 10
255.224068
 20
340.076882
 30
0.0
 11
259.224068
 21
344.076882
 31
0.0
  0
LINE
  8
LC-005-005-----0
 62
     2
  5
1DC
 10
201.224068
 20
288.905309
 30
0.0
 11
205.224068
 21
292.905309
 31
0.0
  0
LINE
  8
LC-005-005-----0
 62
     2
  5
1DD
 10
255.224068
 20
342.905309
 30
0.0
 11
259.224068
 21
346.905309
 31
0.0
  0
LINE
  8
LC-005-005-----0
 62
     2
  5
1DE
 10
201.224068
 20
291.733736
 30
0.0
 11
205.224068
 21
295.733736
 31
0.0
  0
LINE
  8
LC-005-005-----0
 62
     2
  5
1DF
 10
255.224068
 20
345.733736
 30
0.0
 11
259.224068
 21
349.733736
 31
0.0
  0
LINE
  8
LC-005-005-----0
 62
     2
  5
1E0
 10
201.224068
 20
294.562163
 30
0.0
 11
205.224068
 21
298.562163
 31
0.0
  0
LINE
  8
LC-005-005-----0
 62
     2
  5
1E1
 10
255.224068
 20
348.562163
 30
0.0
 11
256.784524
 21
350.122619
 31
0.0
  0
LINE
  8
LC-005-005-----0
 62
     2
  5
1E2
 10
201.224068
 20
297.39059
 30
0.0
 11
205.224068
 21
301.39059
 31
0.0
  0
LINE
  8
LC-005-005-----0
 62
     2
  5
1E3
 10
201.224068
 20
300.219017
 30
0.0
 11
205.224068
 21
304.219017
 31
0.0
  0
LINE
  8
LC-005-005-----0
 62
     2
  5
1E4
 10
201.224068
 20
303.047444
 30
0.0
 11
205.224068
 21
307.047444
 31
0.0
  0
LINE
  8
LC-005-005-----0
 62
     2
  5
1E5
 10
201.224068
 20
305.875871
 30
0.0
 11
205.224068
 21
309.875871
 31
0.0
  0
LINE
  8
LC-005-005-----0
 62
     2
  5
1E6
 10
201.224068
 20
308.704299
 30
0.0
 11
205.224068
 21
312.704299
 31
0.0
  0
LINE
  8
LC-005-005-----0
 62
     2
  5
1E7
 10
201.224068
 20
311.532726
 30
0.0
 11
205.224068
 21
315.532726
 31
0.0
  0
LINE
  8
LC-005-005-----0
 62
     2
  5
1E8
 10
201.224068
 20
314.361153
 30
0.0
 11
205.224068
 21
318.361153
 31
0.0
  0
LINE
  8
LC-005-005-----0
 62
     2
  5
1E9
 10
201.224068
 20
317.18958
 30
0.0
 11
205.224068
 21
321.18958
 31
0.0
  0
LINE
  8
LC-005-005-----0
 62
     2
  5
1EA
 10
201.224068
 20
320.018007
 30
0.0
 11
205.224068
 21
324.018007
 31
0.0
  0
LINE
  8
LC-005-005-----0
 62
     2
  5
1EB
 10
201.224068
 20
322.846434
 30
0.0
 11
205.224068
 21
326.846434
 31
0.0
  0
LINE
  8
LC-005-005-----0
 62
     2
  5
1EC
 10
201.224068
 20
325.674861
 30
0.0
 11
205.224068
 21
329.674861
 31
0.0
  0
LINE
  8
LC-005-005-----0
 62
     2
  5
1ED
 10
201.224068
 20
328.503288
 30
0.0
 11
205.224068
 21
332.503288
 31
0.0
  0
LINE
  8
LC-005-005-----0
 62
     2
  5
1EE
 10
201.224068
 20
331.331716
 30
0.0
 11
205.224068
 21
335.331716
 31
0.0
  0
LINE
  8
LC-005-005-----0
 62
     2
  5
1EF
 10
201.224068
 20
334.160143
 30
0.0
 11
205.224068
 21
338.160143
 31
0.0
  0
LINE
  8
LC-005-005-----0
 62
     2
  5
1F0
 10
201.224068
 20
336.98857
 30
0.0
 11
205.224068
 21
340.98857
 31
0.0
  0
LINE
  8
LC-005-005-----0
 62
     2
  5
1F1
 10
201.224068
 20
339.816997
 30
0.0
 11
205.224068
 21
343.816997
 31
0.0
  0
LINE
  8
LC-005-005-----0
 62
     2
  5
1F2
 10
201.224068
 20
342.645424
 30
0.0
 11
205.224068
 21
346.645424
 31
0.0
  0
LINE
  8
LC-005-005-----0
 62
     2
  5
1F3
 10
201.224068
 20
345.473851
 30
0.0
 11
205.224068
 21
349.473851
 31
0.0
  0
LINE
  8
LC-005-005-----0
 62
     2
  5
1F4
 10
201.224068
 20
348.302278
 30
0.0
 11
203.044409
 21
350.122619
 31
0.0
  0
ENDBLK
  8
0
  5
1F5
  0
BLOCK
  8
0
  5
218
  2
*X3
 70
    65
 10
0.0
 20
0.0
 30
0.0
  3
*X3
  0
LINE
  8
LC-005-005-----0
 62
     2
  5
219
 10
271.157529
 20
378.63776
 30
0.0
 11
271.693117
 21
379.173348
 31
0.0
  0
LINE
  8
LC-005-005-----0
 62
     2
  5
21A
 10
270.693276
 20
381.001934
 30
0.0
 11
271.693119
 21
382.001777
 31
0.0
  0
LINE
  8
LC-005-005-----0
 62
     2
  5
21B
 10
270.693271
 20
383.830356
 30
0.0
 11
271.693121
 21
384.830206
 31
0.0
  0
LINE
  8
LC-005-005-----0
 62
     2
  5
21C
 10
270.693265
 20
386.658777
 30
0.0
 11
271.693122
 21
387.658635
 31
0.0
  0
LINE
  8
LC-005-005-----0
 62
     2
  5
21D
 10
270.693259
 20
389.487198
 30
0.0
 11
271.693124
 21
390.487064
 31
0.0
  0
LINE
  8
LC-005-005-----0
 62
     2
  5
21E
 10
270.693253
 20
392.315619
 30
0.0
 11
271.693126
 21
393.315493
 31
0.0
  0
LINE
  8
LC-005-005-----0
 62
     2
  5
21F
 10
270.693247
 20
395.144041
 30
0.0
 11
271.693128
 21
396.143922
 31
0.0
  0
LINE
  8
LC-005-005-----0
 62
     2
  5
220
 10
270.693241
 20
397.972462
 30
0.0
 11
271.69313
 21
398.97235
 31
0.0
  0
LINE
  8
LC-005-005-----0
 62
     2
  5
221
 10
270.693235
 20
400.800883
 30
0.0
 11
271.693132
 21
401.800779
 31
0.0
  0
LINE
  8
LC-005-005-----0
 62
     2
  5
222
 10
270.69323
 20
403.629304
 30
0.0
 11
271.693134
 21
404.629208
 31
0.0
  0
LINE
  8
LC-005-005-----0
 62
     2
  5
223
 10
270.693224
 20
406.457726
 30
0.0
 11
271.693135
 21
407.457637
 31
0.0
  0
LINE
  8
LC-005-005-----0
 62
     2
  5
224
 10
270.693218
 20
409.286147
 30
0.0
 11
271.693137
 21
410.286066
 31
0.0
  0
LINE
  8
LC-005-005-----0
 62
     2
  5
225
 10
270.693212
 20
412.114568
 30
0.0
 11
271.693139
 21
413.114495
 31
0.0
  0
LINE
  8
LC-005-005-----0
 62
     2
  5
226
 10
270.693206
 20
414.94299
 30
0.0
 11
271.693141
 21
415.942924
 31
0.0
  0
LINE
  8
LC-005-005-----0
 62
     2
  5
227
 10
270.6932
 20
417.771411
 30
0.0
 11
271.693143
 21
418.771353
 31
0.0
  0
LINE
  8
LC-005-005-----0
 62
     2
  5
228
 10
270.693194
 20
420.599832
 30
0.0
 11
271.693145
 21
421.599782
 31
0.0
  0
LINE
  8
LC-005-005-----0
 62
     2
  5
229
 10
270.693189
 20
423.428253
 30
0.0
 11
271.693147
 21
424.428211
 31
0.0
  0
LINE
  8
LC-005-005-----0
 62
     2
  5
22A
 10
270.693183
 20
426.256675
 30
0.0
 11
271.693148
 21
427.25664
 31
0.0
  0
LINE
  8
LC-005-005-----0
 62
     2
  5
22B
 10
270.693177
 20
429.085096
 30
0.0
 11
271.69315
 21
430.085069
 31
0.0
  0
LINE
  8
LC-005-005-----0
 62
     2
  5
22C
 10
270.693171
 20
431.913517
 30
0.0
 11
271.693152
 21
432.913498
 31
0.0
  0
LINE
  8
LC-005-005-----0
 62
     2
  5
22D
 10
270.693165
 20
434.741938
 30
0.0
 11
271.693154
 21
435.741927
 31
0.0
  0
LINE
  8
LC-005-005-----0
 62
     2
  5
22E
 10
270.693159
 20
437.57036
 30
0.0
 11
271.693156
 21
438.570356
 31
0.0
  0
LINE
  8
LC-005-005-----0
 62
     2
  5
22F
 10
270.559791
 20
440.265418
 30
0.0
 11
271.430238
 21
441.135865
 31
0.0
  0
LINE
  8
LC-005-005-----0
 62
     2
  5
230
 10
269.931515
 20
442.465569
 30
0.0
 11
270.755011
 21
443.289065
 31
0.0
  0
LINE
  8
LC-005-005-----0
 62
     2
  5
231
 10
268.93639
 20
444.298872
 30
0.0
 11
269.778286
 21
445.140768
 31
0.0
  0
LINE
  8
LC-005-005-----0
 62
     2
  5
232
 10
267.639958
 20
445.830867
 30
0.0
 11
268.546874
 21
446.737783
 31
0.0
  0
LINE
  8
LC-005-005-----0
 62
     2
  5
233
 10
266.057661
 20
447.076997
 30
0.0
 11
267.077376
 21
448.096712
 31
0.0
  0
LINE
  8
LC-005-005-----0
 62
     2
  5
234
 10
264.167105
 20
448.014868
 30
0.0
 11
265.364932
 21
449.212695
 31
0.0
  0
LINE
  8
LC-005-005-----0
 62
     2
  5
235
 10
261.889651
 20
448.565841
 30
0.0
 11
263.38082
 21
450.057011
 31
0.0
  0
LINE
  8
LC-005-005-----0
 62
     2
  5
236
 10
189.132961
 20
378.637579
 30
0.0
 11
189.693115
 21
379.197732
 31
0.0
  0
LINE
  8
LC-005-005-----0
 62
     2
  5
237
 10
230.63289
 20
420.137508
 30
0.0
 11
231.628877
 21
421.133495
 31
0.0
  0
LINE
  8
LC-005-005-----0
 62
     2
  5
238
 10
259.133062
 20
448.637679
 30
0.0
 11
261.055481
 21
450.560098
 31
0.0
  0
LINE
  8
LC-005-005-----0
 62
     2
  5
239
 10
188.69311
 20
381.026154
 30
0.0
 11
189.693107
 21
382.026151
 31
0.0
  0
LINE
  8
LC-005-005-----0
 62
     2
  5
23A
 10
227.804463
 20
420.137508
 30
0.0
 11
231.629643
 21
423.962688
 31
0.0
  0
LINE
  8
LC-005-005-----0
 62
     2
  5
23B
 10
256.304634
 20
448.637679
 30
0.0
 11
258.304635
 21
450.63768
 31
0.0
  0
LINE
  8
LC-005-005-----0
 62
     2
  5
23C
 10
188.693102
 20
383.854573
 30
0.0
 11
189.693099
 21
384.854571
 31
0.0
  0
LINE
  8
LC-005-005-----0
 62
     2
  5
23D
 10
224.976036
 20
420.137508
 30
0.0
 11
231.630409
 21
426.791881
 31
0.0
  0
LINE
  8
LC-005-005-----0
 62
     2
  5
23E
 10
253.476207
 20
448.637679
 30
0.0
 11
255.47621
 21
450.637682
 31
0.0
  0
LINE
  8
LC-005-005-----0
 62
     2
  5
23F
 10
188.693094
 20
386.682993
 30
0.0
 11
189.693091
 21
387.68299
 31
0.0
  0
LINE
  8
LC-005-005-----0
 62
     2
  5
240
 10
222.147609
 20
420.137508
 30
0.0
 11
231.631175
 21
429.621074
 31
0.0
  0
LINE
  8
LC-005-005-----0
 62
     2
  5
241
 10
250.64778
 20
448.637679
 30
0.0
 11
252.647785
 21
450.637684
 31
0.0
  0
LINE
  8
LC-005-005-----0
 62
     2
  5
242
 10
188.693086
 20
389.511412
 30
0.0
 11
189.693083
 21
390.511409
 31
0.0
  0
LINE
  8
LC-005-005-----0
 62
     2
  5
243
 10
219.319182
 20
420.137508
 30
0.0
 11
231.631941
 21
432.450266
 31
0.0
  0
LINE
  8
LC-005-005-----0
 62
     2
  5
244
 10
247.819353
 20
448.637679
 30
0.0
 11
249.81936
 21
450.637686
 31
0.0
  0
LINE
  8
LC-005-005-----0
 62
     2
  5
245
 10
188.693078
 20
392.339831
 30
0.0
 11
189.693075
 21
393.339828
 31
0.0
  0
LINE
  8
LC-005-005-----0
 62
     2
  5
246
 10
216.490755
 20
420.137508
 30
0.0
 11
231.632706
 21
435.279459
 31
0.0
  0
LINE
  8
LC-005-005-----0
 62
     2
  5
247
 10
244.990926
 20
448.637679
 30
0.0
 11
246.990935
 21
450.637688
 31
0.0
  0
LINE
  8
LC-005-005-----0
 62
     2
  5
248
 10
188.69307
 20
395.16825
 30
0.0
 11
189.693067
 21
396.168247
 31
0.0
  0
LINE
  8
LC-005-005-----0
 62
     2
  5
249
 10
213.662327
 20
420.137508
 30
0.0
 11
231.633472
 21
438.108652
 31
0.0
  0
LINE
  8
LC-005-005-----0
 62
     2
  5
24A
 10
242.162499
 20
448.637679
 30
0.0
 11
244.16251
 21
450.63769
 31
0.0
  0
LINE
  8
LC-005-005-----0
 62
     2
  5
24B
 10
188.693062
 20
397.996669
 30
0.0
 11
189.693059
 21
398.996666
 31
0.0
  0
LINE
  8
LC-005-005-----0
 62
     2
  5
24C
 10
210.8339
 20
420.137508
 30
0.0
 11
231.634238
 21
440.937845
 31
0.0
  0
LINE
  8
LC-005-005-----0
 62
     2
  5
24D
 10
239.334072
 20
448.637679
 30
0.0
 11
243.819489
 21
453.123096
 31
0.0
  0
LINE
  8
LC-005-005-----0
 62
     2
  5
24E
 10
188.693054
 20
400.825088
 30
0.0
 11
189.693051
 21
401.825085
 31
0.0
  0
LINE
  8
LC-005-005-----0
 62
     2
  5
24F
 10
208.005473
 20
420.137508
 30
0.0
 11
231.635004
 21
443.767038
 31
0.0
  0
LINE
  8
LC-005-005-----0
 62
     2
  5
250
 10
236.505645
 20
448.637679
 30
0.0
 11
238.505659
 21
450.637694
 31
0.0
  0
LINE
  8
LC-005-005-----0
 62
     2
  5
251
 10
239.925289
 20
452.057324
 30
0.0
 11
243.165239
 21
455.297273
 31
0.0
  0
LINE
  8
LC-005-005-----0
 62
     2
  5
252
 10
188.693046
 20
403.653507
 30
0.0
 11
189.693043
 21
404.653504
 31
0.0
  0
LINE
  8
LC-005-005-----0
 62
     2
  5
253
 10
205.177046
 20
420.137508
 30
0.0
 11
231.63577
 21
446.596231
 31
0.0
  0
LINE
  8
LC-005-005-----0
 62
     2
  5
254
 10
233.677217
 20
448.637679
 30
0.0
 11
235.677234
 21
450.637696
 31
0.0
  0
LINE
  8
LC-005-005-----0
 62
     2
  5
255
 10
239.237564
 20
454.198025
 30
0.0
 11
242.114615
 21
457.075076
 31
0.0
  0
LINE
  8
LC-005-005-----0
 62
     2
  5
256
 10
188.693038
 20
406.481926
 30
0.0
 11
189.693035
 21
407.481923
 31
0.0
  0
LINE
  8
LC-005-005-----0
 62
     2
  5
257
 10
203.156569
 20
420.945457
 30
0.0
 11
232.848809
 21
450.637698
 31
0.0
  0
LINE
  8
LC-005-005-----0
 62
     2
  5
258
 10
237.88872
 20
455.677608
 30
0.0
 11
240.736178
 21
458.525066
 31
0.0
  0
LINE
  8
LC-005-005-----0
 62
     2
  5
259
 10
188.69303
 20
409.310345
 30
0.0
 11
189.693027
 21
410.310343
 31
0.0
  0
LINE
  8
LC-005-005-----0
 62
     2
  5
25A
 10
202.558852
 20
423.176167
 30
0.0
 11
230.020192
 21
450.637508
 31
0.0
  0
LINE
  8
LC-005-005-----0
 62
     2
  5
25B
 10
235.923167
 20
456.540483
 30
0.0
 11
239.035741
 21
459.653057
 31
0.0
  0
LINE
  8
LC-005-005-----0
 62
     2
  5
25C
 10
188.693022
 20
412.138765
 30
0.0
 11
189.693019
 21
413.138762
 31
0.0
  0
LINE
  8
LC-005-005-----0
 62
     2
  5
25D
 10
202.435236
 20
425.880979
 30
0.0
 11
227.191765
 21
450.637508
 31
0.0
  0
LINE
  8
LC-005-005-----0
 62
     2
  5
25E
 10
233.191765
 20
456.637508
 30
0.0
 11
236.962297
 21
460.408039
 31
0.0
  0
LINE
  8
LC-005-005-----0
 62
     2
  5
25F
 10
188.693014
 20
414.967184
 30
0.0
 11
189.693011
 21
415.967181
 31
0.0
  0
LINE
  8
LC-005-005-----0
 62
     2
  5
260
 10
201.863338
 20
428.137508
 30
0.0
 11
224.363338
 21
450.637508
 31
0.0
  0
LINE
  8
LC-005-005-----0
 62
     2
  5
261
 10
230.363338
 20
456.637508
 30
0.0
 11
234.363338
 21
460.637508
 31
0.0
  0
LINE
  8
LC-005-005-----0
 62
     2
  5
262
 10
188.693006
 20
417.795603
 30
0.0
 11
189.693003
 21
418.7956
 31
0.0
  0
LINE
  8
LC-005-005-----0
 62
     2
  5
263
 10
199.03491
 20
428.137508
 30
0.0
 11
221.53491
 21
450.637508
 31
0.0
  0
LINE
  8
LC-005-005-----0
 62
     2
  5
264
 10
227.53491
 20
456.637508
 30
0.0
 11
231.534911
 21
460.637508
 31
0.0
  0
LINE
  8
LC-005-005-----0
 62
     2
  5
265
 10
188.692998
 20
420.624022
 30
0.0
 11
189.692995
 21
421.624019
 31
0.0
  0
LINE
  8
LC-005-005-----0
 62
     2
  5
266
 10
198.935971
 20
430.866995
 30
0.0
 11
220.507533
 21
452.438558
 31
0.0
  0
LINE
  8
LC-005-005-----0
 62
     2
  5
267
 10
224.641898
 20
456.572922
 30
0.0
 11
228.706483
 21
460.637508
 31
0.0
  0
LINE
  8
LC-005-005-----0
 62
     2
  5
268
 10
188.69299
 20
423.452441
 30
0.0
 11
189.692987
 21
424.452438
 31
0.0
  0
LINE
  8
LC-005-005-----0
 62
     2
  5
269
 10
198.936737
 20
433.696188
 30
0.0
 11
215.878056
 21
450.637508
 31
0.0
  0
LINE
  8
LC-005-005-----0
 62
     2
  5
26A
 10
216.442948
 20
451.202399
 30
0.0
 11
225.878056
 21
460.637508
 31
0.0
  0
LINE
  8
LC-005-005-----0
 62
     2
  5
26B
 10
188.692982
 20
426.28086
 30
0.0
 11
189.692979
 21
427.280857
 31
0.0
  0
LINE
  8
LC-005-005-----0
 62
     2
  5
26C
 10
198.937503
 20
436.525381
 30
0.0
 11
213.049629
 21
450.637508
 31
0.0
  0
LINE
  8
LC-005-005-----0
 62
     2
  5
26D
 10
216.909377
 20
454.497255
 30
0.0
 11
222.583201
 21
460.171079
 31
0.0
  0
LINE
  8
LC-005-005-----0
 62
     2
  5
26E
 10
188.692974
 20
429.109279
 30
0.0
 11
189.692971
 21
430.109276
 31
0.0
  0
LINE
  8
LC-005-005-----0
 62
     2
  5
26F
 10
198.938268
 20
439.354574
 30
0.0
 11
210.221202
 21
450.637508
 31
0.0
  0
LINE
  8
LC-005-005-----0
 62
     2
  5
270
 10
188.692966
 20
431.937698
 30
0.0
 11
189.692963
 21
432.937695
 31
0.0
  0
LINE
  8
LC-005-005-----0
 62
     2
  5
271
 10
198.939034
 20
442.183767
 30
0.0
 11
207.392775
 21
450.637508
 31
0.0
  0
LINE
  8
LC-005-005-----0
 62
     2
  5
272
 10
188.692958
 20
434.766117
 30
0.0
 11
189.692955
 21
435.766115
 31
0.0
  0
LINE
  8
LC-005-005-----0
 62
     2
  5
273
 10
198.9398
 20
445.01296
 30
0.0
 11
204.564348
 21
450.637508
 31
0.0
  0
LINE
  8
LC-005-005-----0
 62
     2
  5
274
 10
188.69295
 20
437.594537
 30
0.0
 11
189.692947
 21
438.594534
 31
0.0
  0
LINE
  8
LC-005-005-----0
 62
     2
  5
275
 10
198.940566
 20
447.842153
 30
0.0
 11
201.735921
 21
450.637508
 31
0.0
  0
LINE
  8
LC-005-005-----0
 62
     2
  5
276
 10
188.85145
 20
440.581465
 30
0.0
 11
190.278127
 21
442.008141
 31
0.0
  0
LINE
  8
LC-005-005-----0
 62
     2
  5
277
 10
196.322313
 20
448.052327
 30
0.0
 11
198.74899
 21
450.479004
 31
0.0
  0
LINE
  8
LC-005-005-----0
 62
     2
  5
278
 10
190.655473
 20
445.213914
 30
0.0
 11
194.11654
 21
448.674981
 31
0.0
  0
ENDBLK
  8
0
  5
279
  0
BLOCK
  8
0
  5
289
  2
*D4
 70
    65
 10
0.0
 20
0.0
 30
0.0
  3
*D4
  0
LINE
  8
LC-006-003-MTH-0
 62
     2
  5
28B
 10
201.224068
 20
250.122619
 30
0.0
 11
201.224062
 21
222.101371
 31
0.0
  0
LINE
  8
LC-006-003-MTH-0
 62
     2
  5
28C
 10
259.22403
 20
250.122607
 30
0.0
 11
259.224024
 21
222.101359
 31
0.0
  0
LINE
  8
LC-007-003-----0
 62
     2
  5
28E
 10
173.463609
 20
235.246644
 30
0.0
 11
201.224065
 21
238.901371
 31
0.0
  0
LINE
  8
LC-007-003-----0
 62
     2
  5
28F
 10
201.224065
 20
238.901371
 30
0.0
 11
173.46361
 21
242.55611
 31
0.0
  0
LINE
  8
LC-007-003-----0
 62
     2
  5
290
 10
173.46361
 20
242.55611
 30
0.0
 11
173.463609
 21
235.246644
 31
0.0
  0
LINE
  8
LC-007-003-----0
 62
     2
  5
291
 10
173.401327
 20
236.196874
 30
0.0
 11
193.944065
 21
238.901373
 31
0.0
  0
LINE
  8
LC-007-003-----0
 62
     2
  5
292
 10
193.944065
 20
238.901373
 30
0.0
 11
173.401328
 21
241.60588
 31
0.0
  0
LINE
  8
LC-007-003-----0
 62
     2
  5
293
 10
173.339046
 20
237.147105
 30
0.0
 11
186.664065
 21
238.901374
 31
0.0
  0
LINE
  8
LC-007-003-----0
 62
     2
  5
294
 10
186.664065
 20
238.901374
 30
0.0
 11
173.339047
 21
240.655649
 31
0.0
  0
LINE
  8
LC-007-003-----0
 62
     2
  5
295
 10
173.276765
 20
238.097336
 30
0.0
 11
179.384065
 21
238.901376
 31
0.0
  0
LINE
  8
LC-007-003-----0
 62
     2
  5
296
 10
179.384065
 20
238.901376
 30
0.0
 11
173.276765
 21
239.705418
 31
0.0
  0
LINE
  8
LC-007-003-----0
 62
     2
  5
297
 10
286.984485
 20
242.556086
 30
0.0
 11
259.224028
 21
238.901359
 31
0.0
  0
LINE
  8
LC-007-003-----0
 62
     2
  5
298
 10
259.224028
 20
238.901359
 30
0.0
 11
286.984483
 21
235.246619
 31
0.0
  0
LINE
  8
LC-007-003-----0
 62
     2
  5
299
 10
286.984483
 20
235.246619
 30
0.0
 11
286.984485
 21
242.556086
 31
0.0
  0
LINE
  8
LC-007-003-----0
 62
     2
  5
29A
 10
287.046766
 20
241.605855
 30
0.0
 11
266.504028
 21
238.901357
 31
0.0
  0
LINE
  8
LC-007-003-----0
 62
     2
  5
29B
 10
266.504028
 20
238.901357
 30
0.0
 11
287.046765
 21
236.19685
 31
0.0
  0
LINE
  8
LC-007-003-----0
 62
     2
  5
29C
 10
287.109047
 20
240.655625
 30
0.0
 11
273.784028
 21
238.901356
 31
0.0
  0
LINE
  8
LC-007-003-----0
 62
     2
  5
29D
 10
273.784028
 20
238.901356
 30
0.0
 11
287.109046
 21
237.147081
 31
0.0
  0
LINE
  8
LC-007-003-----0
 62
     2
  5
29E
 10
287.171328
 20
239.705394
 30
0.0
 11
281.064028
 21
238.901354
 31
0.0
  0
LINE
  8
LC-007-003-----0
 62
     2
  5
29F
 10
281.064028
 20
238.901354
 30
0.0
 11
287.171328
 21
238.097311
 31
0.0
  0
LINE
  8
LC-008-003-MTG-0
 62
     2
  5
2A1
 10
162.024065
 20
238.901379
 30
0.0
 11
491.730521
 21
238.901309
 31
0.0
  0
TEXT
  8
LC-007-003-----0
 62
     8
  5
2A2
 10
325.429295
 20
241.319715
 30
0.0
 40
28.0
  1
DN50(SML)
 50
359.999988
 41
0.9
 51
15.0
  7
LCTX15-400-0-0-ARIAL
  0
ENDBLK
  8
0
  5
2A3
  0
BLOCK
  8
0
  5
2A6
  2
*D5
 70
    65
 10
0.0
 20
0.0
 30
0.0
  3
*D5
  0
LINE
  8
LC-006-003-MTH-0
 62
     2
  5
2A7
 10
149.97409
 20
361.887508
 30
0.0
 11
149.974049
 21
166.94822
 31
0.0
  0
LINE
  8
LC-006-003-MTH-0
 62
     2
  5
2A8
 10
310.474055
 20
361.887473
 30
0.0
 11
310.474014
 21
166.948186
 31
0.0
  0
LINE
  8
LC-008-003-MTG-0
 62
     2
  5
2A9
 10
149.974052
 20
183.74822
 30
0.0
 11
310.474017
 21
183.748186
 31
0.0
  0
LINE
  8
LC-007-003-----0
 62
     2
  5
2AA
 10
177.734509
 20
187.402948
 30
0.0
 11
149.974052
 21
183.74822
 31
0.0
  0
LINE
  8
LC-007-003-----0
 62
     2
  5
2AB
 10
149.974052
 20
183.74822
 30
0.0
 11
177.734508
 21
180.093481
 31
0.0
  0
LINE
  8
LC-007-003-----0
 62
     2
  5
2AC
 10
177.734508
 20
180.093481
 30
0.0
 11
177.734509
 21
187.402948
 31
0.0
  0
LINE
  8
LC-007-003-----0
 62
     2
  5
2AD
 10
177.79679
 20
186.452717
 30
0.0
 11
157.254052
 21
183.748219
 31
0.0
  0
LINE
  8
LC-007-003-----0
 62
     2
  5
2AE
 10
157.254052
 20
183.748219
 30
0.0
 11
177.796789
 21
181.043712
 31
0.0
  0
LINE
  8
LC-007-003-----0
 62
     2
  5
2AF
 10
177.859072
 20
185.502486
 30
0.0
 11
164.534052
 21
183.748217
 31
0.0
  0
LINE
  8
LC-007-003-----0
 62
     2
  5
2B0
 10
164.534052
 20
183.748217
 30
0.0
 11
177.859071
 21
181.993942
 31
0.0
  0
LINE
  8
LC-007-003-----0
 62
     2
  5
2B1
 10
177.921353
 20
184.552256
 30
0.0
 11
171.814052
 21
183.748216
 31
0.0
  0
LINE
  8
LC-007-003-----0
 62
     2
  5
2B2
 10
171.814052
 20
183.748216
 30
0.0
 11
177.921353
 21
182.944173
 31
0.0
  0
LINE
  8
LC-007-003-----0
 62
     2
  5
2B3
 10
282.71356
 20
180.093459
 30
0.0
 11
310.474017
 21
183.748186
 31
0.0
  0
LINE
  8
LC-007-003-----0
 62
     2
  5
2B4
 10
310.474017
 20
183.748186
 30
0.0
 11
282.713562
 21
187.402925
 31
0.0
  0
LINE
  8
LC-007-003-----0
 62
     2
  5
2B5
 10
282.713562
 20
187.402925
 30
0.0
 11
282.71356
 21
180.093459
 31
0.0
  0
LINE
  8
LC-007-003-----0
 62
     2
  5
2B6
 10
282.651279
 20
181.043689
 30
0.0
 11
303.194017
 21
183.748188
 31
0.0
  0
LINE
  8
LC-007-003-----0
 62
     2
  5
2B7
 10
303.194017
 20
183.748188
 30
0.0
 11
282.65128
 21
186.452695
 31
0.0
  0
LINE
  8
LC-007-003-----0
 62
     2
  5
2B8
 10
282.588998
 20
181.99392
 30
0.0
 11
295.914017
 21
183.748189
 31
0.0
  0
LINE
  8
LC-007-003-----0
 62
     2
  5
2B9
 10
295.914017
 20
183.748189
 30
0.0
 11
282.588999
 21
185.502464
 31
0.0
  0
LINE
  8
LC-007-003-----0
 62
     2
  5
2BA
 10
282.526717
 20
182.944151
 30
0.0
 11
288.634017
 21
183.748191
 31
0.0
  0
LINE
  8
LC-007-003-----0
 62
     2
  5
2BB
 10
288.634017
 20
183.748191
 30
0.0
 11
282.526717
 21
184.552233
 31
0.0
  0
TEXT
  8
LC-007-003-----0
 62
     8
  5
2BC
 10
163.922809
 20
186.166587
 30
0.0
 40
28.0
  1
%%c160
 50
359.999988
 41
0.9
 51
15.0
  7
LCTX15-400-0-0-ARIAL
 72
     1
 11
233.122809
 21
186.166573
 31
0.0
  0
ENDBLK
  8
0
  5
2BD
  0
BLOCK
  8
0
  5
2C0
  2
*D6
 70
    65
 10
0.0
 20
0.0
 30
0.0
  3
*D6
  0
LINE
  8
LC-006-003-MTH-0
 62
     2
  5
2C1
 10
79.472347
 20
460.988192
 30
0.0
 11
79.472347
 21
542.862215
 31
0.0
  0
LINE
  8
LC-006-003-MTH-0
 62
     2
  5
2C2
 10
380.983548
 20
460.988192
 30
0.0
 11
380.983548
 21
542.862215
 31
0.0
  0
LINE
  8
LC-008-003-MTG-0
 62
     2
  5
2C3
 10
79.472347
 20
526.062215
 30
0.0
 11
186.651414
 21
526.062215
 31
0.0
  0
LINE
  8
LC-008-003-MTG-0
 62
     2
  5
2C4
 10
288.298347
 20
526.062215
 30
0.0
 11
380.983548
 21
526.062215
 31
0.0
  0
LINE
  8
LC-007-003-----0
 62
     2
  5
2C5
 10
107.232804
 20
529.716948
 30
0.0
 11
79.472347
 21
526.062215
 31
0.0
  0
LINE
  8
LC-007-003-----0
 62
     2
  5
2C6
 10
79.472347
 20
526.062215
 30
0.0
 11
107.232804
 21
522.407481
 31
0.0
  0
LINE
  8
LC-007-003-----0
 62
     2
  5
2C7
 10
107.232804
 20
522.407481
 30
0.0
 11
107.232804
 21
529.716948
 31
0.0
  0
LINE
  8
LC-007-003-----0
 62
     2
  5
2C8
 10
107.295085
 20
528.766717
 30
0.0
 11
86.752347
 21
526.062215
 31
0.0
  0
LINE
  8
LC-007-003-----0
 62
     2
  5
2C9
 10
86.752347
 20
526.062215
 30
0.0
 11
107.295085
 21
523.357712
 31
0.0
  0
LINE
  8
LC-007-003-----0
 62
     2
  5
2CA
 10
107.357366
 20
527.816487
 30
0.0
 11
94.032347
 21
526.062215
 31
0.0
  0
LINE
  8
LC-007-003-----0
 62
     2
  5
2CB
 10
94.032347
 20
526.062215
 30
0.0
 11
107.357366
 21
524.307943
 31
0.0
  0
LINE
  8
LC-007-003-----0
 62
     2
  5
2CC
 10
107.419648
 20
526.866256
 30
0.0
 11
101.312347
 21
526.062215
 31
0.0
  0
LINE
  8
LC-007-003-----0
 62
     2
  5
2CD
 10
101.312347
 20
526.062215
 30
0.0
 11
107.419648
 21
525.258173
 31
0.0
  0
LINE
  8
LC-007-003-----0
 62
     2
  5
2CE
 10
353.223092
 20
522.407481
 30
0.0
 11
380.983548
 21
526.062215
 31
0.0
  0
LINE
  8
LC-007-003-----0
 62
     2
  5
2CF
 10
380.983548
 20
526.062215
 30
0.0
 11
353.223092
 21
529.716948
 31
0.0
  0
LINE
  8
LC-007-003-----0
 62
     2
  5
2D0
 10
353.223092
 20
529.716948
 30
0.0
 11
353.223092
 21
522.407481
 31
0.0
  0
LINE
  8
LC-007-003-----0
 62
     2
  5
2D1
 10
353.16081
 20
523.357712
 30
0.0
 11
373.703548
 21
526.062215
 31
0.0
  0
LINE
  8
LC-007-003-----0
 62
     2
  5
2D2
 10
373.703548
 20
526.062215
 30
0.0
 11
353.16081
 21
528.766717
 31
0.0
  0
LINE
  8
LC-007-003-----0
 62
     2
  5
2D3
 10
353.098529
 20
524.307943
 30
0.0
 11
366.423548
 21
526.062215
 31
0.0
  0
LINE
  8
LC-007-003-----0
 62
     2
  5
2D4
 10
366.423548
 20
526.062215
 30
0.0
 11
353.098529
 21
527.816487
 31
0.0
  0
LINE
  8
LC-007-003-----0
 62
     2
  5
2D5
 10
353.036247
 20
525.258173
 30
0.0
 11
359.143548
 21
526.062215
 31
0.0
  0
LINE
  8
LC-007-003-----0
 62
     2
  5
2D6
 10
359.143548
 20
526.062215
 30
0.0
 11
353.036247
 21
526.866256
 31
0.0
  0
TEXT
  8
LC-007-003-----0
 62
     8
  5
2D7
 10
163.926721
 20
528.480584
 30
0.0
 40
28.0
  1
%%c300
 41
0.9
 51
15.0
  7
LCTX15-400-0-0-ARIAL
 72
     1
 11
233.126721
 21
528.480584
 31
0.0
  0
ENDBLK
  8
0
  5
2D8
  0
BLOCK
  8
0
  5
2DB
  2
*D7
 70
    65
 10
0.0
 20
0.0
 30
0.0
  3
*D7
  0
LINE
  8
LC-006-003-MTH-0
 62
     2
  5
2DC
 10
161.72409
 20
350.137508
 30
0.0
 11
20.350798
 21
350.137508
 31
0.0
  0
LINE
  8
LC-006-003-MTH-0
 62
     2
  5
2DD
 10
79.472347
 20
457.987735
 30
0.0
 11
20.350798
 21
457.987735
 31
0.0
  0
LINE
  8
LC-008-003-MTG-0
 62
     2
  5
2DE
 10
37.150798
 20
350.137508
 30
0.0
 11
37.150798
 21
372.486088
 31
0.0
  0
LINE
  8
LC-008-003-MTG-0
 62
     2
  5
2DF
 10
37.150798
 20
450.133021
 30
0.0
 11
37.150798
 21
457.987735
 31
0.0
  0
LINE
  8
LC-007-003-----0
 62
     2
  5
2E0
 10
34.208551
 20
372.486088
 30
0.0
 11
37.150798
 21
350.137508
 31
0.0
  0
LINE
  8
LC-007-003-----0
 62
     2
  5
2E1
 10
37.150798
 20
350.137508
 30
0.0
 11
40.093044
 21
372.486088
 31
0.0
  0
LINE
  8
LC-007-003-----0
 62
     2
  5
2E2
 10
35.166981
 20
372.486088
 30
0.0
 11
37.150798
 21
357.417508
 31
0.0
  0
LINE
  8
LC-007-003-----0
 62
     2
  5
2E3
 10
37.150798
 20
357.417508
 30
0.0
 11
39.134614
 21
372.486088
 31
0.0
  0
LINE
  8
LC-007-003-----0
 62
     2
  5
2E4
 10
36.125412
 20
372.486088
 30
0.0
 11
37.150798
 21
364.697508
 31
0.0
  0
LINE
  8
LC-007-003-----0
 62
     2
  5
2E5
 10
37.150798
 20
364.697508
 30
0.0
 11
38.176184
 21
372.486088
 31
0.0
  0
LINE
  8
LC-007-003-----0
 62
     2
  5
2E6
 10
37.083842
 20
372.486088
 30
0.0
 11
37.150798
 21
371.977508
 31
0.0
  0
LINE
  8
LC-007-003-----0
 62
     2
  5
2E7
 10
37.150798
 20
371.977508
 30
0.0
 11
37.217754
 21
372.486088
 31
0.0
  0
LINE
  8
LC-007-003-----0
 62
     2
  5
2E8
 10
38.18489
 20
450.133021
 30
0.0
 11
37.150798
 21
457.987735
 31
0.0
  0
LINE
  8
LC-007-003-----0
 62
     2
  5
2E9
 10
37.150798
 20
457.987735
 30
0.0
 11
36.116705
 21
450.133021
 31
0.0
  0
LINE
  8
LC-007-003-----0
 62
     2
  5
2EA
 10
37.22646
 20
450.133021
 30
0.0
 11
37.150798
 21
450.707735
 31
0.0
  0
LINE
  8
LC-007-003-----0
 62
     2
  5
2EB
 10
37.150798
 20
450.707735
 30
0.0
 11
37.075135
 21
450.133021
 31
0.0
  0
TEXT
  8
LC-007-003-----0
 62
     8
  5
2EC
 10
29.323244
 20
373.210781
 30
0.0
 40
28.0
  1
110
 50
90.0
 41
0.9
 51
15.0
  7
LCTX15-400-0-0-ARIAL
 72
     1
 11
29.323244
 21
408.410781
 31
0.0
  0
ENDBLK
  8
0
  5
2ED
  0
BLOCK
  8
0
  5
2F0
  2
*D8
 70
    65
 10
0.0
 20
0.0
 30
0.0
  3
*D8
  0
LINE
  8
LC-006-003-MTH-0
 62
     2
  5
2F1
 10
201.224068
 20
250.122619
 30
0.0
 11
20.350798
 21
250.122619
 31
0.0
  0
LINE
  8
LC-006-003-MTH-0
 62
     2
  5
2F2
 10
161.72409
 20
350.137508
 30
0.0
 11
20.350798
 21
350.137508
 31
0.0
  0
LINE
  8
LC-008-003-MTG-0
 62
     2
  5
2F3
 10
37.150798
 20
250.122619
 30
0.0
 11
37.150798
 21
268.55353
 31
0.0
  0
LINE
  8
LC-008-003-MTG-0
 62
     2
  5
2F4
 10
37.150798
 20
346.200463
 30
0.0
 11
37.150798
 21
350.137508
 31
0.0
  0
LINE
  8
LC-007-003-----0
 62
     2
  5
2F5
 10
34.724322
 20
268.55353
 30
0.0
 11
37.150798
 21
250.122619
 31
0.0
  0
LINE
  8
LC-007-003-----0
 62
     2
  5
2F6
 10
37.150798
 20
250.122619
 30
0.0
 11
39.577273
 21
268.55353
 31
0.0
  0
LINE
  8
LC-007-003-----0
 62
     2
  5
2F7
 10
35.682752
 20
268.55353
 30
0.0
 11
37.150798
 21
257.402619
 31
0.0
  0
LINE
  8
LC-007-003-----0
 62
     2
  5
2F8
 10
37.150798
 20
257.402619
 30
0.0
 11
38.618843
 21
268.55353
 31
0.0
  0
LINE
  8
LC-007-003-----0
 62
     2
  5
2F9
 10
36.641183
 20
268.55353
 30
0.0
 11
37.150798
 21
264.682619
 31
0.0
  0
LINE
  8
LC-007-003-----0
 62
     2
  5
2FA
 10
37.150798
 20
264.682619
 30
0.0
 11
37.660413
 21
268.55353
 31
0.0
  0
LINE
  8
LC-007-003-----0
 62
     2
  5
2FB
 10
37.669119
 20
346.200463
 30
0.0
 11
37.150798
 21
350.137508
 31
0.0
  0
LINE
  8
LC-007-003-----0
 62
     2
  5
2FC
 10
37.150798
 20
350.137508
 30
0.0
 11
36.632476
 21
346.200463
 31
0.0
  0
TEXT
  8
LC-007-003-----0
 62
     8
  5
2FD
 10
29.323244
 20
269.278223
 30
0.0
 40
28.0
  1
100
 50
90.0
 41
0.9
 51
15.0
  7
LCTX15-400-0-0-ARIAL
 72
     1
 11
29.323244
 21
304.478223
 31
0.0
  0
ENDBLK
  8
0
  5
2FE
  0
BLOCK
  8
0
  5
301
  2
*D9
 70
    65
 10
0.0
 20
0.0
 30
0.0
  3
*D9
  0
LINE
  8
LC-006-003-MTH-0
 62
     2
  5
302
 10
135.452705
 20
448.6305
 30
0.0
 11
135.452705
 21
494.546256
 31
0.0
  0
LINE
  8
LC-006-003-MTH-0
 62
     2
  5
303
 10
325.124365
 20
450.942647
 30
0.0
 11
325.124365
 21
494.546256
 31
0.0
  0
LINE
  8
LC-008-003-MTG-0
 62
     2
  5
304
 10
135.452705
 20
477.746256
 30
0.0
 11
186.712001
 21
477.746256
 31
0.0
  0
LINE
  8
LC-008-003-MTG-0
 62
     2
  5
305
 10
288.358935
 20
477.746256
 30
0.0
 11
325.124365
 21
477.746256
 31
0.0
  0
LINE
  8
LC-007-003-----0
 62
     2
  5
306
 10
163.213161
 20
481.400989
 30
0.0
 11
135.452705
 21
477.746256
 31
0.0
  0
LINE
  8
LC-007-003-----0
 62
     2
  5
307
 10
135.452705
 20
477.746256
 30
0.0
 11
163.213161
 21
474.091523
 31
0.0
  0
LINE
  8
LC-007-003-----0
 62
     2
  5
308
 10
163.213161
 20
474.091523
 30
0.0
 11
163.213161
 21
481.400989
 31
0.0
  0
LINE
  8
LC-007-003-----0
 62
     2
  5
309
 10
163.275442
 20
480.450759
 30
0.0
 11
142.732705
 21
477.746256
 31
0.0
  0
LINE
  8
LC-007-003-----0
 62
     2
  5
30A
 10
142.732705
 20
477.746256
 30
0.0
 11
163.275442
 21
475.041753
 31
0.0
  0
LINE
  8
LC-007-003-----0
 62
     2
  5
30B
 10
163.337724
 20
479.500528
 30
0.0
 11
150.012705
 21
477.746256
 31
0.0
  0
LINE
  8
LC-007-003-----0
 62
     2
  5
30C
 10
150.012705
 20
477.746256
 30
0.0
 11
163.337724
 21
475.991984
 31
0.0
  0
LINE
  8
LC-007-003-----0
 62
     2
  5
30D
 10
163.400005
 20
478.550297
 30
0.0
 11
157.292705
 21
477.746256
 31
0.0
  0
LINE
  8
LC-007-003-----0
 62
     2
  5
30E
 10
157.292705
 20
477.746256
 30
0.0
 11
163.400005
 21
476.942215
 31
0.0
  0
LINE
  8
LC-007-003-----0
 62
     2
  5
30F
 10
297.363909
 20
474.091523
 30
0.0
 11
325.124365
 21
477.746256
 31
0.0
  0
LINE
  8
LC-007-003-----0
 62
     2
  5
310
 10
325.124365
 20
477.746256
 30
0.0
 11
297.363909
 21
481.400989
 31
0.0
  0
LINE
  8
LC-007-003-----0
 62
     2
  5
311
 10
297.363909
 20
481.400989
 30
0.0
 11
297.363909
 21
474.091523
 31
0.0
  0
LINE
  8
LC-007-003-----0
 62
     2
  5
312
 10
297.301627
 20
475.041753
 30
0.0
 11
317.844365
 21
477.746256
 31
0.0
  0
LINE
  8
LC-007-003-----0
 62
     2
  5
313
 10
317.844365
 20
477.746256
 30
0.0
 11
297.301627
 21
480.450759
 31
0.0
  0
LINE
  8
LC-007-003-----0
 62
     2
  5
314
 10
297.239346
 20
475.991984
 30
0.0
 11
310.564365
 21
477.746256
 31
0.0
  0
LINE
  8
LC-007-003-----0
 62
     2
  5
315
 10
310.564365
 20
477.746256
 30
0.0
 11
297.239346
 21
479.500528
 31
0.0
  0
LINE
  8
LC-007-003-----0
 62
     2
  5
316
 10
297.177065
 20
476.942215
 30
0.0
 11
303.284365
 21
477.746256
 31
0.0
  0
LINE
  8
LC-007-003-----0
 62
     2
  5
317
 10
303.284365
 20
477.746256
 30
0.0
 11
297.177065
 21
478.550297
 31
0.0
  0
TEXT
  8
LC-007-003-----0
 62
     8
  5
318
 10
163.987308
 20
480.164625
 30
0.0
 40
28.0
  1
%%c190
 41
0.9
 51
15.0
  7
LCTX15-400-0-0-ARIAL
 72
     1
 11
233.187308
 21
480.164625
 31
0.0
  0
ENDBLK
  8
0
  5
319
  0
BLOCK
  8
0
  5
31C
  2
*D10
 70
    65
 10
0.0
 20
0.0
 30
0.0
  3
*D10
  0
LINE
  8
LC-006-003-MTH-0
 62
     2
  5
31D
 10
188.692951
 20
378.637505
 30
0.0
 11
97.172665
 21
378.637505
 31
0.0
  0
LINE
  8
LC-006-003-MTH-0
 62
     2
  5
31E
 10
198.935232
 20
428.137508
 30
0.0
 11
119.572665
 21
428.137508
 31
0.0
  0
LINE
  8
LC-007-003-----0
 62
     2
  5
31F
 10
117.627399
 20
350.877049
 30
0.0
 11
113.972665
 21
378.637505
 31
0.0
  0
LINE
  8
LC-007-003-----0
 62
     2
  5
320
 10
113.972665
 20
378.637505
 30
0.0
 11
110.317932
 21
350.877049
 31
0.0
  0
LINE
  8
LC-007-003-----0
 62
     2
  5
321
 10
110.317932
 20
350.877049
 30
0.0
 11
117.627399
 21
350.877049
 31
0.0
  0
LINE
  8
LC-007-003-----0
 62
     2
  5
322
 10
116.677168
 20
350.814767
 30
0.0
 11
113.972665
 21
371.357505
 31
0.0
  0
LINE
  8
LC-007-003-----0
 62
     2
  5
323
 10
113.972665
 20
371.357505
 30
0.0
 11
111.268163
 21
350.814767
 31
0.0
  0
LINE
  8
LC-007-003-----0
 62
     2
  5
324
 10
115.726937
 20
350.752486
 30
0.0
 11
113.972665
 21
364.077505
 31
0.0
  0
LINE
  8
LC-007-003-----0
 62
     2
  5
325
 10
113.972665
 20
364.077505
 30
0.0
 11
112.218393
 21
350.752486
 31
0.0
  0
LINE
  8
LC-007-003-----0
 62
     2
  5
326
 10
114.776707
 20
350.690205
 30
0.0
 11
113.972665
 21
356.797505
 31
0.0
  0
LINE
  8
LC-007-003-----0
 62
     2
  5
327
 10
113.972665
 20
356.797505
 30
0.0
 11
113.168624
 21
350.690205
 31
0.0
  0
LINE
  8
LC-007-003-----0
 62
     2
  5
328
 10
110.317932
 20
455.897964
 30
0.0
 11
113.008917
 21
435.457906
 31
0.0
  0
LINE
  8
LC-007-003-----0
 62
     2
  5
329
 10
114.936414
 20
435.457906
 30
0.0
 11
117.627399
 21
455.897964
 31
0.0
  0
LINE
  8
LC-007-003-----0
 62
     2
  5
32A
 10
117.627399
 20
455.897964
 30
0.0
 11
110.317932
 21
455.897964
 31
0.0
  0
LINE
  8
LC-007-003-----0
 62
     2
  5
32B
 10
111.268163
 20
455.960245
 30
0.0
 11
113.967347
 21
435.457906
 31
0.0
  0
LINE
  8
LC-007-003-----0
 62
     2
  5
32C
 10
113.977984
 20
435.457906
 30
0.0
 11
116.677168
 21
455.960245
 31
0.0
  0
LINE
  8
LC-007-003-----0
 62
     2
  5
32D
 10
112.218393
 20
456.022527
 30
0.0
 11
113.972665
 21
442.697508
 31
0.0
  0
LINE
  8
LC-007-003-----0
 62
     2
  5
32E
 10
113.972665
 20
442.697508
 30
0.0
 11
115.726937
 21
456.022527
 31
0.0
  0
LINE
  8
LC-007-003-----0
 62
     2
  5
32F
 10
113.168624
 20
456.084808
 30
0.0
 11
113.972665
 21
449.977508
 31
0.0
  0
LINE
  8
LC-007-003-----0
 62
     2
  5
330
 10
113.972665
 20
449.977508
 30
0.0
 11
114.776707
 21
456.084808
 31
0.0
  0
LINE
  8
LC-008-003-MTG-0
 62
     2
  5
331
 10
113.972665
 20
339.437505
 30
0.0
 11
113.972665
 21
385.810973
 31
0.0
  0
LINE
  8
LC-008-003-MTG-0
 62
     2
  5
332
 10
113.972665
 20
435.457906
 30
0.0
 11
113.972665
 21
467.337508
 31
0.0
  0
TEXT
  8
LC-007-003-----0
 62
     8
  5
333
 10
106.145111
 20
386.535666
 30
0.0
 40
28.0
  1
50
 50
90.0
 41
0.6
 51
15.0
  7
LCTX15-400-0-0-ARIAL
 72
     1
 11
106.145111
 21
407.735666
 31
0.0
  0
ENDBLK
  8
0
  5
334
  0
BLOCK
  8
0
  5
345
  2
*X11
 70
    65
 10
0.0
 20
0.0
 30
0.0
  3
*X11
  0
LINE
  8
LC-005-005-----0
 62
     2
  5
346
 10
149.665414
 20
443.821835
 30
0.0
 11
150.199304
 21
444.355725
 31
0.0
  0
LINE
  8
LC-005-005-----0
 62
     2
  5
347
 10
144.449898
 20
441.434746
 30
0.0
 11
145.447742
 21
442.43259
 31
0.0
  0
LINE
  8
LC-005-005-----0
 62
     2
  5
348
 10
147.5917
 20
444.576548
 30
0.0
 11
148.834442
 21
445.81929
 31
0.0
  0
LINE
  8
LC-005-005-----0
 62
     2
  5
349
 10
143.191109
 20
443.004385
 30
0.0
 11
147.469579
 21
447.282854
 31
0.0
  0
LINE
  8
LC-005-005-----0
 62
     2
  5
34A
 10
143.191098
 20
445.8328
 30
0.0
 11
146.104717
 21
448.746419
 31
0.0
  0
LINE
  8
LC-005-005-----0
 62
     2
  5
34B
 10
148.587994
 20
451.229696
 30
0.0
 11
149.490112
 21
452.131814
 31
0.0
  0
LINE
  8
LC-005-005-----0
 62
     2
  5
34C
 10
143.191087
 20
448.661216
 30
0.0
 11
145.447505
 21
450.917634
 31
0.0
  0
LINE
  8
LC-005-005-----0
 62
     2
  5
34D
 10
146.478558
 20
451.948688
 30
0.0
 11
148.125249
 21
453.595379
 31
0.0
  0
LINE
  8
LC-005-005-----0
 62
     2
  5
34E
 10
140.104722
 20
448.403278
 30
0.0
 11
141.473139
 21
449.771696
 31
0.0
  0
LINE
  8
LC-005-005-----0
 62
     2
  5
34F
 10
143.191076
 20
451.489632
 30
0.0
 11
146.760387
 21
455.058943
 31
0.0
  0
LINE
  8
LC-005-005-----0
 62
     2
  5
350
 10
138.33423
 20
449.461213
 30
0.0
 11
141.473128
 21
452.600112
 31
0.0
  0
LINE
  8
LC-005-005-----0
 62
     2
  5
351
 10
143.160175
 20
454.287159
 30
0.0
 11
145.37053
 21
456.497514
 31
0.0
  0
LINE
  8
LC-005-005-----0
 62
     2
  5
352
 10
138.331747
 20
452.287158
 30
0.0
 11
142.874997
 21
456.830407
 31
0.0
  0
LINE
  8
LC-005-005-----0
 62
     2
  5
353
 10
138.331736
 20
455.115574
 30
0.0
 11
140.231362
 21
457.0152
 31
0.0
  0
ENDBLK
  8
0
  5
354
  0
BLOCK
  8
0
  5
378
  2
*X12
 70
    65
 10
0.0
 20
0.0
 30
0.0
  3
*X12
  0
LINE
  8
LC-005-005-----0
 62
     2
  5
379
 10
155.046206
 20
432.232064
 30
0.0
 11
155.746206
 21
432.932064
 31
0.0
  0
LINE
  8
LC-005-005-----0
 62
     2
  5
37A
 10
153.104655
 20
433.11894
 30
0.0
 11
153.674781
 21
433.689066
 31
0.0
  0
LINE
  8
LC-005-005-----0
 62
     2
  5
37B
 10
154.5188
 20
434.533085
 30
0.0
 11
155.472604
 21
435.486889
 31
0.0
  0
LINE
  8
LC-005-005-----0
 62
     2
  5
37C
 10
154.773625
 20
437.616337
 30
0.0
 11
155.390207
 21
438.232919
 31
0.0
  0
LINE
  8
LC-005-005-----0
 62
     2
  5
37D
 10
152.85677
 20
438.527909
 30
0.0
 11
153.38234
 21
439.05348
 31
0.0
  0
LINE
  8
LC-005-005-----0
 62
     2
  5
37E
 10
151.420763
 20
439.92033
 30
0.0
 11
151.940175
 21
440.439742
 31
0.0
  0
LINE
  8
LC-005-005-----0
 62
     2
  5
37F
 10
150.973625
 20
442.301618
 30
0.0
 11
151.673625
 21
443.001618
 31
0.0
  0
LINE
  8
LC-005-005-----0
 62
     2
  5
380
 10
150.973625
 20
445.130046
 30
0.0
 11
151.673625
 21
445.830046
 31
0.0
  0
LINE
  8
LC-005-005-----0
 62
     2
  5
381
 10
150.973625
 20
447.958473
 30
0.0
 11
151.673625
 21
448.658473
 31
0.0
  0
LINE
  8
LC-005-005-----0
 62
     2
  5
382
 10
150.973625
 20
450.7869
 30
0.0
 11
151.673625
 21
451.4869
 31
0.0
  0
LINE
  8
LC-005-005-----0
 62
     2
  5
383
 10
150.973625
 20
453.615327
 30
0.0
 11
151.673625
 21
454.315327
 31
0.0
  0
LINE
  8
LC-005-005-----0
 62
     2
  5
384
 10
150.88759
 20
456.357719
 30
0.0
 11
151.478915
 21
456.949045
 31
0.0
  0
LINE
  8
LC-005-005-----0
 62
     2
  5
385
 10
150.144891
 20
458.443447
 30
0.0
 11
150.652101
 21
458.950657
 31
0.0
  0
LINE
  8
LC-005-005-----0
 62
     2
  5
386
 10
148.881664
 20
460.008648
 30
0.0
 11
149.371738
 21
460.498722
 31
0.0
  0
LINE
  8
LC-005-005-----0
 62
     2
  5
387
 10
147.155312
 20
461.110723
 30
0.0
 11
147.677048
 21
461.632458
 31
0.0
  0
LINE
  8
LC-005-005-----0
 62
     2
  5
388
 10
144.840019
 20
461.623857
 30
0.0
 11
145.479184
 21
462.263022
 31
0.0
  0
LINE
  8
LC-005-005-----0
 62
     2
  5
389
 10
142.196448
 20
461.808713
 30
0.0
 11
142.842407
 21
462.454672
 31
0.0
  0
LINE
  8
LC-005-005-----0
 62
     2
  5
38A
 10
139.552877
 20
461.993569
 30
0.0
 11
140.198837
 21
462.639529
 31
0.0
  0
LINE
  8
LC-005-005-----0
 62
     2
  5
38B
 10
136.909307
 20
462.178426
 30
0.0
 11
137.555266
 21
462.824385
 31
0.0
  0
LINE
  8
LC-005-005-----0
 62
     2
  5
38C
 10
134.265736
 20
462.363282
 30
0.0
 11
134.911695
 21
463.009242
 31
0.0
  0
LINE
  8
LC-005-005-----0
 62
     2
  5
38D
 10
131.622165
 20
462.548139
 30
0.0
 11
132.268125
 21
463.194098
 31
0.0
  0
LINE
  8
LC-005-005-----0
 62
     2
  5
38E
 10
128.978595
 20
462.732995
 30
0.0
 11
129.624554
 21
463.378955
 31
0.0
  0
LINE
  8
LC-005-005-----0
 62
     2
  5
38F
 10
126.40121
 20
462.984038
 30
0.0
 11
127.004764
 21
463.587592
 31
0.0
  0
LINE
  8
LC-005-005-----0
 62
     2
  5
390
 10
124.361307
 20
463.772562
 30
0.0
 11
124.875478
 21
464.286733
 31
0.0
  0
LINE
  8
LC-005-005-----0
 62
     2
  5
391
 10
122.783208
 20
465.02289
 30
0.0
 11
123.18174
 21
465.421422
 31
0.0
  0
ENDBLK
  8
0
  5
392
  0
BLOCK
  8
0
  5
395
  2
*X13
 70
    65
 10
0.0
 20
0.0
 30
0.0
  3
*X13
  0
LINE
  8
LC-005-005-----0
 62
     2
  5
396
 10
-9.662735
 20
460.987538
 30
0.0
 11
-9.573588
 21
461.076685
 31
0.0
  0
LINE
  8
LC-005-005-----0
 62
     2
  5
397
 10
-10.228421
 20
460.987538
 30
0.0
 11
-9.573588
 21
461.642371
 31
0.0
  0
LINE
  8
LC-005-005-----0
 62
     2
  5
398
 10
-10.794106
 20
460.987538
 30
0.0
 11
-9.573588
 21
462.208056
 31
0.0
  0
LINE
  8
LC-005-005-----0
 62
     2
  5
399
 10
-11.359791
 20
460.987538
 30
0.0
 11
-9.573588
 21
462.773742
 31
0.0
  0
LINE
  8
LC-005-005-----0
 62
     2
  5
39A
 10
-11.925477
 20
460.987538
 30
0.0
 11
-9.573588
 21
463.339427
 31
0.0
  0
LINE
  8
LC-005-005-----0
 62
     2
  5
39B
 10
-12.491162
 20
460.987538
 30
0.0
 11
-9.573588
 21
463.905112
 31
0.0
  0
LINE
  8
LC-005-005-----0
 62
     2
  5
39C
 10
-13.056848
 20
460.987538
 30
0.0
 11
-9.573588
 21
464.470798
 31
0.0
  0
LINE
  8
LC-005-005-----0
 62
     2
  5
39D
 10
-13.622533
 20
460.987538
 30
0.0
 11
-9.573588
 21
465.036483
 31
0.0
  0
LINE
  8
LC-005-005-----0
 62
     2
  5
39E
 10
-14.188219
 20
460.987538
 30
0.0
 11
-9.573588
 21
465.602169
 31
0.0
  0
LINE
  8
LC-005-005-----0
 62
     2
  5
39F
 10
-14.753904
 20
460.987538
 30
0.0
 11
-10.053904
 21
465.687538
 31
0.0
  0
LINE
  8
LC-005-005-----0
 62
     2
  5
3A0
 10
-15.319589
 20
460.987538
 30
0.0
 11
-10.619589
 21
465.687538
 31
0.0
  0
LINE
  8
LC-005-005-----0
 62
     2
  5
3A1
 10
-15.885275
 20
460.987538
 30
0.0
 11
-11.185275
 21
465.687538
 31
0.0
  0
LINE
  8
LC-005-005-----0
 62
     2
  5
3A2
 10
-16.45096
 20
460.987538
 30
0.0
 11
-11.75096
 21
465.687538
 31
0.0
  0
LINE
  8
LC-005-005-----0
 62
     2
  5
3A3
 10
-17.016646
 20
460.987538
 30
0.0
 11
-12.316646
 21
465.687538
 31
0.0
  0
LINE
  8
LC-005-005-----0
 62
     2
  5
3A4
 10
-17.582331
 20
460.987538
 30
0.0
 11
-12.882331
 21
465.687538
 31
0.0
  0
LINE
  8
LC-005-005-----0
 62
     2
  5
3A5
 10
-18.148017
 20
460.987538
 30
0.0
 11
-13.448017
 21
465.687538
 31
0.0
  0
LINE
  8
LC-005-005-----0
 62
     2
  5
3A6
 10
-18.713702
 20
460.987538
 30
0.0
 11
-14.013702
 21
465.687538
 31
0.0
  0
LINE
  8
LC-005-005-----0
 62
     2
  5
3A7
 10
-19.279387
 20
460.987538
 30
0.0
 11
-14.579387
 21
465.687538
 31
0.0
  0
LINE
  8
LC-005-005-----0
 62
     2
  5
3A8
 10
-19.573588
 20
461.259023
 30
0.0
 11
-15.145073
 21
465.687538
 31
0.0
  0
LINE
  8
LC-005-005-----0
 62
     2
  5
3A9
 10
-19.573588
 20
461.824708
 30
0.0
 11
-15.710758
 21
465.687538
 31
0.0
  0
LINE
  8
LC-005-005-----0
 62
     2
  5
3AA
 10
-19.573588
 20
462.390394
 30
0.0
 11
-16.276444
 21
465.687538
 31
0.0
  0
LINE
  8
LC-005-005-----0
 62
     2
  5
3AB
 10
-19.573588
 20
462.956079
 30
0.0
 11
-16.842129
 21
465.687538
 31
0.0
  0
LINE
  8
LC-005-005-----0
 62
     2
  5
3AC
 10
-19.573588
 20
463.521765
 30
0.0
 11
-17.407815
 21
465.687538
 31
0.0
  0
LINE
  8
LC-005-005-----0
 62
     2
  5
3AD
 10
-19.573588
 20
464.08745
 30
0.0
 11
-17.9735
 21
465.687538
 31
0.0
  0
LINE
  8
LC-005-005-----0
 62
     2
  5
3AE
 10
-19.573588
 20
464.653135
 30
0.0
 11
-18.539185
 21
465.687538
 31
0.0
  0
LINE
  8
LC-005-005-----0
 62
     2
  5
3AF
 10
-19.573588
 20
465.218821
 30
0.0
 11
-19.104871
 21
465.687538
 31
0.0
  0
ENDBLK
  8
0
  5
3B0
  0
BLOCK
  8
0
  5
3B3
  2
*X14
 70
    65
 10
0.0
 20
0.0
 30
0.0
  3
*X14
  0
LINE
  8
LC-005-005-----0
 62
     2
  5
3B4
 10
10.136255
 20
460.987538
 30
0.0
 11
10.426412
 21
461.277695
 31
0.0
  0
LINE
  8
LC-005-005-----0
 62
     2
  5
3B5
 10
9.570569
 20
460.987538
 30
0.0
 11
10.426412
 21
461.843381
 31
0.0
  0
LINE
  8
LC-005-005-----0
 62
     2
  5
3B6
 10
9.004884
 20
460.987538
 30
0.0
 11
10.426412
 21
462.409066
 31
0.0
  0
LINE
  8
LC-005-005-----0
 62
     2
  5
3B7
 10
8.439198
 20
460.987538
 30
0.0
 11
10.426412
 21
462.974752
 31
0.0
  0
LINE
  8
LC-005-005-----0
 62
     2
  5
3B8
 10
7.873513
 20
460.987538
 30
0.0
 11
10.426412
 21
463.540437
 31
0.0
  0
LINE
  8
LC-005-005-----0
 62
     2
  5
3B9
 10
7.307828
 20
460.987538
 30
0.0
 11
10.426412
 21
464.106122
 31
0.0
  0
LINE
  8
LC-005-005-----0
 62
     2
  5
3BA
 10
6.742142
 20
460.987538
 30
0.0
 11
10.426412
 21
464.671808
 31
0.0
  0
LINE
  8
LC-005-005-----0
 62
     2
  5
3BB
 10
6.176457
 20
460.987538
 30
0.0
 11
10.426412
 21
465.237493
 31
0.0
  0
LINE
  8
LC-005-005-----0
 62
     2
  5
3BC
 10
5.610771
 20
460.987538
 30
0.0
 11
10.310771
 21
465.687538
 31
0.0
  0
LINE
  8
LC-005-005-----0
 62
     2
  5
3BD
 10
5.045086
 20
460.987538
 30
0.0
 11
9.745086
 21
465.687538
 31
0.0
  0
LINE
  8
LC-005-005-----0
 62
     2
  5
3BE
 10
4.4794
 20
460.987538
 30
0.0
 11
9.1794
 21
465.687538
 31
0.0
  0
LINE
  8
LC-005-005-----0
 62
     2
  5
3BF
 10
3.913715
 20
460.987538
 30
0.0
 11
8.613715
 21
465.687538
 31
0.0
  0
LINE
  8
LC-005-005-----0
 62
     2
  5
3C0
 10
3.34803
 20
460.987538
 30
0.0
 11
8.04803
 21
465.687538
 31
0.0
  0
LINE
  8
LC-005-005-----0
 62
     2
  5
3C1
 10
2.782344
 20
460.987538
 30
0.0
 11
7.482344
 21
465.687538
 31
0.0
  0
LINE
  8
LC-005-005-----0
 62
     2
  5
3C2
 10
2.216659
 20
460.987538
 30
0.0
 11
6.916659
 21
465.687538
 31
0.0
  0
LINE
  8
LC-005-005-----0
 62
     2
  5
3C3
 10
1.650973
 20
460.987538
 30
0.0
 11
6.350973
 21
465.687538
 31
0.0
  0
LINE
  8
LC-005-005-----0
 62
     2
  5
3C4
 10
1.085288
 20
460.987538
 30
0.0
 11
5.785288
 21
465.687538
 31
0.0
  0
LINE
  8
LC-005-005-----0
 62
     2
  5
3C5
 10
0.519602
 20
460.987538
 30
0.0
 11
5.219602
 21
465.687538
 31
0.0
  0
LINE
  8
LC-005-005-----0
 62
     2
  5
3C6
 10
0.426412
 20
461.460033
 30
0.0
 11
4.653917
 21
465.687538
 31
0.0
  0
LINE
  8
LC-005-005-----0
 62
     2
  5
3C7
 10
0.426412
 20
462.025718
 30
0.0
 11
4.088232
 21
465.687538
 31
0.0
  0
LINE
  8
LC-005-005-----0
 62
     2
  5
3C8
 10
0.426412
 20
462.591404
 30
0.0
 11
3.522546
 21
465.687538
 31
0.0
  0
LINE
  8
LC-005-005-----0
 62
     2
  5
3C9
 10
0.426412
 20
463.157089
 30
0.0
 11
2.956861
 21
465.687538
 31
0.0
  0
LINE
  8
LC-005-005-----0
 62
     2
  5
3CA
 10
0.426412
 20
463.722775
 30
0.0
 11
2.391175
 21
465.687538
 31
0.0
  0
LINE
  8
LC-005-005-----0
 62
     2
  5
3CB
 10
0.426412
 20
464.28846
 30
0.0
 11
1.82549
 21
465.687538
 31
0.0
  0
LINE
  8
LC-005-005-----0
 62
     2
  5
3CC
 10
0.426412
 20
464.854146
 30
0.0
 11
1.259804
 21
465.687538
 31
0.0
  0
LINE
  8
LC-005-005-----0
 62
     2
  5
3CD
 10
0.426412
 20
465.419831
 30
0.0
 11
0.694119
 21
465.687538
 31
0.0
  0
ENDBLK
  8
0
  5
3CE
  0
BLOCK
  8
0
  5
3D1
  2
*X15
 70
    65
 10
0.0
 20
0.0
 30
0.0
  3
*X15
  0
LINE
  8
LC-005-005-----0
 62
     2
  5
3D2
 10
29.935245
 20
460.987538
 30
0.0
 11
30.426412
 21
461.478705
 31
0.0
  0
LINE
  8
LC-005-005-----0
 62
     2
  5
3D3
 10
29.369559
 20
460.987538
 30
0.0
 11
30.426412
 21
462.044391
 31
0.0
  0
LINE
  8
LC-005-005-----0
 62
     2
  5
3D4
 10
28.803874
 20
460.987538
 30
0.0
 11
30.426412
 21
462.610076
 31
0.0
  0
LINE
  8
LC-005-005-----0
 62
     2
  5
3D5
 10
28.238188
 20
460.987538
 30
0.0
 11
30.426412
 21
463.175762
 31
0.0
  0
LINE
  8
LC-005-005-----0
 62
     2
  5
3D6
 10
27.672503
 20
460.987538
 30
0.0
 11
30.426412
 21
463.741447
 31
0.0
  0
LINE
  8
LC-005-005-----0
 62
     2
  5
3D7
 10
27.106817
 20
460.987538
 30
0.0
 11
30.426412
 21
464.307133
 31
0.0
  0
LINE
  8
LC-005-005-----0
 62
     2
  5
3D8
 10
26.541132
 20
460.987538
 30
0.0
 11
30.426412
 21
464.872818
 31
0.0
  0
LINE
  8
LC-005-005-----0
 62
     2
  5
3D9
 10
25.975447
 20
460.987538
 30
0.0
 11
30.426412
 21
465.438503
 31
0.0
  0
LINE
  8
LC-005-005-----0
 62
     2
  5
3DA
 10
25.409761
 20
460.987538
 30
0.0
 11
30.109761
 21
465.687538
 31
0.0
  0
LINE
  8
LC-005-005-----0
 62
     2
  5
3DB
 10
24.844076
 20
460.987538
 30
0.0
 11
29.544076
 21
465.687538
 31
0.0
  0
LINE
  8
LC-005-005-----0
 62
     2
  5
3DC
 10
24.27839
 20
460.987538
 30
0.0
 11
28.97839
 21
465.687538
 31
0.0
  0
LINE
  8
LC-005-005-----0
 62
     2
  5
3DD
 10
23.712705
 20
460.987538
 30
0.0
 11
28.412705
 21
465.687538
 31
0.0
  0
LINE
  8
LC-005-005-----0
 62
     2
  5
3DE
 10
23.147019
 20
460.987538
 30
0.0
 11
27.847019
 21
465.687538
 31
0.0
  0
LINE
  8
LC-005-005-----0
 62
     2
  5
3DF
 10
22.581334
 20
460.987538
 30
0.0
 11
27.281334
 21
465.687538
 31
0.0
  0
LINE
  8
LC-005-005-----0
 62
     2
  5
3E0
 10
22.015649
 20
460.987538
 30
0.0
 11
26.715649
 21
465.687538
 31
0.0
  0
LINE
  8
LC-005-005-----0
 62
     2
  5
3E1
 10
21.449963
 20
460.987538
 30
0.0
 11
26.149963
 21
465.687538
 31
0.0
  0
LINE
  8
LC-005-005-----0
 62
     2
  5
3E2
 10
20.884278
 20
460.987538
 30
0.0
 11
25.584278
 21
465.687538
 31
0.0
  0
LINE
  8
LC-005-005-----0
 62
     2
  5
3E3
 10
20.426412
 20
461.095358
 30
0.0
 11
25.018592
 21
465.687538
 31
0.0
  0
LINE
  8
LC-005-005-----0
 62
     2
  5
3E4
 10
20.426412
 20
461.661043
 30
0.0
 11
24.452907
 21
465.687538
 31
0.0
  0
LINE
  8
LC-005-005-----0
 62
     2
  5
3E5
 10
20.426412
 20
462.226729
 30
0.0
 11
23.887221
 21
465.687538
 31
0.0
  0
LINE
  8
LC-005-005-----0
 62
     2
  5
3E6
 10
20.426412
 20
462.792414
 30
0.0
 11
23.321536
 21
465.687538
 31
0.0
  0
LINE
  8
LC-005-005-----0
 62
     2
  5
3E7
 10
20.426412
 20
463.358099
 30
0.0
 11
22.755851
 21
465.687538
 31
0.0
  0
LINE
  8
LC-005-005-----0
 62
     2
  5
3E8
 10
20.426412
 20
463.923785
 30
0.0
 11
22.190165
 21
465.687538
 31
0.0
  0
LINE
  8
LC-005-005-----0
 62
     2
  5
3E9
 10
20.426412
 20
464.48947
 30
0.0
 11
21.62448
 21
465.687538
 31
0.0
  0
LINE
  8
LC-005-005-----0
 62
     2
  5
3EA
 10
20.426412
 20
465.055156
 30
0.0
 11
21.058794
 21
465.687538
 31
0.0
  0
LINE
  8
LC-005-005-----0
 62
     2
  5
3EB
 10
20.426412
 20
465.620841
 30
0.0
 11
20.493109
 21
465.687538
 31
0.0
  0
ENDBLK
  8
0
  5
3EC
  0
BLOCK
  8
0
  5
3EF
  2
*X16
 70
    65
 10
0.0
 20
0.0
 30
0.0
  3
*X16
  0
LINE
  8
LC-005-005-----0
 62
     2
  5
3F0
 10
50.29992
 20
460.987538
 30
0.0
 11
50.426412
 21
461.11403
 31
0.0
  0
LINE
  8
LC-005-005-----0
 62
     2
  5
3F1
 10
49.734234
 20
460.987538
 30
0.0
 11
50.426412
 21
461.679716
 31
0.0
  0
LINE
  8
LC-005-005-----0
 62
     2
  5
3F2
 10
49.168549
 20
460.987538
 30
0.0
 11
50.426412
 21
462.245401
 31
0.0
  0
LINE
  8
LC-005-005-----0
 62
     2
  5
3F3
 10
48.602864
 20
460.987538
 30
0.0
 11
50.426412
 21
462.811086
 31
0.0
  0
LINE
  8
LC-005-005-----0
 62
     2
  5
3F4
 10
48.037178
 20
460.987538
 30
0.0
 11
50.426412
 21
463.376772
 31
0.0
  0
LINE
  8
LC-005-005-----0
 62
     2
  5
3F5
 10
47.471493
 20
460.987538
 30
0.0
 11
50.426412
 21
463.942457
 31
0.0
  0
LINE
  8
LC-005-005-----0
 62
     2
  5
3F6
 10
46.905807
 20
460.987538
 30
0.0
 11
50.426412
 21
464.508143
 31
0.0
  0
LINE
  8
LC-005-005-----0
 62
     2
  5
3F7
 10
46.340122
 20
460.987538
 30
0.0
 11
50.426412
 21
465.073828
 31
0.0
  0
LINE
  8
LC-005-005-----0
 62
     2
  5
3F8
 10
45.774436
 20
460.987538
 30
0.0
 11
50.426412
 21
465.639514
 31
0.0
  0
LINE
  8
LC-005-005-----0
 62
     2
  5
3F9
 10
45.208751
 20
460.987538
 30
0.0
 11
49.908751
 21
465.687538
 31
0.0
  0
LINE
  8
LC-005-005-----0
 62
     2
  5
3FA
 10
44.643066
 20
460.987538
 30
0.0
 11
49.343066
 21
465.687538
 31
0.0
  0
LINE
  8
LC-005-005-----0
 62
     2
  5
3FB
 10
44.07738
 20
460.987538
 30
0.0
 11
48.77738
 21
465.687538
 31
0.0
  0
LINE
  8
LC-005-005-----0
 62
     2
  5
3FC
 10
43.511695
 20
460.987538
 30
0.0
 11
48.211695
 21
465.687538
 31
0.0
  0
LINE
  8
LC-005-005-----0
 62
     2
  5
3FD
 10
42.946009
 20
460.987538
 30
0.0
 11
47.646009
 21
465.687538
 31
0.0
  0
LINE
  8
LC-005-005-----0
 62
     2
  5
3FE
 10
42.380324
 20
460.987538
 30
0.0
 11
47.080324
 21
465.687538
 31
0.0
  0
LINE
  8
LC-005-005-----0
 62
     2
  5
3FF
 10
41.814638
 20
460.987538
 30
0.0
 11
46.514638
 21
465.687538
 31
0.0
  0
LINE
  8
LC-005-005-----0
 62
     2
  5
400
 10
41.248953
 20
460.987538
 30
0.0
 11
45.948953
 21
465.687538
 31
0.0
  0
LINE
  8
LC-005-005-----0
 62
     2
  5
401
 10
40.683268
 20
460.987538
 30
0.0
 11
45.383268
 21
465.687538
 31
0.0
  0
LINE
  8
LC-005-005-----0
 62
     2
  5
402
 10
40.426412
 20
461.296368
 30
0.0
 11
44.817582
 21
465.687538
 31
0.0
  0
LINE
  8
LC-005-005-----0
 62
     2
  5
403
 10
40.426412
 20
461.862053
 30
0.0
 11
44.251897
 21
465.687538
 31
0.0
  0
LINE
  8
LC-005-005-----0
 62
     2
  5
404
 10
40.426412
 20
462.427739
 30
0.0
 11
43.686211
 21
465.687538
 31
0.0
  0
LINE
  8
LC-005-005-----0
 62
     2
  5
405
 10
40.426412
 20
462.993424
 30
0.0
 11
43.120526
 21
465.687538
 31
0.0
  0
LINE
  8
LC-005-005-----0
 62
     2
  5
406
 10
40.426412
 20
463.55911
 30
0.0
 11
42.55484
 21
465.687538
 31
0.0
  0
LINE
  8
LC-005-005-----0
 62
     2
  5
407
 10
40.426412
 20
464.124795
 30
0.0
 11
41.989155
 21
465.687538
 31
0.0
  0
LINE
  8
LC-005-005-----0
 62
     2
  5
408
 10
40.426412
 20
464.69048
 30
0.0
 11
41.42347
 21
465.687538
 31
0.0
  0
LINE
  8
LC-005-005-----0
 62
     2
  5
409
 10
40.426412
 20
465.256166
 30
0.0
 11
40.857784
 21
465.687538
 31
0.0
  0
ENDBLK
  8
0
  5
40A
  0
BLOCK
  8
0
  5
40D
  2
*X17
 70
    65
 10
0.0
 20
0.0
 30
0.0
  3
*X17
  0
LINE
  8
LC-005-005-----0
 62
     2
  5
40E
 10
70.09891
 20
460.987538
 30
0.0
 11
70.426412
 21
461.31504
 31
0.0
  0
LINE
  8
LC-005-005-----0
 62
     2
  5
40F
 10
69.533224
 20
460.987538
 30
0.0
 11
70.426412
 21
461.880726
 31
0.0
  0
LINE
  8
LC-005-005-----0
 62
     2
  5
410
 10
68.967539
 20
460.987538
 30
0.0
 11
70.426412
 21
462.446411
 31
0.0
  0
LINE
  8
LC-005-005-----0
 62
     2
  5
411
 10
68.401853
 20
460.987538
 30
0.0
 11
70.426412
 21
463.012097
 31
0.0
  0
LINE
  8
LC-005-005-----0
 62
     2
  5
412
 10
67.836168
 20
460.987538
 30
0.0
 11
70.426412
 21
463.577782
 31
0.0
  0
LINE
  8
LC-005-005-----0
 62
     2
  5
413
 10
67.270483
 20
460.987538
 30
0.0
 11
70.426412
 21
464.143467
 31
0.0
  0
LINE
  8
LC-005-005-----0
 62
     2
  5
414
 10
66.704797
 20
460.987538
 30
0.0
 11
70.426412
 21
464.709153
 31
0.0
  0
LINE
  8
LC-005-005-----0
 62
     2
  5
415
 10
66.139112
 20
460.987538
 30
0.0
 11
70.426412
 21
465.274838
 31
0.0
  0
LINE
  8
LC-005-005-----0
 62
     2
  5
416
 10
65.573426
 20
460.987538
 30
0.0
 11
70.273426
 21
465.687538
 31
0.0
  0
LINE
  8
LC-005-005-----0
 62
     2
  5
417
 10
65.007741
 20
460.987538
 30
0.0
 11
69.707741
 21
465.687538
 31
0.0
  0
LINE
  8
LC-005-005-----0
 62
     2
  5
418
 10
64.442055
 20
460.987538
 30
0.0
 11
69.142055
 21
465.687538
 31
0.0
  0
LINE
  8
LC-005-005-----0
 62
     2
  5
419
 10
63.87637
 20
460.987538
 30
0.0
 11
68.57637
 21
465.687538
 31
0.0
  0
LINE
  8
LC-005-005-----0
 62
     2
  5
41A
 10
63.310685
 20
460.987538
 30
0.0
 11
68.010685
 21
465.687538
 31
0.0
  0
LINE
  8
LC-005-005-----0
 62
     2
  5
41B
 10
62.744999
 20
460.987538
 30
0.0
 11
67.444999
 21
465.687538
 31
0.0
  0
LINE
  8
LC-005-005-----0
 62
     2
  5
41C
 10
62.179314
 20
460.987538
 30
0.0
 11
66.879314
 21
465.687538
 31
0.0
  0
LINE
  8
LC-005-005-----0
 62
     2
  5
41D
 10
61.613628
 20
460.987538
 30
0.0
 11
66.313628
 21
465.687538
 31
0.0
  0
LINE
  8
LC-005-005-----0
 62
     2
  5
41E
 10
61.047943
 20
460.987538
 30
0.0
 11
65.747943
 21
465.687538
 31
0.0
  0
LINE
  8
LC-005-005-----0
 62
     2
  5
41F
 10
60.482257
 20
460.987538
 30
0.0
 11
65.182257
 21
465.687538
 31
0.0
  0
LINE
  8
LC-005-005-----0
 62
     2
  5
420
 10
60.426412
 20
461.497378
 30
0.0
 11
64.616572
 21
465.687538
 31
0.0
  0
LINE
  8
LC-005-005-----0
 62
     2
  5
421
 10
60.426412
 20
462.063063
 30
0.0
 11
64.050887
 21
465.687538
 31
0.0
  0
LINE
  8
LC-005-005-----0
 62
     2
  5
422
 10
60.426412
 20
462.628749
 30
0.0
 11
63.485201
 21
465.687538
 31
0.0
  0
LINE
  8
LC-005-005-----0
 62
     2
  5
423
 10
60.426412
 20
463.194434
 30
0.0
 11
62.919516
 21
465.687538
 31
0.0
  0
LINE
  8
LC-005-005-----0
 62
     2
  5
424
 10
60.426412
 20
463.76012
 30
0.0
 11
62.35383
 21
465.687538
 31
0.0
  0
LINE
  8
LC-005-005-----0
 62
     2
  5
425
 10
60.426412
 20
464.325805
 30
0.0
 11
61.788145
 21
465.687538
 31
0.0
  0
LINE
  8
LC-005-005-----0
 62
     2
  5
426
 10
60.426412
 20
464.891491
 30
0.0
 11
61.22246
 21
465.687538
 31
0.0
  0
LINE
  8
LC-005-005-----0
 62
     2
  5
427
 10
60.426412
 20
465.457176
 30
0.0
 11
60.656774
 21
465.687538
 31
0.0
  0
ENDBLK
  8
0
  5
428
  0
BLOCK
  8
0
  5
439
  2
*X18
 70
    65
 10
0.0
 20
0.0
 30
0.0
  3
*X18
  0
LINE
  8
LC-005-005-----0
 62
     2
  5
43A
 10
161.646873
 20
438.832731
 30
0.0
 11
161.736019
 21
438.921877
 31
0.0
  0
LINE
  8
LC-005-005-----0
 62
     2
  5
43B
 10
158.818446
 20
438.832731
 30
0.0
 11
161.318446
 21
441.332731
 31
0.0
  0
LINE
  8
LC-005-005-----0
 62
     2
  5
43C
 10
155.990019
 20
438.832731
 30
0.0
 11
158.490019
 21
441.332731
 31
0.0
  0
LINE
  8
LC-005-005-----0
 62
     2
  5
43D
 10
153.948805
 20
439.619945
 30
0.0
 11
155.661592
 21
441.332731
 31
0.0
  0
LINE
  8
LC-005-005-----0
 62
     2
  5
43E
 10
152.534592
 20
441.034159
 30
0.0
 11
154.236019
 21
442.735586
 31
0.0
  0
LINE
  8
LC-005-005-----0
 62
     2
  5
43F
 10
151.736019
 20
443.064013
 30
0.0
 11
154.236019
 21
445.564013
 31
0.0
  0
LINE
  8
LC-005-005-----0
 62
     2
  5
440
 10
151.736019
 20
445.89244
 30
0.0
 11
154.236019
 21
448.39244
 31
0.0
  0
LINE
  8
LC-005-005-----0
 62
     2
  5
441
 10
151.736019
 20
448.720867
 30
0.0
 11
154.236019
 21
451.220867
 31
0.0
  0
LINE
  8
LC-005-005-----0
 62
     2
  5
442
 10
151.736019
 20
451.549294
 30
0.0
 11
154.236019
 21
454.049294
 31
0.0
  0
LINE
  8
LC-005-005-----0
 62
     2
  5
443
 10
151.736019
 20
454.377721
 30
0.0
 11
154.236019
 21
456.877721
 31
0.0
  0
LINE
  8
LC-005-005-----0
 62
     2
  5
444
 10
151.736019
 20
457.206148
 30
0.0
 11
153.362246
 21
458.832376
 31
0.0
  0
ENDBLK
  8
0
  5
445
  0
BLOCK
  8
0
  5
454
  2
*X19
 70
    65
 10
0.0
 20
0.0
 30
0.0
  3
*X19
  0
LINE
  8
LC-005-005-----0
 62
     2
  5
455
 10
90.275717
 20
460.79967
 30
0.0
 11
90.277198
 21
460.801151
 31
0.0
  0
LINE
  8
LC-005-005-----0
 62
     2
  5
456
 10
89.719736
 20
460.809375
 30
0.0
 11
90.287247
 21
461.376886
 31
0.0
  0
LINE
  8
LC-005-005-----0
 62
     2
  5
457
 10
89.163756
 20
460.81908
 30
0.0
 11
90.297297
 21
461.952621
 31
0.0
  0
LINE
  8
LC-005-005-----0
 62
     2
  5
458
 10
88.607775
 20
460.828785
 30
0.0
 11
90.307346
 21
462.528356
 31
0.0
  0
LINE
  8
LC-005-005-----0
 62
     2
  5
459
 10
88.051794
 20
460.838489
 30
0.0
 11
90.317396
 21
463.104091
 31
0.0
  0
LINE
  8
LC-005-005-----0
 62
     2
  5
45A
 10
87.495813
 20
460.848194
 30
0.0
 11
90.327445
 21
463.679826
 31
0.0
  0
LINE
  8
LC-005-005-----0
 62
     2
  5
45B
 10
86.939833
 20
460.857899
 30
0.0
 11
90.337495
 21
464.25556
 31
0.0
  0
LINE
  8
LC-005-005-----0
 62
     2
  5
45C
 10
86.383852
 20
460.867603
 30
0.0
 11
90.347544
 21
464.831295
 31
0.0
  0
LINE
  8
LC-005-005-----0
 62
     2
  5
45D
 10
85.827871
 20
460.877308
 30
0.0
 11
90.357594
 21
465.40703
 31
0.0
  0
LINE
  8
LC-005-005-----0
 62
     2
  5
45E
 10
85.27189
 20
460.887013
 30
0.0
 11
89.891963
 21
465.507085
 31
0.0
  0
LINE
  8
LC-005-005-----0
 62
     2
  5
45F
 10
84.71591
 20
460.896717
 30
0.0
 11
89.335982
 21
465.51679
 31
0.0
  0
LINE
  8
LC-005-005-----0
 62
     2
  5
460
 10
84.159929
 20
460.906422
 30
0.0
 11
88.780001
 21
465.526494
 31
0.0
  0
LINE
  8
LC-005-005-----0
 62
     2
  5
461
 10
83.603948
 20
460.916127
 30
0.0
 11
88.22402
 21
465.536199
 31
0.0
  0
LINE
  8
LC-005-005-----0
 62
     2
  5
462
 10
83.047967
 20
460.925831
 30
0.0
 11
87.66804
 21
465.545904
 31
0.0
  0
LINE
  8
LC-005-005-----0
 62
     2
  5
463
 10
82.491987
 20
460.935536
 30
0.0
 11
87.112059
 21
465.555608
 31
0.0
  0
LINE
  8
LC-005-005-----0
 62
     2
  5
464
 10
81.936006
 20
460.945241
 30
0.0
 11
86.556078
 21
465.565313
 31
0.0
  0
LINE
  8
LC-005-005-----0
 62
     2
  5
465
 10
81.380025
 20
460.954945
 30
0.0
 11
86.000098
 21
465.575018
 31
0.0
  0
LINE
  8
LC-005-005-----0
 62
     2
  5
466
 10
80.824044
 20
460.96465
 30
0.0
 11
85.444117
 21
465.584722
 31
0.0
  0
LINE
  8
LC-005-005-----0
 62
     2
  5
467
 10
80.269624
 20
460.975915
 30
0.0
 11
84.888136
 21
465.594427
 31
0.0
  0
LINE
  8
LC-005-005-----0
 62
     2
  5
468
 10
80.279673
 20
461.55165
 30
0.0
 11
84.332155
 21
465.604132
 31
0.0
  0
LINE
  8
LC-005-005-----0
 62
     2
  5
469
 10
80.289723
 20
462.127385
 30
0.0
 11
83.776175
 21
465.613836
 31
0.0
  0
LINE
  8
LC-005-005-----0
 62
     2
  5
46A
 10
80.299772
 20
462.70312
 30
0.0
 11
83.220194
 21
465.623541
 31
0.0
  0
LINE
  8
LC-005-005-----0
 62
     2
  5
46B
 10
80.309822
 20
463.278854
 30
0.0
 11
82.664213
 21
465.633246
 31
0.0
  0
LINE
  8
LC-005-005-----0
 62
     2
  5
46C
 10
80.319871
 20
463.854589
 30
0.0
 11
82.108232
 21
465.64295
 31
0.0
  0
LINE
  8
LC-005-005-----0
 62
     2
  5
46D
 10
80.329921
 20
464.430324
 30
0.0
 11
81.552252
 21
465.652655
 31
0.0
  0
LINE
  8
LC-005-005-----0
 62
     2
  5
46E
 10
80.33997
 20
465.006059
 30
0.0
 11
80.996271
 21
465.66236
 31
0.0
  0
LINE
  8
LC-005-005-----0
 62
     2
  5
46F
 10
80.35002
 20
465.581794
 30
0.0
 11
80.44029
 21
465.672064
 31
0.0
  0
ENDBLK
  8
0
  5
470
  0
BLOCK
  8
0
  5
475
  2
*X20
 70
    65
 10
0.0
 20
0.0
 30
0.0
  3
*X20
  0
LINE
  8
LC-005-005-----0
 62
     2
  5
476
 10
110.291024
 20
460.450302
 30
0.0
 11
110.297174
 21
460.456452
 31
0.0
  0
LINE
  8
LC-005-005-----0
 62
     2
  5
477
 10
109.735043
 20
460.460007
 30
0.0
 11
110.307223
 21
461.032187
 31
0.0
  0
LINE
  8
LC-005-005-----0
 62
     2
  5
478
 10
109.179062
 20
460.469711
 30
0.0
 11
110.317273
 21
461.607922
 31
0.0
  0
LINE
  8
LC-005-005-----0
 62
     2
  5
479
 10
108.623082
 20
460.479416
 30
0.0
 11
110.327322
 21
462.183657
 31
0.0
  0
LINE
  8
LC-005-005-----0
 62
     2
  5
47A
 10
108.067101
 20
460.489121
 30
0.0
 11
110.337372
 21
462.759392
 31
0.0
  0
LINE
  8
LC-005-005-----0
 62
     2
  5
47B
 10
107.51112
 20
460.498825
 30
0.0
 11
110.347421
 21
463.335126
 31
0.0
  0
LINE
  8
LC-005-005-----0
 62
     2
  5
47C
 10
106.955139
 20
460.50853
 30
0.0
 11
110.357471
 21
463.910861
 31
0.0
  0
LINE
  8
LC-005-005-----0
 62
     2
  5
47D
 10
106.399159
 20
460.518235
 30
0.0
 11
110.36752
 21
464.486596
 31
0.0
  0
LINE
  8
LC-005-005-----0
 62
     2
  5
47E
 10
105.843178
 20
460.527939
 30
0.0
 11
110.37757
 21
465.062331
 31
0.0
  0
LINE
  8
LC-005-005-----0
 62
     2
  5
47F
 10
105.287197
 20
460.537644
 30
0.0
 11
109.90727
 21
465.157716
 31
0.0
  0
LINE
  8
LC-005-005-----0
 62
     2
  5
480
 10
104.731217
 20
460.547349
 30
0.0
 11
109.351289
 21
465.167421
 31
0.0
  0
LINE
  8
LC-005-005-----0
 62
     2
  5
481
 10
104.175236
 20
460.557053
 30
0.0
 11
108.795308
 21
465.177126
 31
0.0
  0
LINE
  8
LC-005-005-----0
 62
     2
  5
482
 10
103.619255
 20
460.566758
 30
0.0
 11
108.239327
 21
465.18683
 31
0.0
  0
LINE
  8
LC-005-005-----0
 62
     2
  5
483
 10
103.063274
 20
460.576463
 30
0.0
 11
107.683347
 21
465.196535
 31
0.0
  0
LINE
  8
LC-005-005-----0
 62
     2
  5
484
 10
102.507294
 20
460.586168
 30
0.0
 11
107.127366
 21
465.20624
 31
0.0
  0
LINE
  8
LC-005-005-----0
 62
     2
  5
485
 10
101.951313
 20
460.595872
 30
0.0
 11
106.571385
 21
465.215944
 31
0.0
  0
LINE
  8
LC-005-005-----0
 62
     2
  5
486
 10
101.395332
 20
460.605577
 30
0.0
 11
106.015404
 21
465.225649
 31
0.0
  0
LINE
  8
LC-005-005-----0
 62
     2
  5
487
 10
100.839351
 20
460.615282
 30
0.0
 11
105.459424
 21
465.235354
 31
0.0
  0
LINE
  8
LC-005-005-----0
 62
     2
  5
488
 10
100.2896
 20
460.631216
 30
0.0
 11
104.903443
 21
465.245059
 31
0.0
  0
LINE
  8
LC-005-005-----0
 62
     2
  5
489
 10
100.299649
 20
461.206951
 30
0.0
 11
104.347462
 21
465.254763
 31
0.0
  0
LINE
  8
LC-005-005-----0
 62
     2
  5
48A
 10
100.309699
 20
461.782686
 30
0.0
 11
103.791481
 21
465.264468
 31
0.0
  0
LINE
  8
LC-005-005-----0
 62
     2
  5
48B
 10
100.319748
 20
462.35842
 30
0.0
 11
103.235501
 21
465.274173
 31
0.0
  0
LINE
  8
LC-005-005-----0
 62
     2
  5
48C
 10
100.329798
 20
462.934155
 30
0.0
 11
102.67952
 21
465.283877
 31
0.0
  0
LINE
  8
LC-005-005-----0
 62
     2
  5
48D
 10
100.339847
 20
463.50989
 30
0.0
 11
102.123539
 21
465.293582
 31
0.0
  0
LINE
  8
LC-005-005-----0
 62
     2
  5
48E
 10
100.349897
 20
464.085625
 30
0.0
 11
101.567558
 21
465.303287
 31
0.0
  0
LINE
  8
LC-005-005-----0
 62
     2
  5
48F
 10
100.359946
 20
464.66136
 30
0.0
 11
101.011578
 21
465.312991
 31
0.0
  0
LINE
  8
LC-005-005-----0
 62
     2
  5
490
 10
100.369996
 20
465.237095
 30
0.0
 11
100.455597
 21
465.322696
 31
0.0
  0
ENDBLK
  8
0
  5
491
  0
BLOCK
  8
0
  5
496
  2
*X21
 70
    65
 10
0.0
 20
0.0
 30
0.0
  3
*X21
  0
LINE
  8
LC-005-005-----0
 62
     2
  5
497
 10
130.3909
 20
457.922761
 30
0.0
 11
130.426412
 21
457.958273
 31
0.0
  0
LINE
  8
LC-005-005-----0
 62
     2
  5
498
 10
129.862185
 20
457.959732
 30
0.0
 11
130.426412
 21
458.523958
 31
0.0
  0
LINE
  8
LC-005-005-----0
 62
     2
  5
499
 10
129.333471
 20
457.996703
 30
0.0
 11
130.426412
 21
459.089644
 31
0.0
  0
LINE
  8
LC-005-005-----0
 62
     2
  5
49A
 10
128.804757
 20
458.033674
 30
0.0
 11
130.426412
 21
459.655329
 31
0.0
  0
LINE
  8
LC-005-005-----0
 62
     2
  5
49B
 10
128.276043
 20
458.070646
 30
0.0
 11
130.426412
 21
460.221014
 31
0.0
  0
LINE
  8
LC-005-005-----0
 62
     2
  5
49C
 10
127.747329
 20
458.107617
 30
0.0
 11
130.426412
 21
460.7867
 31
0.0
  0
LINE
  8
LC-005-005-----0
 62
     2
  5
49D
 10
127.218615
 20
458.144588
 30
0.0
 11
130.426412
 21
461.352385
 31
0.0
  0
LINE
  8
LC-005-005-----0
 62
     2
  5
49E
 10
126.6899
 20
458.181559
 30
0.0
 11
130.426412
 21
461.918071
 31
0.0
  0
LINE
  8
LC-005-005-----0
 62
     2
  5
49F
 10
126.161186
 20
458.218531
 30
0.0
 11
130.426412
 21
462.483756
 31
0.0
  0
LINE
  8
LC-005-005-----0
 62
     2
  5
4A0
 10
125.632472
 20
458.255502
 30
0.0
 11
130.036023
 21
462.659053
 31
0.0
  0
LINE
  8
LC-005-005-----0
 62
     2
  5
4A1
 10
125.103758
 20
458.292473
 30
0.0
 11
129.507309
 21
462.696024
 31
0.0
  0
LINE
  8
LC-005-005-----0
 62
     2
  5
4A2
 10
124.575044
 20
458.329445
 30
0.0
 11
128.978595
 21
462.732995
 31
0.0
  0
LINE
  8
LC-005-005-----0
 62
     2
  5
4A3
 10
124.04633
 20
458.366416
 30
0.0
 11
128.449881
 21
462.769967
 31
0.0
  0
LINE
  8
LC-005-005-----0
 62
     2
  5
4A4
 10
123.517615
 20
458.403387
 30
0.0
 11
127.921166
 21
462.806938
 31
0.0
  0
LINE
  8
LC-005-005-----0
 62
     2
  5
4A5
 10
122.988901
 20
458.440358
 30
0.0
 11
127.392452
 21
462.843909
 31
0.0
  0
LINE
  8
LC-005-005-----0
 62
     2
  5
4A6
 10
122.466863
 20
458.484005
 30
0.0
 11
126.863738
 21
462.88088
 31
0.0
  0
LINE
  8
LC-005-005-----0
 62
     2
  5
4A7
 10
122.023601
 20
458.606428
 30
0.0
 11
126.335024
 21
462.917852
 31
0.0
  0
LINE
  8
LC-005-005-----0
 62
     2
  5
4A8
 10
121.654511
 20
458.803024
 30
0.0
 11
125.80631
 21
462.954823
 31
0.0
  0
LINE
  8
LC-005-005-----0
 62
     2
  5
4A9
 10
121.345887
 20
459.060086
 30
0.0
 11
125.277596
 21
462.991794
 31
0.0
  0
LINE
  8
LC-005-005-----0
 62
     2
  5
4AA
 10
121.063044
 20
459.342928
 30
0.0
 11
124.748881
 21
463.028766
 31
0.0
  0
LINE
  8
LC-005-005-----0
 62
     2
  5
4AB
 10
120.780201
 20
459.625771
 30
0.0
 11
124.220167
 21
463.065737
 31
0.0
  0
LINE
  8
LC-005-005-----0
 62
     2
  5
4AC
 10
120.497359
 20
459.908614
 30
0.0
 11
123.820761
 21
463.232016
 31
0.0
  0
LINE
  8
LC-005-005-----0
 62
     2
  5
4AD
 10
120.426412
 20
460.403352
 30
0.0
 11
123.537918
 21
463.514858
 31
0.0
  0
LINE
  8
LC-005-005-----0
 62
     2
  5
4AE
 10
120.426412
 20
460.969037
 30
0.0
 11
123.255075
 21
463.797701
 31
0.0
  0
LINE
  8
LC-005-005-----0
 62
     2
  5
4AF
 10
120.426412
 20
461.534723
 30
0.0
 11
122.972232
 21
464.080544
 31
0.0
  0
LINE
  8
LC-005-005-----0
 62
     2
  5
4B0
 10
120.426412
 20
462.100408
 30
0.0
 11
122.68939
 21
464.363386
 31
0.0
  0
LINE
  8
LC-005-005-----0
 62
     2
  5
4B1
 10
120.426412
 20
462.666094
 30
0.0
 11
122.406547
 21
464.646229
 31
0.0
  0
LINE
  8
LC-005-005-----0
 62
     2
  5
4B2
 10
120.426412
 20
463.231779
 30
0.0
 11
122.123704
 21
464.929072
 31
0.0
  0
LINE
  8
LC-005-005-----0
 62
     2
  5
4B3
 10
120.426412
 20
463.797465
 30
0.0
 11
121.582865
 21
464.953918
 31
0.0
  0
LINE
  8
LC-005-005-----0
 62
     2
  5
4B4
 10
120.426412
 20
464.36315
 30
0.0
 11
121.026884
 21
464.963623
 31
0.0
  0
LINE
  8
LC-005-005-----0
 62
     2
  5
4B5
 10
120.426412
 20
464.928835
 30
0.0
 11
120.470904
 21
464.973327
 31
0.0
  0
ENDBLK
  8
0
  5
4B6
  0
BLOCK
  8
0
  5
4E4
  2
*X22
 70
    65
 10
0.0
 20
0.0
 30
0.0
  3
*X22
  0
LINE
  8
LC-005-005-----0
 62
     2
  5
4E5
 10
316.984296
 20
441.435089
 30
0.0
 11
317.263155
 21
441.713948
 31
0.0
  0
LINE
  8
LC-005-005-----0
 62
     2
  5
4E6
 10
315.00652
 20
442.28574
 30
0.0
 11
317.263155
 21
444.542375
 31
0.0
  0
LINE
  8
LC-005-005-----0
 62
     2
  5
4E7
 10
321.18494
 20
448.464161
 30
0.0
 11
322.113061
 21
449.392282
 31
0.0
  0
LINE
  8
LC-005-005-----0
 62
     2
  5
4E8
 10
314.621288
 20
444.728936
 30
0.0
 11
317.263155
 21
447.370802
 31
0.0
  0
LINE
  8
LC-005-005-----0
 62
     2
  5
4E9
 10
318.981098
 20
449.088746
 30
0.0
 11
322.12248
 21
452.230127
 31
0.0
  0
LINE
  8
LC-005-005-----0
 62
     2
  5
4EA
 10
310.941719
 20
443.877794
 30
0.0
 11
317.263155
 21
450.19923
 31
0.0
  0
LINE
  8
LC-005-005-----0
 62
     2
  5
4EB
 10
318.981098
 20
451.917173
 30
0.0
 11
322.12248
 21
455.058555
 31
0.0
  0
LINE
  8
LC-005-005-----0
 62
     2
  5
4EC
 10
315.006724
 20
450.771226
 30
0.0
 11
317.263155
 21
453.027657
 31
0.0
  0
LINE
  8
LC-005-005-----0
 62
     2
  5
4ED
 10
318.523006
 20
454.287508
 30
0.0
 11
321.328338
 21
457.09284
 31
0.0
  0
LINE
  8
LC-005-005-----0
 62
     2
  5
4EE
 10
313.078175
 20
451.671104
 30
0.0
 11
318.287329
 21
456.880258
 31
0.0
  0
LINE
  8
LC-005-005-----0
 62
     2
  5
4EF
 10
314.46684
 20
455.888197
 30
0.0
 11
315.072317
 21
456.493673
 31
0.0
  0
ENDBLK
  8
0
  5
4F0
  0
BLOCK
  8
0
  5
514
  2
*X23
 70
    65
 10
0.0
 20
0.0
 30
0.0
  3
*X23
  0
LINE
  8
LC-005-005-----0
 62
     2
  5
515
 10
304.953143
 20
432.232363
 30
0.0
 11
305.653146
 21
432.932366
 31
0.0
  0
LINE
  8
LC-005-005-----0
 62
     2
  5
516
 10
306.730909
 20
434.010129
 30
0.0
 11
307.25093
 21
434.53015
 31
0.0
  0
LINE
  8
LC-005-005-----0
 62
     2
  5
517
 10
305.052518
 20
435.160165
 30
0.0
 11
305.680668
 21
435.788316
 31
0.0
  0
LINE
  8
LC-005-005-----0
 62
     2
  5
518
 10
332.712232
 20
462.81988
 30
0.0
 11
333.48549
 21
463.593138
 31
0.0
  0
LINE
  8
LC-005-005-----0
 62
     2
  5
519
 10
304.984221
 20
437.920296
 30
0.0
 11
305.89282
 21
438.828895
 31
0.0
  0
LINE
  8
LC-005-005-----0
 62
     2
  5
51A
 10
308.780645
 20
441.71672
 30
0.0
 11
309.480642
 21
442.416717
 31
0.0
  0
LINE
  8
LC-005-005-----0
 62
     2
  5
51B
 10
329.671139
 20
462.607214
 30
0.0
 11
330.414233
 21
463.350308
 31
0.0
  0
LINE
  8
LC-005-005-----0
 62
     2
  5
51C
 10
308.780633
 20
444.545135
 30
0.0
 11
309.480631
 21
445.245133
 31
0.0
  0
LINE
  8
LC-005-005-----0
 62
     2
  5
51D
 10
326.630045
 20
462.394547
 30
0.0
 11
327.37314
 21
463.137642
 31
0.0
  0
LINE
  8
LC-005-005-----0
 62
     2
  5
51E
 10
308.780622
 20
447.373551
 30
0.0
 11
309.480619
 21
448.073548
 31
0.0
  0
LINE
  8
LC-005-005-----0
 62
     2
  5
51F
 10
323.588952
 20
462.181881
 30
0.0
 11
324.332047
 21
462.924976
 31
0.0
  0
LINE
  8
LC-005-005-----0
 62
     2
  5
520
 10
308.780611
 20
450.201967
 30
0.0
 11
309.480608
 21
450.901964
 31
0.0
  0
LINE
  8
LC-005-005-----0
 62
     2
  5
521
 10
320.547859
 20
461.969215
 30
0.0
 11
321.290953
 21
462.71231
 31
0.0
  0
LINE
  8
LC-005-005-----0
 62
     2
  5
522
 10
308.780599
 20
453.030383
 30
0.0
 11
309.480597
 21
453.73038
 31
0.0
  0
LINE
  8
LC-005-005-----0
 62
     2
  5
523
 10
317.506766
 20
461.756549
 30
0.0
 11
318.24986
 21
462.499644
 31
0.0
  0
LINE
  8
LC-005-005-----0
 62
     2
  5
524
 10
308.80403
 20
455.882241
 30
0.0
 11
309.636901
 21
456.715111
 31
0.0
  0
LINE
  8
LC-005-005-----0
 62
     2
  5
525
 10
314.385929
 20
461.46414
 30
0.0
 11
315.20822
 21
462.28643
 31
0.0
  0
ENDBLK
  8
0
  5
526
  0
BLOCK
  8
0
  5
529
  2
*X24
 70
    65
 10
0.0
 20
0.0
 30
0.0
  3
*X24
  0
LINE
  8
LC-005-005-----0
 62
     2
  5
52A
 10
479.656155
 20
460.988536
 30
0.0
 11
480.027779
 21
461.36016
 31
0.0
  0
LINE
  8
LC-005-005-----0
 62
     2
  5
52B
 10
479.090468
 20
460.988534
 30
0.0
 11
480.027777
 21
461.925843
 31
0.0
  0
LINE
  8
LC-005-005-----0
 62
     2
  5
52C
 10
478.52478
 20
460.988532
 30
0.0
 11
480.027774
 21
462.491526
 31
0.0
  0
LINE
  8
LC-005-005-----0
 62
     2
  5
52D
 10
477.959092
 20
460.98853
 30
0.0
 11
480.027772
 21
463.057209
 31
0.0
  0
LINE
  8
LC-005-005-----0
 62
     2
  5
52E
 10
477.393405
 20
460.988527
 30
0.0
 11
480.02777
 21
463.622893
 31
0.0
  0
LINE
  8
LC-005-005-----0
 62
     2
  5
52F
 10
476.827717
 20
460.988525
 30
0.0
 11
480.027768
 21
464.188576
 31
0.0
  0
LINE
  8
LC-005-005-----0
 62
     2
  5
530
 10
476.262029
 20
460.988523
 30
0.0
 11
480.027765
 21
464.754259
 31
0.0
  0
LINE
  8
LC-005-005-----0
 62
     2
  5
531
 10
475.696342
 20
460.988521
 30
0.0
 11
480.027763
 21
465.319942
 31
0.0
  0
LINE
  8
LC-005-005-----0
 62
     2
  5
532
 10
475.130654
 20
460.988518
 30
0.0
 11
479.830673
 21
465.688537
 31
0.0
  0
LINE
  8
LC-005-005-----0
 62
     2
  5
533
 10
474.564966
 20
460.988516
 30
0.0
 11
479.264985
 21
465.688535
 31
0.0
  0
LINE
  8
LC-005-005-----0
 62
     2
  5
534
 10
473.999279
 20
460.988514
 30
0.0
 11
478.699297
 21
465.688533
 31
0.0
  0
LINE
  8
LC-005-005-----0
 62
     2
  5
535
 10
473.433591
 20
460.988512
 30
0.0
 11
478.13361
 21
465.68853
 31
0.0
  0
LINE
  8
LC-005-005-----0
 62
     2
  5
536
 10
472.867903
 20
460.988509
 30
0.0
 11
477.567922
 21
465.688528
 31
0.0
  0
LINE
  8
LC-005-005-----0
 62
     2
  5
537
 10
472.302216
 20
460.988507
 30
0.0
 11
477.002234
 21
465.688526
 31
0.0
  0
LINE
  8
LC-005-005-----0
 62
     2
  5
538
 10
471.736528
 20
460.988505
 30
0.0
 11
476.436547
 21
465.688524
 31
0.0
  0
LINE
  8
LC-005-005-----0
 62
     2
  5
539
 10
471.17084
 20
460.988503
 30
0.0
 11
475.870859
 21
465.688521
 31
0.0
  0
LINE
  8
LC-005-005-----0
 62
     2
  5
53A
 10
470.605152
 20
460.9885
 30
0.0
 11
475.305171
 21
465.688519
 31
0.0
  0
LINE
  8
LC-005-005-----0
 62
     2
  5
53B
 10
470.039465
 20
460.988498
 30
0.0
 11
474.739484
 21
465.688517
 31
0.0
  0
LINE
  8
LC-005-005-----0
 62
     2
  5
53C
 10
470.027778
 20
461.542497
 30
0.0
 11
474.173796
 21
465.688515
 31
0.0
  0
LINE
  8
LC-005-005-----0
 62
     2
  5
53D
 10
470.027776
 20
462.10818
 30
0.0
 11
473.608108
 21
465.688512
 31
0.0
  0
LINE
  8
LC-005-005-----0
 62
     2
  5
53E
 10
470.027774
 20
462.673863
 30
0.0
 11
473.042421
 21
465.68851
 31
0.0
  0
LINE
  8
LC-005-005-----0
 62
     2
  5
53F
 10
470.027771
 20
463.239546
 30
0.0
 11
472.476733
 21
465.688508
 31
0.0
  0
LINE
  8
LC-005-005-----0
 62
     2
  5
540
 10
470.027769
 20
463.80523
 30
0.0
 11
471.911045
 21
465.688505
 31
0.0
  0
LINE
  8
LC-005-005-----0
 62
     2
  5
541
 10
470.027767
 20
464.370913
 30
0.0
 11
471.345357
 21
465.688503
 31
0.0
  0
LINE
  8
LC-005-005-----0
 62
     2
  5
542
 10
470.027765
 20
464.936596
 30
0.0
 11
470.77967
 21
465.688501
 31
0.0
  0
LINE
  8
LC-005-005-----0
 62
     2
  5
543
 10
470.027762
 20
465.502279
 30
0.0
 11
470.213982
 21
465.688499
 31
0.0
  0
ENDBLK
  8
0
  5
544
  0
BLOCK
  8
0
  5
547
  2
*X25
 70
    65
 10
0.0
 20
0.0
 30
0.0
  3
*X25
  0
LINE
  8
LC-005-005-----0
 62
     2
  5
548
 10
459.857086
 20
460.988457
 30
0.0
 11
460.02778
 21
461.159151
 31
0.0
  0
LINE
  8
LC-005-005-----0
 62
     2
  5
549
 10
459.291399
 20
460.988455
 30
0.0
 11
460.027778
 21
461.724834
 31
0.0
  0
LINE
  8
LC-005-005-----0
 62
     2
  5
54A
 10
458.725711
 20
460.988453
 30
0.0
 11
460.027775
 21
462.290517
 31
0.0
  0
LINE
  8
LC-005-005-----0
 62
     2
  5
54B
 10
458.160023
 20
460.98845
 30
0.0
 11
460.027773
 21
462.8562
 31
0.0
  0
LINE
  8
LC-005-005-----0
 62
     2
  5
54C
 10
457.594336
 20
460.988448
 30
0.0
 11
460.027771
 21
463.421883
 31
0.0
  0
LINE
  8
LC-005-005-----0
 62
     2
  5
54D
 10
457.028648
 20
460.988446
 30
0.0
 11
460.027768
 21
463.987566
 31
0.0
  0
LINE
  8
LC-005-005-----0
 62
     2
  5
54E
 10
456.46296
 20
460.988444
 30
0.0
 11
460.027766
 21
464.55325
 31
0.0
  0
LINE
  8
LC-005-005-----0
 62
     2
  5
54F
 10
455.897273
 20
460.988441
 30
0.0
 11
460.027764
 21
465.118933
 31
0.0
  0
LINE
  8
LC-005-005-----0
 62
     2
  5
550
 10
455.331585
 20
460.988439
 30
0.0
 11
460.027762
 21
465.684616
 31
0.0
  0
LINE
  8
LC-005-005-----0
 62
     2
  5
551
 10
454.765897
 20
460.988437
 30
0.0
 11
459.465916
 21
465.688456
 31
0.0
  0
LINE
  8
LC-005-005-----0
 62
     2
  5
552
 10
454.20021
 20
460.988435
 30
0.0
 11
458.900228
 21
465.688453
 31
0.0
  0
LINE
  8
LC-005-005-----0
 62
     2
  5
553
 10
453.634522
 20
460.988432
 30
0.0
 11
458.334541
 21
465.688451
 31
0.0
  0
LINE
  8
LC-005-005-----0
 62
     2
  5
554
 10
453.068834
 20
460.98843
 30
0.0
 11
457.768853
 21
465.688449
 31
0.0
  0
LINE
  8
LC-005-005-----0
 62
     2
  5
555
 10
452.503146
 20
460.988428
 30
0.0
 11
457.203165
 21
465.688447
 31
0.0
  0
LINE
  8
LC-005-005-----0
 62
     2
  5
556
 10
451.937459
 20
460.988426
 30
0.0
 11
456.637478
 21
465.688444
 31
0.0
  0
LINE
  8
LC-005-005-----0
 62
     2
  5
557
 10
451.371771
 20
460.988423
 30
0.0
 11
456.07179
 21
465.688442
 31
0.0
  0
LINE
  8
LC-005-005-----0
 62
     2
  5
558
 10
450.806083
 20
460.988421
 30
0.0
 11
455.506102
 21
465.68844
 31
0.0
  0
LINE
  8
LC-005-005-----0
 62
     2
  5
559
 10
450.240396
 20
460.988419
 30
0.0
 11
454.940414
 21
465.688438
 31
0.0
  0
LINE
  8
LC-005-005-----0
 62
     2
  5
55A
 10
450.027779
 20
461.341488
 30
0.0
 11
454.374727
 21
465.688435
 31
0.0
  0
LINE
  8
LC-005-005-----0
 62
     2
  5
55B
 10
450.027777
 20
461.907171
 30
0.0
 11
453.809039
 21
465.688433
 31
0.0
  0
LINE
  8
LC-005-005-----0
 62
     2
  5
55C
 10
450.027775
 20
462.472854
 30
0.0
 11
453.243351
 21
465.688431
 31
0.0
  0
LINE
  8
LC-005-005-----0
 62
     2
  5
55D
 10
450.027772
 20
463.038537
 30
0.0
 11
452.677664
 21
465.688429
 31
0.0
  0
LINE
  8
LC-005-005-----0
 62
     2
  5
55E
 10
450.02777
 20
463.60422
 30
0.0
 11
452.111976
 21
465.688426
 31
0.0
  0
LINE
  8
LC-005-005-----0
 62
     2
  5
55F
 10
450.027768
 20
464.169903
 30
0.0
 11
451.546288
 21
465.688424
 31
0.0
  0
LINE
  8
LC-005-005-----0
 62
     2
  5
560
 10
450.027765
 20
464.735587
 30
0.0
 11
450.980601
 21
465.688422
 31
0.0
  0
LINE
  8
LC-005-005-----0
 62
     2
  5
561
 10
450.027763
 20
465.30127
 30
0.0
 11
450.414913
 21
465.688419
 31
0.0
  0
ENDBLK
  8
0
  5
562
  0
BLOCK
  8
0
  5
565
  2
*X26
 70
    65
 10
0.0
 20
0.0
 30
0.0
  3
*X26
  0
LINE
  8
LC-005-005-----0
 62
     2
  5
566
 10
439.49233
 20
460.988376
 30
0.0
 11
440.027778
 21
461.523824
 31
0.0
  0
LINE
  8
LC-005-005-----0
 62
     2
  5
567
 10
438.926642
 20
460.988373
 30
0.0
 11
440.027776
 21
462.089508
 31
0.0
  0
LINE
  8
LC-005-005-----0
 62
     2
  5
568
 10
438.360954
 20
460.988371
 30
0.0
 11
440.027774
 21
462.655191
 31
0.0
  0
LINE
  8
LC-005-005-----0
 62
     2
  5
569
 10
437.795267
 20
460.988369
 30
0.0
 11
440.027772
 21
463.220874
 31
0.0
  0
LINE
  8
LC-005-005-----0
 62
     2
  5
56A
 10
437.229579
 20
460.988367
 30
0.0
 11
440.027769
 21
463.786557
 31
0.0
  0
LINE
  8
LC-005-005-----0
 62
     2
  5
56B
 10
436.663891
 20
460.988364
 30
0.0
 11
440.027767
 21
464.35224
 31
0.0
  0
LINE
  8
LC-005-005-----0
 62
     2
  5
56C
 10
436.098203
 20
460.988362
 30
0.0
 11
440.027765
 21
464.917923
 31
0.0
  0
LINE
  8
LC-005-005-----0
 62
     2
  5
56D
 10
435.532516
 20
460.98836
 30
0.0
 11
440.027762
 21
465.483607
 31
0.0
  0
LINE
  8
LC-005-005-----0
 62
     2
  5
56E
 10
434.966828
 20
460.988358
 30
0.0
 11
439.666847
 21
465.688376
 31
0.0
  0
LINE
  8
LC-005-005-----0
 62
     2
  5
56F
 10
434.40114
 20
460.988355
 30
0.0
 11
439.101159
 21
465.688374
 31
0.0
  0
LINE
  8
LC-005-005-----0
 62
     2
  5
570
 10
433.835453
 20
460.988353
 30
0.0
 11
438.535472
 21
465.688372
 31
0.0
  0
LINE
  8
LC-005-005-----0
 62
     2
  5
571
 10
433.269765
 20
460.988351
 30
0.0
 11
437.969784
 21
465.68837
 31
0.0
  0
LINE
  8
LC-005-005-----0
 62
     2
  5
572
 10
432.704077
 20
460.988349
 30
0.0
 11
437.404096
 21
465.688367
 31
0.0
  0
LINE
  8
LC-005-005-----0
 62
     2
  5
573
 10
432.13839
 20
460.988346
 30
0.0
 11
436.838408
 21
465.688365
 31
0.0
  0
LINE
  8
LC-005-005-----0
 62
     2
  5
574
 10
431.572702
 20
460.988344
 30
0.0
 11
436.272721
 21
465.688363
 31
0.0
  0
LINE
  8
LC-005-005-----0
 62
     2
  5
575
 10
431.007014
 20
460.988342
 30
0.0
 11
435.707033
 21
465.688361
 31
0.0
  0
LINE
  8
LC-005-005-----0
 62
     2
  5
576
 10
430.441327
 20
460.98834
 30
0.0
 11
435.141345
 21
465.688358
 31
0.0
  0
LINE
  8
LC-005-005-----0
 62
     2
  5
577
 10
430.02778
 20
461.140478
 30
0.0
 11
434.575658
 21
465.688356
 31
0.0
  0
LINE
  8
LC-005-005-----0
 62
     2
  5
578
 10
430.027778
 20
461.706161
 30
0.0
 11
434.00997
 21
465.688354
 31
0.0
  0
LINE
  8
LC-005-005-----0
 62
     2
  5
579
 10
430.027775
 20
462.271845
 30
0.0
 11
433.444282
 21
465.688352
 31
0.0
  0
LINE
  8
LC-005-005-----0
 62
     2
  5
57A
 10
430.027773
 20
462.837528
 30
0.0
 11
432.878595
 21
465.688349
 31
0.0
  0
LINE
  8
LC-005-005-----0
 62
     2
  5
57B
 10
430.027771
 20
463.403211
 30
0.0
 11
432.312907
 21
465.688347
 31
0.0
  0
LINE
  8
LC-005-005-----0
 62
     2
  5
57C
 10
430.027769
 20
463.968894
 30
0.0
 11
431.747219
 21
465.688345
 31
0.0
  0
LINE
  8
LC-005-005-----0
 62
     2
  5
57D
 10
430.027766
 20
464.534577
 30
0.0
 11
431.181532
 21
465.688342
 31
0.0
  0
LINE
  8
LC-005-005-----0
 62
     2
  5
57E
 10
430.027764
 20
465.10026
 30
0.0
 11
430.615844
 21
465.68834
 31
0.0
  0
LINE
  8
LC-005-005-----0
 62
     2
  5
57F
 10
430.027762
 20
465.665944
 30
0.0
 11
430.050156
 21
465.688338
 31
0.0
  0
ENDBLK
  8
0
  5
580
  0
BLOCK
  8
0
  5
583
  2
*X27
 70
    65
 10
0.0
 20
0.0
 30
0.0
  3
*X27
  0
LINE
  8
LC-005-005-----0
 62
     2
  5
584
 10
419.693261
 20
460.988297
 30
0.0
 11
420.027779
 21
461.322815
 31
0.0
  0
LINE
  8
LC-005-005-----0
 62
     2
  5
585
 10
419.127573
 20
460.988294
 30
0.0
 11
420.027777
 21
461.888498
 31
0.0
  0
LINE
  8
LC-005-005-----0
 62
     2
  5
586
 10
418.561885
 20
460.988292
 30
0.0
 11
420.027775
 21
462.454181
 31
0.0
  0
LINE
  8
LC-005-005-----0
 62
     2
  5
587
 10
417.996197
 20
460.98829
 30
0.0
 11
420.027772
 21
463.019865
 31
0.0
  0
LINE
  8
LC-005-005-----0
 62
     2
  5
588
 10
417.43051
 20
460.988287
 30
0.0
 11
420.02777
 21
463.585548
 31
0.0
  0
LINE
  8
LC-005-005-----0
 62
     2
  5
589
 10
416.864822
 20
460.988285
 30
0.0
 11
420.027768
 21
464.151231
 31
0.0
  0
LINE
  8
LC-005-005-----0
 62
     2
  5
58A
 10
416.299134
 20
460.988283
 30
0.0
 11
420.027766
 21
464.716914
 31
0.0
  0
LINE
  8
LC-005-005-----0
 62
     2
  5
58B
 10
415.733447
 20
460.988281
 30
0.0
 11
420.027763
 21
465.282597
 31
0.0
  0
LINE
  8
LC-005-005-----0
 62
     2
  5
58C
 10
415.167759
 20
460.988278
 30
0.0
 11
419.867778
 21
465.688297
 31
0.0
  0
LINE
  8
LC-005-005-----0
 62
     2
  5
58D
 10
414.602071
 20
460.988276
 30
0.0
 11
419.30209
 21
465.688295
 31
0.0
  0
LINE
  8
LC-005-005-----0
 62
     2
  5
58E
 10
414.036384
 20
460.988274
 30
0.0
 11
418.736402
 21
465.688293
 31
0.0
  0
LINE
  8
LC-005-005-----0
 62
     2
  5
58F
 10
413.470696
 20
460.988272
 30
0.0
 11
418.170715
 21
465.68829
 31
0.0
  0
LINE
  8
LC-005-005-----0
 62
     2
  5
590
 10
412.905008
 20
460.988269
 30
0.0
 11
417.605027
 21
465.688288
 31
0.0
  0
LINE
  8
LC-005-005-----0
 62
     2
  5
591
 10
412.339321
 20
460.988267
 30
0.0
 11
417.039339
 21
465.688286
 31
0.0
  0
LINE
  8
LC-005-005-----0
 62
     2
  5
592
 10
411.773633
 20
460.988265
 30
0.0
 11
416.473652
 21
465.688284
 31
0.0
  0
LINE
  8
LC-005-005-----0
 62
     2
  5
593
 10
411.207945
 20
460.988263
 30
0.0
 11
415.907964
 21
465.688281
 31
0.0
  0
LINE
  8
LC-005-005-----0
 62
     2
  5
594
 10
410.642257
 20
460.98826
 30
0.0
 11
415.342276
 21
465.688279
 31
0.0
  0
LINE
  8
LC-005-005-----0
 62
     2
  5
595
 10
410.07657
 20
460.988258
 30
0.0
 11
414.776589
 21
465.688277
 31
0.0
  0
LINE
  8
LC-005-005-----0
 62
     2
  5
596
 10
410.027778
 20
461.505152
 30
0.0
 11
414.210901
 21
465.688275
 31
0.0
  0
LINE
  8
LC-005-005-----0
 62
     2
  5
597
 10
410.027776
 20
462.070835
 30
0.0
 11
413.645213
 21
465.688272
 31
0.0
  0
LINE
  8
LC-005-005-----0
 62
     2
  5
598
 10
410.027774
 20
462.636518
 30
0.0
 11
413.079526
 21
465.68827
 31
0.0
  0
LINE
  8
LC-005-005-----0
 62
     2
  5
599
 10
410.027772
 20
463.202202
 30
0.0
 11
412.513838
 21
465.688268
 31
0.0
  0
LINE
  8
LC-005-005-----0
 62
     2
  5
59A
 10
410.027769
 20
463.767885
 30
0.0
 11
411.94815
 21
465.688266
 31
0.0
  0
LINE
  8
LC-005-005-----0
 62
     2
  5
59B
 10
410.027767
 20
464.333568
 30
0.0
 11
411.382462
 21
465.688263
 31
0.0
  0
LINE
  8
LC-005-005-----0
 62
     2
  5
59C
 10
410.027765
 20
464.899251
 30
0.0
 11
410.816775
 21
465.688261
 31
0.0
  0
LINE
  8
LC-005-005-----0
 62
     2
  5
59D
 10
410.027763
 20
465.464934
 30
0.0
 11
410.251087
 21
465.688259
 31
0.0
  0
ENDBLK
  8
0
  5
59E
  0
BLOCK
  8
0
  5
5A1
  2
*X28
 70
    65
 10
0.0
 20
0.0
 30
0.0
  3
*X28
  0
LINE
  8
LC-005-005-----0
 62
     2
  5
5A2
 10
399.894191
 20
460.988217
 30
0.0
 11
400.02778
 21
461.121806
 31
0.0
  0
LINE
  8
LC-005-005-----0
 62
     2
  5
5A3
 10
399.328504
 20
460.988215
 30
0.0
 11
400.027778
 21
461.687489
 31
0.0
  0
LINE
  8
LC-005-005-----0
 62
     2
  5
5A4
 10
398.762816
 20
460.988213
 30
0.0
 11
400.027775
 21
462.253172
 31
0.0
  0
LINE
  8
LC-005-005-----0
 62
     2
  5
5A5
 10
398.197128
 20
460.988211
 30
0.0
 11
400.027773
 21
462.818855
 31
0.0
  0
LINE
  8
LC-005-005-----0
 62
     2
  5
5A6
 10
397.631441
 20
460.988208
 30
0.0
 11
400.027771
 21
463.384538
 31
0.0
  0
LINE
  8
LC-005-005-----0
 62
     2
  5
5A7
 10
397.065753
 20
460.988206
 30
0.0
 11
400.027769
 21
463.950222
 31
0.0
  0
LINE
  8
LC-005-005-----0
 62
     2
  5
5A8
 10
396.500065
 20
460.988204
 30
0.0
 11
400.027766
 21
464.515905
 31
0.0
  0
LINE
  8
LC-005-005-----0
 62
     2
  5
5A9
 10
395.934378
 20
460.988201
 30
0.0
 11
400.027764
 21
465.081588
 31
0.0
  0
LINE
  8
LC-005-005-----0
 62
     2
  5
5AA
 10
395.36869
 20
460.988199
 30
0.0
 11
400.027762
 21
465.647271
 31
0.0
  0
LINE
  8
LC-005-005-----0
 62
     2
  5
5AB
 10
394.803002
 20
460.988197
 30
0.0
 11
399.503021
 21
465.688216
 31
0.0
  0
LINE
  8
LC-005-005-----0
 62
     2
  5
5AC
 10
394.237315
 20
460.988195
 30
0.0
 11
398.937333
 21
465.688213
 31
0.0
  0
LINE
  8
LC-005-005-----0
 62
     2
  5
5AD
 10
393.671627
 20
460.988192
 30
0.0
 11
398.371646
 21
465.688211
 31
0.0
  0
LINE
  8
LC-005-005-----0
 62
     2
  5
5AE
 10
393.105939
 20
460.98819
 30
0.0
 11
397.805958
 21
465.688209
 31
0.0
  0
LINE
  8
LC-005-005-----0
 62
     2
  5
5AF
 10
392.540251
 20
460.988188
 30
0.0
 11
397.24027
 21
465.688207
 31
0.0
  0
LINE
  8
LC-005-005-----0
 62
     2
  5
5B0
 10
391.974564
 20
460.988186
 30
0.0
 11
396.674583
 21
465.688204
 31
0.0
  0
LINE
  8
LC-005-005-----0
 62
     2
  5
5B1
 10
391.408876
 20
460.988183
 30
0.0
 11
396.108895
 21
465.688202
 31
0.0
  0
LINE
  8
LC-005-005-----0
 62
     2
  5
5B2
 10
390.843188
 20
460.988181
 30
0.0
 11
395.543207
 21
465.6882
 31
0.0
  0
LINE
  8
LC-005-005-----0
 62
     2
  5
5B3
 10
390.277501
 20
460.988179
 30
0.0
 11
394.97752
 21
465.688198
 31
0.0
  0
LINE
  8
LC-005-005-----0
 62
     2
  5
5B4
 10
390.027779
 20
461.304143
 30
0.0
 11
394.411832
 21
465.688195
 31
0.0
  0
LINE
  8
LC-005-005-----0
 62
     2
  5
5B5
 10
390.027777
 20
461.869826
 30
0.0
 11
393.846144
 21
465.688193
 31
0.0
  0
LINE
  8
LC-005-005-----0
 62
     2
  5
5B6
 10
390.027775
 20
462.435509
 30
0.0
 11
393.280456
 21
465.688191
 31
0.0
  0
LINE
  8
LC-005-005-----0
 62
     2
  5
5B7
 10
390.027772
 20
463.001192
 30
0.0
 11
392.714769
 21
465.688189
 31
0.0
  0
LINE
  8
LC-005-005-----0
 62
     2
  5
5B8
 10
390.02777
 20
463.566875
 30
0.0
 11
392.149081
 21
465.688186
 31
0.0
  0
LINE
  8
LC-005-005-----0
 62
     2
  5
5B9
 10
390.027768
 20
464.132559
 30
0.0
 11
391.583393
 21
465.688184
 31
0.0
  0
LINE
  8
LC-005-005-----0
 62
     2
  5
5BA
 10
390.027766
 20
464.698242
 30
0.0
 11
391.017706
 21
465.688182
 31
0.0
  0
LINE
  8
LC-005-005-----0
 62
     2
  5
5BB
 10
390.027763
 20
465.263925
 30
0.0
 11
390.452018
 21
465.68818
 31
0.0
  0
ENDBLK
  8
0
  5
5BC
  0
BLOCK
  8
0
  5
5CD
  2
*X29
 70
    65
 10
0.0
 20
0.0
 30
0.0
  3
*X29
  0
LINE
  8
LC-005-005-----0
 62
     2
  5
5CE
 10
303.068521
 20
438.833023
 30
0.0
 11
305.568531
 21
441.333033
 31
0.0
  0
LINE
  8
LC-005-005-----0
 62
     2
  5
5CF
 10
306.218249
 20
441.982751
 30
0.0
 11
308.718239
 21
444.482741
 31
0.0
  0
LINE
  8
LC-005-005-----0
 62
     2
  5
5D0
 10
300.240082
 20
438.833012
 30
0.0
 11
302.740092
 21
441.333022
 31
0.0
  0
LINE
  8
LC-005-005-----0
 62
     2
  5
5D1
 10
306.218238
 20
444.811167
 30
0.0
 11
308.718228
 21
447.311157
 31
0.0
  0
LINE
  8
LC-005-005-----0
 62
     2
  5
5D2
 10
298.718257
 20
440.139613
 30
0.0
 11
299.911654
 21
441.33301
 31
0.0
  0
LINE
  8
LC-005-005-----0
 62
     2
  5
5D3
 10
306.218227
 20
447.639583
 30
0.0
 11
308.718217
 21
450.139573
 31
0.0
  0
LINE
  8
LC-005-005-----0
 62
     2
  5
5D4
 10
306.218215
 20
450.467999
 30
0.0
 11
308.718205
 21
452.967989
 31
0.0
  0
LINE
  8
LC-005-005-----0
 62
     2
  5
5D5
 10
306.218204
 20
453.296414
 30
0.0
 11
308.718194
 21
455.796404
 31
0.0
  0
LINE
  8
LC-005-005-----0
 62
     2
  5
5D6
 10
306.218193
 20
456.12483
 30
0.0
 11
308.718183
 21
458.62482
 31
0.0
  0
ENDBLK
  8
0
  5
5D7
  0
BLOCK
  8
0
  5
5E6
  2
*X30
 70
    65
 10
0.0
 20
0.0
 30
0.0
  3
*X30
  0
LINE
  8
LC-005-005-----0
 62
     2
  5
5E7
 10
380.080088
 20
460.973103
 30
0.0
 11
380.182834
 21
461.07585
 31
0.0
  0
LINE
  8
LC-005-005-----0
 62
     2
  5
5E8
 10
379.50435
 20
460.963052
 30
0.0
 11
380.173127
 21
461.631828
 31
0.0
  0
LINE
  8
LC-005-005-----0
 62
     2
  5
5E9
 10
378.928613
 20
460.953
 30
0.0
 11
380.16342
 21
462.187807
 31
0.0
  0
LINE
  8
LC-005-005-----0
 62
     2
  5
5EA
 10
378.352876
 20
460.942948
 30
0.0
 11
380.153713
 21
462.743786
 31
0.0
  0
LINE
  8
LC-005-005-----0
 62
     2
  5
5EB
 10
377.777139
 20
460.932896
 30
0.0
 11
380.144007
 21
463.299764
 31
0.0
  0
LINE
  8
LC-005-005-----0
 62
     2
  5
5EC
 10
377.201401
 20
460.922844
 30
0.0
 11
380.1343
 21
463.855743
 31
0.0
  0
LINE
  8
LC-005-005-----0
 62
     2
  5
5ED
 10
376.625664
 20
460.912792
 30
0.0
 11
380.124593
 21
464.411721
 31
0.0
  0
LINE
  8
LC-005-005-----0
 62
     2
  5
5EE
 10
376.049927
 20
460.902741
 30
0.0
 11
380.114886
 21
464.9677
 31
0.0
  0
LINE
  8
LC-005-005-----0
 62
     2
  5
5EF
 10
375.47419
 20
460.892689
 30
0.0
 11
380.105179
 21
465.523678
 31
0.0
  0
LINE
  8
LC-005-005-----0
 62
     2
  5
5F0
 10
374.898452
 20
460.882637
 30
0.0
 11
379.682697
 21
465.666882
 31
0.0
  0
LINE
  8
LC-005-005-----0
 62
     2
  5
5F1
 10
374.322715
 20
460.872585
 30
0.0
 11
379.10696
 21
465.65683
 31
0.0
  0
LINE
  8
LC-005-005-----0
 62
     2
  5
5F2
 10
373.746978
 20
460.862533
 30
0.0
 11
378.531223
 21
465.646778
 31
0.0
  0
LINE
  8
LC-005-005-----0
 62
     2
  5
5F3
 10
373.171241
 20
460.852481
 30
0.0
 11
377.955485
 21
465.636726
 31
0.0
  0
LINE
  8
LC-005-005-----0
 62
     2
  5
5F4
 10
372.595503
 20
460.84243
 30
0.0
 11
377.379748
 21
465.626674
 31
0.0
  0
LINE
  8
LC-005-005-----0
 62
     2
  5
5F5
 10
372.019766
 20
460.832378
 30
0.0
 11
376.804011
 21
465.616622
 31
0.0
  0
LINE
  8
LC-005-005-----0
 62
     2
  5
5F6
 10
371.444029
 20
460.822326
 30
0.0
 11
376.228273
 21
465.606571
 31
0.0
  0
LINE
  8
LC-005-005-----0
 62
     2
  5
5F7
 10
370.868291
 20
460.812274
 30
0.0
 11
375.652536
 21
465.596519
 31
0.0
  0
LINE
  8
LC-005-005-----0
 62
     2
  5
5F8
 10
370.292554
 20
460.802222
 30
0.0
 11
375.076799
 21
465.586467
 31
0.0
  0
LINE
  8
LC-005-005-----0
 62
     2
  5
5F9
 10
370.169263
 20
461.244616
 30
0.0
 11
374.501062
 21
465.576415
 31
0.0
  0
LINE
  8
LC-005-005-----0
 62
     2
  5
5FA
 10
370.159556
 20
461.800595
 30
0.0
 11
373.925324
 21
465.566363
 31
0.0
  0
LINE
  8
LC-005-005-----0
 62
     2
  5
5FB
 10
370.149849
 20
462.356573
 30
0.0
 11
373.349587
 21
465.556311
 31
0.0
  0
LINE
  8
LC-005-005-----0
 62
     2
  5
5FC
 10
370.140142
 20
462.912552
 30
0.0
 11
372.77385
 21
465.54626
 31
0.0
  0
LINE
  8
LC-005-005-----0
 62
     2
  5
5FD
 10
370.130435
 20
463.46853
 30
0.0
 11
372.198113
 21
465.536208
 31
0.0
  0
LINE
  8
LC-005-005-----0
 62
     2
  5
5FE
 10
370.120728
 20
464.024509
 30
0.0
 11
371.622375
 21
465.526156
 31
0.0
  0
LINE
  8
LC-005-005-----0
 62
     2
  5
5FF
 10
370.111021
 20
464.580487
 30
0.0
 11
371.046638
 21
465.516104
 31
0.0
  0
LINE
  8
LC-005-005-----0
 62
     2
  5
600
 10
370.101314
 20
465.136466
 30
0.0
 11
370.470901
 21
465.506052
 31
0.0
  0
ENDBLK
  8
0
  5
601
  0
BLOCK
  8
0
  5
606
  2
*X31
 70
    65
 10
0.0
 20
0.0
 30
0.0
  3
*X31
  0
LINE
  8
LC-005-005-----0
 62
     2
  5
607
 10
359.929284
 20
460.621289
 30
0.0
 11
360.160735
 21
460.852741
 31
0.0
  0
LINE
  8
LC-005-005-----0
 62
     2
  5
608
 10
359.353546
 20
460.611237
 30
0.0
 11
360.151028
 21
461.408719
 31
0.0
  0
LINE
  8
LC-005-005-----0
 62
     2
  5
609
 10
358.777809
 20
460.601186
 30
0.0
 11
360.141321
 21
461.964698
 31
0.0
  0
LINE
  8
LC-005-005-----0
 62
     2
  5
60A
 10
358.202072
 20
460.591134
 30
0.0
 11
360.131614
 21
462.520676
 31
0.0
  0
LINE
  8
LC-005-005-----0
 62
     2
  5
60B
 10
357.626334
 20
460.581082
 30
0.0
 11
360.121908
 21
463.076655
 31
0.0
  0
LINE
  8
LC-005-005-----0
 62
     2
  5
60C
 10
357.050597
 20
460.57103
 30
0.0
 11
360.112201
 21
463.632633
 31
0.0
  0
LINE
  8
LC-005-005-----0
 62
     2
  5
60D
 10
356.47486
 20
460.560978
 30
0.0
 11
360.102494
 21
464.188612
 31
0.0
  0
LINE
  8
LC-005-005-----0
 62
     2
  5
60E
 10
355.899123
 20
460.550926
 30
0.0
 11
360.092787
 21
464.744591
 31
0.0
  0
LINE
  8
LC-005-005-----0
 62
     2
  5
60F
 10
355.323385
 20
460.540874
 30
0.0
 11
360.08308
 21
465.300569
 31
0.0
  0
LINE
  8
LC-005-005-----0
 62
     2
  5
610
 10
354.747648
 20
460.530823
 30
0.0
 11
359.531893
 21
465.315067
 31
0.0
  0
LINE
  8
LC-005-005-----0
 62
     2
  5
611
 10
354.171911
 20
460.520771
 30
0.0
 11
358.956156
 21
465.305016
 31
0.0
  0
LINE
  8
LC-005-005-----0
 62
     2
  5
612
 10
353.596174
 20
460.510719
 30
0.0
 11
358.380418
 21
465.294964
 31
0.0
  0
LINE
  8
LC-005-005-----0
 62
     2
  5
613
 10
353.020436
 20
460.500667
 30
0.0
 11
357.804681
 21
465.284912
 31
0.0
  0
LINE
  8
LC-005-005-----0
 62
     2
  5
614
 10
352.444699
 20
460.490615
 30
0.0
 11
357.228944
 21
465.27486
 31
0.0
  0
LINE
  8
LC-005-005-----0
 62
     2
  5
615
 10
351.868962
 20
460.480563
 30
0.0
 11
356.653207
 21
465.264808
 31
0.0
  0
LINE
  8
LC-005-005-----0
 62
     2
  5
616
 10
351.293225
 20
460.470512
 30
0.0
 11
356.077469
 21
465.254756
 31
0.0
  0
LINE
  8
LC-005-005-----0
 62
     2
  5
617
 10
350.717487
 20
460.46046
 30
0.0
 11
355.501732
 21
465.244705
 31
0.0
  0
LINE
  8
LC-005-005-----0
 62
     2
  5
618
 10
350.15687
 20
460.465528
 30
0.0
 11
354.925995
 21
465.234653
 31
0.0
  0
LINE
  8
LC-005-005-----0
 62
     2
  5
619
 10
350.147163
 20
461.021507
 30
0.0
 11
354.350258
 21
465.224601
 31
0.0
  0
LINE
  8
LC-005-005-----0
 62
     2
  5
61A
 10
350.137457
 20
461.577485
 30
0.0
 11
353.77452
 21
465.214549
 31
0.0
  0
LINE
  8
LC-005-005-----0
 62
     2
  5
61B
 10
350.12775
 20
462.133464
 30
0.0
 11
353.198783
 21
465.204497
 31
0.0
  0
LINE
  8
LC-005-005-----0
 62
     2
  5
61C
 10
350.118043
 20
462.689442
 30
0.0
 11
352.623046
 21
465.194445
 31
0.0
  0
LINE
  8
LC-005-005-----0
 62
     2
  5
61D
 10
350.108336
 20
463.245421
 30
0.0
 11
352.047309
 21
465.184394
 31
0.0
  0
LINE
  8
LC-005-005-----0
 62
     2
  5
61E
 10
350.098629
 20
463.8014
 30
0.0
 11
351.471571
 21
465.174342
 31
0.0
  0
LINE
  8
LC-005-005-----0
 62
     2
  5
61F
 10
350.088922
 20
464.357378
 30
0.0
 11
350.895834
 21
465.16429
 31
0.0
  0
LINE
  8
LC-005-005-----0
 62
     2
  5
620
 10
350.079215
 20
464.913357
 30
0.0
 11
350.320097
 21
465.154238
 31
0.0
  0
ENDBLK
  8
0
  5
621
  0
BLOCK
  8
0
  5
626
  2
*X32
 70
    65
 10
0.0
 20
0.0
 30
0.0
  3
*X32
  0
LINE
  8
LC-005-005-----0
 62
     2
  5
627
 10
337.994581
 20
458.485576
 30
0.0
 11
340.027782
 21
460.518778
 31
0.0
  0
LINE
  8
LC-005-005-----0
 62
     2
  5
628
 10
337.378002
 20
458.434683
 30
0.0
 11
340.02778
 21
461.084461
 31
0.0
  0
LINE
  8
LC-005-005-----0
 62
     2
  5
629
 10
336.769783
 20
458.392149
 30
0.0
 11
340.027778
 21
461.650144
 31
0.0
  0
LINE
  8
LC-005-005-----0
 62
     2
  5
62A
 10
336.161564
 20
458.349616
 30
0.0
 11
340.027776
 21
462.215827
 31
0.0
  0
LINE
  8
LC-005-005-----0
 62
     2
  5
62B
 10
335.553346
 20
458.307083
 30
0.0
 11
340.027773
 21
462.781511
 31
0.0
  0
LINE
  8
LC-005-005-----0
 62
     2
  5
62C
 10
334.945127
 20
458.26455
 30
0.0
 11
340.027771
 21
463.347194
 31
0.0
  0
LINE
  8
LC-005-005-----0
 62
     2
  5
62D
 10
334.336908
 20
458.222017
 30
0.0
 11
340.027769
 21
463.912877
 31
0.0
  0
LINE
  8
LC-005-005-----0
 62
     2
  5
62E
 10
333.72869
 20
458.179483
 30
0.0
 11
340.027767
 21
464.47856
 31
0.0
  0
LINE
  8
LC-005-005-----0
 62
     2
  5
62F
 10
333.120471
 20
458.13695
 30
0.0
 11
339.956826
 21
464.973305
 31
0.0
  0
LINE
  8
LC-005-005-----0
 62
     2
  5
630
 10
332.512253
 20
458.094417
 30
0.0
 11
339.381089
 21
464.963253
 31
0.0
  0
LINE
  8
LC-005-005-----0
 62
     2
  5
631
 10
331.904034
 20
458.051884
 30
0.0
 11
338.805352
 21
464.953201
 31
0.0
  0
LINE
  8
LC-005-005-----0
 62
     2
  5
632
 10
331.295815
 20
458.009351
 30
0.0
 11
336.361544
 21
463.075079
 31
0.0
  0
LINE
  8
LC-005-005-----0
 62
     2
  5
633
 10
330.687597
 20
457.966817
 30
0.0
 11
335.753325
 21
463.032546
 31
0.0
  0
LINE
  8
LC-005-005-----0
 62
     2
  5
634
 10
330.079378
 20
457.924284
 30
0.0
 11
335.145107
 21
462.990013
 31
0.0
  0
LINE
  8
LC-005-005-----0
 62
     2
  5
635
 10
330.027791
 20
458.438382
 30
0.0
 11
334.536888
 21
462.947479
 31
0.0
  0
LINE
  8
LC-005-005-----0
 62
     2
  5
636
 10
330.027788
 20
459.004065
 30
0.0
 11
333.928669
 21
462.904946
 31
0.0
  0
LINE
  8
LC-005-005-----0
 62
     2
  5
637
 10
330.027786
 20
459.569748
 30
0.0
 11
333.320451
 21
462.862413
 31
0.0
  0
LINE
  8
LC-005-005-----0
 62
     2
  5
638
 10
330.027784
 20
460.135432
 30
0.0
 11
332.712232
 21
462.81988
 31
0.0
  0
LINE
  8
LC-005-005-----0
 62
     2
  5
639
 10
330.027782
 20
460.701115
 30
0.0
 11
332.104014
 21
462.777347
 31
0.0
  0
LINE
  8
LC-005-005-----0
 62
     2
  5
63A
 10
330.027779
 20
461.266798
 30
0.0
 11
331.495795
 21
462.734813
 31
0.0
  0
LINE
  8
LC-005-005-----0
 62
     2
  5
63B
 10
330.027777
 20
461.832481
 30
0.0
 11
330.887576
 21
462.69228
 31
0.0
  0
LINE
  8
LC-005-005-----0
 62
     2
  5
63C
 10
330.027775
 20
462.398164
 30
0.0
 11
330.279358
 21
462.649747
 31
0.0
  0
ENDBLK
  8
0
  5
63D
  0
BLOCK
  8
0
  5
65F
  2
*D33
 70
    65
 10
0.0
 20
0.0
 30
0.0
  3
*D33
  0
LINE
  8
LC-006-003-MTH-0
 62
     2
  5
660
 10
-19.573588
 20
465.687538
 30
0.0
 11
-19.573588
 21
592.111752
 31
0.0
  0
LINE
  8
LC-006-003-MTH-0
 62
     2
  5
661
 10
480.027762
 20
465.688538
 30
0.0
 11
480.027762
 21
592.111752
 31
0.0
  0
LINE
  8
LC-008-003-MTG-0
 62
     2
  5
662
 10
-19.573588
 20
575.311752
 30
0.0
 11
186.650553
 21
575.311752
 31
0.0
  0
LINE
  8
LC-008-003-MTG-0
 62
     2
  5
663
 10
288.297487
 20
575.311752
 30
0.0
 11
480.027762
 21
575.311752
 31
0.0
  0
LINE
  8
LC-007-003-----0
 62
     2
  5
664
 10
8.186868
 20
578.966485
 30
0.0
 11
-19.573588
 21
575.311752
 31
0.0
  0
LINE
  8
LC-007-003-----0
 62
     2
  5
665
 10
-19.573588
 20
575.311752
 30
0.0
 11
8.186868
 21
571.657018
 31
0.0
  0
LINE
  8
LC-007-003-----0
 62
     2
  5
666
 10
8.186868
 20
571.657018
 30
0.0
 11
8.186868
 21
578.966485
 31
0.0
  0
LINE
  8
LC-007-003-----0
 62
     2
  5
667
 10
8.249149
 20
578.016255
 30
0.0
 11
-12.293588
 21
575.311752
 31
0.0
  0
LINE
  8
LC-007-003-----0
 62
     2
  5
668
 10
-12.293588
 20
575.311752
 30
0.0
 11
8.249149
 21
572.607249
 31
0.0
  0
LINE
  8
LC-007-003-----0
 62
     2
  5
669
 10
8.311431
 20
577.066024
 30
0.0
 11
-5.013588
 21
575.311752
 31
0.0
  0
LINE
  8
LC-007-003-----0
 62
     2
  5
66A
 10
-5.013588
 20
575.311752
 30
0.0
 11
8.311431
 21
573.55748
 31
0.0
  0
LINE
  8
LC-007-003-----0
 62
     2
  5
66B
 10
8.373712
 20
576.115793
 30
0.0
 11
2.266412
 21
575.311752
 31
0.0
  0
LINE
  8
LC-007-003-----0
 62
     2
  5
66C
 10
2.266412
 20
575.311752
 30
0.0
 11
8.373712
 21
574.50771
 31
0.0
  0
LINE
  8
LC-007-003-----0
 62
     2
  5
66D
 10
452.267306
 20
571.657018
 30
0.0
 11
480.027762
 21
575.311752
 31
0.0
  0
LINE
  8
LC-007-003-----0
 62
     2
  5
66E
 10
480.027762
 20
575.311752
 30
0.0
 11
452.267306
 21
578.966485
 31
0.0
  0
LINE
  8
LC-007-003-----0
 62
     2
  5
66F
 10
452.267306
 20
578.966485
 30
0.0
 11
452.267306
 21
571.657018
 31
0.0
  0
LINE
  8
LC-007-003-----0
 62
     2
  5
670
 10
452.205024
 20
572.607249
 30
0.0
 11
472.747762
 21
575.311752
 31
0.0
  0
LINE
  8
LC-007-003-----0
 62
     2
  5
671
 10
472.747762
 20
575.311752
 30
0.0
 11
452.205024
 21
578.016255
 31
0.0
  0
LINE
  8
LC-007-003-----0
 62
     2
  5
672
 10
452.142743
 20
573.55748
 30
0.0
 11
465.467762
 21
575.311752
 31
0.0
  0
LINE
  8
LC-007-003-----0
 62
     2
  5
673
 10
465.467762
 20
575.311752
 30
0.0
 11
452.142743
 21
577.066024
 31
0.0
  0
LINE
  8
LC-007-003-----0
 62
     2
  5
674
 10
452.080461
 20
574.50771
 30
0.0
 11
458.187762
 21
575.311752
 31
0.0
  0
LINE
  8
LC-007-003-----0
 62
     2
  5
675
 10
458.187762
 20
575.311752
 30
0.0
 11
452.080461
 21
576.115793
 31
0.0
  0
TEXT
  8
LC-007-003-----0
 62
     8
  5
676
 10
163.92586
 20
577.730121
 30
0.0
 40
28.0
  1
%%c500
 41
0.9
 51
15.0
  7
LCTX15-400-0-0-ARIAL
 72
     1
 11
233.12586
 21
577.730121
 31
0.0
  0
ENDBLK
  8
0
  5
677
  0
ENDSEC
  0
SECTION
  2
ENTITIES
  0
VIEWPORT
  8
LC-VIEWPORT
  5
679
 67
     1
 68
     1
 10
420.0
 20
297.0
 30
0.0
 40
840.0
 41
594.0
 69
     1
1001
ACAD
1000
MVIEW
1002
{
1070
    16
1010
0.0
1020
0.0
1030
0.0
1010
0.0
1020
0.0
1030
1.0
1040
0.0
1040
594.0
1040
420.0
1040
297.0
1040
50.0
1040
0.0
1040
0.0
1070
     0
1070
   100
1070
     1
1070
     1
1070
     0
1070
     0
1070
     0
1070
     0
1040
0.0
1040
0.0
1040
0.0
1040
1.0
1040
1.0
1040
0.0
1040
0.0
1070
     0
1002
{
1002
}
1002
}
  0
LINE
  8
LC-001-002-----0
 62
     1
  5
26
 10
246.029335
 20
428.137508
 30
0.0
 11
246.029335
 21
448.637679
 31
0.0
  0
LINE
  8
LC-001-002-----0
 62
     1
  5
27
 10
79.472347
 20
460.988192
 30
0.0
 11
120.127948
 21
460.278546
 31
0.0
  0
LINE
  8
LC-001-002-----0
 62
     1
  5
28
 10
79.472347
 20
457.987735
 30
0.0
 11
119.027661
 21
457.297294
 31
0.0
  0
LINE
  8
LC-001-002-----0
 62
     1
  5
29
 10
380.983548
 20
460.988192
 30
0.0
 11
340.327948
 21
460.278546
 31
0.0
  0
LINE
  8
LC-001-002-----0
 62
     1
  5
2A
 10
199.72409
 20
428.137508
 30
0.0
 11
202.224091
 21
428.137508
 31
0.0
  0
LINE
  8
LC-001-002-----0
 62
     1
  5
2B
 10
258.22409
 20
427.137508
 30
0.0
 11
244.743499
 21
427.137508
 31
0.0
  0
LINE
  8
LC-001-002-----0
 62
     1
  5
2C
 10
201.224068
 20
350.137502
 30
0.0
 11
161.72409
 21
350.137508
 31
0.0
  0
ARC
  8
LC-002-002-RND-0
 62
     1
  5
2E
 10
122.774723
 20
460.460197
 30
0.0
 40
2.0
 50
225.0
 51
266.000003
  0
LINE
  8
LC-001-002-----0
 62
     1
  5
2F
 10
380.983548
 20
457.987735
 30
0.0
 11
341.428234
 21
457.297294
 31
0.0
  0
ARC
  8
LC-002-002-RND-0
 62
     1
  5
30
 10
337.681172
 20
460.460197
 30
0.0
 40
2.0
 50
273.999997
 51
315.0
  0
LINE
  8
LC-001-002-----0
 62
     1
  5
31
 10
316.979716
 20
447.791075
 30
0.0
 11
316.979716
 21
454.291075
 31
0.0
  0
LINE
  8
LC-001-002-----0
 62
     1
  5
32
 10
318.979716
 20
454.291075
 30
0.0
 11
316.981098
 21
454.291075
 31
0.0
  0
LINE
  8
LC-001-002-----0
 62
     1
  5
33
 10
318.979716
 20
448.291075
 30
0.0
 11
318.979716
 21
454.291075
 31
0.0
  0
LINE
  8
LC-001-002-----0
 62
     1
  5
34
 10
320.979716
 20
448.291075
 30
0.0
 11
318.979716
 21
448.291075
 31
0.0
  0
LINE
  8
LC-001-002-----0
 62
     1
  5
35
 10
308.281098
 20
435.987508
 30
0.0
 11
308.081098
 21
435.987508
 31
0.0
  0
LINE
  8
LC-001-002-----0
 62
     1
  5
36
 10
316.981098
 20
437.287508
 30
0.0
 11
316.981098
 21
454.287508
 31
0.0
  0
LINE
  8
LC-001-002-----0
 62
     1
  5
37
 10
316.979716
 20
448.07214
 30
0.0
 11
316.979716
 21
448.07214
 31
0.0
  0
LINE
  8
LC-001-002-----0
 62
     1
  5
38
 10
308.281098
 20
432.487508
 30
0.0
 11
308.281098
 21
433.987508
 31
0.0
  0
LINE
  8
LC-001-002-----0
 62
     1
  5
39
 10
308.281098
 20
429.037508
 30
0.0
 11
308.281098
 21
429.537508
 31
0.0
  0
LINE
  8
LC-001-002-----0
 62
     1
  5
3A
 10
308.281098
 20
427.537508
 30
0.0
 11
308.281098
 21
430.487508
 31
0.0
  0
LINE
  8
LC-001-002-----0
 62
     1
  5
3B
 10
308.281098
 20
427.537508
 30
0.0
 11
307.723383
 21
427.537508
 31
0.0
  0
LINE
  8
LC-001-002-----0
 62
     1
  5
3C
 10
308.281098
 20
430.487508
 30
0.0
 11
308.081098
 21
430.487508
 31
0.0
  0
ARC
  8
LC-002-002-RND-0
 62
     1
  5
3D
 10
308.081098
 20
435.187508
 30
0.0
 40
0.8
 50
90.0
 51
180.0
  0
ARC
  8
LC-002-002-RND-0
 62
     1
  5
3E
 10
308.081098
 20
431.687508
 30
0.0
 40
0.8
 50
90.0
 51
180.0
  0
LINE
  8
LC-001-002-----0
 62
     1
  5
3F
 10
307.281098
 20
431.287508
 30
0.0
 11
307.281098
 21
431.687508
 31
0.0
  0
LINE
  8
LC-001-002-----0
 62
     1
  5
40
 10
307.281098
 20
434.787508
 30
0.0
 11
307.281098
 21
435.187508
 31
0.0
  0
ARC
  8
LC-002-002-RND-0
 62
     1
  5
41
 10
308.081098
 20
431.287508
 30
0.0
 40
0.8
 50
180.0
 51
270.0
  0
ARC
  8
LC-002-002-RND-0
 62
     1
  5
42
 10
308.081098
 20
434.787508
 30
0.0
 40
0.8
 50
180.0
 51
270.0
  0
LINE
  8
LC-001-002-----0
 62
     1
  5
43
 10
308.281098
 20
433.987508
 30
0.0
 11
308.081098
 21
433.987508
 31
0.0
  0
ARC
  8
LC-002-002-RND-0
 62
     1
  5
44
 10
316.481098
 20
437.287508
 30
0.0
 40
0.5
 50
270.0
 51
0.0
  0
LINE
  8
LC-001-002-----0
 62
     1
  5
45
 10
337.820685
 20
458.465069
 30
0.0
 11
322.458182
 21
457.390819
 31
0.0
  0
ARC
  8
LC-002-002-RND-0
 62
     1
  5
46
 10
321.032133
 20
449.287508
 30
0.0
 40
1.0
 50
270.0
 51
357.0
  0
LINE
  8
LC-001-002-----0
 62
     1
  5
47
 10
322.458182
 20
457.390819
 30
0.0
 11
322.030763
 21
449.235172
 31
0.0
  0
LINE
  8
LC-001-002-----0
 62
     1
  5
48
 10
380.983548
 20
460.988192
 30
0.0
 11
380.983548
 21
457.987735
 31
0.0
  0
LINE
  8
LC-001-002-----0
 62
     1
  5
49
 10
325.245539
 20
453.254795
 30
0.0
 11
325.00319
 21
448.6305
 31
0.0
  0
LINE
  8
LC-001-002-----0
 62
     1
  5
4A
 10
341.428234
 20
457.297294
 30
0.0
 11
339.721609
 21
455.590669
 31
0.0
  0
LINE
  8
LC-001-002-----0
 62
     1
  5
4B
 10
308.281098
 20
432.487508
 30
0.0
 11
308.081098
 21
432.487508
 31
0.0
  0
ARC
  8
LC-003-001-RND-0
 62
     1
  5
4D
 10
326.717352
 20
453.17766
 30
0.0
 40
1.5
 50
93.999997
 51
177.0
  0
LINE
  8
LC-001-002-----0
 62
     1
  5
4E
 10
319.731098
 20
437.787508
 30
0.0
 11
310.47409
 21
424.567131
 31
0.0
  0
LINE
  8
LC-001-002-----0
 62
     1
  5
4F
 10
322.007302
 20
445.787508
 30
0.0
 11
321.731098
 21
445.787508
 31
0.0
  0
LINE
  8
LC-001-002-----0
 62
     1
  5
50
 10
143.476179
 20
437.324655
 30
0.0
 11
143.476179
 21
454.291075
 31
0.0
  0
LINE
  8
LC-004-001-----0
 62
     1
  5
52
 10
339.721609
 20
455.590669
 30
0.0
 11
326.612717
 21
454.674007
 31
0.0
  0
ARC
  8
LC-002-002-RND-0
 62
     1
  5
53
 10
322.007302
 20
448.787508
 30
0.0
 40
3.0
 50
270.0
 51
357.0
  0
LINE
  8
LC-001-002-----0
 62
     1
  5
54
 10
141.474797
 20
454.291075
 30
0.0
 11
143.476179
 21
454.291075
 31
0.0
  0
ARC
  8
LC-002-002-RND-0
 62
     1
  5
55
 10
321.731098
 20
443.787508
 30
0.0
 40
2.0
 50
90.0
 51
180.0
  0
LINE
  8
LC-001-002-----0
 62
     1
  5
56
 10
319.731098
 20
437.787508
 30
0.0
 11
319.731098
 21
443.787508
 31
0.0
  0
LINE
  8
LC-001-002-----0
 62
     1
  5
57
 10
308.281098
 20
429.037508
 30
0.0
 11
308.281098
 21
429.037508
 31
0.0
  0
LINE
  8
LC-001-002-----0
 62
     1
  5
58
 10
316.481098
 20
436.787508
 30
0.0
 11
309.081098
 21
436.787508
 31
0.0
  0
LINE
  8
LC-001-002-----0
 62
     1
  5
59
 10
316.981098
 20
438.287508
 30
0.0
 11
316.981098
 21
439.58689
 31
0.0
  0
LINE
  8
LC-001-002-----0
 62
     1
  5
5A
 10
318.981098
 20
454.287508
 30
0.0
 11
316.981098
 21
454.287508
 31
0.0
  0
LINE
  8
LC-001-002-----0
 62
     1
  5
5B
 10
308.281098
 20
428.787508
 30
0.0
 11
308.281098
 21
429.287508
 31
0.0
  0
LINE
  8
LC-001-002-----0
 62
     1
  5
5C
 10
308.281098
 20
428.987508
 30
0.0
 11
308.281098
 21
429.487508
 31
0.0
  0
LINE
  8
LC-001-002-----0
 62
     1
  5
5D
 10
340.327948
 20
460.278546
 30
0.0
 11
339.095386
 21
459.045984
 31
0.0
  0
LINE
  8
LC-001-002-----0
 62
     1
  5
5E
 10
308.281098
 20
429.037508
 30
0.0
 11
308.281098
 21
429.037508
 31
0.0
  0
ARC
  8
LC-002-002-RND-0
 62
     1
  5
5F
 10
309.081098
 20
435.987508
 30
0.0
 40
0.8
 50
90.0
 51
180.0
  0
LINE
  8
LC-001-002-----0
 62
     1
  5
60
 10
308.281098
 20
435.987508
 30
0.0
 11
308.281098
 21
435.987508
 31
0.0
  0
LINE
  8
LC-001-002-----0
 62
     1
  5
61
 10
152.724797
 20
362.137508
 30
0.0
 11
152.724797
 21
427.537508
 31
0.0
  0
LINE
  8
LC-001-002-----0
 62
     1
  5
62
 10
252.224239
 20
335.137685
 30
0.0
 11
252.224249
 21
350.13751
 31
0.0
  0
LINE
  8
LC-001-002-----0
 62
     1
  5
63
 10
208.22409
 20
335.137508
 30
0.0
 11
208.22409
 21
350.137508
 31
0.0
  0
LINE
  8
LC-001-002-----0
 62
     1
  5
64
 10
252.224215
 20
319.134797
 30
0.0
 11
252.224239
 21
335.137685
 31
0.0
  0
LINE
  8
LC-001-002-----0
 62
     1
  5
65
 10
255.22409
 20
319.134795
 30
0.0
 11
230.22409
 21
319.134812
 31
0.0
  0
LINE
  8
LC-001-002-----0
 62
     1
  5
66
 10
152.174797
 20
435.987508
 30
0.0
 11
152.374797
 21
435.987508
 31
0.0
  0
LINE
  8
LC-001-002-----0
 62
     1
  5
67
 10
143.476179
 20
448.07214
 30
0.0
 11
143.476179
 21
448.07214
 31
0.0
  0
LINE
  8
LC-001-002-----0
 62
     1
  5
68
 10
152.174797
 20
432.487508
 30
0.0
 11
152.174797
 21
433.987508
 31
0.0
  0
LINE
  8
LC-001-002-----0
 62
     1
  5
69
 10
152.174797
 20
429.037508
 30
0.0
 11
152.174797
 21
429.537508
 31
0.0
  0
LINE
  8
LC-001-002-----0
 62
     1
  5
6A
 10
152.174797
 20
427.537508
 30
0.0
 11
152.174797
 21
430.487508
 31
0.0
  0
LINE
  8
LC-001-002-----0
 62
     1
  5
6B
 10
152.174797
 20
427.537508
 30
0.0
 11
152.724797
 21
427.537508
 31
0.0
  0
LINE
  8
LC-001-002-----0
 62
     1
  5
6C
 10
152.174797
 20
430.487508
 30
0.0
 11
152.374797
 21
430.487508
 31
0.0
  0
ARC
  8
LC-002-002-RND-0
 62
     1
  5
6D
 10
152.374797
 20
435.187508
 30
0.0
 40
0.8
 50
0.0
 51
90.0
  0
ARC
  8
LC-002-002-RND-0
 62
     1
  5
6E
 10
152.374797
 20
431.687508
 30
0.0
 40
0.8
 50
0.0
 51
90.0
  0
LINE
  8
LC-001-002-----0
 62
     1
  5
6F
 10
153.174797
 20
431.287508
 30
0.0
 11
153.174797
 21
431.687508
 31
0.0
  0
LINE
  8
LC-001-002-----0
 62
     1
  5
70
 10
153.174797
 20
434.787508
 30
0.0
 11
153.174797
 21
435.187508
 31
0.0
  0
ARC
  8
LC-002-002-RND-0
 62
     1
  5
71
 10
152.374797
 20
431.287508
 30
0.0
 40
0.8
 50
270.0
 51
0.0
  0
ARC
  8
LC-002-002-RND-0
 62
     1
  5
72
 10
152.374797
 20
434.787508
 30
0.0
 40
0.8
 50
270.0
 51
0.0
  0
LINE
  8
LC-001-002-----0
 62
     1
  5
73
 10
152.174797
 20
433.987508
 30
0.0
 11
152.374797
 21
433.987508
 31
0.0
  0
ARC
  8
LC-002-002-RND-0
 62
     1
  5
74
 10
143.974797
 20
437.287508
 30
0.0
 40
0.5
 50
180.0
 51
270.0
  0
LINE
  8
LC-001-002-----0
 62
     1
  5
75
 10
122.63521
 20
458.465069
 30
0.0
 11
137.997713
 21
457.390819
 31
0.0
  0
LINE
  8
LC-001-002-----0
 62
     1
  5
76
 10
139.423762
 20
448.287508
 30
0.0
 11
141.474797
 21
448.287508
 31
0.0
  0
ARC
  8
LC-002-002-RND-0
 62
     1
  5
77
 10
139.423762
 20
449.287508
 30
0.0
 40
1.0
 50
183.0
 51
270.0
  0
LINE
  8
LC-001-002-----0
 62
     1
  5
78
 10
307.723383
 20
362.137508
 30
0.0
 11
307.723383
 21
427.537508
 31
0.0
  0
LINE
  8
LC-001-002-----0
 62
     1
  5
79
 10
141.474797
 20
448.287508
 30
0.0
 11
141.474797
 21
454.291075
 31
0.0
  0
LINE
  8
LC-001-002-----0
 62
     1
  5
7A
 10
137.997713
 20
457.390819
 30
0.0
 11
138.425132
 21
449.235172
 31
0.0
  0
LINE
  8
LC-001-002-----0
 62
     1
  5
7B
 10
79.472347
 20
460.988192
 30
0.0
 11
79.472347
 21
457.987735
 31
0.0
  0
ARC
  8
LC-001-002-----0
 62
     1
  5
7C
 10
202.22409
 20
427.637508
 30
0.0
 40
0.5
 50
270.000117
 51
89.999981
  0
LINE
  8
LC-001-002-----0
 62
     1
  5
7D
 10
135.210188
 20
453.258003
 30
0.0
 11
135.452705
 21
448.6305
 31
0.0
  0
LINE
  8
LC-001-002-----0
 62
     1
  5
7E
 10
119.027661
 20
457.297294
 30
0.0
 11
120.734286
 21
455.590669
 31
0.0
  0
LINE
  8
LC-001-002-----0
 62
     1
  5
7F
 10
199.72409
 20
356.137508
 30
0.0
 11
199.72409
 21
428.137508
 31
0.0
  0
LINE
  8
LC-001-002-----0
 62
     1
  5
80
 10
208.22409
 20
319.13462
 30
0.0
 11
208.22409
 21
335.137508
 31
0.0
  0
LINE
  8
LC-001-002-----0
 62
     1
  5
81
 10
152.174797
 20
432.487508
 30
0.0
 11
152.374797
 21
432.487508
 31
0.0
  0
LINE
  8
LC-001-002-----0
 62
     1
  5
82
 10
205.22409
 20
319.13462
 30
0.0
 11
230.22409
 21
319.13462
 31
0.0
  0
ARC
  8
LC-002-002-RND-0
 62
     1
  5
83
 10
161.724797
 20
362.137508
 30
0.0
 40
9.0
 50
180.0
 51
270.0
  0
ARC
  8
LC-002-002-RND-0
 62
     1
  5
84
 10
298.723383
 20
362.137508
 30
0.0
 40
9.0
 50
270.0
 51
0.0
  0
LINE
  8
LC-001-002-----0
 62
     1
  5
85
 10
140.724797
 20
437.787508
 30
0.0
 11
149.97409
 21
424.578148
 31
0.0
  0
LINE
  8
LC-001-002-----0
 62
     1
  5
86
 10
138.448593
 20
445.787508
 30
0.0
 11
138.724797
 21
445.787508
 31
0.0
  0
LINE
  8
LC-004-001-----0
 62
     1
  5
87
 10
120.734286
 20
455.590669
 30
0.0
 11
133.816878
 21
454.675846
 31
0.0
  0
ARC
  8
LC-002-002-RND-0
 62
     1
  5
88
 10
138.448593
 20
448.787508
 30
0.0
 40
3.0
 50
183.0
 51
270.0
  0
ARC
  8
LC-002-002-RND-0
 62
     1
  5
89
 10
138.724797
 20
443.787508
 30
0.0
 40
2.0
 50
0.0
 51
90.0
  0
LINE
  8
LC-001-002-----0
 62
     1
  5
8A
 10
140.724797
 20
437.787508
 30
0.0
 11
140.724797
 21
443.787508
 31
0.0
  0
LINE
  8
LC-001-002-----0
 62
     1
  5
8B
 10
152.174797
 20
429.037508
 30
0.0
 11
152.174797
 21
429.037508
 31
0.0
  0
LINE
  8
LC-001-002-----0
 62
     1
  5
8C
 10
143.974797
 20
436.787508
 30
0.0
 11
151.940483
 21
436.787508
 31
0.0
  0
LINE
  8
LC-001-002-----0
 62
     1
  5
8D
 10
152.174797
 20
428.787508
 30
0.0
 11
152.174797
 21
429.287508
 31
0.0
  0
LINE
  8
LC-001-002-----0
 62
     1
  5
8E
 10
152.174797
 20
428.987508
 30
0.0
 11
152.174797
 21
429.487508
 31
0.0
  0
LINE
  8
LC-001-002-----0
 62
     1
  5
8F
 10
120.127948
 20
460.278546
 30
0.0
 11
121.36051
 21
459.045984
 31
0.0
  0
LINE
  8
LC-001-002-----0
 62
     1
  5
90
 10
152.174797
 20
429.037508
 30
0.0
 11
152.174797
 21
429.037508
 31
0.0
  0
ARC
  8
LC-002-002-RND-0
 62
     1
  5
91
 10
151.374797
 20
435.987508
 30
0.0
 40
0.8
 50
0.0
 51
90.0
  0
LINE
  8
LC-001-002-----0
 62
     1
  5
92
 10
152.174797
 20
435.987508
 30
0.0
 11
152.174797
 21
435.987508
 31
0.0
  0
LINE
  8
LC-001-002-----0
 62
     1
  5
93
 10
298.724083
 20
350.137655
 30
0.0
 11
259.224068
 21
350.137672
 31
0.0
  0
ARC
  8
LC-002-002-RND-0
 62
     1
  5
94
 10
263.72409
 20
356.137508
 30
0.0
 40
3.0
 50
180.0
 51
270.0
  0
LINE
  8
LC-001-002-----0
 62
     1
  5
95
 10
202.703778
 20
355.465027
 30
0.0
 11
202.078302
 21
427.137508
 31
0.0
  0
ARC
  8
LC-002-002-RND-0
 62
     1
  5
96
 10
196.72409
 20
356.137508
 30
0.0
 40
3.0
 50
270.0
 51
0.0
  0
LINE
  8
LC-001-002-----0
 62
     1
  5
97
 10
161.724797
 20
353.137508
 30
0.0
 11
196.72409
 21
353.137508
 31
0.0
  0
LINE
  8
LC-001-002-----0
 62
     1
  5
98
 10
260.72409
 20
356.137508
 30
0.0
 11
260.72409
 21
428.137508
 31
0.0
  0
LINE
  8
LC-001-002-----0
 62
     1
  5
99
 10
258.224089
 20
427.137508
 30
0.0
 11
258.505781
 21
427.137508
 31
0.0
  0
ARC
  8
LC-001-002-----0
 62
     1
  5
9A
 10
258.22409
 20
427.637508
 30
0.0
 40
0.5
 50
90.000019
 51
269.999883
  0
LINE
  8
LC-001-002-----0
 62
     1
  5
9B
 10
298.723383
 20
353.137508
 30
0.0
 11
263.72409
 21
353.137508
 31
0.0
  0
LINE
  8
LC-001-002-----0
 62
     1
  5
9C
 10
205.197821
 20
353.137508
 30
0.0
 11
255.224249
 21
353.137508
 31
0.0
  0
LINE
  8
LC-001-002-----0
 62
     1
  5
9D
 10
257.75022
 20
355.611101
 30
0.0
 11
258.505781
 21
427.137508
 31
0.0
  0
LINE
  8
LC-001-002-----0
 62
     1
  5
9E
 10
260.72409
 20
428.137508
 30
0.0
 11
258.22409
 21
428.137508
 31
0.0
  0
LINE
  8
LC-001-002-----0
 62
     1
  5
9F
 10
310.47409
 20
424.567131
 30
0.0
 11
310.47409
 21
361.887655
 31
0.0
  0
LINE
  8
LC-001-002-----0
 62
     1
  5
A0
 10
149.97409
 20
424.578148
 30
0.0
 11
149.97409
 21
361.887508
 31
0.0
  0
ARC
  8
LC-002-002-RND-0
 62
     1
  5
A1
 10
298.72409
 20
361.887655
 30
0.0
 40
11.75
 50
269.999963
 51
0.0
  0
ARC
  8
LC-002-002-RND-0
 62
     1
  5
A2
 10
161.72409
 20
361.887508
 30
0.0
 40
11.75
 50
180.0
 51
270.0
  0
LINE
  8
LC-001-002-----0
 62
     1
  5
A3
 10
307.723383
 20
427.537508
 30
0.0
 11
271.693149
 21
427.537508
 31
0.0
  0
LINE
  8
LC-001-002-----0
 62
     1
  5
A4
 10
255.224249
 20
353.137508
 30
0.0
 11
255.250359
 21
353.137508
 31
0.0
  0
ARC
  8
LC-002-002-RND-0
 62
     1
  5
A5
 10
255.224249
 20
350.137508
 30
0.0
 40
3.0
 50
90.0
 51
179.999963
  0
ARC
  8
LC-002-002-RND-0
 62
     1
  5
A6
 10
255.250359
 20
355.637508
 30
0.0
 40
2.5
 50
270.0
 51
359.394785
  0
ARC
  8
LC-002-002-RND-0
 62
     1
  5
A7
 10
205.197821
 20
355.637508
 30
0.0
 40
2.5
 50
183.956111
 51
270.0
  0
ARC
  8
LC-002-002-RND-0
 62
     1
  5
A8
 10
205.223932
 20
350.137508
 30
0.0
 40
3.0
 50
0.000037
 51
90.0
  0
LINE
  8
LC-001-002-----0
 62
     1
  5
A9
 10
152.724797
 20
427.537508
 30
0.0
 11
188.692978
 21
427.537508
 31
0.0
  0
ARC
  8
LC-003-001-RND-0
 62
     1
  5
AA
 10
133.712243
 20
453.1795
 30
0.0
 40
1.5
 50
3.0
 51
86.000003
  0
INSERT
  8
LC-005-005-----0
 62
     2
  5
12D
  2
*X0
 10
0.0
 20
0.0
 30
0.0
  0
INSERT
  8
LC-005-005-----0
 62
     2
  5
1A3
  2
*X1
 10
0.0
 20
0.0
 30
0.0
  0
LINE
  8
LC-001-002-----0
 62
     1
  5
1A4
 10
201.224068
 20
350.122619
 30
0.0
 11
201.224068
 21
250.122619
 31
0.0
  0
LINE
  8
LC-001-002-----0
 62
     1
  5
1A5
 10
259.224068
 20
350.122619
 30
0.0
 11
259.224068
 21
250.122619
 31
0.0
  0
LINE
  8
LC-001-002-----0
 62
     1
  5
1A6
 10
205.224068
 20
319.13462
 30
0.0
 11
205.224068
 21
250.122619
 31
0.0
  0
LINE
  8
LC-001-002-----0
 62
     1
  5
1A7
 10
255.224068
 20
319.134795
 30
0.0
 11
255.224068
 21
250.122619
 31
0.0
  0
LINE
  8
LC-001-002-----0
 62
     1
  5
1A8
 10
201.224068
 20
250.122619
 30
0.0
 11
259.224068
 21
250.122619
 31
0.0
  0
INSERT
  8
LC-005-005-----0
 62
     2
  5
1F6
  2
*X2
 10
0.0
 20
0.0
 30
0.0
  0
LINE
  8
LC-001-002-----0
 62
     1
  5
1F7
 10
188.692947
 20
438.637508
 30
0.0
 11
188.693117
 21
378.637672
 31
0.0
  0
LINE
  8
LC-001-002-----0
 62
     1
  5
1F8
 10
189.692947
 20
438.637508
 30
0.0
 11
189.693117
 21
378.637672
 31
0.0
  0
LINE
  8
LC-001-002-----0
 62
     1
  5
1F9
 10
199.72409
 20
378.639351
 30
0.0
 11
188.692951
 21
378.637505
 31
0.0
  0
ARC
  8
LC-001-002-----0
 62
     1
  5
1FA
 10
199.692947
 20
438.637508
 30
0.0
 40
10.0
 50
94.313709
 51
179.999848
  0
ARC
  8
LC-002-002-RND-0
 62
     1
  5
1FB
 10
200.692947
 20
438.637508
 30
0.0
 40
12.0
 50
90.0
 51
180.0
  0
LINE
  8
LC-001-002-----0
 62
     1
  5
1FC
 10
259.693165
 20
450.637679
 30
0.0
 11
243.942945
 21
450.63769
 31
0.0
  0
LINE
  8
LC-001-002-----0
 62
     1
  5
1FD
 10
260.693164
 20
448.637679
 30
0.0
 11
231.636322
 21
448.637679
 31
0.0
  0
LINE
  8
LC-001-002-----0
 62
     1
  5
1FE
 10
200.692947
 20
450.637508
 30
0.0
 11
216.442948
 21
450.637508
 31
0.0
  0
ARC
  8
LC-002-002-RND-0
 62
     1
  5
1FF
 10
234.942945
 20
451.637508
 30
0.0
 40
9.0
 50
0.000006
 51
90.000006
  0
ARC
  8
LC-001-002-----0
 62
     1
  5
200
 10
260.693157
 20
438.637679
 30
0.0
 40
10.0
 50
0.000096
 51
89.999963
  0
ARC
  8
LC-001-002-----0
 62
     1
  5
201
 10
259.693157
 20
438.637679
 30
0.0
 40
12.0
 50
0.000096
 51
89.999963
  0
LINE
  8
LC-001-002-----0
 62
     1
  5
202
 10
271.693156
 20
438.637671
 30
0.0
 11
271.693117
 21
378.637671
 31
0.0
  0
LINE
  8
LC-001-002-----0
 62
     1
  5
203
 10
270.693156
 20
438.637672
 30
0.0
 11
270.693281
 21
378.637837
 31
0.0
  0
LINE
  8
LC-001-002-----0
 62
     1
  5
204
 10
260.72409
 20
378.639493
 30
0.0
 11
271.693117
 21
378.637671
 31
0.0
  0
LINE
  8
LC-001-002-----0
 62
     1
  5
205
 10
198.935232
 20
428.137508
 30
0.0
 11
198.940784
 21
448.646529
 31
0.0
  0
LINE
  8
LC-001-002-----0
 62
     1
  5
206
 10
231.628608
 20
420.137508
 30
0.0
 11
203.373058
 21
420.137508
 31
0.0
  0
LINE
  8
LC-001-002-----0
 62
     1
  5
207
 10
202.435236
 20
423.637508
 30
0.0
 11
203.373058
 21
420.137508
 31
0.0
  0
LINE
  8
LC-001-002-----0
 62
     1
  5
208
 10
202.435236
 20
426.723295
 30
0.0
 11
202.435236
 21
423.637508
 31
0.0
  0
ARC
  8
LC-001-002-----0
 62
     1
  5
209
 10
202.185232
 20
427.430401
 30
0.0
 40
0.75
 50
289.471622
 51
70.528779
  0
LINE
  8
LC-001-002-----0
 62
     1
  5
20A
 10
199.810667
 20
428.137508
 30
0.0
 11
202.435232
 21
428.137508
 31
0.0
  0
LINE
  8
LC-001-002-----0
 62
     1
  5
20B
 10
234.942944
 20
456.637508
 30
0.0
 11
230.192946
 21
456.637508
 31
0.0
  0
LINE
  8
LC-001-002-----0
 62
     1
  5
20C
 10
239.942945
 20
450.637509
 30
0.0
 11
239.942945
 21
451.637509
 31
0.0
  0
ARC
  8
LC-001-002-----0
 62
     1
  5
20D
 10
234.942945
 20
451.637508
 30
0.0
 40
5.0
 50
0.000005
 51
90.000006
  0
ARC
  8
LC-002-002-RND-0
 62
     1
  5
20E
 10
225.442948
 20
451.637508
 30
0.0
 40
9.0
 50
90.0
 51
180.000001
  0
LINE
  8
LC-001-002-----0
 62
     1
  5
20F
 10
225.442948
 20
456.637508
 30
0.0
 11
230.192947
 21
456.637508
 31
0.0
  0
LINE
  8
LC-001-002-----0
 62
     1
  5
210
 10
220.442948
 20
450.637508
 30
0.0
 11
220.442948
 21
451.637507
 31
0.0
  0
LINE
  8
LC-001-002-----0
 62
     1
  5
211
 10
234.942944
 20
460.637508
 30
0.0
 11
230.192946
 21
460.637508
 31
0.0
  0
LINE
  8
LC-001-002-----0
 62
     1
  5
212
 10
243.942945
 20
450.637509
 30
0.0
 11
243.942945
 21
451.637509
 31
0.0
  0
ARC
  8
LC-001-002-----0
 62
     1
  5
213
 10
225.442948
 20
451.637508
 30
0.0
 40
5.0
 50
90.0
 51
180.000001
  0
LINE
  8
LC-001-002-----0
 62
     1
  5
214
 10
225.442948
 20
460.637508
 30
0.0
 11
230.192947
 21
460.637508
 31
0.0
  0
LINE
  8
LC-001-002-----0
 62
     1
  5
215
 10
216.442948
 20
450.637508
 30
0.0
 11
216.442948
 21
451.637507
 31
0.0
  0
LINE
  8
LC-001-002-----0
 62
     1
  5
216
 10
231.628608
 20
420.137508
 30
0.0
 11
231.636322
 21
448.637679
 31
0.0
  0
INSERT
  8
LC-005-005-----0
 62
     2
  5
27A
  2
*X3
 10
0.0
 20
0.0
 30
0.0
  0
LINE
  8
LC-001-002-----0
 62
     1
  5
27B
 10
220.442948
 20
450.637508
 30
0.0
 11
230.192947
 21
450.637508
 31
0.0
  0
LINE
  8
LC-001-002-----0
 62
     1
  5
27C
 10
239.942945
 20
450.637693
 30
0.0
 11
230.192947
 21
450.6377
 31
0.0
  0
LINE
  8
LC-001-002-----0
 62
     1
  5
27D
 10
231.628608
 20
420.137508
 30
0.0
 11
244.685423
 21
420.137508
 31
0.0
  0
LINE
  8
LC-001-002-----0
 62
     1
  5
27E
 10
244.685423
 20
420.137508
 30
0.0
 11
245.154334
 21
423.637508
 31
0.0
  0
LINE
  8
LC-001-002-----0
 62
     1
  5
27F
 10
245.154334
 20
423.637508
 30
0.0
 11
245.154334
 21
426.723295
 31
0.0
  0
LINE
  8
LC-001-002-----0
 62
     1
  5
280
 10
245.154334
 20
428.137508
 30
0.0
 11
246.904336
 21
428.137508
 31
0.0
  0
ARC
  8
LC-001-002-----0
 62
     1
  5
281
 10
245.453027
 20
427.430401
 30
0.0
 40
0.767605
 50
112.900021
 51
247.099979
  0
LINE
  8
LC-001-002-----0
 62
     1
  5
282
 10
198.935232
 20
428.137508
 30
0.0
 11
202.435232
 21
428.137508
 31
0.0
  0
LINE
  8
LC-001-002-----0
 62
     1
  5
283
 10
260.567601
 20
378.637672
 30
0.0
 11
260.575197
 21
378.637672
 31
0.0
  0
LINE
  8
LC-001-002-----0
 62
     1
  5
284
 10
245.154334
 20
428.137508
 30
0.0
 11
260.567601
 21
428.137508
 31
0.0
  0
LINE
  8
LC-001-002-----0
 62
     1
  5
285
 10
270.692747
 20
378.637672
 30
0.0
 11
270.693281
 21
378.637672
 31
0.0
  0
DIMENSION
  8
LC-007-003-----0
 62
     2
  5
2A4
  2
*D4
 10
401.530521
 20
238.901328
 30
0.0
 11
401.530521
 21
238.901328
 31
0.0
 70
     1
  1
DN50(SML)
 13
201.224068
 23
250.122619
 33
0.0
 14
259.22403
 24
250.122607
 34
0.0
  3
LC-DIM-L-0140-02-02
  0
DIMENSION
  8
LC-007-003-----0
 62
     2
  5
2BE
  2
*D5
 10
230.224035
 20
183.748203
 30
0.0
 11
230.224035
 21
183.748203
 31
0.0
 70
     1
  1
%%c160
 13
149.97409
 23
361.887508
 33
0.0
 14
310.474055
 24
361.887473
 34
0.0
  3
LC-DIM-L-0140-02-02
  0
DIMENSION
  8
LC-007-003-----0
 62
     2
  5
2D9
  2
*D6
 10
230.227948
 20
526.062215
 30
0.0
 11
230.227948
 21
526.062215
 31
0.0
  1
%%c300
 13
79.472347
 23
460.988192
 33
0.0
 14
380.983548
 24
460.988192
 34
0.0
  3
LC-DIM-L-0140-02-02
  0
DIMENSION
  8
LC-007-003-----0
 62
     2
  5
2EE
  2
*D7
 10
37.150798
 20
404.062621
 30
0.0
 11
37.150798
 21
404.062621
 31
0.0
  1
110
 13
79.472347
 23
457.987735
 33
0.0
 14
161.72409
 24
350.137508
 34
0.0
 50
90.0
  3
LC-DIM-L-0140-02-02
  0
DIMENSION
  8
LC-007-003-----0
 62
     2
  5
2FF
  2
*D8
 10
37.150798
 20
300.130063
 30
0.0
 11
37.150798
 21
300.130063
 31
0.0
  1
100
 13
161.72409
 23
350.137508
 33
0.0
 14
201.224068
 24
250.122619
 34
0.0
 50
90.0
  3
LC-DIM-L-0140-02-02
  0
DIMENSION
  8
LC-007-003-----0
 62
     2
  5
31A
  2
*D9
 10
230.288535
 20
477.746256
 30
0.0
 11
230.288535
 21
477.746256
 31
0.0
  1
%%c190
 13
135.452705
 23
448.6305
 33
0.0
 14
325.124365
 24
450.942647
 34
0.0
  3
LC-DIM-L-0140-02-02
  0
DIMENSION
  8
LC-007-003-----0
 62
     2
  5
335
  2
*D10
 10
113.972665
 20
403.387506
 30
0.0
 11
113.972665
 21
403.387506
 31
0.0
  1
50
 13
188.692951
 23
378.637505
 33
0.0
 14
198.935232
 24
428.137508
 34
0.0
 50
90.0
  3
LC-DIM-L-0140-02-02
  0
LINE
  8
LC-001-002-----0
 62
     1
  5
336
 10
79.472347
 20
460.988192
 30
0.0
 11
120.127948
 21
460.278546
 31
0.0
  0
ARC
  8
LC-002-002-RND-0
 62
     1
  5
337
 10
122.774723
 20
460.460197
 30
0.0
 40
2.0
 50
225.0
 51
266.000003
  0
LINE
  8
LC-001-002-----0
 62
     1
  5
338
 10
122.63521
 20
458.465069
 30
0.0
 11
137.997713
 21
457.390819
 31
0.0
  0
LINE
  8
LC-001-002-----0
 62
     1
  5
339
 10
141.474797
 20
448.287508
 30
0.0
 11
141.474797
 21
454.291075
 31
0.0
  0
LINE
  8
LC-001-002-----0
 62
     1
  5
33A
 10
120.127948
 20
460.278546
 30
0.0
 11
121.36051
 21
459.045984
 31
0.0
  0
LINE
  8
LC-001-002-----0
  6
DASHDOT
 62
     2
  5
33C
 10
230.227087
 20
465.421422
 30
0.0
 11
230.227518
 21
250.122619
 31
0.0
  0
LINE
  8
LC-001-002-----0
 62
     1
  5
33D
 10
138.33198
 20
457.147969
 30
0.0
 11
144.267634
 21
456.732932
 31
0.0
  0
LINE
  8
LC-001-002-----0
 62
     1
  5
33E
 10
143.191064
 20
454.287159
 30
0.0
 11
143.191116
 21
441.434741
 31
0.0
  0
LINE
  8
LC-001-002-----0
 62
     1
  5
33F
 10
143.191064
 20
454.287159
 30
0.0
 11
141.473121
 21
454.287152
 31
0.0
  0
LINE
  8
LC-001-002-----0
 62
     1
  5
340
 10
138.331728
 20
457.144365
 30
0.0
 11
138.331758
 21
449.521392
 31
0.0
  0
ARC
  8
LC-002-002-RND-0
 62
     1
  5
341
 10
139.411608
 20
449.534229
 30
0.0
 40
1.07985
 50
180.000229
 51
266.000233
  0
LINE
  8
LC-001-002-----0
 62
     1
  5
342
 10
139.336286
 20
448.457009
 30
0.0
 11
141.473145
 21
448.307594
 31
0.0
  0
LINE
  8
LC-001-002-----0
 62
     1
  5
343
 10
141.473145
 20
448.307594
 30
0.0
 11
141.473121
 21
454.287152
 31
0.0
  0
INSERT
  8
LC-005-005-----0
 62
     2
  5
355
  2
*X11
 10
0.0
 20
0.0
 30
0.0
  0
ARC
  8
LC-001-002-----0
 62
     1
  5
356
 10
143.986979
 20
452.719145
 30
0.0
 40
4.023715
 50
68.753917
 51
86.001394
  0
LINE
  8
LC-001-002-----0
 62
     1
  5
357
 10
150.384966
 20
451.172247
 30
0.0
 11
145.44507
 21
456.469379
 31
0.0
  0
ARC
  8
LC-001-002-----0
 62
     1
  5
358
 10
150.167737
 20
450.97187
 30
0.0
 40
0.296443
 50
250.000094
 51
43.000094
  0
LINE
  8
LC-001-002-----0
 62
     1
  5
359
 10
150.066783
 20
450.691501
 30
0.0
 11
146.773588
 21
451.890036
 31
0.0
  0
ARC
  8
LC-001-002-----0
 62
     1
  5
35A
 10
146.435646
 20
450.961478
 30
0.0
 40
0.988142
 50
70.00139
 51
180.001643
  0
LINE
  8
LC-001-002-----0
 62
     1
  5
35B
 10
145.447504
 20
450.961474
 30
0.0
 11
145.447539
 21
449.645735
 31
0.0
  0
ARC
  8
LC-001-002-----0
 62
     1
  5
35C
 10
145.94161
 20
449.645748
 30
0.0
 40
0.494071
 50
180.001526
 51
223.00139
  0
LINE
  8
LC-001-002-----0
 62
     1
  5
35D
 10
150.385153
 20
444.156437
 30
0.0
 11
145.580278
 21
449.308784
 31
0.0
  0
ARC
  8
LC-001-002-----0
 62
     1
  5
35E
 10
150.167766
 20
443.956059
 30
0.0
 40
0.296443
 50
250.000094
 51
43.000094
  0
LINE
  8
LC-001-002-----0
 62
     1
  5
35F
 10
150.06697
 20
443.675691
 30
0.0
 11
146.773775
 21
444.874225
 31
0.0
  0
ARC
  8
LC-001-002-----0
 62
     1
  5
360
 10
146.435833
 20
443.945667
 30
0.0
 40
0.988142
 50
70.00139
 51
180.001643
  0
LINE
  8
LC-001-002-----0
 62
     1
  5
361
 10
145.447705
 20
443.945641
 30
0.0
 11
145.447777
 21
441.432842
 31
0.0
  0
LINE
  8
LC-001-002-----0
 62
     1
  5
362
 10
143.191644
 20
441.434741
 30
0.0
 11
145.447777
 21
441.43475
 31
0.0
  0
LINE
  8
LC-005-005-----0
 62
     2
  5
363
 10
153.049116
 20
433.991657
 30
0.0
 11
153.227142
 21
434.169682
 31
0.0
  0
LINE
  8
LC-001-002-----0
 62
     1
  5
364
 10
-9.573588
 20
465.687538
 30
0.0
 11
-9.573588
 21
460.987538
 31
0.0
  0
LINE
  8
LC-001-002-----0
 62
     1
  5
365
 10
0.426412
 20
465.687538
 30
0.0
 11
0.426412
 21
460.987538
 31
0.0
  0
LINE
  8
LC-001-002-----0
 62
     1
  5
366
 10
10.426412
 20
465.687538
 30
0.0
 11
10.426412
 21
460.987538
 31
0.0
  0
LINE
  8
LC-001-002-----0
 62
     1
  5
367
 10
20.426412
 20
465.687538
 30
0.0
 11
20.426412
 21
460.987538
 31
0.0
  0
LINE
  8
LC-001-002-----0
 62
     1
  5
368
 10
30.426412
 20
465.687538
 30
0.0
 11
30.426412
 21
460.987538
 31
0.0
  0
LINE
  8
LC-001-002-----0
 62
     1
  5
369
 10
40.426412
 20
465.687538
 30
0.0
 11
40.426412
 21
460.987538
 31
0.0
  0
LINE
  8
LC-001-002-----0
 62
     1
  5
36A
 10
50.426412
 20
465.687538
 30
0.0
 11
50.426412
 21
460.987538
 31
0.0
  0
LINE
  8
LC-001-002-----0
 62
     1
  5
36B
 10
60.426412
 20
465.687538
 30
0.0
 11
60.426412
 21
460.987538
 31
0.0
  0
LINE
  8
LC-001-002-----0
 62
     1
  5
36C
 10
70.426412
 20
465.687538
 30
0.0
 11
70.426412
 21
460.987538
 31
0.0
  0
LINE
  8
LC-001-002-----0
 62
     1
  5
36D
 10
127.385831
 20
462.844372
 30
0.0
 11
145.11309
 21
461.604761
 31
0.0
  0
LINE
  8
LC-001-002-----0
 62
     1
  5
36E
 10
127.432445
 20
463.532242
 30
0.0
 11
145.16192
 21
462.292476
 31
0.0
  0
ARC
  8
LC-002-002-RND-0
 62
     1
  5
36F
 10
144.673625
 20
455.320108
 30
0.0
 40
6.3
 50
0.0
 51
86.0
  0
LINE
  8
LC-001-002-----0
 62
     1
  5
370
 10
150.973625
 20
455.320108
 30
0.0
 11
150.973625
 21
441.632064
 31
0.0
  0
ARC
  8
LC-001-002-----0
 62
     1
  5
371
 10
154.473625
 20
441.632064
 30
0.0
 40
3.5
 50
180.0
 51
270.0
  0
LINE
  8
LC-001-002-----0
 62
     1
  5
372
 10
154.773625
 20
437.832064
 30
0.0
 11
154.773625
 21
435.532064
 31
0.0
  0
ARC
  8
LC-001-002-----0
 62
     1
  5
373
 10
154.474147
 20
435.532064
 30
0.0
 40
0.3
 50
270.0
 51
0.0
  0
ARC
  8
LC-001-002-----0
 62
     1
  5
374
 10
154.473625
 20
433.732064
 30
0.0
 40
1.5
 50
90.0
 51
180.0
  0
ARC
  8
LC-001-002-----0
 62
     1
  5
375
 10
154.473625
 20
433.732064
 30
0.0
 40
1.5
 50
180.0
 51
270.0
  0
LINE
  8
LC-001-002-----0
 62
     1
  5
376
 10
154.473625
 20
432.232064
 30
0.0
 11
157.255894
 21
432.232064
 31
0.0
  0
INSERT
  8
LC-005-005-----0
 62
     2
  5
393
  2
*X12
 10
0.0
 20
0.0
 30
0.0
  0
INSERT
  8
LC-005-005-----0
 62
     2
  5
3B1
  2
*X13
 10
0.0
 20
0.0
 30
0.0
  0
INSERT
  8
LC-005-005-----0
 62
     2
  5
3CF
  2
*X14
 10
0.0
 20
0.0
 30
0.0
  0
INSERT
  8
LC-005-005-----0
 62
     2
  5
3ED
  2
*X15
 10
0.0
 20
0.0
 30
0.0
  0
INSERT
  8
LC-005-005-----0
 62
     2
  5
40B
  2
*X16
 10
0.0
 20
0.0
 30
0.0
  0
INSERT
  8
LC-005-005-----0
 62
     2
  5
429
  2
*X17
 10
0.0
 20
0.0
 30
0.0
  0
LINE
  8
LC-001-002-----0
 62
     1
  5
42A
 10
151.736019
 20
441.832731
 30
0.0
 11
154.736019
 21
438.832731
 31
0.0
  0
LINE
  8
LC-001-002-----0
 62
     1
  5
42B
 10
154.236019
 20
457.832376
 30
0.0
 11
155.736019
 21
457.832376
 31
0.0
  0
LINE
  8
LC-001-002-----0
 62
     1
  5
42C
 10
154.236019
 20
457.832376
 30
0.0
 11
154.236019
 21
458.832376
 31
0.0
  0
ARC
  8
LC-002-002-RND-0
 62
     1
  5
42D
 10
155.736019
 20
455.832376
 30
0.0
 40
2.0
 50
0.0
 51
90.0
  0
LINE
  8
LC-001-002-----0
 62
     1
  5
42E
 10
174.663279
 20
438.832731
 30
0.0
 11
174.663279
 21
441.332731
 31
0.0
  0
LINE
  8
LC-001-002-----0
 62
     1
  5
42F
 10
185.926314
 20
438.832731
 30
0.0
 11
185.926314
 21
441.332731
 31
0.0
  0
LINE
  8
LC-001-002-----0
 62
     1
  5
430
 10
189.033767
 20
441.332731
 30
0.0
 11
185.926314
 21
441.332731
 31
0.0
  0
LINE
  8
LC-001-002-----0
 62
     1
  5
431
 10
174.663279
 20
441.332731
 30
0.0
 11
154.473625
 21
441.332731
 31
0.0
  0
LINE
  8
LC-001-002-----0
 62
     1
  5
432
 10
157.736019
 20
455.832376
 30
0.0
 11
157.736019
 21
441.332731
 31
0.0
  0
LINE
  8
LC-001-002-----0
 62
     1
  5
433
 10
159.986019
 20
438.832731
 30
0.0
 11
188.728762
 21
438.832731
 31
0.0
  0
LINE
  8
LC-001-002-----0
 62
     1
  5
434
 10
151.736019
 20
458.832376
 30
0.0
 11
220.07034
 21
458.832376
 31
0.0
  0
LINE
  8
LC-001-002-----0
 62
     1
  5
435
 10
159.986019
 20
438.832731
 30
0.0
 11
154.736019
 21
438.832731
 31
0.0
  0
LINE
  8
LC-001-002-----0
 62
     1
  5
436
 10
151.673625
 20
455.309528
 30
0.0
 11
151.673625
 21
441.632064
 31
0.0
  0
LINE
  8
LC-001-002-----0
 62
     1
  5
437
 10
154.236019
 20
441.332731
 30
0.0
 11
154.236019
 21
458.832376
 31
0.0
  0
INSERT
  8
LC-005-005-----0
 62
     2
  5
446
  2
*X18
 10
0.0
 20
0.0
 30
0.0
  0
LINE
  8
LC-001-002-----0
 62
     1
  5
447
 10
163.203708
 20
457.832376
 30
0.0
 11
166.736517
 21
457.832376
 31
0.0
  0
LINE
  8
LC-001-002-----0
 62
     1
  5
448
 10
163.203708
 20
441.332731
 30
0.0
 11
163.203708
 21
457.832376
 31
0.0
  0
LINE
  8
LC-001-002-----0
 62
     1
  5
449
 10
191.842514
 20
446.70366
 30
0.0
 11
191.842514
 21
455.832376
 31
0.0
  0
LINE
  8
LC-001-002-----0
 62
     1
  5
44A
 10
196.172641
 20
449.73959
 30
0.0
 11
196.172641
 21
455.832376
 31
0.0
  0
LINE
  8
LC-001-002-----0
 62
     1
  5
44B
 10
190.09152
 20
457.832376
 30
0.0
 11
194.172641
 21
457.832376
 31
0.0
  0
ARC
  8
LC-001-002-----0
 62
     1
  5
44C
 10
194.172641
 20
455.832376
 30
0.0
 40
2.0
 50
0.0
 51
90.0
  0
ARC
  8
LC-001-002-----0
 62
     1
  5
44D
 10
189.842514
 20
455.832376
 30
0.0
 40
2.0
 50
0.0
 51
82.903005
  0
LINE
  8
LC-001-002-----0
 62
     1
  5
44E
 10
190.09152
 20
444.194744
 30
0.0
 11
190.09152
 21
457.832376
 31
0.0
  0
LINE
  8
LC-001-002-----0
 62
     1
  5
44F
 10
80.351622
 20
465.687538
 30
0.0
 11
-19.573588
 21
465.687538
 31
0.0
  0
LINE
  8
LC-001-002-----0
 62
     1
  5
450
 10
79.553791
 20
460.987538
 30
0.0
 11
-19.573588
 21
460.987538
 31
0.0
  0
LINE
  8
LC-001-002-----0
 62
     1
  5
451
 10
80.351379
 20
465.673616
 30
0.0
 11
122.108025
 21
464.944751
 31
0.0
  0
LINE
  8
LC-001-002-----0
 62
     1
  5
452
 10
80.351622
 20
465.673612
 30
0.0
 11
80.269596
 21
460.974328
 31
0.0
  0
INSERT
  8
LC-005-005-----0
 62
     2
  5
471
  2
*X19
 10
0.0
 20
0.0
 30
0.0
  0
LINE
  8
LC-001-002-----0
 62
     1
  5
472
 10
90.359198
 20
465.498929
 30
0.0
 11
90.277171
 21
460.799645
 31
0.0
  0
LINE
  8
LC-001-002-----0
 62
     1
  5
473
 10
100.369935
 20
465.324191
 30
0.0
 11
100.287908
 21
460.624907
 31
0.0
  0
INSERT
  8
LC-005-005-----0
 62
     2
  5
492
  2
*X20
 10
0.0
 20
0.0
 30
0.0
  0
LINE
  8
LC-001-002-----0
 62
     1
  5
493
 10
110.379091
 20
465.149481
 30
0.0
 11
110.297065
 21
460.450197
 31
0.0
  0
LINE
  8
LC-001-002-----0
 62
     1
  5
494
 10
120.426412
 20
464.974104
 30
0.0
 11
120.426412
 21
459.979561
 31
0.0
  0
INSERT
  8
LC-005-005-----0
 62
     2
  5
4B7
  2
*X21
 10
0.0
 20
0.0
 30
0.0
  0
LINE
  8
LC-001-002-----0
 62
     1
  5
4B8
 10
130.426412
 20
462.631754
 30
0.0
 11
130.426412
 21
457.920277
 31
0.0
  0
LINE
  8
LC-001-002-----0
 62
     1
  5
4B9
 10
137.99713
 20
457.390882
 30
0.0
 11
137.99713
 21
462.102359
 31
0.0
  0
LINE
  8
LC-001-002-----0
 62
     1
  5
4BA
 10
122.108025
 20
464.944751
 30
0.0
 11
123.969512
 21
463.083264
 31
0.0
  0
LINE
  8
LC-001-002-----0
 62
     1
  5
4BB
 10
123.969512
 20
463.083264
 30
0.0
 11
137.99713
 21
462.102359
 31
0.0
  0
LINE
  8
LC-001-002-----0
 62
     1
  5
4BC
 10
-19.573588
 20
460.987538
 30
0.0
 11
-19.573588
 21
465.687538
 31
0.0
  0
LINE
  8
LC-001-002-----0
 62
     1
  5
4BD
 10
230.227087
 20
465.421422
 30
0.0
 11
122.416772
 21
465.420991
 31
0.0
  0
LINE
  8
LC-001-002-----0
 62
     1
  5
4BE
 10
151.71825
 20
441.832417
 30
0.0
 11
154.718262
 21
438.832429
 31
0.0
  0
LINE
  8
LC-001-002-----0
 62
     1
  5
4BF
 10
161.718262
 20
438.832457
 30
0.0
 11
161.718252
 21
441.332457
 31
0.0
  0
LINE
  8
LC-001-002-----0
 62
     1
  5
4C0
 10
167.145522
 20
438.832479
 30
0.0
 11
167.145512
 21
441.332479
 31
0.0
  0
LINE
  8
LC-001-002-----0
 62
     1
  5
4C1
 10
174.645469
 20
441.332509
 30
0.0
 11
154.218252
 21
441.332427
 31
0.0
  0
LINE
  8
LC-001-002-----0
 62
     1
  5
4C2
 10
151.718182
 20
458.832062
 30
0.0
 11
151.71825
 21
441.832417
 31
0.0
  0
LINE
  8
LC-001-002-----0
 62
     1
  5
4C3
 10
159.968262
 20
438.83245
 30
0.0
 11
188.728482
 21
438.832565
 31
0.0
  0
LINE
  8
LC-001-002-----0
 62
     1
  5
4C4
 10
151.718182
 20
458.832062
 30
0.0
 11
220.070192
 21
458.832335
 31
0.0
  0
LINE
  8
LC-001-002-----0
 62
     1
  5
4C5
 10
159.968262
 20
438.83245
 30
0.0
 11
154.718262
 21
438.832429
 31
0.0
  0
ARC
  8
LC-001-002-----0
 62
     1
  5
4C6
 10
127.856245
 20
469.826911
 30
0.0
 40
6.3
 50
224.378301
 51
266.000229
  0
ARC
  8
LC-001-002-----0
 62
     1
  5
4C7
 10
127.856245
 20
469.826911
 30
0.0
 40
7.0
 50
219.007133
 51
266.000229
  0
ARC
  8
LC-002-002-RND-0
 62
     1
  5
4C8
 10
144.655801
 20
455.309185
 30
0.0
 40
7.0
 50
0.000229
 51
86.000229
  0
ARC
  8
LC-001-002-----0
 62
     1
  5
4C9
 10
154.455856
 20
441.631761
 30
0.0
 40
2.8
 50
180.000229
 51
270.000229
  0
ARC
  8
LC-001-002-----0
 62
     1
  5
4CA
 10
154.456151
 20
437.832129
 30
0.0
 40
1.0
 50
359.999949
 51
89.999949
  0
ARC
  8
LC-001-002-----0
 62
     1
  5
4CB
 10
154.456151
 20
437.832129
 30
0.0
 40
0.3
 50
359.999949
 51
89.999949
  0
LINE
  8
LC-001-002-----0
 62
     1
  5
4CC
 10
155.455871
 20
437.831765
 30
0.0
 11
155.455881
 21
435.531765
 31
0.0
  0
ARC
  8
LC-001-002-----0
 62
     1
  5
4CD
 10
154.455881
 20
435.531761
 30
0.0
 40
1.0
 50
270.000229
 51
0.000229
  0
ARC
  8
LC-001-002-----0
 62
     1
  5
4CE
 10
154.455888
 20
433.731761
 30
0.0
 40
0.8
 50
90.000229
 51
180.000229
  0
ARC
  8
LC-001-002-----0
 62
     1
  5
4CF
 10
154.455888
 20
433.731761
 30
0.0
 40
0.8
 50
180.000229
 51
270.000229
  0
LINE
  8
LC-001-002-----0
 62
     1
  5
4D0
 10
154.455891
 20
432.931761
 30
0.0
 11
157.255891
 21
432.931772
 31
0.0
  0
LINE
  8
LC-001-002-----0
 62
     1
  5
4D1
 10
157.255894
 20
432.231772
 30
0.0
 11
157.255891
 21
432.931772
 31
0.0
  0
ARC
  8
LC-001-002-----0
 62
     1
  5
4D2
 10
166.718692
 20
455.832122
 30
0.0
 40
2.0
 50
0.000229
 51
90.000229
  0
LINE
  8
LC-001-002-----0
 62
     1
  5
4D3
 10
163.203708
 20
457.832108
 30
0.0
 11
166.718684
 21
457.832122
 31
0.0
  0
LINE
  8
LC-001-002-----0
 62
     1
  5
4D4
 10
166.21875
 20
441.332475
 30
0.0
 11
166.218692
 21
455.83212
 31
0.0
  0
LINE
  8
LC-001-002-----0
 62
     1
  5
4D5
 10
168.71875
 20
441.332485
 30
0.0
 11
168.718692
 21
455.83213
 31
0.0
  0
ARC
  8
LC-001-002-----0
 62
     1
  5
4D6
 10
164.218692
 20
455.832112
 30
0.0
 40
2.0
 50
0.000229
 51
90.000229
  0
LINE
  8
LC-001-002-----0
 62
     1
  5
4D7
 10
380.981845
 20
460.988795
 30
0.0
 11
340.326247
 21
460.278986
 31
0.0
  0
ARC
  8
LC-002-002-RND-0
 62
     1
  5
4D8
 10
337.679471
 20
460.460627
 30
0.0
 40
2.0
 50
274.000226
 51
315.000229
  0
LINE
  8
LC-001-002-----0
 62
     1
  5
4D9
 10
337.818992
 20
458.4655
 30
0.0
 11
322.456494
 21
457.391188
 31
0.0
  0
LINE
  8
LC-001-002-----0
 62
     1
  5
4DA
 10
318.979446
 20
448.287863
 30
0.0
 11
318.979422
 21
454.29143
 31
0.0
  0
LINE
  8
LC-001-002-----0
 62
     1
  5
4DB
 10
340.326247
 20
460.278986
 30
0.0
 11
339.09369
 21
459.046419
 31
0.0
  0
LINE
  8
LC-001-002-----0
 62
     1
  5
4DC
 10
322.122228
 20
457.148337
 30
0.0
 11
316.186575
 21
456.733276
 31
0.0
  0
LINE
  8
LC-001-002-----0
 62
     1
  5
4DD
 10
317.263155
 20
454.287508
 30
0.0
 11
317.263155
 21
441.435089
 31
0.0
  0
LINE
  8
LC-001-002-----0
 62
     1
  5
4DE
 10
317.263155
 20
454.287508
 30
0.0
 11
318.981098
 21
454.287508
 31
0.0
  0
LINE
  8
LC-001-002-----0
 62
     1
  5
4DF
 10
322.12248
 20
457.144732
 30
0.0
 11
322.12248
 21
449.521759
 31
0.0
  0
ARC
  8
LC-002-002-RND-0
 62
     1
  5
4E0
 10
321.04263
 20
449.534593
 30
0.0
 40
1.07985
 50
273.999997
 51
0.0
  0
LINE
  8
LC-001-002-----0
 62
     1
  5
4E1
 10
321.117956
 20
448.457373
 30
0.0
 11
318.981098
 21
448.307949
 31
0.0
  0
LINE
  8
LC-001-002-----0
 62
     1
  5
4E2
 10
318.981098
 20
448.307949
 30
0.0
 11
318.981098
 21
454.287508
 31
0.0
  0
INSERT
  8
LC-005-005-----0
 62
     2
  5
4F1
  2
*X22
 10
0.0
 20
0.0
 30
0.0
  0
ARC
  8
LC-001-002-----0
 62
     1
  5
4F2
 10
316.467246
 20
452.71949
 30
0.0
 40
4.023715
 50
93.998836
 51
111.246312
  0
LINE
  8
LC-001-002-----0
 62
     1
  5
4F3
 10
310.069266
 20
451.172567
 30
0.0
 11
315.00914
 21
456.469718
 31
0.0
  0
ARC
  8
LC-001-002-----0
 62
     1
  5
4F4
 10
310.286495
 20
450.97219
 30
0.0
 40
0.296443
 50
137.000136
 51
290.000136
  0
LINE
  8
LC-001-002-----0
 62
     1
  5
4F5
 10
310.38745
 20
450.691822
 30
0.0
 11
313.680641
 21
451.89037
 31
0.0
  0
ARC
  8
LC-001-002-----0
 62
     1
  5
4F6
 10
314.018586
 20
450.961813
 30
0.0
 40
0.988142
 50
359.998586
 51
109.998839
  0
LINE
  8
LC-001-002-----0
 62
     1
  5
4F7
 10
315.006728
 20
450.961813
 30
0.0
 11
315.006698
 21
449.646074
 31
0.0
  0
ARC
  8
LC-001-002-----0
 62
     1
  5
4F8
 10
314.512627
 20
449.646086
 30
0.0
 40
0.494071
 50
316.998839
 51
359.998703
  0
LINE
  8
LC-001-002-----0
 62
     1
  5
4F9
 10
310.069107
 20
444.156756
 30
0.0
 11
314.873961
 21
449.309122
 31
0.0
  0
ARC
  8
LC-001-002-----0
 62
     1
  5
4FA
 10
310.286495
 20
443.95638
 30
0.0
 40
0.296443
 50
137.000136
 51
290.000136
  0
LINE
  8
LC-001-002-----0
 62
     1
  5
4FB
 10
310.387291
 20
443.676012
 30
0.0
 11
313.680482
 21
444.874559
 31
0.0
  0
ARC
  8
LC-001-002-----0
 62
     1
  5
4FC
 10
314.018428
 20
443.946003
 30
0.0
 40
0.988142
 50
359.998586
 51
109.998839
  0
LINE
  8
LC-001-002-----0
 62
     1
  5
4FD
 10
315.006556
 20
443.94598
 30
0.0
 11
315.006494
 21
441.433181
 31
0.0
  0
LINE
  8
LC-001-002-----0
 62
     1
  5
4FE
 10
317.262626
 20
441.435089
 30
0.0
 11
315.006494
 21
441.435089
 31
0.0
  0
LINE
  8
LC-005-005-----0
 62
     2
  5
4FF
 10
307.405184
 20
433.991965
 30
0.0
 11
307.227158
 21
434.16999
 31
0.0
  0
LINE
  8
LC-001-002-----0
 62
     1
  5
500
 10
470.027762
 20
465.688498
 30
0.0
 11
470.02778
 21
460.988498
 31
0.0
  0
LINE
  8
LC-001-002-----0
 62
     1
  5
501
 10
460.027762
 20
465.688458
 30
0.0
 11
460.02778
 21
460.988458
 31
0.0
  0
LINE
  8
LC-001-002-----0
 62
     1
  5
502
 10
450.027762
 20
465.688418
 30
0.0
 11
450.02778
 21
460.988418
 31
0.0
  0
LINE
  8
LC-001-002-----0
 62
     1
  5
503
 10
440.027762
 20
465.688378
 30
0.0
 11
440.02778
 21
460.988378
 31
0.0
  0
LINE
  8
LC-001-002-----0
 62
     1
  5
504
 10
430.027762
 20
465.688338
 30
0.0
 11
430.02778
 21
460.988338
 31
0.0
  0
LINE
  8
LC-001-002-----0
 62
     1
  5
505
 10
420.027762
 20
465.688298
 30
0.0
 11
420.02778
 21
460.988298
 31
0.0
  0
LINE
  8
LC-001-002-----0
 62
     1
  5
506
 10
410.027762
 20
465.688258
 30
0.0
 11
410.02778
 21
460.988258
 31
0.0
  0
LINE
  8
LC-001-002-----0
 62
     1
  5
507
 10
400.027762
 20
465.688218
 30
0.0
 11
400.02778
 21
460.988218
 31
0.0
  0
LINE
  8
LC-001-002-----0
 62
     1
  5
508
 10
390.027762
 20
465.688178
 30
0.0
 11
390.02778
 21
460.988178
 31
0.0
  0
LINE
  8
LC-001-002-----0
 62
     1
  5
509
 10
333.068354
 20
462.844784
 30
0.0
 11
315.341099
 21
461.605102
 31
0.0
  0
LINE
  8
LC-001-002-----0
 62
     1
  5
50A
 10
333.021737
 20
463.532653
 30
0.0
 11
315.292267
 21
462.292817
 31
0.0
  0
ARC
  8
LC-002-002-RND-0
 62
     1
  5
50B
 10
315.78059
 20
455.32045
 30
0.0
 40
6.3
 50
94.000229
 51
180.000229
  0
LINE
  8
LC-001-002-----0
 62
     1
  5
50C
 10
309.48059
 20
455.320425
 30
0.0
 11
309.480645
 21
441.632382
 31
0.0
  0
ARC
  8
LC-001-002-----0
 62
     1
  5
50D
 10
305.980645
 20
441.632368
 30
0.0
 40
3.5
 50
270.000229
 51
0.000229
  0
LINE
  8
LC-001-002-----0
 62
     1
  5
50E
 10
305.68066
 20
437.832366
 30
0.0
 11
305.680669
 21
435.532366
 31
0.0
  0
ARC
  8
LC-001-002-----0
 62
     1
  5
50F
 10
305.980147
 20
435.532368
 30
0.0
 40
0.3
 50
180.000229
 51
270.000229
  0
ARC
  8
LC-001-002-----0
 62
     1
  5
510
 10
305.980677
 20
433.732368
 30
0.0
 40
1.5
 50
0.000229
 51
90.000229
  0
ARC
  8
LC-001-002-----0
 62
     1
  5
511
 10
305.980677
 20
433.732368
 30
0.0
 40
1.5
 50
270.000229
 51
0.000229
  0
LINE
  8
LC-001-002-----0
 62
     1
  5
512
 10
305.980683
 20
432.232368
 30
0.0
 11
303.198413
 21
432.232356
 31
0.0
  0
INSERT
  8
LC-005-005-----0
 62
     2
  5
527
  2
*X23
 10
0.0
 20
0.0
 30
0.0
  0
INSERT
  8
LC-005-005-----0
 62
     2
  5
545
  2
*X24
 10
0.0
 20
0.0
 30
0.0
  0
INSERT
  8
LC-005-005-----0
 62
     2
  5
563
  2
*X25
 10
0.0
 20
0.0
 30
0.0
  0
INSERT
  8
LC-005-005-----0
 62
     2
  5
581
  2
*X26
 10
0.0
 20
0.0
 30
0.0
  0
INSERT
  8
LC-005-005-----0
 62
     2
  5
59F
  2
*X27
 10
0.0
 20
0.0
 30
0.0
  0
INSERT
  8
LC-005-005-----0
 62
     2
  5
5BD
  2
*X28
 10
0.0
 20
0.0
 30
0.0
  0
LINE
  8
LC-001-002-----0
 62
     1
  5
5BE
 10
308.71825
 20
441.833046
 30
0.0
 11
305.718262
 21
438.833034
 31
0.0
  0
LINE
  8
LC-001-002-----0
 62
     1
  5
5BF
 10
306.218186
 20
457.83268
 30
0.0
 11
304.718186
 21
457.832674
 31
0.0
  0
LINE
  8
LC-001-002-----0
 62
     1
  5
5C0
 10
306.218186
 20
457.83268
 30
0.0
 11
306.218182
 21
458.83268
 31
0.0
  0
ARC
  8
LC-002-002-RND-0
 62
     1
  5
5C1
 10
304.718194
 20
455.832674
 30
0.0
 40
2.0
 50
90.000229
 51
180.000229
  0
LINE
  8
LC-001-002-----0
 62
     1
  5
5C2
 10
285.791002
 20
438.832954
 30
0.0
 11
285.790992
 21
441.332954
 31
0.0
  0
LINE
  8
LC-001-002-----0
 62
     1
  5
5C3
 10
274.527967
 20
438.832909
 30
0.0
 11
274.527957
 21
441.332909
 31
0.0
  0
LINE
  8
LC-001-002-----0
 62
     1
  5
5C4
 10
271.420504
 20
441.332896
 30
0.0
 11
274.527957
 21
441.332909
 31
0.0
  0
LINE
  8
LC-001-002-----0
 62
     1
  5
5C5
 10
285.790992
 20
441.332954
 30
0.0
 11
305.980646
 21
441.333035
 31
0.0
  0
LINE
  8
LC-001-002-----0
 62
     1
  5
5C6
 10
302.718194
 20
455.832666
 30
0.0
 11
302.718252
 21
441.333022
 31
0.0
  0
LINE
  8
LC-001-002-----0
 62
     1
  5
5C7
 10
300.468262
 20
438.833013
 30
0.0
 11
271.725519
 21
438.832897
 31
0.0
  0
LINE
  8
LC-001-002-----0
 62
     1
  5
5C8
 10
308.718182
 20
458.83269
 30
0.0
 11
240.383861
 21
458.832416
 31
0.0
  0
LINE
  8
LC-001-002-----0
 62
     1
  5
5C9
 10
300.468262
 20
438.833013
 30
0.0
 11
305.718262
 21
438.833034
 31
0.0
  0
LINE
  8
LC-001-002-----0
 62
     1
  5
5CA
 10
308.78059
 20
455.309842
 30
0.0
 11
308.780645
 21
441.632379
 31
0.0
  0
LINE
  8
LC-001-002-----0
 62
     1
  5
5CB
 10
306.218252
 20
441.333036
 30
0.0
 11
306.218182
 21
458.83268
 31
0.0
  0
INSERT
  8
LC-005-005-----0
 62
     2
  5
5D8
  2
*X29
 10
0.0
 20
0.0
 30
0.0
  0
LINE
  8
LC-001-002-----0
 62
     1
  5
5D9
 10
297.250497
 20
457.832644
 30
0.0
 11
293.717688
 21
457.83263
 31
0.0
  0
LINE
  8
LC-001-002-----0
 62
     1
  5
5DA
 10
297.250563
 20
441.333
 30
0.0
 11
297.250497
 21
457.832644
 31
0.0
  0
LINE
  8
LC-001-002-----0
 62
     1
  5
5DB
 10
268.611736
 20
446.703813
 30
0.0
 11
268.611699
 21
455.832529
 31
0.0
  0
LINE
  8
LC-001-002-----0
 62
     1
  5
5DC
 10
264.281597
 20
449.739726
 30
0.0
 11
264.281572
 21
455.832512
 31
0.0
  0
LINE
  8
LC-001-002-----0
 62
     1
  5
5DD
 10
270.362684
 20
457.832536
 30
0.0
 11
266.281564
 21
457.83252
 31
0.0
  0
ARC
  8
LC-001-002-----0
 62
     1
  5
5DE
 10
266.281572
 20
455.83252
 30
0.0
 40
2.0
 50
90.000229
 51
180.000229
  0
ARC
  8
LC-001-002-----0
 62
     1
  5
5DF
 10
270.611699
 20
455.832537
 30
0.0
 40
2.0
 50
97.097224
 51
180.000229
  0
LINE
  8
LC-001-002-----0
 62
     1
  5
5E0
 10
270.362739
 20
444.194904
 30
0.0
 11
270.362684
 21
457.832536
 31
0.0
  0
LINE
  8
LC-001-002-----0
 62
     1
  5
5E1
 10
380.102551
 20
465.688138
 30
0.0
 11
480.027762
 21
465.688538
 31
0.0
  0
LINE
  8
LC-001-002-----0
 62
     1
  5
5E2
 10
380.900401
 20
460.988141
 30
0.0
 11
480.02778
 21
460.988538
 31
0.0
  0
LINE
  8
LC-001-002-----0
 62
     1
  5
5E3
 10
380.102794
 20
465.674216
 30
0.0
 11
338.346152
 21
464.945184
 31
0.0
  0
LINE
  8
LC-001-002-----0
 62
     1
  5
5E4
 10
380.102551
 20
465.674212
 30
0.0
 11
380.184596
 21
460.974928
 31
0.0
  0
INSERT
  8
LC-005-005-----0
 62
     2
  5
602
  2
*X30
 10
0.0
 20
0.0
 30
0.0
  0
LINE
  8
LC-001-002-----0
 62
     1
  5
603
 10
370.094976
 20
465.499489
 30
0.0
 11
370.177022
 21
460.800205
 31
0.0
  0
LINE
  8
LC-001-002-----0
 62
     1
  5
604
 10
360.08424
 20
465.324711
 30
0.0
 11
360.166285
 21
460.625427
 31
0.0
  0
INSERT
  8
LC-005-005-----0
 62
     2
  5
622
  2
*X31
 10
0.0
 20
0.0
 30
0.0
  0
LINE
  8
LC-001-002-----0
 62
     1
  5
623
 10
350.075085
 20
465.14996
 30
0.0
 11
350.15713
 21
460.450676
 31
0.0
  0
LINE
  8
LC-001-002-----0
 62
     1
  5
624
 10
340.027765
 20
464.974543
 30
0.0
 11
340.027785
 21
459.98
 31
0.0
  0
INSERT
  8
LC-005-005-----0
 62
     2
  5
63E
  2
*X32
 10
0.0
 20
0.0
 30
0.0
  0
LINE
  8
LC-001-002-----0
 62
     1
  5
63F
 10
330.027774
 20
462.632154
 30
0.0
 11
330.027793
 21
457.920677
 31
0.0
  0
LINE
  8
LC-001-002-----0
 62
     1
  5
640
 10
322.457077
 20
457.391251
 30
0.0
 11
322.457058
 21
462.102728
 31
0.0
  0
LINE
  8
LC-001-002-----0
 62
     1
  5
641
 10
338.346152
 20
464.945184
 30
0.0
 11
336.484672
 21
463.08369
 31
0.0
  0
LINE
  8
LC-001-002-----0
 62
     1
  5
642
 10
336.484672
 20
463.08369
 30
0.0
 11
322.457058
 21
462.102728
 31
0.0
  0
LINE
  8
LC-001-002-----0
 62
     1
  5
643
 10
480.02778
 20
460.988538
 30
0.0
 11
480.027762
 21
465.688538
 31
0.0
  0
LINE
  8
LC-001-002-----0
 62
     1
  5
644
 10
230.227087
 20
465.421422
 30
0.0
 11
338.037402
 21
465.421422
 31
0.0
  0
LINE
  8
LC-001-002-----0
 62
     1
  5
645
 10
308.736019
 20
441.832731
 30
0.0
 11
305.736019
 21
438.832731
 31
0.0
  0
LINE
  8
LC-001-002-----0
 62
     1
  5
646
 10
298.736019
 20
438.832731
 30
0.0
 11
298.736019
 21
441.332731
 31
0.0
  0
LINE
  8
LC-001-002-----0
 62
     1
  5
647
 10
293.308759
 20
438.832731
 30
0.0
 11
293.308759
 21
441.332731
 31
0.0
  0
LINE
  8
LC-001-002-----0
 62
     1
  5
648
 10
285.808802
 20
441.332731
 30
0.0
 11
306.236019
 21
441.332731
 31
0.0
  0
LINE
  8
LC-001-002-----0
 62
     1
  5
649
 10
308.736019
 20
458.832376
 30
0.0
 11
308.736019
 21
441.832731
 31
0.0
  0
LINE
  8
LC-001-002-----0
 62
     1
  5
64A
 10
300.486019
 20
438.832731
 30
0.0
 11
271.725799
 21
438.832731
 31
0.0
  0
LINE
  8
LC-001-002-----0
 62
     1
  5
64B
 10
308.736019
 20
458.832376
 30
0.0
 11
240.384008
 21
458.832376
 31
0.0
  0
LINE
  8
LC-001-002-----0
 62
     1
  5
64C
 10
300.486019
 20
438.832731
 30
0.0
 11
305.736019
 21
438.832731
 31
0.0
  0
ARC
  8
LC-001-002-----0
 62
     1
  5
64D
 10
332.597912
 20
469.827321
 30
0.0
 40
6.3
 50
274.0
 51
315.621929
  0
ARC
  8
LC-001-002-----0
 62
     1
  5
64E
 10
332.597912
 20
469.827321
 30
0.0
 40
7.0
 50
274.0
 51
320.993096
  0
ARC
  8
LC-002-002-RND-0
 62
     1
  5
64F
 10
315.798413
 20
455.309528
 30
0.0
 40
7.0
 50
94.0
 51
180.0
  0
ARC
  8
LC-001-002-----0
 62
     1
  5
650
 10
305.998413
 20
441.632064
 30
0.0
 40
2.8
 50
270.0
 51
360.0
  0
ARC
  8
LC-001-002-----0
 62
     1
  5
651
 10
305.998133
 20
437.832432
 30
0.0
 40
1.0
 50
90.00028
 51
180.00028
  0
ARC
  8
LC-001-002-----0
 62
     1
  5
652
 10
305.998133
 20
437.832432
 30
0.0
 40
0.3
 50
90.00028
 51
180.00028
  0
LINE
  8
LC-001-002-----0
 62
     1
  5
653
 10
304.998413
 20
437.832064
 30
0.0
 11
304.998413
 21
435.532064
 31
0.0
  0
ARC
  8
LC-001-002-----0
 62
     1
  5
654
 10
305.998413
 20
435.532064
 30
0.0
 40
1.0
 50
180.0
 51
270.0
  0
ARC
  8
LC-001-002-----0
 62
     1
  5
655
 10
305.998413
 20
433.732064
 30
0.0
 40
0.8
 50
0.0
 51
90.0
  0
ARC
  8
LC-001-002-----0
 62
     1
  5
656
 10
305.998413
 20
433.732064
 30
0.0
 40
0.8
 50
270.0
 51
0.0
  0
LINE
  8
LC-001-002-----0
 62
     1
  5
657
 10
305.998413
 20
432.932064
 30
0.0
 11
303.198413
 21
432.932064
 31
0.0
  0
LINE
  8
LC-001-002-----0
 62
     1
  5
658
 10
303.198413
 20
432.232064
 30
0.0
 11
303.198413
 21
432.932064
 31
0.0
  0
ARC
  8
LC-001-002-----0
 62
     1
  5
659
 10
293.735521
 20
455.832376
 30
0.0
 40
2.0
 50
90.0
 51
180.0
  0
LINE
  8
LC-001-002-----0
 62
     1
  5
65A
 10
297.250497
 20
457.832376
 30
0.0
 11
293.735521
 21
457.832376
 31
0.0
  0
LINE
  8
LC-001-002-----0
 62
     1
  5
65B
 10
294.235521
 20
441.332731
 30
0.0
 11
294.235521
 21
455.832376
 31
0.0
  0
LINE
  8
LC-001-002-----0
 62
     1
  5
65C
 10
291.735521
 20
441.332731
 30
0.0
 11
291.735521
 21
455.832376
 31
0.0
  0
ARC
  8
LC-001-002-----0
 62
     1
  5
65D
 10
296.235521
 20
455.832376
 30
0.0
 40
2.0
 50
90.0
 51
180.0
  0
DIMENSION
  8
LC-007-003-----0
 62
     2
  5
678
  2
*D33
 10
230.227087
 20
575.311752
 30
0.0
 11
230.227087
 21
575.311752
 31
0.0
  1
%%c500
 13
-19.573588
 23
465.687538
 33
0.0
 14
480.027762
 24
465.688538
 34
0.0
  3
LC-DIM-L-0140-02-02
  0
ENDSEC
  0
EOF
