  0
SECTION
  2
HEADER
  9
$ACADVER
  1
AC1015
  9
$ACADMAINTVER
 70
     6
  9
$DWGCODEPAGE
  3
ANSI_1252
  9
$INSBASE
 10
0.0
 20
0.0
 30
0.0
  9
$EXTMIN
 10
-839.393981
 20
-603.029182
 30
0.0
  9
$EXTMAX
 10
1260.606019
 20
881.970818
 30
0.0
  9
$LIMMIN
 10
-839.393981
 20
-603.029182
  9
$LIMMAX
 10
1260.606019
 20
881.970818
  9
$ORTHOMODE
 70
     0
  9
$REGENMODE
 70
     1
  9
$FILLMODE
 70
     1
  9
$QTEXTMODE
 70
     0
  9
$MIRRTEXT
 70
     1
  9
$LTSCALE
 40
5.0
  9
$ATTMODE
 70
     1
  9
$TEXTSIZE
 40
2.5
  9
$TRACEWID
 40
1.0
  9
$TEXTSTYLE
  7
Standard
  9
$CLAYER
  8
0
  9
$CELTYPE
  6
ByLayer
  9
$CECOLOR
 62
     7
  9
$CELTSCALE
 40
1.0
  9
$DISPSILH
 70
     0
  9
$DIMSCALE
 40
5.0
  9
$DIMASZ
 40
3.5
  9
$DIMEXO
 40
0.625
  9
$DIMDLI
 40
3.75
  9
$DIMRND
 40
0.0
  9
$DIMDLE
 40
0.0
  9
$DIMEXE
 40
1.25
  9
$DIMTP
 40
0.0
  9
$DIMTM
 40
0.0
  9
$DIMTXT
 40
3.5
  9
$DIMCEN
 40
2.5
  9
$DIMTSZ
 40
0.0
  9
$DIMTOL
 70
     0
  9
$DIMLIM
 70
     0
  9
$DIMTIH
 70
     0
  9
$DIMTOH
 70
     0
  9
$DIMSE1
 70
     0
  9
$DIMSE2
 70
     0
  9
$DIMTAD
 70
     1
  9
$DIMZIN
 70
     8
  9
$DIMBLK
  1

  9
$DIMASO
 70
     1
  9
$DIMSHO
 70
     1
  9
$DIMPOST
  1

  9
$DIMAPOST
  1

  9
$DIMALT
 70
     0
  9
$DIMALTD
 70
     3
  9
$DIMALTF
 40
0.03937
  9
$DIMLFAC
 40
1.0
  9
$DIMTOFL
 70
     1
  9
$DIMTVP
 40
0.0
  9
$DIMTIX
 70
     0
  9
$DIMSOXD
 70
     0
  9
$DIMSAH
 70
     0
  9
$DIMBLK1
  1

  9
$DIMBLK2
  1

  9
$DIMSTYLE
  2
ISO-25
  9
$DIMCLRD
 70
     0
  9
$DIMCLRE
 70
     0
  9
$DIMCLRT
 70
     0
  9
$DIMTFAC
 40
1.0
  9
$DIMGAP
 40
0.625
  9
$DIMJUST
 70
     0
  9
$DIMSD1
 70
     0
  9
$DIMSD2
 70
     0
  9
$DIMTOLJ
 70
     0
  9
$DIMTZIN
 70
     8
  9
$DIMALTZ
 70
     0
  9
$DIMALTTZ
 70
     0
  9
$DIMUPT
 70
     0
  9
$DIMDEC
 70
     2
  9
$DIMTDEC
 70
     2
  9
$DIMALTU
 70
     2
  9
$DIMALTTD
 70
     3
  9
$DIMTXSTY
  7
Standard
  9
$DIMAUNIT
 70
     0
  9
$DIMADEC
 70
     0
  9
$DIMALTRND
 40
0.0
  9
$DIMAZIN
 70
     0
  9
$DIMDSEP
 70
    44
  9
$DIMATFIT
 70
     3
  9
$DIMFRAC
 70
     0
  9
$DIMLDRBLK
  1

  9
$DIMLUNIT
 70
     2
  9
$DIMLWD
 70
    -2
  9
$DIMLWE
 70
    -2
  9
$DIMTMOVE
 70
     0
  9
$LUNITS
 70
     2
  9
$LUPREC
 70
     4
  9
$SKETCHINC
 40
1.0
  9
$FILLETRAD
 40
10.0
  9
$AUNITS
 70
     0
  9
$AUPREC
 70
     0
  9
$MENU
  1
.
  9
$ELEVATION
 40
0.0
  9
$PELEVATION
 40
0.0
  9
$THICKNESS
 40
0.0
  9
$LIMCHECK
 70
     0
  9
$CHAMFERA
 40
10.0
  9
$CHAMFERB
 40
10.0
  9
$CHAMFERC
 40
20.0
  9
$CHAMFERD
 40
0.0
  9
$SKPOLY
 70
     0
  9
$TDCREATE
 40
2456034.238329202
  9
$TDUCREATE
 40
2456034.154995868
  9
$TDUPDATE
 40
2456034.238329213
  9
$TDUUPDATE
 40
2456034.15499588
  9
$TDINDWG
 40
0.0000000116
  9
$TDUSRTIMER
 40
0.0000000116
  9
$USRTIMER
 70
     1
  9
$ANGBASE
 50
0.0
  9
$ANGDIR
 70
     0
  9
$PDMODE
 70
     0
  9
$PDSIZE
 40
0.0
  9
$PLINEWID
 40
0.0
  9
$SPLFRAME
 70
     0
  9
$SPLINETYPE
 70
     6
  9
$SPLINESEGS
 70
     8
  9
$HANDSEED
  5
713
  9
$SURFTAB1
 70
     6
  9
$SURFTAB2
 70
     6
  9
$SURFTYPE
 70
     6
  9
$SURFU
 70
     6
  9
$SURFV
 70
     6
  9
$UCSBASE
  2

  9
$UCSNAME
  2

  9
$UCSORG
 10
0.0
 20
0.0
 30
0.0
  9
$UCSXDIR
 10
1.0
 20
0.0
 30
0.0
  9
$UCSYDIR
 10
0.0
 20
1.0
 30
0.0
  9
$UCSORTHOREF
  2

  9
$UCSORTHOVIEW
 70
     0
  9
$UCSORGTOP
 10
0.0
 20
0.0
 30
0.0
  9
$UCSORGBOTTOM
 10
0.0
 20
0.0
 30
0.0
  9
$UCSORGLEFT
 10
0.0
 20
0.0
 30
0.0
  9
$UCSORGRIGHT
 10
0.0
 20
0.0
 30
0.0
  9
$UCSORGFRONT
 10
0.0
 20
0.0
 30
0.0
  9
$UCSORGBACK
 10
0.0
 20
0.0
 30
0.0
  9
$PUCSBASE
  2

  9
$PUCSNAME
  2

  9
$PUCSORG
 10
0.0
 20
0.0
 30
0.0
  9
$PUCSXDIR
 10
1.0
 20
0.0
 30
0.0
  9
$PUCSYDIR
 10
0.0
 20
1.0
 30
0.0
  9
$PUCSORTHOREF
  2

  9
$PUCSORTHOVIEW
 70
     0
  9
$PUCSORGTOP
 10
0.0
 20
0.0
 30
0.0
  9
$PUCSORGBOTTOM
 10
0.0
 20
0.0
 30
0.0
  9
$PUCSORGLEFT
 10
0.0
 20
0.0
 30
0.0
  9
$PUCSORGRIGHT
 10
0.0
 20
0.0
 30
0.0
  9
$PUCSORGFRONT
 10
0.0
 20
0.0
 30
0.0
  9
$PUCSORGBACK
 10
0.0
 20
0.0
 30
0.0
  9
$USERI1
 70
     0
  9
$USERI2
 70
     0
  9
$USERI3
 70
     0
  9
$USERI4
 70
     0
  9
$USERI5
 70
     0
  9
$USERR1
 40
0.0
  9
$USERR2
 40
0.0
  9
$USERR3
 40
0.0
  9
$USERR4
 40
0.0
  9
$USERR5
 40
0.0
  9
$WORLDVIEW
 70
     1
  9
$SHADEDGE
 70
     3
  9
$SHADEDIF
 70
    70
  9
$TILEMODE
 70
     1
  9
$MAXACTVP
 70
    64
  9
$PINSBASE
 10
0.0
 20
0.0
 30
0.0
  9
$PLIMCHECK
 70
     0
  9
$PEXTMIN
 10
-839.393981
 20
-603.029182
 30
0.0
  9
$PEXTMAX
 10
1260.606019
 20
881.970818
 30
0.0
  9
$PLIMMIN
 10
-839.393981
 20
-603.029182
  9
$PLIMMAX
 10
1260.606019
 20
881.970818
  9
$UNITMODE
 70
     0
  9
$VISRETAIN
 70
     1
  9
$PLINEGEN
 70
     0
  9
$PSLTSCALE
 70
     1
  9
$TREEDEPTH
 70
  3020
  9
$CMLSTYLE
  2
Standard
  9
$CMLJUST
 70
     0
  9
$CMLSCALE
 40
20.0
  9
$PROXYGRAPHICS
 70
     1
  9
$MEASUREMENT
 70
     1
  9
$CELWEIGHT
370
    -1
  9
$ENDCAPS
280
     0
  9
$JOINSTYLE
280
     0
  9
$LWDISPLAY
290
     0
  9
$INSUNITS
 70
     4
  9
$HYPERLINKBASE
  1

  9
$STYLESHEET
  1

  9
$XEDIT
290
     1
  9
$CEPSNTYPE
380
     0
  9
$PSTYLEMODE
290
     1
  9
$FINGERPRINTGUID
  2
{FAEB1C30-E019-11D5-929B-00C0DF256EC4}
  9
$VERSIONGUID
  2
{FAEB1C32-E019-11D5-929B-00C0DF256EC4}
  9
$EXTNAMES
290
     1
  9
$PSVPSCALE
 40
0.0
  9
$OLESTARTUP
290
     0
  0
ENDSEC
  0
SECTION
  2
CLASSES
  0
CLASS
  1
ACDBDICTIONARYWDFLT
  2
AcDbDictionaryWithDefault
  3
ObjectDBX Classes
 90
        0
280
     0
281
     0
  0
CLASS
  1
ACDBPLACEHOLDER
  2
AcDbPlaceHolder
  3
ObjectDBX Classes
 90
        0
280
     0
281
     0
  0
CLASS
  1
LAYOUT
  2
AcDbLayout
  3
ObjectDBX Classes
 90
        0
280
     0
281
     0
  0
ENDSEC
  0
SECTION
  2
TABLES
  0
TABLE
  2
VPORT
  5
8
330
0
100
AcDbSymbolTable
 70
     2
  0
VPORT
  5
29
330
8
100
AcDbSymbolTableRecord
100
AcDbViewportTableRecord
  2
*ACTIVE
 70
     0
 10
0.0
 20
0.0
 11
1.0
 21
1.0
 12
210.606019
 22
139.470818
 13
0.0
 23
0.0
 14
1.0
 24
1.0
 15
0.0
 25
0.0
 16
0.0
 26
0.0
 36
1.0
 17
0.0
 27
0.0
 37
0.0
 40
1485.0
 41
1.414141
 42
50.0
 43
0.0
 44
0.0
 50
0.0
 51
0.0
 71
    16
 72
   100
 73
     1
 74
     0
 75
     0
 76
     0
 77
     0
 78
     0
281
     0
 65
     0
110
0.0
120
0.0
130
0.0
111
1.0
121
0.0
131
0.0
112
0.0
122
1.0
132
0.0
 79
     0
146
0.0
  0
ENDTAB
  0
TABLE
  2
LTYPE
  5
5
330
0
100
AcDbSymbolTable
 70
     3
  0
LTYPE
  5
14
330
5
100
AcDbSymbolTableRecord
100
AcDbLinetypeTableRecord
  2
ByBlock
 70
     0
  3

 72
    65
 73
     0
 40
0.0
  0
LTYPE
  5
15
330
5
100
AcDbSymbolTableRecord
100
AcDbLinetypeTableRecord
  2
ByLayer
 70
     0
  3

 72
    65
 73
     0
 40
0.0
  0
LTYPE
  5
16
330
5
100
AcDbSymbolTableRecord
100
AcDbLinetypeTableRecord
  2
Continuous
 70
     0
  3
Solid line
 72
    65
 73
     0
 40
0.0
  0
LTYPE
  5
2A
330
5
100
AcDbSymbolTableRecord
100
AcDbLinetypeTableRecord
  2
DASHED
 70
     0
  3
__ __ __ __ __
 72
    65
 73
     2
 40
6.25
 49
5.0
 74
     4
 75
     0
340
0
 46
1.0
 50
0.0
 44
0.0
 45
0.0
 49
-1.25
 74
     4
 75
     0
340
0
 46
1.0
 50
0.0
 44
0.0
 45
0.0
  0
LTYPE
  5
F7
330
5
100
AcDbSymbolTableRecord
100
AcDbLinetypeTableRecord
  2
DASHDOT
 70
     0
  3
__ . __ . __ . __ . __
 72
    65
 73
     4
 40
7.5
 49
5.0
 74
     4
 75
     0
340
0
 46
1.0
 50
0.0
 44
0.0
 45
0.0
 49
-1.25
 74
     4
 75
     0
340
0
 46
1.0
 50
0.0
 44
0.0
 45
0.0
 49
0.0
 74
     4
 75
     0
340
0
 46
1.0
 50
0.0
 44
0.0
 45
0.0
 49
-1.25
 74
     4
 75
     0
340
0
 46
1.0
 50
0.0
 44
0.0
 45
0.0
  0
ENDTAB
  0
TABLE
  2
LAYER
  5
2
330
0
100
AcDbSymbolTable
 70
     8
  0
LAYER
  5
10
330
2
100
AcDbSymbolTableRecord
100
AcDbLayerTableRecord
  2
0
 70
     0
 62
     7
  6
Continuous
370
    -3
390
F
  0
LAYER
  5
2B
330
2
100
AcDbSymbolTableRecord
100
AcDbLayerTableRecord
  2
LC-INFO-1-5-mm-A3-0
 70
     1
 62
     7
  6
ByBlock
370
    -3
390
F
  0
LAYER
  5
2C
330
2
100
AcDbSymbolTableRecord
100
AcDbLayerTableRecord
  2
LC-CUT-HIDDEN
 70
     0
 62
     7
  6
DASHED
370
    -3
390
F
  0
LAYER
  5
2D
330
2
100
AcDbSymbolTableRecord
100
AcDbLayerTableRecord
  2
LC-VIEWPORT
 70
     0
 62
     7
  6
ByBlock
370
    -3
390
F
  0
LAYER
  5
2E
330
2
100
AcDbSymbolTableRecord
100
AcDbLayerTableRecord
  2
LC-3D-HIDDEN
 70
     0
 62
     9
  6
DASHED
370
    -3
390
F
  0
LAYER
  5
30
330
2
100
AcDbSymbolTableRecord
100
AcDbLayerTableRecord
  2
LC-001-100-D00-0
 70
     0
 62
     1
  6
ByBlock
370
    -3
390
F
  0
LAYER
  5
EA
330
2
100
AcDbSymbolTableRecord
100
AcDbLayerTableRecord
  2
Defpoints
 70
     0
 62
     7
  6
Continuous
290
     0
370
    -3
390
F
  0
LAYER
  5
518
330
2
100
AcDbSymbolTableRecord
100
AcDbLayerTableRecord
  2
LC-002-003-----0
 70
     0
 62
     2
  6
ByBlock
370
    -3
390
F
  0
ENDTAB
  0
TABLE
  2
STYLE
  5
3
330
0
100
AcDbSymbolTable
 70
     3
  0
STYLE
  5
11
330
3
100
AcDbSymbolTableRecord
100
AcDbTextStyleTableRecord
  2
Standard
 70
     0
 40
0.0
 41
1.0
 50
0.0
 71
     0
 42
2.5
  3
txt
  4

  0
STYLE
  5
2F
330
3
100
AcDbSymbolTableRecord
100
AcDbTextStyleTableRecord
  2
LCTX15-400-0-0-Arial
 70
     0
 40
0.0
 41
0.8
 50
0.0
 71
     0
 42
3.5
  3

  4

1001
ACAD
1000
Arial
1071
 16777218
  0
STYLE
  5
E7
330
3
100
AcDbSymbolTableRecord
100
AcDbTextStyleTableRecord
  2
LCTX15-400-0-0pDIN-Schrift
 70
     0
 40
2.5
 41
0.8
 50
15.0
 71
     0
 42
3.5
  3
STANDARD
  4

  0
ENDTAB
  0
TABLE
  2
VIEW
  5
6
330
0
100
AcDbSymbolTable
 70
     0
  0
ENDTAB
  0
TABLE
  2
UCS
  5
7
330
0
100
AcDbSymbolTable
 70
     0
  0
ENDTAB
  0
TABLE
  2
APPID
  5
9
330
0
100
AcDbSymbolTable
 70
     1
  0
APPID
  5
12
330
9
100
AcDbSymbolTableRecord
100
AcDbRegAppTableRecord
  2
ACAD
 70
     0
  0
ENDTAB
  0
TABLE
  2
DIMSTYLE
  5
A
330
0
100
AcDbSymbolTable
 70
     3
100
AcDbDimStyleTable
  0
DIMSTYLE
105
27
330
A
100
AcDbSymbolTableRecord
100
AcDbDimStyleTableRecord
  2
ISO-25
 70
     0
 41
2.5
 42
0.625
 43
3.75
 44
1.25
 73
     0
 74
     0
 77
     1
 78
     8
140
2.5
141
2.5
143
0.03937
147
0.625
171
     3
172
     1
271
     2
272
     2
274
     3
278
    44
283
     0
284
     8
340
11
  0
DIMSTYLE
105
E8
102
{ACAD_REACTORS
330
E9
330
2F0
330
2FD
330
4F7
330
506
330
519
330
5BD
330
64E
330
65C
102
}
330
A
100
AcDbSymbolTableRecord
100
AcDbDimStyleTableRecord
  2
LC-DIM-L-0090-02-02
 70
     0
 40
5.0
 41
9.0
 42
0.0
 43
7.5
 44
1.8
 73
     0
 74
     0
 77
     1
 78
     8
 79
     2
140
9.0
141
0.0
146
0.71
147
1.5
176
     2
177
     2
178
     2
179
     2
271
     2
278
    44
289
     1
340
E7
  0
DIMSTYLE
105
69F
102
{ACAD_REACTORS
330
6A0
102
}
330
A
100
AcDbSymbolTableRecord
100
AcDbDimStyleTableRecord
  2
LC-DIM-L-0100-02-02
 70
     0
 40
5.0
 41
10.0
 42
0.0
 43
7.5
 44
1.8
 73
     0
 74
     0
 77
     1
 78
     8
 79
     2
140
10.0
141
0.0
146
0.71
147
1.5
176
     2
177
     2
178
     2
179
     2
271
     2
278
    44
289
     1
340
E7
  0
ENDTAB
  0
TABLE
  2
BLOCK_RECORD
  5
1
330
0
100
AcDbSymbolTable
 70
    65
  0
BLOCK_RECORD
  5
1F
330
1
100
AcDbSymbolTableRecord
100
AcDbBlockTableRecord
  2
*Model_Space
340
22
  0
BLOCK_RECORD
  5
1B
330
1
100
AcDbSymbolTableRecord
100
AcDbBlockTableRecord
  2
*Paper_Space
340
1E
  0
BLOCK_RECORD
  5
23
330
1
100
AcDbSymbolTableRecord
100
AcDbBlockTableRecord
  2
*Paper_Space0
340
26
  0
BLOCK_RECORD
  5
45
330
1
100
AcDbSymbolTableRecord
100
AcDbBlockTableRecord
  2
KLON1
340
0
102
{BLKREFS
331
4A
102
}
  0
BLOCK_RECORD
  5
4D
330
1
100
AcDbSymbolTableRecord
100
AcDbBlockTableRecord
  2
KLON2
340
0
102
{BLKREFS
331
54
102
}
  0
BLOCK_RECORD
  5
56
330
1
100
AcDbSymbolTableRecord
100
AcDbBlockTableRecord
  2
KLON3
340
0
102
{BLKREFS
331
5B
102
}
  0
BLOCK_RECORD
  5
5C
330
1
100
AcDbSymbolTableRecord
100
AcDbBlockTableRecord
  2
KLON4
340
0
102
{BLKREFS
331
61
102
}
  0
BLOCK_RECORD
  5
63
330
1
100
AcDbSymbolTableRecord
100
AcDbBlockTableRecord
  2
KLON5
340
0
102
{BLKREFS
331
6A
102
}
  0
BLOCK_RECORD
  5
6D
330
1
100
AcDbSymbolTableRecord
100
AcDbBlockTableRecord
  2
KLON6
340
0
102
{BLKREFS
331
72
102
}
  0
BLOCK_RECORD
  5
80
330
1
100
AcDbSymbolTableRecord
100
AcDbBlockTableRecord
  2
KLON7
340
0
102
{BLKREFS
331
85
102
}
  0
BLOCK_RECORD
  5
86
330
1
100
AcDbSymbolTableRecord
100
AcDbBlockTableRecord
  2
KLON8
340
0
102
{BLKREFS
331
8B
102
}
  0
BLOCK_RECORD
  5
8D
330
1
100
AcDbSymbolTableRecord
100
AcDbBlockTableRecord
  2
KLON9
340
0
102
{BLKREFS
331
93
102
}
  0
BLOCK_RECORD
  5
94
330
1
100
AcDbSymbolTableRecord
100
AcDbBlockTableRecord
  2
KLON10
340
0
102
{BLKREFS
331
9A
102
}
  0
BLOCK_RECORD
  5
9B
330
1
100
AcDbSymbolTableRecord
100
AcDbBlockTableRecord
  2
KLON11
340
0
102
{BLKREFS
331
A0
102
}
  0
BLOCK_RECORD
  5
A1
330
1
100
AcDbSymbolTableRecord
100
AcDbBlockTableRecord
  2
KLON12
340
0
102
{BLKREFS
331
A7
102
}
  0
BLOCK_RECORD
  5
A8
330
1
100
AcDbSymbolTableRecord
100
AcDbBlockTableRecord
  2
KLON13
340
0
102
{BLKREFS
331
AE
102
}
  0
BLOCK_RECORD
  5
AF
330
1
100
AcDbSymbolTableRecord
100
AcDbBlockTableRecord
  2
KLON14
340
0
102
{BLKREFS
331
B4
102
}
  0
BLOCK_RECORD
  5
EB
330
1
100
AcDbSymbolTableRecord
100
AcDbBlockTableRecord
  2
*D15
340
0
  0
BLOCK_RECORD
  5
276
330
1
100
AcDbSymbolTableRecord
100
AcDbBlockTableRecord
  2
KLON15
340
0
102
{BLKREFS
331
27F
102
}
  0
BLOCK_RECORD
  5
280
330
1
100
AcDbSymbolTableRecord
100
AcDbBlockTableRecord
  2
KLON16
340
0
102
{BLKREFS
331
289
102
}
  0
BLOCK_RECORD
  5
294
330
1
100
AcDbSymbolTableRecord
100
AcDbBlockTableRecord
  2
KLON17
340
0
102
{BLKREFS
331
2A0
102
}
  0
BLOCK_RECORD
  5
2A1
330
1
100
AcDbSymbolTableRecord
100
AcDbBlockTableRecord
  2
KLON18
340
0
102
{BLKREFS
331
2AD
102
}
  0
BLOCK_RECORD
  5
2F1
330
1
100
AcDbSymbolTableRecord
100
AcDbBlockTableRecord
  2
*D20
340
0
  0
BLOCK_RECORD
  5
2FE
330
1
100
AcDbSymbolTableRecord
100
AcDbBlockTableRecord
  2
*D21
340
0
  0
BLOCK_RECORD
  5
30B
330
1
100
AcDbSymbolTableRecord
100
AcDbBlockTableRecord
  2
KLON19
340
0
102
{BLKREFS
331
310
102
}
  0
BLOCK_RECORD
  5
314
330
1
100
AcDbSymbolTableRecord
100
AcDbBlockTableRecord
  2
KLON20
340
0
102
{BLKREFS
331
319
102
}
  0
BLOCK_RECORD
  5
31B
330
1
100
AcDbSymbolTableRecord
100
AcDbBlockTableRecord
  2
KLON21
340
0
102
{BLKREFS
331
320
102
}
  0
BLOCK_RECORD
  5
324
330
1
100
AcDbSymbolTableRecord
100
AcDbBlockTableRecord
  2
KLON22
340
0
102
{BLKREFS
331
329
102
}
  0
BLOCK_RECORD
  5
32A
330
1
100
AcDbSymbolTableRecord
100
AcDbBlockTableRecord
  2
KLON23
340
0
102
{BLKREFS
331
33D
102
}
  0
BLOCK_RECORD
  5
36E
330
1
100
AcDbSymbolTableRecord
100
AcDbBlockTableRecord
  2
POLY1
340
0
102
{BLKREFS
331
37D
102
}
  0
BLOCK_RECORD
  5
37E
330
1
100
AcDbSymbolTableRecord
100
AcDbBlockTableRecord
  2
POLY2
340
0
102
{BLKREFS
331
38D
102
}
  0
BLOCK_RECORD
  5
392
330
1
100
AcDbSymbolTableRecord
100
AcDbBlockTableRecord
  2
POLY3
340
0
102
{BLKREFS
331
3A3
102
}
  0
BLOCK_RECORD
  5
3A4
330
1
100
AcDbSymbolTableRecord
100
AcDbBlockTableRecord
  2
POLY4
340
0
102
{BLKREFS
331
3B5
102
}
  0
BLOCK_RECORD
  5
3BF
330
1
100
AcDbSymbolTableRecord
100
AcDbBlockTableRecord
  2
POLY5
340
0
102
{BLKREFS
331
3CA
102
}
  0
BLOCK_RECORD
  5
43B
330
1
100
AcDbSymbolTableRecord
100
AcDbBlockTableRecord
  2
POLY6
340
0
102
{BLKREFS
331
448
102
}
  0
BLOCK_RECORD
  5
45C
330
1
100
AcDbSymbolTableRecord
100
AcDbBlockTableRecord
  2
KLON24
340
0
102
{BLKREFS
331
461
102
}
  0
BLOCK_RECORD
  5
467
330
1
100
AcDbSymbolTableRecord
100
AcDbBlockTableRecord
  2
POLY7
340
0
102
{BLKREFS
331
47A
102
}
  0
BLOCK_RECORD
  5
47D
330
1
100
AcDbSymbolTableRecord
100
AcDbBlockTableRecord
  2
KLON25
340
0
102
{BLKREFS
331
482
102
}
  0
BLOCK_RECORD
  5
48B
330
1
100
AcDbSymbolTableRecord
100
AcDbBlockTableRecord
  2
POLY8
340
0
102
{BLKREFS
331
498
102
}
  0
BLOCK_RECORD
  5
4B8
330
1
100
AcDbSymbolTableRecord
100
AcDbBlockTableRecord
  2
KLON26
340
0
102
{BLKREFS
331
4BF
102
}
  0
BLOCK_RECORD
  5
4C0
330
1
100
AcDbSymbolTableRecord
100
AcDbBlockTableRecord
  2
KLON27
340
0
102
{BLKREFS
331
4CC
102
}
  0
BLOCK_RECORD
  5
4CD
330
1
100
AcDbSymbolTableRecord
100
AcDbBlockTableRecord
  2
KLON28
340
0
102
{BLKREFS
331
4D2
102
}
  0
BLOCK_RECORD
  5
4D3
330
1
100
AcDbSymbolTableRecord
100
AcDbBlockTableRecord
  2
KLON29
340
0
102
{BLKREFS
331
4D8
102
}
  0
BLOCK_RECORD
  5
4DA
330
1
100
AcDbSymbolTableRecord
100
AcDbBlockTableRecord
  2
KLON30
340
0
102
{BLKREFS
331
4E1
102
}
  0
BLOCK_RECORD
  5
4E2
330
1
100
AcDbSymbolTableRecord
100
AcDbBlockTableRecord
  2
KLON31
340
0
102
{BLKREFS
331
4E7
102
}
  0
BLOCK_RECORD
  5
4E8
330
1
100
AcDbSymbolTableRecord
100
AcDbBlockTableRecord
  2
KLON32
340
0
102
{BLKREFS
331
4EE
102
}
  0
BLOCK_RECORD
  5
4EF
330
1
100
AcDbSymbolTableRecord
100
AcDbBlockTableRecord
  2
KLON33
340
0
102
{BLKREFS
331
4F6
102
}
  0
BLOCK_RECORD
  5
4F8
330
1
100
AcDbSymbolTableRecord
100
AcDbBlockTableRecord
  2
*D45
340
0
  0
BLOCK_RECORD
  5
507
330
1
100
AcDbSymbolTableRecord
100
AcDbBlockTableRecord
  2
*D46
340
0
  0
BLOCK_RECORD
  5
51A
330
1
100
AcDbSymbolTableRecord
100
AcDbBlockTableRecord
  2
*D47
340
0
  0
BLOCK_RECORD
  5
527
330
1
100
AcDbSymbolTableRecord
100
AcDbBlockTableRecord
  2
KLON34
340
0
102
{BLKREFS
331
52C
102
}
  0
BLOCK_RECORD
  5
52F
330
1
100
AcDbSymbolTableRecord
100
AcDbBlockTableRecord
  2
KLON35
340
0
102
{BLKREFS
331
534
102
}
  0
BLOCK_RECORD
  5
538
330
1
100
AcDbSymbolTableRecord
100
AcDbBlockTableRecord
  2
POLY9
340
0
102
{BLKREFS
331
547
102
}
  0
BLOCK_RECORD
  5
548
330
1
100
AcDbSymbolTableRecord
100
AcDbBlockTableRecord
  2
POLY10
340
0
102
{BLKREFS
331
557
102
}
  0
BLOCK_RECORD
  5
558
330
1
100
AcDbSymbolTableRecord
100
AcDbBlockTableRecord
  2
POLY11
340
0
102
{BLKREFS
331
567
102
}
  0
BLOCK_RECORD
  5
568
330
1
100
AcDbSymbolTableRecord
100
AcDbBlockTableRecord
  2
POLY12
340
0
102
{BLKREFS
331
577
102
}
  0
BLOCK_RECORD
  5
582
330
1
100
AcDbSymbolTableRecord
100
AcDbBlockTableRecord
  2
POLY13
340
0
102
{BLKREFS
331
591
102
}
  0
BLOCK_RECORD
  5
594
330
1
100
AcDbSymbolTableRecord
100
AcDbBlockTableRecord
  2
POLY14
340
0
102
{BLKREFS
331
5A3
102
}
  0
BLOCK_RECORD
  5
5BE
330
1
100
AcDbSymbolTableRecord
100
AcDbBlockTableRecord
  2
*D56
340
0
  0
BLOCK_RECORD
  5
634
330
1
100
AcDbSymbolTableRecord
100
AcDbBlockTableRecord
  2
KLON36
340
0
102
{BLKREFS
331
640
102
}
  0
BLOCK_RECORD
  5
642
330
1
100
AcDbSymbolTableRecord
100
AcDbBlockTableRecord
  2
KLON37
340
0
102
{BLKREFS
331
64D
102
}
  0
BLOCK_RECORD
  5
64F
330
1
100
AcDbSymbolTableRecord
100
AcDbBlockTableRecord
  2
*D59
340
0
  0
BLOCK_RECORD
  5
65D
330
1
100
AcDbSymbolTableRecord
100
AcDbBlockTableRecord
  2
*D60
340
0
  0
BLOCK_RECORD
  5
678
330
1
100
AcDbSymbolTableRecord
100
AcDbBlockTableRecord
  2
POLY15
340
0
102
{BLKREFS
331
697
102
}
  0
BLOCK_RECORD
  5
6A1
330
1
100
AcDbSymbolTableRecord
100
AcDbBlockTableRecord
  2
*D62
340
0
  0
BLOCK_RECORD
  5
6B6
330
1
100
AcDbSymbolTableRecord
100
AcDbBlockTableRecord
  2
POLY16
340
0
102
{BLKREFS
331
6D5
102
}
  0
BLOCK_RECORD
  5
6EB
330
1
100
AcDbSymbolTableRecord
100
AcDbBlockTableRecord
  2
POLY17
340
0
102
{BLKREFS
331
70A
102
}
  0
ENDTAB
  0
ENDSEC
  0
SECTION
  2
BLOCKS
  0
BLOCK
  5
20
330
1F
100
AcDbEntity
  8
0
100
AcDbBlockBegin
  2
*Model_Space
 70
     0
 71
     0
 10
0.0
 20
0.0
 30
0.0
  3
*Model_Space
  1

  0
ENDBLK
  5
21
330
1F
100
AcDbEntity
  8
0
100
AcDbBlockEnd
  0
BLOCK
  5
1C
330
1B
100
AcDbEntity
 67
     1
  8
0
100
AcDbBlockBegin
  2
*Paper_Space
 70
     0
 71
     0
 10
0.0
 20
0.0
 30
0.0
  3
*Paper_Space
  1

  0
ENDBLK
  5
1D
330
1B
100
AcDbEntity
 67
     1
  8
0
100
AcDbBlockEnd
  0
BLOCK
  5
24
330
23
100
AcDbEntity
  8
0
100
AcDbBlockBegin
  2
*Paper_Space0
 70
     0
 71
     0
 10
0.0
 20
0.0
 30
0.0
  3
*Paper_Space0
  1

  0
ENDBLK
  5
25
330
23
100
AcDbEntity
  8
0
100
AcDbBlockEnd
  0
BLOCK
  5
46
330
45
100
AcDbEntity
  8
0
100
AcDbBlockBegin
  2
KLON1
 70
     0
 71
     0
 10
0.0
 20
0.0
 30
0.0
  3
KLON1
  1

  4
KLON1
  0
LINE
  5
48
330
45
100
AcDbEntity
  8
LC-001-100-D00-0
 62
     7
370
    15
100
AcDbLine
 10
703.438542
 20
74.551081
 30
0.0
 11
703.445963
 21
74.512908
 31
0.0
  0
LINE
  5
49
330
45
100
AcDbEntity
  8
LC-001-100-D00-0
 62
     7
370
    15
100
AcDbLine
 10
703.445963
 20
74.512908
 30
0.0
 11
703.464738
 21
74.480424
 31
0.0
  0
ENDBLK
  5
47
330
45
100
AcDbEntity
  8
0
100
AcDbBlockEnd
  0
BLOCK
  5
4E
330
4D
100
AcDbEntity
  8
0
100
AcDbBlockBegin
  2
KLON2
 70
     0
 71
     0
 10
0.0
 20
0.0
 30
0.0
  3
KLON2
  1

  4
KLON2
  0
LINE
  5
50
330
4D
100
AcDbEntity
  8
LC-001-100-D00-0
 62
     7
370
    15
100
AcDbLine
 10
703.438542
 20
110.373749
 30
0.0
 11
703.451208
 21
110.292868
 31
0.0
  0
LINE
  5
51
330
4D
100
AcDbEntity
  8
LC-001-100-D00-0
 62
     7
370
    15
100
AcDbLine
 10
703.451208
 20
110.292868
 30
0.0
 11
703.46
 21
110.236659
 31
0.0
  0
LINE
  5
52
330
4D
100
AcDbEntity
  8
LC-001-100-D00-0
 62
     7
370
    15
100
AcDbLine
 10
703.46
 20
110.236659
 30
0.0
 11
703.462503
 21
110.220561
 31
0.0
  0
LINE
  5
53
330
4D
100
AcDbEntity
  8
LC-001-100-D00-0
 62
     7
370
    15
100
AcDbLine
 10
703.462503
 20
110.220561
 30
0.0
 11
703.464738
 21
110.206275
 31
0.0
  0
ENDBLK
  5
4F
330
4D
100
AcDbEntity
  8
0
100
AcDbBlockEnd
  0
BLOCK
  5
57
330
56
100
AcDbEntity
  8
0
100
AcDbBlockBegin
  2
KLON3
 70
     0
 71
     0
 10
0.0
 20
0.0
 30
0.0
  3
KLON3
  1

  4
KLON3
  0
LINE
  5
59
330
56
100
AcDbEntity
  8
LC-001-100-D00-0
 62
     7
370
    15
100
AcDbLine
 10
703.438542
 20
121.536441
 30
0.0
 11
703.449122
 21
121.542351
 31
0.0
  0
LINE
  5
5A
330
56
100
AcDbEntity
  8
LC-001-100-D00-0
 62
     7
370
    15
100
AcDbLine
 10
703.449122
 20
121.542351
 30
0.0
 11
703.464738
 21
121.551079
 31
0.0
  0
ENDBLK
  5
58
330
56
100
AcDbEntity
  8
0
100
AcDbBlockEnd
  0
BLOCK
  5
5D
330
5C
100
AcDbEntity
  8
0
100
AcDbBlockBegin
  2
KLON4
 70
     0
 71
     0
 10
0.0
 20
0.0
 30
0.0
  3
KLON4
  1

  4
KLON4
  0
LINE
  5
5F
330
5C
100
AcDbEntity
  8
LC-001-100-D00-0
 62
     7
370
    15
100
AcDbLine
 10
119.490943
 20
121.536441
 30
0.0
 11
119.480363
 21
121.542351
 31
0.0
  0
LINE
  5
60
330
5C
100
AcDbEntity
  8
LC-001-100-D00-0
 62
     7
370
    15
100
AcDbLine
 10
119.480363
 20
121.542351
 30
0.0
 11
119.464747
 21
121.551079
 31
0.0
  0
ENDBLK
  5
5E
330
5C
100
AcDbEntity
  8
0
100
AcDbBlockEnd
  0
BLOCK
  5
64
330
63
100
AcDbEntity
  8
0
100
AcDbBlockBegin
  2
KLON5
 70
     0
 71
     0
 10
0.0
 20
0.0
 30
0.0
  3
KLON5
  1

  4
KLON5
  0
LINE
  5
66
330
63
100
AcDbEntity
  8
LC-001-100-D00-0
 62
     7
370
    15
100
AcDbLine
 10
119.490943
 20
110.373749
 30
0.0
 11
119.478277
 21
110.292868
 31
0.0
  0
LINE
  5
67
330
63
100
AcDbEntity
  8
LC-001-100-D00-0
 62
     7
370
    15
100
AcDbLine
 10
119.478277
 20
110.292868
 30
0.0
 11
119.469485
 21
110.236659
 31
0.0
  0
LINE
  5
68
330
63
100
AcDbEntity
  8
LC-001-100-D00-0
 62
     7
370
    15
100
AcDbLine
 10
119.469485
 20
110.236659
 30
0.0
 11
119.466982
 21
110.220561
 31
0.0
  0
LINE
  5
69
330
63
100
AcDbEntity
  8
LC-001-100-D00-0
 62
     7
370
    15
100
AcDbLine
 10
119.466982
 20
110.220561
 30
0.0
 11
119.464747
 21
110.206275
 31
0.0
  0
ENDBLK
  5
65
330
63
100
AcDbEntity
  8
0
100
AcDbBlockEnd
  0
BLOCK
  5
6E
330
6D
100
AcDbEntity
  8
0
100
AcDbBlockBegin
  2
KLON6
 70
     0
 71
     0
 10
0.0
 20
0.0
 30
0.0
  3
KLON6
  1

  4
KLON6
  0
LINE
  5
70
330
6D
100
AcDbEntity
  8
LC-001-100-D00-0
 62
     7
370
    15
100
AcDbLine
 10
119.490943
 20
74.551081
 30
0.0
 11
119.483522
 21
74.512908
 31
0.0
  0
LINE
  5
71
330
6D
100
AcDbEntity
  8
LC-001-100-D00-0
 62
     7
370
    15
100
AcDbLine
 10
119.483522
 20
74.512908
 30
0.0
 11
119.464747
 21
74.480424
 31
0.0
  0
ENDBLK
  5
6F
330
6D
100
AcDbEntity
  8
0
100
AcDbBlockEnd
  0
BLOCK
  5
81
330
80
100
AcDbEntity
  8
0
100
AcDbBlockBegin
  2
KLON7
 70
     0
 71
     0
 10
0.0
 20
0.0
 30
0.0
  3
KLON7
  1

  4
KLON7
  0
LINE
  5
83
330
80
100
AcDbEntity
  8
LC-001-100-D00-0
 62
     7
370
    15
100
AcDbLine
 10
703.410021
 20
85.717671
 30
0.0
 11
703.426204
 21
85.723756
 31
0.0
  0
LINE
  5
84
330
80
100
AcDbEntity
  8
LC-001-100-D00-0
 62
     7
370
    15
100
AcDbLine
 10
703.426204
 20
85.723756
 30
0.0
 11
703.438542
 21
85.728411
 31
0.0
  0
ENDBLK
  5
82
330
80
100
AcDbEntity
  8
0
100
AcDbBlockEnd
  0
BLOCK
  5
87
330
86
100
AcDbEntity
  8
0
100
AcDbBlockBegin
  2
KLON8
 70
     0
 71
     0
 10
0.0
 20
0.0
 30
0.0
  3
KLON8
  1

  4
KLON8
  0
LINE
  5
89
330
86
100
AcDbEntity
  8
LC-001-100-D00-0
 62
     7
370
    15
100
AcDbLine
 10
119.519464
 20
85.717671
 30
0.0
 11
119.503281
 21
85.723756
 31
0.0
  0
LINE
  5
8A
330
86
100
AcDbEntity
  8
LC-001-100-D00-0
 62
     7
370
    15
100
AcDbLine
 10
119.503281
 20
85.723756
 30
0.0
 11
119.490943
 21
85.728411
 31
0.0
  0
ENDBLK
  5
88
330
86
100
AcDbEntity
  8
0
100
AcDbBlockEnd
  0
BLOCK
  5
8E
330
8D
100
AcDbEntity
  8
0
100
AcDbBlockBegin
  2
KLON9
 70
     0
 71
     0
 10
0.0
 20
0.0
 30
0.0
  3
KLON9
  1

  4
KLON9
  0
LINE
  5
90
330
8D
100
AcDbEntity
  8
LC-001-100-D00-0
 62
     7
370
    15
100
AcDbLine
 10
566.451675
 20
92.191863
 30
0.0
 11
566.463075
 21
92.605337
 31
0.0
  0
LINE
  5
91
330
8D
100
AcDbEntity
  8
LC-001-100-D00-0
 62
     7
370
    15
100
AcDbLine
 10
566.463075
 20
92.605337
 30
0.0
 11
566.474757
 21
93.028595
 31
0.0
  0
LINE
  5
92
330
8D
100
AcDbEntity
  8
LC-001-100-D00-0
 62
     7
370
    15
100
AcDbLine
 10
566.474757
 20
93.028595
 30
0.0
 11
566.486559
 21
93.456774
 31
0.0
  0
ENDBLK
  5
8F
330
8D
100
AcDbEntity
  8
0
100
AcDbBlockEnd
  0
BLOCK
  5
95
330
94
100
AcDbEntity
  8
0
100
AcDbBlockBegin
  2
KLON10
 70
     0
 71
     0
 10
0.0
 20
0.0
 30
0.0
  3
KLON10
  1

  4
KLON10
  0
LINE
  5
97
330
94
100
AcDbEntity
  8
LC-001-100-D00-0
 62
     7
370
    15
100
AcDbLine
 10
566.486559
 20
102.645386
 30
0.0
 11
566.474757
 21
103.073565
 31
0.0
  0
LINE
  5
98
330
94
100
AcDbEntity
  8
LC-001-100-D00-0
 62
     7
370
    15
100
AcDbLine
 10
566.474757
 20
103.073565
 30
0.0
 11
566.463075
 21
103.496823
 31
0.0
  0
LINE
  5
99
330
94
100
AcDbEntity
  8
LC-001-100-D00-0
 62
     7
370
    15
100
AcDbLine
 10
566.463075
 20
103.496823
 30
0.0
 11
566.451675
 21
103.910297
 31
0.0
  0
ENDBLK
  5
96
330
94
100
AcDbEntity
  8
0
100
AcDbBlockEnd
  0
BLOCK
  5
9C
330
9B
100
AcDbEntity
  8
0
100
AcDbBlockBegin
  2
KLON11
 70
     0
 71
     0
 10
0.0
 20
0.0
 30
0.0
  3
KLON11
  1

  4
KLON11
  0
LINE
  5
9E
330
9B
100
AcDbEntity
  8
LC-001-100-D00-0
 62
     7
370
    15
100
AcDbLine
 10
703.410021
 20
110.384489
 30
0.0
 11
703.426204
 21
110.378405
 31
0.0
  0
LINE
  5
9F
330
9B
100
AcDbEntity
  8
LC-001-100-D00-0
 62
     7
370
    15
100
AcDbLine
 10
703.426204
 20
110.378405
 30
0.0
 11
703.438542
 21
110.373749
 31
0.0
  0
ENDBLK
  5
9D
330
9B
100
AcDbEntity
  8
0
100
AcDbBlockEnd
  0
BLOCK
  5
A2
330
A1
100
AcDbEntity
  8
0
100
AcDbBlockBegin
  2
KLON12
 70
     0
 71
     0
 10
0.0
 20
0.0
 30
0.0
  3
KLON12
  1

  4
KLON12
  0
LINE
  5
A4
330
A1
100
AcDbEntity
  8
LC-001-100-D00-0
 62
     7
370
    15
100
AcDbLine
 10
256.477809
 20
92.191863
 30
0.0
 11
256.46641
 21
92.605337
 31
0.0
  0
LINE
  5
A5
330
A1
100
AcDbEntity
  8
LC-001-100-D00-0
 62
     7
370
    15
100
AcDbLine
 10
256.46641
 20
92.605337
 30
0.0
 11
256.454728
 21
93.028595
 31
0.0
  0
LINE
  5
A6
330
A1
100
AcDbEntity
  8
LC-001-100-D00-0
 62
     7
370
    15
100
AcDbLine
 10
256.454728
 20
93.028595
 30
0.0
 11
256.442926
 21
93.456774
 31
0.0
  0
ENDBLK
  5
A3
330
A1
100
AcDbEntity
  8
0
100
AcDbBlockEnd
  0
BLOCK
  5
A9
330
A8
100
AcDbEntity
  8
0
100
AcDbBlockBegin
  2
KLON13
 70
     0
 71
     0
 10
0.0
 20
0.0
 30
0.0
  3
KLON13
  1

  4
KLON13
  0
LINE
  5
AB
330
A8
100
AcDbEntity
  8
LC-001-100-D00-0
 62
     7
370
    15
100
AcDbLine
 10
256.442926
 20
102.645386
 30
0.0
 11
256.454728
 21
103.073565
 31
0.0
  0
LINE
  5
AC
330
A8
100
AcDbEntity
  8
LC-001-100-D00-0
 62
     7
370
    15
100
AcDbLine
 10
256.454728
 20
103.073565
 30
0.0
 11
256.46641
 21
103.496823
 31
0.0
  0
LINE
  5
AD
330
A8
100
AcDbEntity
  8
LC-001-100-D00-0
 62
     7
370
    15
100
AcDbLine
 10
256.46641
 20
103.496823
 30
0.0
 11
256.477809
 21
103.910297
 31
0.0
  0
ENDBLK
  5
AA
330
A8
100
AcDbEntity
  8
0
100
AcDbBlockEnd
  0
BLOCK
  5
B0
330
AF
100
AcDbEntity
  8
0
100
AcDbBlockBegin
  2
KLON14
 70
     0
 71
     0
 10
0.0
 20
0.0
 30
0.0
  3
KLON14
  1

  4
KLON14
  0
LINE
  5
B2
330
AF
100
AcDbEntity
  8
LC-001-100-D00-0
 62
     7
370
    15
100
AcDbLine
 10
119.519464
 20
110.384489
 30
0.0
 11
119.503281
 21
110.378405
 31
0.0
  0
LINE
  5
B3
330
AF
100
AcDbEntity
  8
LC-001-100-D00-0
 62
     7
370
    15
100
AcDbLine
 10
119.503281
 20
110.378405
 30
0.0
 11
119.490943
 21
110.373749
 31
0.0
  0
ENDBLK
  5
B1
330
AF
100
AcDbEntity
  8
0
100
AcDbBlockEnd
  0
BLOCK
  5
F5
330
EB
100
AcDbEntity
  8
0
100
AcDbBlockBegin
  2
*D15
 70
     1
 71
     0
 10
0.0
 20
0.0
 30
0.0
  3
*D15
  1

  0
LINE
  5
EC
330
EB
100
AcDbEntity
  8
LC-001-100-D00-0
 62
     2
370
    -2
100
AcDbLine
 10
756.464742
 20
175.55108
 30
0.0
 11
863.006623
 21
175.55108
 31
0.0
  0
LINE
  5
ED
330
EB
100
AcDbEntity
  8
LC-001-100-D00-0
 62
     2
370
    -2
100
AcDbLine
 10
756.464742
 20
20.55108
 30
0.0
 11
863.006623
 21
20.55108
 31
0.0
  0
LINE
  5
EE
330
EB
100
AcDbEntity
  8
LC-001-100-D00-0
 62
     2
370
    -2
100
AcDbLine
 10
854.006623
 20
130.55108
 30
0.0
 11
854.006623
 21
65.55108
 31
0.0
  0
SOLID
  5
EF
330
EB
100
AcDbEntity
  8
LC-001-100-D00-0
 62
     2
100
AcDbTrace
 10
861.506623
 20
130.55108
 30
0.0
 11
846.506623
 21
130.55108
 31
0.0
 12
854.006623
 22
175.55108
 32
0.0
 13
854.006623
 23
175.55108
 33
0.0
  0
SOLID
  5
F0
330
EB
100
AcDbEntity
  8
LC-001-100-D00-0
 62
     2
100
AcDbTrace
 10
846.506623
 20
65.55108
 30
0.0
 11
861.506623
 21
65.55108
 31
0.0
 12
854.006623
 22
20.55108
 32
0.0
 13
854.006623
 23
20.55108
 33
0.0
  0
MTEXT
  5
F1
330
EB
100
AcDbEntity
  8
LC-001-100-D00-0
 62
     2
100
AcDbMText
 10
804.506623
 20
93.000287
 30
0.0
 40
45.0
 41
0.0
 71
     5
 72
     1
  1
\A1;155
  7
LCTX15-400-0-0pDIN-Schrift
 11
6.123031769111886E-17
 21
1.0
 31
0.0
 73
     1
 44
1.0
  0
POINT
  5
F2
330
EB
100
AcDbEntity
  8
Defpoints
 62
     0
100
AcDbPoint
 10
756.464742
 20
175.55108
 30
0.0
  0
POINT
  5
F3
330
EB
100
AcDbEntity
  8
Defpoints
 62
     0
100
AcDbPoint
 10
756.464742
 20
20.55108
 30
0.0
  0
POINT
  5
F4
330
EB
100
AcDbEntity
  8
Defpoints
 62
     0
100
AcDbPoint
 10
854.006623
 20
20.55108
 30
0.0
  0
ENDBLK
  5
F6
330
EB
100
AcDbEntity
  8
0
100
AcDbBlockEnd
  0
BLOCK
  5
277
330
276
100
AcDbEntity
  8
0
100
AcDbBlockBegin
  2
KLON15
 70
     0
 71
     0
 10
0.0
 20
0.0
 30
0.0
  3
KLON15
  1

  4
KLON15
  0
LINE
  5
279
330
276
100
AcDbEntity
  8
LC-001-100-D00-0
 62
     7
370
    15
100
AcDbLine
 10
694.372431
 20
532.344983
 30
0.0
 11
696.928725
 21
532.438279
 31
0.0
  0
LINE
  5
27A
330
276
100
AcDbEntity
  8
LC-001-100-D00-0
 62
     7
370
    15
100
AcDbLine
 10
696.928725
 20
532.438279
 30
0.0
 11
699.074522
 21
532.516592
 31
0.0
  0
LINE
  5
27B
330
276
100
AcDbEntity
  8
LC-001-100-D00-0
 62
     7
370
    15
100
AcDbLine
 10
699.074522
 20
532.516592
 30
0.0
 11
700.804666
 21
532.579736
 31
0.0
  0
LINE
  5
27C
330
276
100
AcDbEntity
  8
LC-001-100-D00-0
 62
     7
370
    15
100
AcDbLine
 10
700.804666
 20
532.579736
 30
0.0
 11
702.114985
 21
532.627557
 31
0.0
  0
LINE
  5
27D
330
276
100
AcDbEntity
  8
LC-001-100-D00-0
 62
     7
370
    15
100
AcDbLine
 10
702.114985
 20
532.627557
 30
0.0
 11
703.002409
 21
532.659945
 31
0.0
  0
LINE
  5
27E
330
276
100
AcDbEntity
  8
LC-001-100-D00-0
 62
     7
370
    15
100
AcDbLine
 10
703.002409
 20
532.659945
 30
0.0
 11
703.464732
 21
532.676819
 31
0.0
  0
ENDBLK
  5
278
330
276
100
AcDbEntity
  8
0
100
AcDbBlockEnd
  0
BLOCK
  5
281
330
280
100
AcDbEntity
  8
0
100
AcDbBlockBegin
  2
KLON16
 70
     0
 71
     0
 10
0.0
 20
0.0
 30
0.0
  3
KLON16
  1

  4
KLON16
  0
LINE
  5
283
330
280
100
AcDbEntity
  8
LC-001-100-D00-0
 62
     7
370
    15
100
AcDbLine
 10
128.557042
 20
532.344983
 30
0.0
 11
126.000748
 21
532.438279
 31
0.0
  0
LINE
  5
284
330
280
100
AcDbEntity
  8
LC-001-100-D00-0
 62
     7
370
    15
100
AcDbLine
 10
126.000748
 20
532.438279
 30
0.0
 11
123.854951
 21
532.516592
 31
0.0
  0
LINE
  5
285
330
280
100
AcDbEntity
  8
LC-001-100-D00-0
 62
     7
370
    15
100
AcDbLine
 10
123.854951
 20
532.516592
 30
0.0
 11
122.124807
 21
532.579736
 31
0.0
  0
LINE
  5
286
330
280
100
AcDbEntity
  8
LC-001-100-D00-0
 62
     7
370
    15
100
AcDbLine
 10
122.124807
 20
532.579736
 30
0.0
 11
120.814488
 21
532.627557
 31
0.0
  0
LINE
  5
287
330
280
100
AcDbEntity
  8
LC-001-100-D00-0
 62
     7
370
    15
100
AcDbLine
 10
120.814488
 20
532.627557
 30
0.0
 11
119.927064
 21
532.659945
 31
0.0
  0
LINE
  5
288
330
280
100
AcDbEntity
  8
LC-001-100-D00-0
 62
     7
370
    15
100
AcDbLine
 10
119.927064
 20
532.659945
 30
0.0
 11
119.464741
 21
532.676819
 31
0.0
  0
ENDBLK
  5
282
330
280
100
AcDbEntity
  8
0
100
AcDbBlockEnd
  0
BLOCK
  5
295
330
294
100
AcDbEntity
  8
0
100
AcDbBlockBegin
  2
KLON17
 70
     0
 71
     0
 10
0.0
 20
0.0
 30
0.0
  3
KLON17
  1

  4
KLON17
  0
LINE
  5
297
330
294
100
AcDbEntity
  8
LC-001-100-D00-0
 62
     7
370
    15
100
AcDbLine
 10
703.437374
 20
534.176818
 30
0.0
 11
703.436688
 21
534.214799
 31
0.0
  0
LINE
  5
298
330
294
100
AcDbEntity
  8
LC-001-100-D00-0
 62
     7
370
    15
100
AcDbLine
 10
703.436688
 20
534.214799
 30
0.0
 11
703.434632
 21
534.327586
 31
0.0
  0
LINE
  5
299
330
294
100
AcDbEntity
  8
LC-001-100-D00-0
 62
     7
370
    15
100
AcDbLine
 10
703.434632
 20
534.327586
 30
0.0
 11
703.431264
 21
534.511755
 31
0.0
  0
LINE
  5
29A
330
294
100
AcDbEntity
  8
LC-001-100-D00-0
 62
     7
370
    15
100
AcDbLine
 10
703.431264
 20
534.511755
 30
0.0
 11
703.426704
 21
534.761707
 31
0.0
  0
LINE
  5
29B
330
294
100
AcDbEntity
  8
LC-001-100-D00-0
 62
     7
370
    15
100
AcDbLine
 10
703.426704
 20
534.761707
 30
0.0
 11
703.421072
 21
535.06985
 31
0.0
  0
LINE
  5
29C
330
294
100
AcDbEntity
  8
LC-001-100-D00-0
 62
     7
370
    15
100
AcDbLine
 10
703.421072
 20
535.06985
 30
0.0
 11
703.414575
 21
535.426819
 31
0.0
  0
LINE
  5
29D
330
294
100
AcDbEntity
  8
LC-001-100-D00-0
 62
     7
370
    15
100
AcDbLine
 10
703.414575
 20
535.426819
 30
0.0
 11
703.407363
 21
535.821768
 31
0.0
  0
LINE
  5
29E
330
294
100
AcDbEntity
  8
LC-001-100-D00-0
 62
     7
370
    15
100
AcDbLine
 10
703.407363
 20
535.821768
 30
0.0
 11
703.399674
 21
536.242698
 31
0.0
  0
LINE
  5
29F
330
294
100
AcDbEntity
  8
LC-001-100-D00-0
 62
     7
370
    15
100
AcDbLine
 10
703.399674
 20
536.242698
 30
0.0
 11
703.391776
 21
536.676819
 31
0.0
  0
ENDBLK
  5
296
330
294
100
AcDbEntity
  8
0
100
AcDbBlockEnd
  0
BLOCK
  5
2A2
330
2A1
100
AcDbEntity
  8
0
100
AcDbBlockBegin
  2
KLON18
 70
     0
 71
     0
 10
0.0
 20
0.0
 30
0.0
  3
KLON18
  1

  4
KLON18
  0
LINE
  5
2A4
330
2A1
100
AcDbEntity
  8
LC-001-100-D00-0
 62
     7
370
    15
100
AcDbLine
 10
119.492099
 20
534.176818
 30
0.0
 11
119.492785
 21
534.214799
 31
0.0
  0
LINE
  5
2A5
330
2A1
100
AcDbEntity
  8
LC-001-100-D00-0
 62
     7
370
    15
100
AcDbLine
 10
119.492785
 20
534.214799
 30
0.0
 11
119.494841
 21
534.327586
 31
0.0
  0
LINE
  5
2A6
330
2A1
100
AcDbEntity
  8
LC-001-100-D00-0
 62
     7
370
    15
100
AcDbLine
 10
119.494841
 20
534.327586
 30
0.0
 11
119.498209
 21
534.511755
 31
0.0
  0
LINE
  5
2A7
330
2A1
100
AcDbEntity
  8
LC-001-100-D00-0
 62
     7
370
    15
100
AcDbLine
 10
119.498209
 20
534.511755
 30
0.0
 11
119.502768
 21
534.761707
 31
0.0
  0
LINE
  5
2A8
330
2A1
100
AcDbEntity
  8
LC-001-100-D00-0
 62
     7
370
    15
100
AcDbLine
 10
119.502768
 20
534.761707
 30
0.0
 11
119.508401
 21
535.06985
 31
0.0
  0
LINE
  5
2A9
330
2A1
100
AcDbEntity
  8
LC-001-100-D00-0
 62
     7
370
    15
100
AcDbLine
 10
119.508401
 20
535.06985
 30
0.0
 11
119.514898
 21
535.426819
 31
0.0
  0
LINE
  5
2AA
330
2A1
100
AcDbEntity
  8
LC-001-100-D00-0
 62
     7
370
    15
100
AcDbLine
 10
119.514898
 20
535.426819
 30
0.0
 11
119.52211
 21
535.821768
 31
0.0
  0
LINE
  5
2AB
330
2A1
100
AcDbEntity
  8
LC-001-100-D00-0
 62
     7
370
    15
100
AcDbLine
 10
119.52211
 20
535.821768
 30
0.0
 11
119.529799
 21
536.242698
 31
0.0
  0
LINE
  5
2AC
330
2A1
100
AcDbEntity
  8
LC-001-100-D00-0
 62
     7
370
    15
100
AcDbLine
 10
119.529799
 20
536.242698
 30
0.0
 11
119.537697
 21
536.676819
 31
0.0
  0
ENDBLK
  5
2A3
330
2A1
100
AcDbEntity
  8
0
100
AcDbBlockEnd
  0
BLOCK
  5
2FB
330
2F1
100
AcDbEntity
  8
0
100
AcDbBlockBegin
  2
*D20
 70
     1
 71
     0
 10
0.0
 20
0.0
 30
0.0
  3
*D20
  1

  0
LINE
  5
2F2
330
2F1
100
AcDbEntity
  8
LC-001-100-D00-0
 62
     2
370
    -2
100
AcDbLine
 10
761.464736
 20
554.676818
 30
0.0
 11
761.464736
 21
690.870253
 31
0.0
  0
LINE
  5
2F3
330
2F1
100
AcDbEntity
  8
LC-001-100-D00-0
 62
     2
370
    -2
100
AcDbLine
 10
61.464736
 20
554.676818
 30
0.0
 11
61.464736
 21
690.870253
 31
0.0
  0
LINE
  5
2F4
330
2F1
100
AcDbEntity
  8
LC-001-100-D00-0
 62
     2
370
    -2
100
AcDbLine
 10
716.464736
 20
681.870253
 30
0.0
 11
106.464736
 21
681.870253
 31
0.0
  0
SOLID
  5
2F5
330
2F1
100
AcDbEntity
  8
LC-001-100-D00-0
 62
     2
100
AcDbTrace
 10
716.464736
 20
674.370253
 30
0.0
 11
716.464736
 21
689.370253
 31
0.0
 12
761.464736
 22
681.870253
 32
0.0
 13
761.464736
 23
681.870253
 33
0.0
  0
SOLID
  5
2F6
330
2F1
100
AcDbEntity
  8
LC-001-100-D00-0
 62
     2
100
AcDbTrace
 10
106.464736
 20
689.370253
 30
0.0
 11
106.464736
 21
674.370253
 31
0.0
 12
61.464736
 22
681.870253
 32
0.0
 13
61.464736
 23
681.870253
 33
0.0
  0
MTEXT
  5
2F7
330
2F1
100
AcDbEntity
  8
LC-001-100-D00-0
 62
     2
100
AcDbMText
 10
416.246997
 20
731.370253
 30
0.0
 40
45.0
 41
0.0
 71
     5
 72
     1
  1
\A1;700
  7
LCTX15-400-0-0pDIN-Schrift
 73
     1
 44
1.0
  0
POINT
  5
2F8
330
2F1
100
AcDbEntity
  8
Defpoints
 62
     0
100
AcDbPoint
 10
761.464736
 20
554.676818
 30
0.0
  0
POINT
  5
2F9
330
2F1
100
AcDbEntity
  8
Defpoints
 62
     0
100
AcDbPoint
 10
61.464736
 20
554.676818
 30
0.0
  0
POINT
  5
2FA
330
2F1
100
AcDbEntity
  8
Defpoints
 62
     0
100
AcDbPoint
 10
61.464736
 20
681.870253
 30
0.0
  0
ENDBLK
  5
2FC
330
2F1
100
AcDbEntity
  8
0
100
AcDbBlockEnd
  0
BLOCK
  5
308
330
2FE
100
AcDbEntity
  8
0
100
AcDbBlockBegin
  2
*D21
 70
     1
 71
     0
 10
0.0
 20
0.0
 30
0.0
  3
*D21
  1

  0
LINE
  5
2FF
330
2FE
100
AcDbEntity
  8
LC-001-100-D00-0
 62
     2
370
    -2
100
AcDbLine
 10
111.464736
 20
551.676818
 30
0.0
 11
111.464736
 21
603.335528
 31
0.0
  0
LINE
  5
300
330
2FE
100
AcDbEntity
  8
LC-001-100-D00-0
 62
     2
370
    -2
100
AcDbLine
 10
711.464736
 20
551.676818
 30
0.0
 11
711.464736
 21
603.335528
 31
0.0
  0
LINE
  5
301
330
2FE
100
AcDbEntity
  8
LC-001-100-D00-0
 62
     2
370
    -2
100
AcDbLine
 10
156.464736
 20
594.335528
 30
0.0
 11
666.464736
 21
594.335528
 31
0.0
  0
SOLID
  5
302
330
2FE
100
AcDbEntity
  8
LC-001-100-D00-0
 62
     2
100
AcDbTrace
 10
156.464736
 20
601.835528
 30
0.0
 11
156.464736
 21
586.835528
 31
0.0
 12
111.464736
 22
594.335528
 32
0.0
 13
111.464736
 23
594.335528
 33
0.0
  0
SOLID
  5
303
330
2FE
100
AcDbEntity
  8
LC-001-100-D00-0
 62
     2
100
AcDbTrace
 10
666.464736
 20
586.835528
 30
0.0
 11
666.464736
 21
601.835528
 31
0.0
 12
711.464736
 22
594.335528
 32
0.0
 13
711.464736
 23
594.335528
 33
0.0
  0
MTEXT
  5
304
330
2FE
100
AcDbEntity
  8
LC-001-100-D00-0
 62
     2
100
AcDbMText
 10
406.965874
 20
643.835528
 30
0.0
 40
45.0
 41
0.0
 71
     5
 72
     1
  1
\A1;600
  7
LCTX15-400-0-0pDIN-Schrift
 73
     1
 44
1.0
  0
POINT
  5
305
330
2FE
100
AcDbEntity
  8
Defpoints
 62
     0
100
AcDbPoint
 10
111.464736
 20
551.676818
 30
0.0
  0
POINT
  5
306
330
2FE
100
AcDbEntity
  8
Defpoints
 62
     0
100
AcDbPoint
 10
711.464736
 20
551.676818
 30
0.0
  0
POINT
  5
307
330
2FE
100
AcDbEntity
  8
Defpoints
 62
     0
100
AcDbPoint
 10
711.464736
 20
594.335528
 30
0.0
  0
ENDBLK
  5
309
330
2FE
100
AcDbEntity
  8
0
100
AcDbBlockEnd
  0
BLOCK
  5
30C
330
30B
100
AcDbEntity
  8
0
100
AcDbBlockBegin
  2
KLON19
 70
     0
 71
     0
 10
0.0
 20
0.0
 30
0.0
  3
KLON19
  1

  4
KLON19
  0
LINE
  5
30E
330
30B
100
AcDbEntity
  8
LC-001-100-D00-0
 62
     7
370
    50
100
AcDbLine
 10
146.664736
 20
539.118994
 30
0.0
 11
151.214736
 21
543.668994
 31
0.0
  0
LINE
  5
30F
330
30B
100
AcDbEntity
  8
LC-001-100-D00-0
 62
     7
370
    50
100
AcDbLine
 10
156.714736
 20
549.168994
 30
0.0
 11
159.714736
 21
552.168995
 31
0.0
  0
ENDBLK
  5
30D
330
30B
100
AcDbEntity
  8
0
100
AcDbBlockEnd
  0
BLOCK
  5
315
330
314
100
AcDbEntity
  8
0
100
AcDbBlockBegin
  2
KLON20
 70
     0
 71
     0
 10
0.0
 20
0.0
 30
0.0
  3
KLON20
  1

  4
KLON20
  0
LINE
  5
317
330
314
100
AcDbEntity
  8
LC-001-100-D00-0
 62
     7
370
    25
100
AcDbLine
 10
301.714736
 20
537.014517
 30
0.0
 11
306.169953
 21
541.469734
 31
0.0
  0
LINE
  5
318
330
314
100
AcDbEntity
  8
LC-001-100-D00-0
 62
     7
370
    25
100
AcDbLine
 10
293.214736
 20
550.965158
 30
0.0
 11
296.926397
 21
554.676818
 31
0.0
  0
ENDBLK
  5
316
330
314
100
AcDbEntity
  8
0
100
AcDbBlockEnd
  0
BLOCK
  5
31C
330
31B
100
AcDbEntity
  8
0
100
AcDbBlockBegin
  2
KLON21
 70
     0
 71
     0
 10
0.0
 20
0.0
 30
0.0
  3
KLON21
  1

  4
KLON21
  0
LINE
  5
31E
330
31B
100
AcDbEntity
  8
LC-001-100-D00-0
 62
     7
370
    25
100
AcDbLine
 10
686.664736
 20
540.303646
 30
0.0
 11
691.214736
 21
544.853647
 31
0.0
  0
LINE
  5
31F
330
31B
100
AcDbEntity
  8
LC-001-100-D00-0
 62
     7
370
    25
100
AcDbLine
 10
696.714736
 20
550.353647
 30
0.0
 11
699.714736
 21
553.353647
 31
0.0
  0
ENDBLK
  5
31D
330
31B
100
AcDbEntity
  8
0
100
AcDbBlockEnd
  0
BLOCK
  5
325
330
324
100
AcDbEntity
  8
0
100
AcDbBlockBegin
  2
KLON22
 70
     0
 71
     0
 10
0.0
 20
0.0
 30
0.0
  3
KLON22
  1

  4
KLON22
  0
LINE
  5
327
330
324
100
AcDbEntity
  8
LC-001-100-D00-0
 62
     7
370
    25
100
AcDbLine
 10
502.464586
 20
535.708611
 30
0.0
 11
506.264736
 21
539.508762
 31
0.0
  0
LINE
  5
328
330
324
100
AcDbEntity
  8
LC-001-100-D00-0
 62
     7
370
    25
100
AcDbLine
 10
493.214736
 20
548.909402
 30
0.0
 11
498.982152
 21
554.676818
 31
0.0
  0
ENDBLK
  5
326
330
324
100
AcDbEntity
  8
0
100
AcDbBlockEnd
  0
BLOCK
  5
32B
330
32A
100
AcDbEntity
  8
0
100
AcDbBlockBegin
  2
KLON23
 70
     0
 71
     0
 10
0.0
 20
0.0
 30
0.0
  3
KLON23
  1

  4
KLON23
  0
LINE
  5
32D
330
32A
100
AcDbEntity
  8
LC-001-100-D00-0
 62
     7
370
    25
100
AcDbLine
 10
744.439187
 20
553.176818
 30
0.0
 11
745.939187
 21
554.676818
 31
0.0
  0
LINE
  5
32E
330
32A
100
AcDbEntity
  8
LC-001-100-D00-0
 62
     7
370
    25
100
AcDbLine
 10
701.488549
 20
532.676818
 30
0.0
 11
702.988549
 21
534.176818
 31
0.0
  0
LINE
  5
32F
330
32A
100
AcDbEntity
  8
LC-001-100-D00-0
 62
     7
370
    25
100
AcDbLine
 10
711.464736
 20
542.653007
 30
0.0
 11
712.964736
 21
544.153007
 31
0.0
  0
LINE
  5
330
330
32A
100
AcDbEntity
  8
LC-001-100-D00-0
 62
     7
370
    25
100
AcDbLine
 10
721.988547
 20
553.176818
 30
0.0
 11
723.488547
 21
554.676818
 31
0.0
  0
LINE
  5
331
330
32A
100
AcDbEntity
  8
LC-001-100-D00-0
 62
     7
370
    25
100
AcDbLine
 10
679.037909
 20
532.676818
 30
0.0
 11
685.464736
 21
539.103646
 31
0.0
  0
LINE
  5
332
330
32A
100
AcDbEntity
  8
LC-001-100-D00-0
 62
     7
370
    25
100
AcDbLine
 10
656.58727
 20
532.676818
 30
0.0
 11
658.08727
 21
534.176818
 31
0.0
  0
LINE
  5
333
330
32A
100
AcDbEntity
  8
LC-001-100-D00-0
 62
     7
370
    25
100
AcDbLine
 10
634.13663
 20
532.676818
 30
0.0
 11
635.63663
 21
534.176818
 31
0.0
  0
LINE
  5
334
330
32A
100
AcDbEntity
  8
LC-001-100-D00-0
 62
     7
370
    25
100
AcDbLine
 10
611.685991
 20
532.676818
 30
0.0
 11
613.185991
 21
534.176818
 31
0.0
  0
LINE
  5
335
330
32A
100
AcDbEntity
  8
LC-001-100-D00-0
 62
     7
370
    25
100
AcDbLine
 10
589.235351
 20
532.676818
 30
0.0
 11
590.735351
 21
534.176818
 31
0.0
  0
LINE
  5
336
330
32A
100
AcDbEntity
  8
LC-001-100-D00-0
 62
     7
370
    25
100
AcDbLine
 10
566.784712
 20
532.676818
 30
0.0
 11
568.284712
 21
534.176818
 31
0.0
  0
LINE
  5
337
330
32A
100
AcDbEntity
  8
LC-001-100-D00-0
 62
     7
370
    25
100
AcDbLine
 10
544.334072
 20
532.676818
 30
0.0
 11
545.834072
 21
534.176818
 31
0.0
  0
LINE
  5
338
330
32A
100
AcDbEntity
  8
LC-001-100-D00-0
 62
     7
370
    25
100
AcDbLine
 10
521.883433
 20
532.676818
 30
0.0
 11
523.383433
 21
534.176818
 31
0.0
  0
LINE
  5
339
330
32A
100
AcDbEntity
  8
LC-001-100-D00-0
 62
     7
370
    25
100
AcDbLine
 10
497.349305
 20
530.59333
 30
0.0
 11
499.470625
 21
532.71465
 31
0.0
  0
LINE
  5
33A
330
32A
100
AcDbEntity
  8
LC-001-100-D00-0
 62
     7
370
    25
100
AcDbLine
 10
507.464736
 20
540.708762
 30
0.0
 11
515.464736
 21
548.708763
 31
0.0
  0
LINE
  5
33B
330
32A
100
AcDbEntity
  8
LC-001-100-D00-0
 62
     7
370
    25
100
AcDbLine
 10
466.982155
 20
522.676818
 30
0.0
 11
468.264736
 21
523.9594
 31
0.0
  0
LINE
  5
33C
330
32A
100
AcDbEntity
  8
LC-001-100-D00-0
 62
     7
370
    25
100
AcDbLine
 10
471.982154
 20
527.676818
 30
0.0
 11
473.482154
 21
529.176818
 31
0.0
  0
ENDBLK
  5
32C
330
32A
100
AcDbEntity
  8
0
100
AcDbBlockEnd
  0
BLOCK
  5
36F
330
36E
100
AcDbEntity
  8
0
100
AcDbBlockBegin
  2
POLY1
 70
     0
 71
     0
 10
0.0
 20
0.0
 30
0.0
  3
POLY1
  1

  4
POLY1
  0
LINE
  5
371
330
36E
100
AcDbEntity
  8
LC-001-100-D00-0
 62
     7
370
    50
100
AcDbLine
 10
-67.259357
 20
530.052011
 30
0.0
 11
-67.259357
 21
530.052011
 31
0.0
  0
LINE
  5
372
330
36E
100
AcDbEntity
  8
LC-001-100-D00-0
 62
     7
370
    50
100
AcDbLine
 10
-67.259357
 20
530.052011
 30
0.0
 11
-67.284463
 21
530.019614
 31
0.0
  0
LINE
  5
373
330
36E
100
AcDbEntity
  8
LC-001-100-D00-0
 62
     7
370
    50
100
AcDbLine
 10
-67.284463
 20
530.019614
 30
0.0
 11
-67.284463
 21
530.019614
 31
0.0
  0
LINE
  5
374
330
36E
100
AcDbEntity
  8
LC-001-100-D00-0
 62
     7
370
    50
100
AcDbLine
 10
-67.284463
 20
530.019614
 30
0.0
 11
-67.334877
 21
529.95456
 31
0.0
  0
LINE
  5
375
330
36E
100
AcDbEntity
  8
LC-001-100-D00-0
 62
     7
370
    50
100
AcDbLine
 10
-67.334877
 20
529.95456
 30
0.0
 11
-67.334877
 21
529.95456
 31
0.0
  0
LINE
  5
376
330
36E
100
AcDbEntity
  8
LC-001-100-D00-0
 62
     7
370
    50
100
AcDbLine
 10
-67.334877
 20
529.95456
 30
0.0
 11
-67.734566
 21
529.597976
 31
0.0
  0
LINE
  5
377
330
36E
100
AcDbEntity
  8
LC-001-100-D00-0
 62
     7
370
    50
100
AcDbLine
 10
-67.734566
 20
529.597976
 30
0.0
 11
-67.734566
 21
529.597976
 31
0.0
  0
LINE
  5
378
330
36E
100
AcDbEntity
  8
LC-001-100-D00-0
 62
     7
370
    50
100
AcDbLine
 10
-67.734566
 20
529.597976
 30
0.0
 11
-68.314252
 21
529.271205
 31
0.0
  0
LINE
  5
379
330
36E
100
AcDbEntity
  8
LC-001-100-D00-0
 62
     7
370
    50
100
AcDbLine
 10
-68.314252
 20
529.271205
 30
0.0
 11
-68.314252
 21
529.271205
 31
0.0
  0
LINE
  5
37A
330
36E
100
AcDbEntity
  8
LC-001-100-D00-0
 62
     7
370
    50
100
AcDbLine
 10
-68.314252
 20
529.271205
 30
0.0
 11
-68.877068
 21
529.208347
 31
0.0
  0
LINE
  5
37B
330
36E
100
AcDbEntity
  8
LC-001-100-D00-0
 62
     7
370
    50
100
AcDbLine
 10
-68.877068
 20
529.208347
 30
0.0
 11
-68.877068
 21
529.208347
 31
0.0
  0
LINE
  5
37C
330
36E
100
AcDbEntity
  8
LC-001-100-D00-0
 62
     7
370
    50
100
AcDbLine
 10
-68.877068
 20
529.208347
 30
0.0
 11
-69.159358
 21
529.176819
 31
0.0
  0
ENDBLK
  5
370
330
36E
100
AcDbEntity
  8
0
100
AcDbBlockEnd
  0
BLOCK
  5
37F
330
37E
100
AcDbEntity
  8
0
100
AcDbBlockBegin
  2
POLY2
 70
     0
 71
     0
 10
0.0
 20
0.0
 30
0.0
  3
POLY2
  1

  4
POLY2
  0
LINE
  5
381
330
37E
100
AcDbEntity
  8
LC-001-100-D00-0
 62
     7
370
    50
100
AcDbLine
 10
-116.159356
 20
529.176819
 30
0.0
 11
-116.159356
 21
529.176819
 31
0.0
  0
LINE
  5
382
330
37E
100
AcDbEntity
  8
LC-001-100-D00-0
 62
     7
370
    50
100
AcDbLine
 10
-116.159356
 20
529.176819
 30
0.0
 11
-116.470855
 21
529.215619
 31
0.0
  0
LINE
  5
383
330
37E
100
AcDbEntity
  8
LC-001-100-D00-0
 62
     7
370
    50
100
AcDbLine
 10
-116.470855
 20
529.215619
 30
0.0
 11
-116.470855
 21
529.215619
 31
0.0
  0
LINE
  5
384
330
37E
100
AcDbEntity
  8
LC-001-100-D00-0
 62
     7
370
    50
100
AcDbLine
 10
-116.470855
 20
529.215619
 30
0.0
 11
-117.096829
 21
529.293589
 31
0.0
  0
LINE
  5
385
330
37E
100
AcDbEntity
  8
LC-001-100-D00-0
 62
     7
370
    50
100
AcDbLine
 10
-117.096829
 20
529.293589
 30
0.0
 11
-117.096829
 21
529.293589
 31
0.0
  0
LINE
  5
386
330
37E
100
AcDbEntity
  8
LC-001-100-D00-0
 62
     7
370
    50
100
AcDbLine
 10
-117.096829
 20
529.293589
 30
0.0
 11
-117.652182
 21
529.651434
 31
0.0
  0
LINE
  5
387
330
37E
100
AcDbEntity
  8
LC-001-100-D00-0
 62
     7
370
    50
100
AcDbLine
 10
-117.652182
 20
529.651434
 30
0.0
 11
-117.652182
 21
529.651434
 31
0.0
  0
LINE
  5
388
330
37E
100
AcDbEntity
  8
LC-001-100-D00-0
 62
     7
370
    50
100
AcDbLine
 10
-117.652182
 20
529.651434
 30
0.0
 11
-117.998323
 21
529.973884
 31
0.0
  0
LINE
  5
389
330
37E
100
AcDbEntity
  8
LC-001-100-D00-0
 62
     7
370
    50
100
AcDbLine
 10
-117.998323
 20
529.973884
 30
0.0
 11
-117.998323
 21
529.973884
 31
0.0
  0
LINE
  5
38A
330
37E
100
AcDbEntity
  8
LC-001-100-D00-0
 62
     7
370
    50
100
AcDbLine
 10
-117.998323
 20
529.973884
 30
0.0
 11
-118.038973
 21
530.025919
 31
0.0
  0
LINE
  5
38B
330
37E
100
AcDbEntity
  8
LC-001-100-D00-0
 62
     7
370
    50
100
AcDbLine
 10
-118.038973
 20
530.025919
 30
0.0
 11
-118.038973
 21
530.025919
 31
0.0
  0
LINE
  5
38C
330
37E
100
AcDbEntity
  8
LC-001-100-D00-0
 62
     7
370
    50
100
AcDbLine
 10
-118.038973
 20
530.025919
 30
0.0
 11
-118.059357
 21
530.052011
 31
0.0
  0
ENDBLK
  5
380
330
37E
100
AcDbEntity
  8
0
100
AcDbBlockEnd
  0
BLOCK
  5
393
330
392
100
AcDbEntity
  8
0
100
AcDbBlockBegin
  2
POLY3
 70
     0
 71
     0
 10
0.0
 20
0.0
 30
0.0
  3
POLY3
  1

  4
POLY3
  0
LINE
  5
395
330
392
100
AcDbEntity
  8
LC-001-100-D00-0
 62
     7
370
    50
100
AcDbLine
 10
-70.119395
 20
519.18488
 30
0.0
 11
-70.119395
 21
519.18488
 31
0.0
  0
LINE
  5
396
330
392
100
AcDbEntity
  8
LC-001-100-D00-0
 62
     7
370
    50
100
AcDbLine
 10
-70.119395
 20
519.18488
 30
0.0
 11
-69.924928
 21
519.227311
 31
0.0
  0
LINE
  5
397
330
392
100
AcDbEntity
  8
LC-001-100-D00-0
 62
     7
370
    50
100
AcDbLine
 10
-69.924928
 20
519.227311
 30
0.0
 11
-69.924928
 21
519.227311
 31
0.0
  0
LINE
  5
398
330
392
100
AcDbEntity
  8
LC-001-100-D00-0
 62
     7
370
    50
100
AcDbLine
 10
-69.924928
 20
519.227311
 30
0.0
 11
-69.535961
 21
519.312179
 31
0.0
  0
LINE
  5
399
330
392
100
AcDbEntity
  8
LC-001-100-D00-0
 62
     7
370
    50
100
AcDbLine
 10
-69.535961
 20
519.312179
 30
0.0
 11
-69.535961
 21
519.312179
 31
0.0
  0
LINE
  5
39A
330
392
100
AcDbEntity
  8
LC-001-100-D00-0
 62
     7
370
    50
100
AcDbLine
 10
-69.535961
 20
519.312179
 30
0.0
 11
-69.040596
 21
519.712807
 31
0.0
  0
LINE
  5
39B
330
392
100
AcDbEntity
  8
LC-001-100-D00-0
 62
     7
370
    50
100
AcDbLine
 10
-69.040596
 20
519.712807
 30
0.0
 11
-69.040596
 21
519.712807
 31
0.0
  0
LINE
  5
39C
330
392
100
AcDbEntity
  8
LC-001-100-D00-0
 62
     7
370
    50
100
AcDbLine
 10
-69.040596
 20
519.712807
 30
0.0
 11
-68.687369
 21
520.262962
 31
0.0
  0
LINE
  5
39D
330
392
100
AcDbEntity
  8
LC-001-100-D00-0
 62
     7
370
    50
100
AcDbLine
 10
-68.687369
 20
520.262962
 30
0.0
 11
-68.687369
 21
520.262962
 31
0.0
  0
LINE
  5
39E
330
392
100
AcDbEntity
  8
LC-001-100-D00-0
 62
     7
370
    50
100
AcDbLine
 10
-68.687369
 20
520.262962
 30
0.0
 11
-68.544756
 21
520.784846
 31
0.0
  0
LINE
  5
39F
330
392
100
AcDbEntity
  8
LC-001-100-D00-0
 62
     7
370
    50
100
AcDbLine
 10
-68.544756
 20
520.784846
 30
0.0
 11
-68.544756
 21
520.784846
 31
0.0
  0
LINE
  5
3A0
330
392
100
AcDbEntity
  8
LC-001-100-D00-0
 62
     7
370
    50
100
AcDbLine
 10
-68.544756
 20
520.784846
 30
0.0
 11
-68.534384
 21
521.092785
 31
0.0
  0
LINE
  5
3A1
330
392
100
AcDbEntity
  8
LC-001-100-D00-0
 62
     7
370
    50
100
AcDbLine
 10
-68.534384
 20
521.092785
 30
0.0
 11
-68.534384
 21
521.092785
 31
0.0
  0
LINE
  5
3A2
330
392
100
AcDbEntity
  8
LC-001-100-D00-0
 62
     7
370
    50
100
AcDbLine
 10
-68.534384
 20
521.092785
 30
0.0
 11
-68.531553
 21
521.176819
 31
0.0
  0
ENDBLK
  5
394
330
392
100
AcDbEntity
  8
0
100
AcDbBlockEnd
  0
BLOCK
  5
3A5
330
3A4
100
AcDbEntity
  8
0
100
AcDbBlockBegin
  2
POLY4
 70
     0
 71
     0
 10
0.0
 20
0.0
 30
0.0
  3
POLY4
  1

  4
POLY4
  0
LINE
  5
3A7
330
3A4
100
AcDbEntity
  8
LC-001-100-D00-0
 62
     7
370
    50
100
AcDbLine
 10
-116.787161
 20
521.176819
 30
0.0
 11
-116.787161
 21
521.176819
 31
0.0
  0
LINE
  5
3A8
330
3A4
100
AcDbEntity
  8
LC-001-100-D00-0
 62
     7
370
    50
100
AcDbLine
 10
-116.787161
 20
521.176819
 30
0.0
 11
-116.768069
 21
520.953072
 31
0.0
  0
LINE
  5
3A9
330
3A4
100
AcDbEntity
  8
LC-001-100-D00-0
 62
     7
370
    50
100
AcDbLine
 10
-116.768069
 20
520.953072
 30
0.0
 11
-116.768069
 21
520.953072
 31
0.0
  0
LINE
  5
3AA
330
3A4
100
AcDbEntity
  8
LC-001-100-D00-0
 62
     7
370
    50
100
AcDbLine
 10
-116.768069
 20
520.953072
 30
0.0
 11
-116.729888
 21
520.5056
 31
0.0
  0
LINE
  5
3AB
330
3A4
100
AcDbEntity
  8
LC-001-100-D00-0
 62
     7
370
    50
100
AcDbLine
 10
-116.729888
 20
520.5056
 30
0.0
 11
-116.729888
 21
520.5056
 31
0.0
  0
LINE
  5
3AC
330
3A4
100
AcDbEntity
  8
LC-001-100-D00-0
 62
     7
370
    50
100
AcDbLine
 10
-116.729888
 20
520.5056
 30
0.0
 11
-116.432367
 21
519.909045
 31
0.0
  0
LINE
  5
3AD
330
3A4
100
AcDbEntity
  8
LC-001-100-D00-0
 62
     7
370
    50
100
AcDbLine
 10
-116.432367
 20
519.909045
 30
0.0
 11
-116.432367
 21
519.909045
 31
0.0
  0
LINE
  5
3AE
330
3A4
100
AcDbEntity
  8
LC-001-100-D00-0
 62
     7
370
    50
100
AcDbLine
 10
-116.432367
 20
519.909045
 30
0.0
 11
-115.993921
 21
519.456026
 31
0.0
  0
LINE
  5
3AF
330
3A4
100
AcDbEntity
  8
LC-001-100-D00-0
 62
     7
370
    50
100
AcDbLine
 10
-115.993921
 20
519.456026
 30
0.0
 11
-115.993921
 21
519.456026
 31
0.0
  0
LINE
  5
3B0
330
3A4
100
AcDbEntity
  8
LC-001-100-D00-0
 62
     7
370
    50
100
AcDbLine
 10
-115.993921
 20
519.456026
 30
0.0
 11
-115.551986
 21
519.238516
 31
0.0
  0
LINE
  5
3B1
330
3A4
100
AcDbEntity
  8
LC-001-100-D00-0
 62
     7
370
    50
100
AcDbLine
 10
-115.551986
 20
519.238516
 30
0.0
 11
-115.551986
 21
519.238516
 31
0.0
  0
LINE
  5
3B2
330
3A4
100
AcDbEntity
  8
LC-001-100-D00-0
 62
     7
370
    50
100
AcDbLine
 10
-115.551986
 20
519.238516
 30
0.0
 11
-115.279083
 21
519.197011
 31
0.0
  0
LINE
  5
3B3
330
3A4
100
AcDbEntity
  8
LC-001-100-D00-0
 62
     7
370
    50
100
AcDbLine
 10
-115.279083
 20
519.197011
 30
0.0
 11
-115.279083
 21
519.197011
 31
0.0
  0
LINE
  5
3B4
330
3A4
100
AcDbEntity
  8
LC-001-100-D00-0
 62
     7
370
    50
100
AcDbLine
 10
-115.279083
 20
519.197011
 30
0.0
 11
-115.199319
 21
519.18488
 31
0.0
  0
ENDBLK
  5
3A6
330
3A4
100
AcDbEntity
  8
0
100
AcDbBlockEnd
  0
BLOCK
  5
3C0
330
3BF
100
AcDbEntity
  8
0
100
AcDbBlockBegin
  2
POLY5
 70
     0
 71
     0
 10
0.0
 20
0.0
 30
0.0
  3
POLY5
  1

  4
POLY5
  0
LINE
  5
3C2
330
3BF
100
AcDbEntity
  8
LC-001-100-D00-0
 62
     7
370
    50
100
AcDbLine
 10
-116.159356
 20
534.176863
 30
0.0
 11
-116.159356
 21
534.176863
 31
0.0
  0
LINE
  5
3C3
330
3BF
100
AcDbEntity
  8
LC-001-100-D00-0
 62
     7
370
    50
100
AcDbLine
 10
-116.159356
 20
534.176863
 30
0.0
 11
-116.172463
 21
534.176915
 31
0.0
  0
LINE
  5
3C4
330
3BF
100
AcDbEntity
  8
LC-001-100-D00-0
 62
     7
370
    50
100
AcDbLine
 10
-116.172463
 20
534.176915
 30
0.0
 11
-116.172463
 21
534.176915
 31
0.0
  0
LINE
  5
3C5
330
3BF
100
AcDbEntity
  8
LC-001-100-D00-0
 62
     7
370
    50
100
AcDbLine
 10
-116.172463
 20
534.176915
 30
0.0
 11
-116.198218
 21
534.177019
 31
0.0
  0
LINE
  5
3C6
330
3BF
100
AcDbEntity
  8
LC-001-100-D00-0
 62
     7
370
    50
100
AcDbLine
 10
-116.198218
 20
534.177019
 30
0.0
 11
-116.198218
 21
534.177019
 31
0.0
  0
LINE
  5
3C7
330
3BF
100
AcDbEntity
  8
LC-001-100-D00-0
 62
     7
370
    50
100
AcDbLine
 10
-116.198218
 20
534.177019
 30
0.0
 11
-116.219542
 21
534.177555
 31
0.0
  0
LINE
  5
3C8
330
3BF
100
AcDbEntity
  8
LC-001-100-D00-0
 62
     7
370
    50
100
AcDbLine
 10
-116.219542
 20
534.177555
 30
0.0
 11
-116.219542
 21
534.177555
 31
0.0
  0
LINE
  5
3C9
330
3BF
100
AcDbEntity
  8
LC-001-100-D00-0
 62
     7
370
    50
100
AcDbLine
 10
-116.219542
 20
534.177555
 30
0.0
 11
-116.230014
 21
534.177818
 31
0.0
  0
ENDBLK
  5
3C1
330
3BF
100
AcDbEntity
  8
0
100
AcDbBlockEnd
  0
BLOCK
  5
43C
330
43B
100
AcDbEntity
  8
0
100
AcDbBlockBegin
  2
POLY6
 70
     0
 71
     0
 10
0.0
 20
0.0
 30
0.0
  3
POLY6
  1

  4
POLY6
  0
LINE
  5
43E
330
43B
100
AcDbEntity
  8
LC-001-100-D00-0
 62
     7
370
    50
100
AcDbLine
 10
-117.604747
 20
528.096656
 30
0.0
 11
-117.604747
 21
528.096656
 31
0.0
  0
LINE
  5
43F
330
43B
100
AcDbEntity
  8
LC-001-100-D00-0
 62
     7
370
    50
100
AcDbLine
 10
-117.604747
 20
528.096656
 30
0.0
 11
-117.334386
 21
527.977325
 31
0.0
  0
LINE
  5
440
330
43B
100
AcDbEntity
  8
LC-001-100-D00-0
 62
     7
370
    50
100
AcDbLine
 10
-117.334386
 20
527.977325
 30
0.0
 11
-117.334386
 21
527.977325
 31
0.0
  0
LINE
  5
441
330
43B
100
AcDbEntity
  8
LC-001-100-D00-0
 62
     7
370
    50
100
AcDbLine
 10
-117.334386
 20
527.977325
 30
0.0
 11
-116.792344
 21
527.738081
 31
0.0
  0
LINE
  5
442
330
43B
100
AcDbEntity
  8
LC-001-100-D00-0
 62
     7
370
    50
100
AcDbLine
 10
-116.792344
 20
527.738081
 30
0.0
 11
-116.792344
 21
527.738081
 31
0.0
  0
LINE
  5
443
330
43B
100
AcDbEntity
  8
LC-001-100-D00-0
 62
     7
370
    50
100
AcDbLine
 10
-116.792344
 20
527.738081
 30
0.0
 11
-116.172639
 21
527.677239
 31
0.0
  0
LINE
  5
444
330
43B
100
AcDbEntity
  8
LC-001-100-D00-0
 62
     7
370
    50
100
AcDbLine
 10
-116.172639
 20
527.677239
 30
0.0
 11
-116.172639
 21
527.677239
 31
0.0
  0
LINE
  5
445
330
43B
100
AcDbEntity
  8
LC-001-100-D00-0
 62
     7
370
    50
100
AcDbLine
 10
-116.172639
 20
527.677239
 30
0.0
 11
-115.864343
 21
527.676826
 31
0.0
  0
LINE
  5
446
330
43B
100
AcDbEntity
  8
LC-001-100-D00-0
 62
     7
370
    50
100
AcDbLine
 10
-115.864343
 20
527.676826
 30
0.0
 11
-115.864343
 21
527.676826
 31
0.0
  0
LINE
  5
447
330
43B
100
AcDbEntity
  8
LC-001-100-D00-0
 62
     7
370
    50
100
AcDbLine
 10
-115.864343
 20
527.676826
 30
0.0
 11
-115.859357
 21
527.67682
 31
0.0
  0
ENDBLK
  5
43D
330
43B
100
AcDbEntity
  8
0
100
AcDbBlockEnd
  0
BLOCK
  5
45D
330
45C
100
AcDbEntity
  8
0
100
AcDbBlockBegin
  2
KLON24
 70
     0
 71
     0
 10
0.0
 20
0.0
 30
0.0
  3
KLON24
  1

  4
KLON24
  0
LINE
  5
45F
330
45C
100
AcDbEntity
  8
LC-001-100-D00-0
 62
     7
370
    15
100
AcDbLine
 10
-195.659357
 20
486.725979
 30
0.0
 11
-198.613326
 21
487.519103
 31
0.0
  0
LINE
  5
460
330
45C
100
AcDbEntity
  8
LC-001-100-D00-0
 62
     7
370
    15
100
AcDbLine
 10
-198.613326
 20
487.519103
 30
0.0
 11
-198.659356
 21
487.531463
 31
0.0
  0
ENDBLK
  5
45E
330
45C
100
AcDbEntity
  8
0
100
AcDbBlockEnd
  0
BLOCK
  5
468
330
467
100
AcDbEntity
  8
0
100
AcDbBlockBegin
  2
POLY7
 70
     0
 71
     0
 10
0.0
 20
0.0
 30
0.0
  3
POLY7
  1

  4
POLY7
  0
LINE
  5
46A
330
467
100
AcDbEntity
  8
LC-001-100-D00-0
 62
     7
370
    50
100
AcDbLine
 10
-123.775373
 20
489.844859
 30
0.0
 11
-123.775373
 21
489.844859
 31
0.0
  0
LINE
  5
46B
330
467
100
AcDbEntity
  8
LC-001-100-D00-0
 62
     7
370
    50
100
AcDbLine
 10
-123.775373
 20
489.844859
 30
0.0
 11
-124.096435
 21
489.880167
 31
0.0
  0
LINE
  5
46C
330
467
100
AcDbEntity
  8
LC-001-100-D00-0
 62
     7
370
    50
100
AcDbLine
 10
-124.096435
 20
489.880167
 30
0.0
 11
-124.096435
 21
489.880167
 31
0.0
  0
LINE
  5
46D
330
467
100
AcDbEntity
  8
LC-001-100-D00-0
 62
     7
370
    50
100
AcDbLine
 10
-124.096435
 20
489.880167
 30
0.0
 11
-125.124465
 21
489.993221
 31
0.0
  0
LINE
  5
46E
330
467
100
AcDbEntity
  8
LC-001-100-D00-0
 62
     7
370
    50
100
AcDbLine
 10
-125.124465
 20
489.993221
 30
0.0
 11
-125.124465
 21
489.993221
 31
0.0
  0
LINE
  5
46F
330
467
100
AcDbEntity
  8
LC-001-100-D00-0
 62
     7
370
    50
100
AcDbLine
 10
-125.124465
 20
489.993221
 30
0.0
 11
-126.585998
 21
490.785719
 31
0.0
  0
LINE
  5
470
330
467
100
AcDbEntity
  8
LC-001-100-D00-0
 62
     7
370
    50
100
AcDbLine
 10
-126.585998
 20
490.785719
 30
0.0
 11
-126.585998
 21
490.785719
 31
0.0
  0
LINE
  5
471
330
467
100
AcDbEntity
  8
LC-001-100-D00-0
 62
     7
370
    50
100
AcDbLine
 10
-126.585998
 20
490.785719
 30
0.0
 11
-128.054527
 21
492.084891
 31
0.0
  0
LINE
  5
472
330
467
100
AcDbEntity
  8
LC-001-100-D00-0
 62
     7
370
    50
100
AcDbLine
 10
-128.054527
 20
492.084891
 30
0.0
 11
-128.054527
 21
492.084891
 31
0.0
  0
LINE
  5
473
330
467
100
AcDbEntity
  8
LC-001-100-D00-0
 62
     7
370
    50
100
AcDbLine
 10
-128.054527
 20
492.084891
 30
0.0
 11
-128.98281
 21
493.53243
 31
0.0
  0
LINE
  5
474
330
467
100
AcDbEntity
  8
LC-001-100-D00-0
 62
     7
370
    50
100
AcDbLine
 10
-128.98281
 20
493.53243
 30
0.0
 11
-128.98281
 21
493.53243
 31
0.0
  0
LINE
  5
475
330
467
100
AcDbEntity
  8
LC-001-100-D00-0
 62
     7
370
    50
100
AcDbLine
 10
-128.98281
 20
493.53243
 30
0.0
 11
-129.548976
 21
495.090297
 31
0.0
  0
LINE
  5
476
330
467
100
AcDbEntity
  8
LC-001-100-D00-0
 62
     7
370
    50
100
AcDbLine
 10
-129.548976
 20
495.090297
 30
0.0
 11
-129.548976
 21
495.090297
 31
0.0
  0
LINE
  5
477
330
467
100
AcDbEntity
  8
LC-001-100-D00-0
 62
     7
370
    50
100
AcDbLine
 10
-129.548976
 20
495.090297
 30
0.0
 11
-129.622263
 21
496.143658
 31
0.0
  0
LINE
  5
478
330
467
100
AcDbEntity
  8
LC-001-100-D00-0
 62
     7
370
    50
100
AcDbLine
 10
-129.622263
 20
496.143658
 30
0.0
 11
-129.622263
 21
496.143658
 31
0.0
  0
LINE
  5
479
330
467
100
AcDbEntity
  8
LC-001-100-D00-0
 62
     7
370
    50
100
AcDbLine
 10
-129.622263
 20
496.143658
 30
0.0
 11
-129.659358
 21
496.676819
 31
0.0
  0
ENDBLK
  5
469
330
467
100
AcDbEntity
  8
0
100
AcDbBlockEnd
  0
BLOCK
  5
47E
330
47D
100
AcDbEntity
  8
0
100
AcDbBlockBegin
  2
KLON25
 70
     0
 71
     0
 10
0.0
 20
0.0
 30
0.0
  3
KLON25
  1

  4
KLON25
  0
LINE
  5
480
330
47D
100
AcDbEntity
  8
LC-001-100-D00-0
 62
     7
370
    15
100
AcDbLine
 10
-198.659356
 20
535.822174
 30
0.0
 11
-198.613326
 21
535.834535
 31
0.0
  0
LINE
  5
481
330
47D
100
AcDbEntity
  8
LC-001-100-D00-0
 62
     7
370
    15
100
AcDbLine
 10
-198.613326
 20
535.834535
 30
0.0
 11
-195.659357
 21
536.627658
 31
0.0
  0
ENDBLK
  5
47F
330
47D
100
AcDbEntity
  8
0
100
AcDbBlockEnd
  0
BLOCK
  5
48C
330
48B
100
AcDbEntity
  8
0
100
AcDbBlockBegin
  2
POLY8
 70
     0
 71
     0
 10
0.0
 20
0.0
 30
0.0
  3
POLY8
  1

  4
POLY8
  0
LINE
  5
48E
330
48B
100
AcDbEntity
  8
LC-001-100-D00-0
 62
     7
370
    50
100
AcDbLine
 10
-148.366432
 20
536.627658
 30
0.0
 11
-148.366432
 21
536.627658
 31
0.0
  0
LINE
  5
48F
330
48B
100
AcDbEntity
  8
LC-001-100-D00-0
 62
     7
370
    50
100
AcDbLine
 10
-148.366432
 20
536.627658
 30
0.0
 11
-148.029858
 21
536.593649
 31
0.0
  0
LINE
  5
490
330
48B
100
AcDbEntity
  8
LC-001-100-D00-0
 62
     7
370
    50
100
AcDbLine
 10
-148.029858
 20
536.593649
 30
0.0
 11
-148.029858
 21
536.593649
 31
0.0
  0
LINE
  5
491
330
48B
100
AcDbEntity
  8
LC-001-100-D00-0
 62
     7
370
    50
100
AcDbLine
 10
-148.029858
 20
536.593649
 30
0.0
 11
-147.356737
 21
536.525633
 31
0.0
  0
LINE
  5
492
330
48B
100
AcDbEntity
  8
LC-001-100-D00-0
 62
     7
370
    50
100
AcDbLine
 10
-147.356737
 20
536.525633
 30
0.0
 11
-147.356737
 21
536.525633
 31
0.0
  0
LINE
  5
493
330
48B
100
AcDbEntity
  8
LC-001-100-D00-0
 62
     7
370
    50
100
AcDbLine
 10
-147.356737
 20
536.525633
 30
0.0
 11
-146.407334
 21
536.000314
 31
0.0
  0
LINE
  5
494
330
48B
100
AcDbEntity
  8
LC-001-100-D00-0
 62
     7
370
    50
100
AcDbLine
 10
-146.407334
 20
536.000314
 30
0.0
 11
-146.407334
 21
536.000314
 31
0.0
  0
LINE
  5
495
330
48B
100
AcDbEntity
  8
LC-001-100-D00-0
 62
     7
370
    50
100
AcDbLine
 10
-146.407334
 20
536.000314
 30
0.0
 11
-145.983819
 21
535.424036
 31
0.0
  0
LINE
  5
496
330
48B
100
AcDbEntity
  8
LC-001-100-D00-0
 62
     7
370
    50
100
AcDbLine
 10
-145.983819
 20
535.424036
 30
0.0
 11
-145.983819
 21
535.424036
 31
0.0
  0
LINE
  5
497
330
48B
100
AcDbEntity
  8
LC-001-100-D00-0
 62
     7
370
    50
100
AcDbLine
 10
-145.983819
 20
535.424036
 30
0.0
 11
-145.761068
 21
535.120939
 31
0.0
  0
ENDBLK
  5
48D
330
48B
100
AcDbEntity
  8
0
100
AcDbBlockEnd
  0
BLOCK
  5
4B9
330
4B8
100
AcDbEntity
  8
0
100
AcDbBlockBegin
  2
KLON26
 70
     0
 71
     0
 10
0.0
 20
0.0
 30
0.0
  3
KLON26
  1

  4
KLON26
  0
LINE
  5
4BB
330
4B8
100
AcDbEntity
  8
LC-001-100-D00-0
 62
     7
370
    25
100
AcDbLine
 10
-142.701508
 20
523.821623
 30
0.0
 11
-140.505356
 21
526.017776
 31
0.0
  0
LINE
  5
4BC
330
4B8
100
AcDbEntity
  8
LC-001-100-D00-0
 62
     7
370
    25
100
AcDbLine
 10
-155.352832
 20
533.620939
 30
0.0
 11
-152.346113
 21
536.627659
 31
0.0
  0
LINE
  5
4BD
330
4B8
100
AcDbEntity
  8
LC-001-100-D00-0
 62
     7
370
    25
100
AcDbLine
 10
-177.803473
 20
533.620939
 30
0.0
 11
-174.796753
 21
536.627659
 31
0.0
  0
LINE
  5
4BE
330
4B8
100
AcDbEntity
  8
LC-001-100-D00-0
 62
     7
370
    25
100
AcDbLine
 10
-198.659357
 20
535.215695
 30
0.0
 11
-197.830273
 21
536.044779
 31
0.0
  0
ENDBLK
  5
4BA
330
4B8
100
AcDbEntity
  8
0
100
AcDbBlockEnd
  0
BLOCK
  5
4C1
330
4C0
100
AcDbEntity
  8
0
100
AcDbBlockBegin
  2
KLON27
 70
     0
 71
     0
 10
0.0
 20
0.0
 30
0.0
  3
KLON27
  1

  4
KLON27
  0
LINE
  5
4C3
330
4C0
100
AcDbEntity
  8
LC-001-100-D00-0
 62
     7
370
    25
100
AcDbLine
 10
-67.593111
 20
486.676819
 30
0.0
 11
-64.593111
 21
489.676819
 31
0.0
  0
LINE
  5
4C4
330
4C0
100
AcDbEntity
  8
LC-001-100-D00-0
 62
     7
370
    25
100
AcDbLine
 10
-55.659357
 20
498.610572
 30
0.0
 11
-52.659357
 21
501.610572
 31
0.0
  0
LINE
  5
4C5
330
4C0
100
AcDbEntity
  8
LC-001-100-D00-0
 62
     7
370
    25
100
AcDbLine
 10
-90.043751
 20
486.676819
 30
0.0
 11
-87.043751
 21
489.676819
 31
0.0
  0
LINE
  5
4C6
330
4C0
100
AcDbEntity
  8
LC-001-100-D00-0
 62
     7
370
    25
100
AcDbLine
 10
-55.659357
 20
521.061213
 30
0.0
 11
-52.659357
 21
524.061213
 31
0.0
  0
LINE
  5
4C7
330
4C0
100
AcDbEntity
  8
LC-001-100-D00-0
 62
     7
370
    25
100
AcDbLine
 10
-112.494391
 20
486.676819
 30
0.0
 11
-109.494391
 21
489.676819
 31
0.0
  0
LINE
  5
4C8
330
4C0
100
AcDbEntity
  8
LC-001-100-D00-0
 62
     7
370
    25
100
AcDbLine
 10
-100.671459
 20
498.499751
 30
0.0
 11
-97.944848
 21
501.226362
 31
0.0
  0
LINE
  5
4C9
330
4C0
100
AcDbEntity
  8
LC-001-100-D00-0
 62
     7
370
    25
100
AcDbLine
 10
-134.895871
 20
486.725979
 30
0.0
 11
-131.889152
 21
489.732699
 31
0.0
  0
LINE
  5
4CA
330
4C0
100
AcDbEntity
  8
LC-001-100-D00-0
 62
     7
370
    25
100
AcDbLine
 10
-157.346512
 20
486.725979
 30
0.0
 11
-154.339792
 21
489.732699
 31
0.0
  0
LINE
  5
4CB
330
4C0
100
AcDbEntity
  8
LC-001-100-D00-0
 62
     7
370
    25
100
AcDbLine
 10
-179.797152
 20
486.725979
 30
0.0
 11
-176.790432
 21
489.732699
 31
0.0
  0
ENDBLK
  5
4C2
330
4C0
100
AcDbEntity
  8
0
100
AcDbBlockEnd
  0
BLOCK
  5
4CE
330
4CD
100
AcDbEntity
  8
0
100
AcDbBlockBegin
  2
KLON28
 70
     0
 71
     0
 10
0.0
 20
0.0
 30
0.0
  3
KLON28
  1

  4
KLON28
  0
LINE
  5
4D0
330
4CD
100
AcDbEntity
  8
LC-001-100-D00-0
 62
     7
370
    25
100
AcDbLine
 10
-53.543751
 20
523.176819
 30
0.0
 11
-52.659357
 21
524.061213
 31
0.0
  0
LINE
  5
4D1
330
4CD
100
AcDbEntity
  8
LC-001-100-D00-0
 62
     7
370
    25
100
AcDbLine
 10
-55.659357
 20
543.511853
 30
0.0
 11
-52.659357
 21
546.511853
 31
0.0
  0
ENDBLK
  5
4CF
330
4CD
100
AcDbEntity
  8
0
100
AcDbBlockEnd
  0
BLOCK
  5
4D4
330
4D3
100
AcDbEntity
  8
0
100
AcDbBlockBegin
  2
KLON29
 70
     0
 71
     0
 10
0.0
 20
0.0
 30
0.0
  3
KLON29
  1

  4
KLON29
  0
LINE
  5
4D6
330
4D3
100
AcDbEntity
  8
LC-001-100-D00-0
 62
     7
370
    25
100
AcDbLine
 10
-123.395672
 20
520.676819
 30
0.0
 11
-120.659357
 21
523.413134
 31
0.0
  0
LINE
  5
4D7
330
4D3
100
AcDbEntity
  8
LC-001-100-D00-0
 62
     7
370
    25
100
AcDbLine
 10
-132.659357
 20
533.863774
 30
0.0
 11
-129.659357
 21
536.863774
 31
0.0
  0
ENDBLK
  5
4D5
330
4D3
100
AcDbEntity
  8
0
100
AcDbBlockEnd
  0
BLOCK
  5
4DB
330
4DA
100
AcDbEntity
  8
0
100
AcDbBlockBegin
  2
KLON30
 70
     0
 71
     0
 10
0.0
 20
0.0
 30
0.0
  3
KLON30
  1

  4
KLON30
  0
LINE
  5
4DD
330
4DA
100
AcDbEntity
  8
LC-001-100-D00-0
 62
     7
370
    25
100
AcDbLine
 10
-87.409357
 20
511.761853
 30
0.0
 11
-85.909357
 21
513.261853
 31
0.0
  0
LINE
  5
4DE
330
4DA
100
AcDbEntity
  8
LC-001-100-D00-0
 62
     7
370
    25
100
AcDbLine
 10
-87.945174
 20
533.676677
 30
0.0
 11
-86.857648
 21
534.764203
 31
0.0
  0
LINE
  5
4DF
330
4DA
100
AcDbEntity
  8
LC-001-100-D00-0
 62
     7
370
    25
100
AcDbLine
 10
-112.659357
 20
531.413134
 30
0.0
 11
-110.847679
 21
533.224812
 31
0.0
  0
LINE
  5
4E0
330
4DA
100
AcDbEntity
  8
LC-001-100-D00-0
 62
     7
370
    25
100
AcDbLine
 10
-108.70735
 20
535.365141
 30
0.0
 11
-106.895672
 21
537.176819
 31
0.0
  0
ENDBLK
  5
4DC
330
4DA
100
AcDbEntity
  8
0
100
AcDbBlockEnd
  0
BLOCK
  5
4E3
330
4E2
100
AcDbEntity
  8
0
100
AcDbBlockBegin
  2
KLON31
 70
     0
 71
     0
 10
0.0
 20
0.0
 30
0.0
  3
KLON31
  1

  4
KLON31
  0
LINE
  5
4E5
330
4E2
100
AcDbEntity
  8
LC-001-100-D00-0
 62
     7
370
    25
100
AcDbLine
 10
-74.159357
 20
502.561213
 30
0.0
 11
-72.659357
 21
504.061213
 31
0.0
  0
LINE
  5
4E6
330
4E2
100
AcDbEntity
  8
LC-001-100-D00-0
 62
     7
370
    25
100
AcDbLine
 10
-74.159357
 20
525.011853
 30
0.0
 11
-71.994391
 21
527.176819
 31
0.0
  0
ENDBLK
  5
4E4
330
4E2
100
AcDbEntity
  8
0
100
AcDbBlockEnd
  0
BLOCK
  5
4E9
330
4E8
100
AcDbEntity
  8
0
100
AcDbBlockBegin
  2
KLON32
 70
     0
 71
     0
 10
0.0
 20
0.0
 30
0.0
  3
KLON32
  1

  4
KLON32
  0
LINE
  5
4EB
330
4E8
100
AcDbEntity
  8
LC-001-100-D00-0
 62
     7
370
    25
100
AcDbLine
 10
-23.543751
 20
553.176819
 30
0.0
 11
-22.043751
 21
554.676819
 31
0.0
  0
LINE
  5
4EC
330
4E8
100
AcDbEntity
  8
LC-001-100-D00-0
 62
     7
370
    25
100
AcDbLine
 10
-66.659357
 20
532.511853
 30
0.0
 11
-65.159357
 21
534.011853
 31
0.0
  0
LINE
  5
4ED
330
4E8
100
AcDbEntity
  8
LC-001-100-D00-0
 62
     7
370
    25
100
AcDbLine
 10
-45.994391
 20
553.176819
 30
0.0
 11
-44.494391
 21
554.676819
 31
0.0
  0
ENDBLK
  5
4EA
330
4E8
100
AcDbEntity
  8
0
100
AcDbBlockEnd
  0
BLOCK
  5
4F0
330
4EF
100
AcDbEntity
  8
0
100
AcDbBlockBegin
  2
KLON33
 70
     0
 71
     0
 10
0.0
 20
0.0
 30
0.0
  3
KLON33
  1

  4
KLON33
  0
LINE
  5
4F2
330
4EF
100
AcDbEntity
  8
LC-001-100-D00-0
 62
     7
370
    25
100
AcDbLine
 10
-118.959357
 20
525.113134
 30
0.0
 11
-117.459357
 21
526.613134
 31
0.0
  0
LINE
  5
4F3
330
4EF
100
AcDbEntity
  8
LC-001-100-D00-0
 62
     7
370
    25
100
AcDbLine
 10
-120.159357
 20
546.363774
 30
0.0
 11
-118.659357
 21
547.863774
 31
0.0
  0
LINE
  5
4F4
330
4EF
100
AcDbEntity
  8
LC-001-100-D00-0
 62
     7
370
    25
100
AcDbLine
 10
-135.796952
 20
553.176819
 30
0.0
 11
-134.296952
 21
554.676819
 31
0.0
  0
LINE
  5
4F5
330
4EF
100
AcDbEntity
  8
LC-001-100-D00-0
 62
     7
370
    25
100
AcDbLine
 10
-158.247593
 20
553.176819
 30
0.0
 11
-156.747593
 21
554.676819
 31
0.0
  0
ENDBLK
  5
4F1
330
4EF
100
AcDbEntity
  8
0
100
AcDbBlockEnd
  0
BLOCK
  5
504
330
4F8
100
AcDbEntity
  8
0
100
AcDbBlockBegin
  2
*D45
 70
     1
 71
     0
 10
0.0
 20
0.0
 30
0.0
  3
*D45
  1

  0
LINE
  5
4F9
330
4F8
100
AcDbEntity
  8
LC-001-100-D00-0
 62
     2
370
    -2
100
AcDbLine
 10
-72.659357
 20
496.676819
 30
0.0
 11
27.869245
 21
496.676819
 31
0.0
  0
LINE
  5
4FA
330
4F8
100
AcDbEntity
  8
LC-001-100-D00-0
 62
     2
370
    -2
100
AcDbLine
 10
-88.1665
 20
520.676819
 30
0.0
 11
27.869245
 21
520.676819
 31
0.0
  0
LINE
  5
4FB
330
4F8
100
AcDbEntity
  8
LC-001-100-D00-0
 62
     2
370
    -2
100
AcDbLine
 10
18.869245
 20
451.676819
 30
0.0
 11
18.869245
 21
406.676819
 31
0.0
  0
LINE
  5
4FC
330
4F8
100
AcDbEntity
  8
LC-001-100-D00-0
 62
     2
370
    -2
100
AcDbLine
 10
18.869245
 20
565.676819
 30
0.0
 11
18.869245
 21
610.676819
 31
0.0
  0
LINE
  5
4FD
330
4F8
100
AcDbEntity
  8
LC-001-100-D00-0
 62
     2
370
    -2
100
AcDbLine
 10
18.869245
 20
496.676819
 30
0.0
 11
18.869245
 21
520.676819
 31
0.0
  0
SOLID
  5
4FE
330
4F8
100
AcDbEntity
  8
LC-001-100-D00-0
 62
     2
100
AcDbTrace
 10
26.369245
 20
451.676819
 30
0.0
 11
11.369245
 21
451.676819
 31
0.0
 12
18.869245
 22
496.676819
 32
0.0
 13
18.869245
 23
496.676819
 33
0.0
  0
SOLID
  5
4FF
330
4F8
100
AcDbEntity
  8
LC-001-100-D00-0
 62
     2
100
AcDbTrace
 10
11.369245
 20
565.676819
 30
0.0
 11
26.369245
 21
565.676819
 31
0.0
 12
18.869245
 22
520.676819
 32
0.0
 13
18.869245
 23
520.676819
 33
0.0
  0
MTEXT
  5
500
330
4F8
100
AcDbEntity
  8
LC-001-100-D00-0
 62
     2
100
AcDbMText
 10
-30.630755
 20
508.988188
 30
0.0
 40
45.0
 41
0.0
 71
     5
 72
     1
  1
\A1;24
  7
LCTX15-400-0-0pDIN-Schrift
 11
6.123031769111886E-17
 21
1.0
 31
0.0
 73
     1
 44
1.0
  0
POINT
  5
501
330
4F8
100
AcDbEntity
  8
Defpoints
 62
     0
100
AcDbPoint
 10
-72.659357
 20
496.676819
 30
0.0
  0
POINT
  5
502
330
4F8
100
AcDbEntity
  8
Defpoints
 62
     0
100
AcDbPoint
 10
-88.1665
 20
520.676819
 30
0.0
  0
POINT
  5
503
330
4F8
100
AcDbEntity
  8
Defpoints
 62
     0
100
AcDbPoint
 10
18.869245
 20
520.676819
 30
0.0
  0
ENDBLK
  5
505
330
4F8
100
AcDbEntity
  8
0
100
AcDbBlockEnd
  0
BLOCK
  5
513
330
507
100
AcDbEntity
  8
0
100
AcDbBlockBegin
  2
*D46
 70
     1
 71
     0
 10
0.0
 20
0.0
 30
0.0
  3
*D46
  1

  0
LINE
  5
508
330
507
100
AcDbEntity
  8
LC-001-100-D00-0
 62
     2
370
    -2
100
AcDbLine
 10
-195.659357
 20
536.627659
 30
0.0
 11
-246.489519
 21
536.627659
 31
0.0
  0
LINE
  5
509
330
507
100
AcDbEntity
  8
LC-001-100-D00-0
 62
     2
370
    -2
100
AcDbLine
 10
-195.659357
 20
486.725979
 30
0.0
 11
-246.489519
 21
486.725979
 31
0.0
  0
LINE
  5
50A
330
507
100
AcDbEntity
  8
LC-001-100-D00-0
 62
     2
370
    -2
100
AcDbLine
 10
-237.489519
 20
581.627659
 30
0.0
 11
-237.489519
 21
626.627659
 31
0.0
  0
LINE
  5
50B
330
507
100
AcDbEntity
  8
LC-001-100-D00-0
 62
     2
370
    -2
100
AcDbLine
 10
-237.489519
 20
441.725979
 30
0.0
 11
-237.489519
 21
396.725979
 31
0.0
  0
LINE
  5
50C
330
507
100
AcDbEntity
  8
LC-001-100-D00-0
 62
     2
370
    -2
100
AcDbLine
 10
-237.489519
 20
536.627659
 30
0.0
 11
-237.489519
 21
486.725979
 31
0.0
  0
SOLID
  5
50D
330
507
100
AcDbEntity
  8
LC-001-100-D00-0
 62
     2
100
AcDbTrace
 10
-244.989519
 20
581.627659
 30
0.0
 11
-229.989519
 21
581.627659
 31
0.0
 12
-237.489519
 22
536.627659
 32
0.0
 13
-237.489519
 23
536.627659
 33
0.0
  0
SOLID
  5
50E
330
507
100
AcDbEntity
  8
LC-001-100-D00-0
 62
     2
100
AcDbTrace
 10
-229.989519
 20
441.725979
 30
0.0
 11
-244.989519
 21
441.725979
 31
0.0
 12
-237.489519
 22
486.725979
 32
0.0
 13
-237.489519
 23
486.725979
 33
0.0
  0
MTEXT
  5
50F
330
507
100
AcDbEntity
  8
LC-001-100-D00-0
 62
     2
100
AcDbMText
 10
-286.989519
 20
527.055818
 30
0.0
 40
45.0
 41
0.0
 71
     5
 72
     1
  1
\A1;DN50
  7
LCTX15-400-0-0pDIN-Schrift
 11
6.123031769111886E-17
 21
1.0
 31
0.0
 73
     1
 44
1.0
  0
POINT
  5
510
330
507
100
AcDbEntity
  8
Defpoints
 62
     0
100
AcDbPoint
 10
-195.659357
 20
536.627659
 30
0.0
  0
POINT
  5
511
330
507
100
AcDbEntity
  8
Defpoints
 62
     0
100
AcDbPoint
 10
-195.659357
 20
486.725979
 30
0.0
  0
POINT
  5
512
330
507
100
AcDbEntity
  8
Defpoints
 62
     0
100
AcDbPoint
 10
-237.489519
 20
486.725979
 30
0.0
  0
ENDBLK
  5
514
330
507
100
AcDbEntity
  8
0
100
AcDbBlockEnd
  0
BLOCK
  5
524
330
51A
100
AcDbEntity
  8
0
100
AcDbBlockBegin
  2
*D47
 70
     1
 71
     0
 10
0.0
 20
0.0
 30
0.0
  3
*D47
  1

  0
LINE
  5
51B
330
51A
100
AcDbEntity
  8
LC-002-003-----0
 62
     2
370
    -2
100
AcDbLine
 10
-52.659357
 20
496.676819
 30
0.0
 11
-52.659357
 21
250.755818
 31
0.0
  0
LINE
  5
51C
330
51A
100
AcDbEntity
  8
LC-002-003-----0
 62
     2
370
    -2
100
AcDbLine
 10
-198.659356
 20
489.732698
 30
0.0
 11
-198.659356
 21
250.755818
 31
0.0
  0
LINE
  5
51D
330
51A
100
AcDbEntity
  8
LC-002-003-----0
 62
     2
370
    -2
100
AcDbLine
 10
-97.659357
 20
259.755818
 30
0.0
 11
-153.659356
 21
259.755818
 31
0.0
  0
SOLID
  5
51E
330
51A
100
AcDbEntity
  8
LC-002-003-----0
 62
     2
100
AcDbTrace
 10
-97.659357
 20
252.255818
 30
0.0
 11
-97.659357
 21
267.255818
 31
0.0
 12
-52.659357
 22
259.755818
 32
0.0
 13
-52.659357
 23
259.755818
 33
0.0
  0
SOLID
  5
51F
330
51A
100
AcDbEntity
  8
LC-002-003-----0
 62
     2
100
AcDbTrace
 10
-153.659356
 20
267.255818
 30
0.0
 11
-153.659356
 21
252.255818
 31
0.0
 12
-198.659356
 22
259.755818
 32
0.0
 13
-198.659356
 23
259.755818
 33
0.0
  0
MTEXT
  5
520
330
51A
100
AcDbEntity
  8
LC-002-003-----0
 62
     2
100
AcDbMText
 10
-140.664855
 20
309.255818
 30
0.0
 40
45.0
 41
0.0
 71
     5
 72
     1
  1
\A1;146
  7
LCTX15-400-0-0pDIN-Schrift
 73
     1
 44
1.0
  0
POINT
  5
521
330
51A
100
AcDbEntity
  8
Defpoints
 62
     0
100
AcDbPoint
 10
-52.659357
 20
496.676819
 30
0.0
  0
POINT
  5
522
330
51A
100
AcDbEntity
  8
Defpoints
 62
     0
100
AcDbPoint
 10
-198.659356
 20
489.732698
 30
0.0
  0
POINT
  5
523
330
51A
100
AcDbEntity
  8
Defpoints
 62
     0
100
AcDbPoint
 10
-198.659356
 20
259.755818
 30
0.0
  0
ENDBLK
  5
525
330
51A
100
AcDbEntity
  8
0
100
AcDbBlockEnd
  0
BLOCK
  5
528
330
527
100
AcDbEntity
  8
0
100
AcDbBlockBegin
  2
KLON34
 70
     0
 71
     0
 10
0.0
 20
0.0
 30
0.0
  3
KLON34
  1

  4
KLON34
  0
LINE
  5
52A
330
527
100
AcDbEntity
  8
LC-001-100-D00-0
 62
     7
370
    15
100
AcDbLine
 10
441.964743
 20
122.814137
 30
0.0
 11
444.949598
 21
122.633587
 31
0.0
  0
LINE
  5
52B
330
527
100
AcDbEntity
  8
LC-001-100-D00-0
 62
     7
370
    15
100
AcDbLine
 10
444.949598
 20
122.633587
 30
0.0
 11
447.652468
 21
122.152092
 31
0.0
  0
ENDBLK
  5
529
330
527
100
AcDbEntity
  8
0
100
AcDbBlockEnd
  0
BLOCK
  5
530
330
52F
100
AcDbEntity
  8
0
100
AcDbBlockBegin
  2
KLON35
 70
     0
 71
     0
 10
0.0
 20
0.0
 30
0.0
  3
KLON35
  1

  4
KLON35
  0
LINE
  5
532
330
52F
100
AcDbEntity
  8
LC-001-100-D00-0
 62
     7
370
    15
100
AcDbLine
 10
380.964742
 20
73.288023
 30
0.0
 11
377.979887
 21
73.468573
 31
0.0
  0
LINE
  5
533
330
52F
100
AcDbEntity
  8
LC-001-100-D00-0
 62
     7
370
    15
100
AcDbLine
 10
377.979887
 20
73.468573
 30
0.0
 11
376.415894
 21
73.709409
 31
0.0
  0
ENDBLK
  5
531
330
52F
100
AcDbEntity
  8
0
100
AcDbBlockEnd
  0
BLOCK
  5
539
330
538
100
AcDbEntity
  8
0
100
AcDbBlockBegin
  2
POLY9
 70
     0
 71
     0
 10
0.0
 20
0.0
 30
0.0
  3
POLY9
  1

  4
POLY9
  0
LINE
  5
53B
330
538
100
AcDbEntity
  8
LC-001-100-D00-0
 62
     7
370
    50
100
AcDbLine
 10
441.964743
 20
73.25108
 30
0.0
 11
441.964743
 21
73.25108
 31
0.0
  0
LINE
  5
53C
330
538
100
AcDbEntity
  8
LC-001-100-D00-0
 62
     7
370
    50
100
AcDbLine
 10
441.964743
 20
73.25108
 30
0.0
 11
443.000467
 21
73.288645
 31
0.0
  0
LINE
  5
53D
330
538
100
AcDbEntity
  8
LC-001-100-D00-0
 62
     7
370
    50
100
AcDbLine
 10
443.000467
 20
73.288645
 30
0.0
 11
443.000467
 21
73.288645
 31
0.0
  0
LINE
  5
53E
330
538
100
AcDbEntity
  8
LC-001-100-D00-0
 62
     7
370
    50
100
AcDbLine
 10
443.000467
 20
73.288645
 30
0.0
 11
445.102147
 21
73.364872
 31
0.0
  0
LINE
  5
53F
330
538
100
AcDbEntity
  8
LC-001-100-D00-0
 62
     7
370
    50
100
AcDbLine
 10
445.102147
 20
73.364872
 30
0.0
 11
445.102147
 21
73.364872
 31
0.0
  0
LINE
  5
540
330
538
100
AcDbEntity
  8
LC-001-100-D00-0
 62
     7
370
    50
100
AcDbLine
 10
445.102147
 20
73.364872
 30
0.0
 11
448.252017
 21
73.997991
 31
0.0
  0
LINE
  5
541
330
538
100
AcDbEntity
  8
LC-001-100-D00-0
 62
     7
370
    50
100
AcDbLine
 10
448.252017
 20
73.997991
 30
0.0
 11
448.252017
 21
73.997991
 31
0.0
  0
LINE
  5
542
330
538
100
AcDbEntity
  8
LC-001-100-D00-0
 62
     7
370
    50
100
AcDbLine
 10
448.252017
 20
73.997991
 30
0.0
 11
451.455638
 21
75.024162
 31
0.0
  0
LINE
  5
543
330
538
100
AcDbEntity
  8
LC-001-100-D00-0
 62
     7
370
    50
100
AcDbLine
 10
451.455638
 20
75.024162
 30
0.0
 11
451.455638
 21
75.024162
 31
0.0
  0
LINE
  5
544
330
538
100
AcDbEntity
  8
LC-001-100-D00-0
 62
     7
370
    50
100
AcDbLine
 10
451.455638
 20
75.024162
 30
0.0
 11
453.533951
 21
76.138738
 31
0.0
  0
LINE
  5
545
330
538
100
AcDbEntity
  8
LC-001-100-D00-0
 62
     7
370
    50
100
AcDbLine
 10
453.533951
 20
76.138738
 30
0.0
 11
453.533951
 21
76.138738
 31
0.0
  0
LINE
  5
546
330
538
100
AcDbEntity
  8
LC-001-100-D00-0
 62
     7
370
    50
100
AcDbLine
 10
453.533951
 20
76.138738
 30
0.0
 11
454.586291
 21
76.703096
 31
0.0
  0
ENDBLK
  5
53A
330
538
100
AcDbEntity
  8
0
100
AcDbBlockEnd
  0
BLOCK
  5
549
330
548
100
AcDbEntity
  8
0
100
AcDbBlockBegin
  2
POLY10
 70
     0
 71
     0
 10
0.0
 20
0.0
 30
0.0
  3
POLY10
  1

  4
POLY10
  0
LINE
  5
54B
330
548
100
AcDbEntity
  8
LC-001-100-D00-0
 62
     7
370
    50
100
AcDbLine
 10
380.964742
 20
73.25108
 30
0.0
 11
380.964742
 21
73.25108
 31
0.0
  0
LINE
  5
54C
330
548
100
AcDbEntity
  8
LC-001-100-D00-0
 62
     7
370
    50
100
AcDbLine
 10
380.964742
 20
73.25108
 30
0.0
 11
379.929018
 21
73.288645
 31
0.0
  0
LINE
  5
54D
330
548
100
AcDbEntity
  8
LC-001-100-D00-0
 62
     7
370
    50
100
AcDbLine
 10
379.929018
 20
73.288645
 30
0.0
 11
379.929018
 21
73.288645
 31
0.0
  0
LINE
  5
54E
330
548
100
AcDbEntity
  8
LC-001-100-D00-0
 62
     7
370
    50
100
AcDbLine
 10
379.929018
 20
73.288645
 30
0.0
 11
377.827338
 21
73.364872
 31
0.0
  0
LINE
  5
54F
330
548
100
AcDbEntity
  8
LC-001-100-D00-0
 62
     7
370
    50
100
AcDbLine
 10
377.827338
 20
73.364872
 30
0.0
 11
377.827338
 21
73.364872
 31
0.0
  0
LINE
  5
550
330
548
100
AcDbEntity
  8
LC-001-100-D00-0
 62
     7
370
    50
100
AcDbLine
 10
377.827338
 20
73.364872
 30
0.0
 11
374.677467
 21
73.997991
 31
0.0
  0
LINE
  5
551
330
548
100
AcDbEntity
  8
LC-001-100-D00-0
 62
     7
370
    50
100
AcDbLine
 10
374.677467
 20
73.997991
 30
0.0
 11
374.677467
 21
73.997991
 31
0.0
  0
LINE
  5
552
330
548
100
AcDbEntity
  8
LC-001-100-D00-0
 62
     7
370
    50
100
AcDbLine
 10
374.677467
 20
73.997991
 30
0.0
 11
371.473847
 21
75.024162
 31
0.0
  0
LINE
  5
553
330
548
100
AcDbEntity
  8
LC-001-100-D00-0
 62
     7
370
    50
100
AcDbLine
 10
371.473847
 20
75.024162
 30
0.0
 11
371.473847
 21
75.024162
 31
0.0
  0
LINE
  5
554
330
548
100
AcDbEntity
  8
LC-001-100-D00-0
 62
     7
370
    50
100
AcDbLine
 10
371.473847
 20
75.024162
 30
0.0
 11
369.395534
 21
76.138738
 31
0.0
  0
LINE
  5
555
330
548
100
AcDbEntity
  8
LC-001-100-D00-0
 62
     7
370
    50
100
AcDbLine
 10
369.395534
 20
76.138738
 30
0.0
 11
369.395534
 21
76.138738
 31
0.0
  0
LINE
  5
556
330
548
100
AcDbEntity
  8
LC-001-100-D00-0
 62
     7
370
    50
100
AcDbLine
 10
369.395534
 20
76.138738
 30
0.0
 11
368.343194
 21
76.703096
 31
0.0
  0
ENDBLK
  5
54A
330
548
100
AcDbEntity
  8
0
100
AcDbBlockEnd
  0
BLOCK
  5
559
330
558
100
AcDbEntity
  8
0
100
AcDbBlockBegin
  2
POLY11
 70
     0
 71
     0
 10
0.0
 20
0.0
 30
0.0
  3
POLY11
  1

  4
POLY11
  0
LINE
  5
55B
330
558
100
AcDbEntity
  8
LC-001-100-D00-0
 62
     7
370
    50
100
AcDbLine
 10
454.586291
 20
119.399065
 30
0.0
 11
454.586291
 21
119.399065
 31
0.0
  0
LINE
  5
55C
330
558
100
AcDbEntity
  8
LC-001-100-D00-0
 62
     7
370
    50
100
AcDbLine
 10
454.586291
 20
119.399065
 30
0.0
 11
453.674003
 21
119.894673
 31
0.0
  0
LINE
  5
55D
330
558
100
AcDbEntity
  8
LC-001-100-D00-0
 62
     7
370
    50
100
AcDbLine
 10
453.674003
 20
119.894673
 30
0.0
 11
453.674003
 21
119.894673
 31
0.0
  0
LINE
  5
55E
330
558
100
AcDbEntity
  8
LC-001-100-D00-0
 62
     7
370
    50
100
AcDbLine
 10
453.674003
 20
119.894673
 30
0.0
 11
451.82315
 21
120.900164
 31
0.0
  0
LINE
  5
55F
330
558
100
AcDbEntity
  8
LC-001-100-D00-0
 62
     7
370
    50
100
AcDbLine
 10
451.82315
 20
120.900164
 30
0.0
 11
451.82315
 21
120.900164
 31
0.0
  0
LINE
  5
560
330
558
100
AcDbEntity
  8
LC-001-100-D00-0
 62
     7
370
    50
100
AcDbLine
 10
451.82315
 20
120.900164
 30
0.0
 11
448.786052
 21
121.95818
 31
0.0
  0
LINE
  5
561
330
558
100
AcDbEntity
  8
LC-001-100-D00-0
 62
     7
370
    50
100
AcDbLine
 10
448.786052
 20
121.95818
 30
0.0
 11
448.786052
 21
121.95818
 31
0.0
  0
LINE
  5
562
330
558
100
AcDbEntity
  8
LC-001-100-D00-0
 62
     7
370
    50
100
AcDbLine
 10
448.786052
 20
121.95818
 30
0.0
 11
445.509514
 21
122.703299
 31
0.0
  0
LINE
  5
563
330
558
100
AcDbEntity
  8
LC-001-100-D00-0
 62
     7
370
    50
100
AcDbLine
 10
445.509514
 20
122.703299
 30
0.0
 11
445.509514
 21
122.703299
 31
0.0
  0
LINE
  5
564
330
558
100
AcDbEntity
  8
LC-001-100-D00-0
 62
     7
370
    50
100
AcDbLine
 10
445.509514
 20
122.703299
 30
0.0
 11
443.156404
 21
122.801401
 31
0.0
  0
LINE
  5
565
330
558
100
AcDbEntity
  8
LC-001-100-D00-0
 62
     7
370
    50
100
AcDbLine
 10
443.156404
 20
122.801401
 30
0.0
 11
443.156404
 21
122.801401
 31
0.0
  0
LINE
  5
566
330
558
100
AcDbEntity
  8
LC-001-100-D00-0
 62
     7
370
    50
100
AcDbLine
 10
443.156404
 20
122.801401
 30
0.0
 11
441.964743
 21
122.851081
 31
0.0
  0
ENDBLK
  5
55A
330
558
100
AcDbEntity
  8
0
100
AcDbBlockEnd
  0
BLOCK
  5
569
330
568
100
AcDbEntity
  8
0
100
AcDbBlockBegin
  2
POLY12
 70
     0
 71
     0
 10
0.0
 20
0.0
 30
0.0
  3
POLY12
  1

  4
POLY12
  0
LINE
  5
56B
330
568
100
AcDbEntity
  8
LC-001-100-D00-0
 62
     7
370
    50
100
AcDbLine
 10
368.343194
 20
119.399065
 30
0.0
 11
368.343194
 21
119.399065
 31
0.0
  0
LINE
  5
56C
330
568
100
AcDbEntity
  8
LC-001-100-D00-0
 62
     7
370
    50
100
AcDbLine
 10
368.343194
 20
119.399065
 30
0.0
 11
369.255482
 21
119.894673
 31
0.0
  0
LINE
  5
56D
330
568
100
AcDbEntity
  8
LC-001-100-D00-0
 62
     7
370
    50
100
AcDbLine
 10
369.255482
 20
119.894673
 30
0.0
 11
369.255482
 21
119.894673
 31
0.0
  0
LINE
  5
56E
330
568
100
AcDbEntity
  8
LC-001-100-D00-0
 62
     7
370
    50
100
AcDbLine
 10
369.255482
 20
119.894673
 30
0.0
 11
371.106335
 21
120.900164
 31
0.0
  0
LINE
  5
56F
330
568
100
AcDbEntity
  8
LC-001-100-D00-0
 62
     7
370
    50
100
AcDbLine
 10
371.106335
 20
120.900164
 30
0.0
 11
371.106335
 21
120.900164
 31
0.0
  0
LINE
  5
570
330
568
100
AcDbEntity
  8
LC-001-100-D00-0
 62
     7
370
    50
100
AcDbLine
 10
371.106335
 20
120.900164
 30
0.0
 11
374.143433
 21
121.95818
 31
0.0
  0
LINE
  5
571
330
568
100
AcDbEntity
  8
LC-001-100-D00-0
 62
     7
370
    50
100
AcDbLine
 10
374.143433
 20
121.95818
 30
0.0
 11
374.143433
 21
121.95818
 31
0.0
  0
LINE
  5
572
330
568
100
AcDbEntity
  8
LC-001-100-D00-0
 62
     7
370
    50
100
AcDbLine
 10
374.143433
 20
121.95818
 30
0.0
 11
377.419971
 21
122.703299
 31
0.0
  0
LINE
  5
573
330
568
100
AcDbEntity
  8
LC-001-100-D00-0
 62
     7
370
    50
100
AcDbLine
 10
377.419971
 20
122.703299
 30
0.0
 11
377.419971
 21
122.703299
 31
0.0
  0
LINE
  5
574
330
568
100
AcDbEntity
  8
LC-001-100-D00-0
 62
     7
370
    50
100
AcDbLine
 10
377.419971
 20
122.703299
 30
0.0
 11
379.773081
 21
122.801401
 31
0.0
  0
LINE
  5
575
330
568
100
AcDbEntity
  8
LC-001-100-D00-0
 62
     7
370
    50
100
AcDbLine
 10
379.773081
 20
122.801401
 30
0.0
 11
379.773081
 21
122.801401
 31
0.0
  0
LINE
  5
576
330
568
100
AcDbEntity
  8
LC-001-100-D00-0
 62
     7
370
    50
100
AcDbLine
 10
379.773081
 20
122.801401
 30
0.0
 11
380.964742
 21
122.851081
 31
0.0
  0
ENDBLK
  5
56A
330
568
100
AcDbEntity
  8
0
100
AcDbBlockEnd
  0
BLOCK
  5
583
330
582
100
AcDbEntity
  8
0
100
AcDbBlockBegin
  2
POLY13
 70
     0
 71
     0
 10
0.0
 20
0.0
 30
0.0
  3
POLY13
  1

  4
POLY13
  0
LINE
  5
585
330
582
100
AcDbEntity
  8
LC-001-100-D00-0
 62
     7
370
    50
100
AcDbLine
 10
371.415393
 20
75.511118
 30
0.0
 11
371.415393
 21
75.511118
 31
0.0
  0
LINE
  5
586
330
582
100
AcDbEntity
  8
LC-001-100-D00-0
 62
     7
370
    50
100
AcDbLine
 10
371.415393
 20
75.511118
 30
0.0
 11
371.389904
 21
75.466973
 31
0.0
  0
LINE
  5
587
330
582
100
AcDbEntity
  8
LC-001-100-D00-0
 62
     7
370
    50
100
AcDbLine
 10
371.389904
 20
75.466973
 30
0.0
 11
371.389904
 21
75.466973
 31
0.0
  0
LINE
  5
588
330
582
100
AcDbEntity
  8
LC-001-100-D00-0
 62
     7
370
    50
100
AcDbLine
 10
371.389904
 20
75.466973
 30
0.0
 11
371.33892
 21
75.378675
 31
0.0
  0
LINE
  5
589
330
582
100
AcDbEntity
  8
LC-001-100-D00-0
 62
     7
370
    50
100
AcDbLine
 10
371.33892
 20
75.378675
 30
0.0
 11
371.33892
 21
75.378675
 31
0.0
  0
LINE
  5
58A
330
582
100
AcDbEntity
  8
LC-001-100-D00-0
 62
     7
370
    50
100
AcDbLine
 10
371.33892
 20
75.378675
 30
0.0
 11
371.284348
 21
75.284142
 31
0.0
  0
LINE
  5
58B
330
582
100
AcDbEntity
  8
LC-001-100-D00-0
 62
     7
370
    50
100
AcDbLine
 10
371.284348
 20
75.284142
 30
0.0
 11
371.284348
 21
75.284142
 31
0.0
  0
LINE
  5
58C
330
582
100
AcDbEntity
  8
LC-001-100-D00-0
 62
     7
370
    50
100
AcDbLine
 10
371.284348
 20
75.284142
 30
0.0
 11
371.257276
 21
75.237251
 31
0.0
  0
LINE
  5
58D
330
582
100
AcDbEntity
  8
LC-001-100-D00-0
 62
     7
370
    50
100
AcDbLine
 10
371.257276
 20
75.237251
 30
0.0
 11
371.257276
 21
75.237251
 31
0.0
  0
LINE
  5
58E
330
582
100
AcDbEntity
  8
LC-001-100-D00-0
 62
     7
370
    50
100
AcDbLine
 10
371.257276
 20
75.237251
 30
0.0
 11
371.254778
 21
75.232927
 31
0.0
  0
LINE
  5
58F
330
582
100
AcDbEntity
  8
LC-001-100-D00-0
 62
     7
370
    50
100
AcDbLine
 10
371.254778
 20
75.232927
 30
0.0
 11
371.254778
 21
75.232927
 31
0.0
  0
LINE
  5
590
330
582
100
AcDbEntity
  8
LC-001-100-D00-0
 62
     7
370
    50
100
AcDbLine
 10
371.254778
 20
75.232927
 30
0.0
 11
371.253879
 21
75.231371
 31
0.0
  0
ENDBLK
  5
584
330
582
100
AcDbEntity
  8
0
100
AcDbBlockEnd
  0
BLOCK
  5
595
330
594
100
AcDbEntity
  8
0
100
AcDbBlockBegin
  2
POLY14
 70
     0
 71
     0
 10
0.0
 20
0.0
 30
0.0
  3
POLY14
  1

  4
POLY14
  0
LINE
  5
597
330
594
100
AcDbEntity
  8
LC-001-100-D00-0
 62
     7
370
    50
100
AcDbLine
 10
451.675606
 20
75.231371
 30
0.0
 11
451.675606
 21
75.231371
 31
0.0
  0
LINE
  5
598
330
594
100
AcDbEntity
  8
LC-001-100-D00-0
 62
     7
370
    50
100
AcDbLine
 10
451.675606
 20
75.231371
 30
0.0
 11
451.672856
 21
75.236134
 31
0.0
  0
LINE
  5
599
330
594
100
AcDbEntity
  8
LC-001-100-D00-0
 62
     7
370
    50
100
AcDbLine
 10
451.672856
 20
75.236134
 30
0.0
 11
451.672856
 21
75.236134
 31
0.0
  0
LINE
  5
59A
330
594
100
AcDbEntity
  8
LC-001-100-D00-0
 62
     7
370
    50
100
AcDbLine
 10
451.672856
 20
75.236134
 30
0.0
 11
451.667356
 21
75.245658
 31
0.0
  0
LINE
  5
59B
330
594
100
AcDbEntity
  8
LC-001-100-D00-0
 62
     7
370
    50
100
AcDbLine
 10
451.667356
 20
75.245658
 30
0.0
 11
451.667356
 21
75.245658
 31
0.0
  0
LINE
  5
59C
330
594
100
AcDbEntity
  8
LC-001-100-D00-0
 62
     7
370
    50
100
AcDbLine
 10
451.667356
 20
75.245658
 30
0.0
 11
451.624345
 21
75.32016
 31
0.0
  0
LINE
  5
59D
330
594
100
AcDbEntity
  8
LC-001-100-D00-0
 62
     7
370
    50
100
AcDbLine
 10
451.624345
 20
75.32016
 30
0.0
 11
451.624345
 21
75.32016
 31
0.0
  0
LINE
  5
59E
330
594
100
AcDbEntity
  8
LC-001-100-D00-0
 62
     7
370
    50
100
AcDbLine
 10
451.624345
 20
75.32016
 30
0.0
 11
451.570028
 21
75.414233
 31
0.0
  0
LINE
  5
59F
330
594
100
AcDbEntity
  8
LC-001-100-D00-0
 62
     7
370
    50
100
AcDbLine
 10
451.570028
 20
75.414233
 30
0.0
 11
451.570028
 21
75.414233
 31
0.0
  0
LINE
  5
5A0
330
594
100
AcDbEntity
  8
LC-001-100-D00-0
 62
     7
370
    50
100
AcDbLine
 10
451.570028
 20
75.414233
 30
0.0
 11
451.529288
 21
75.484798
 31
0.0
  0
LINE
  5
5A1
330
594
100
AcDbEntity
  8
LC-001-100-D00-0
 62
     7
370
    50
100
AcDbLine
 10
451.529288
 20
75.484798
 30
0.0
 11
451.529288
 21
75.484798
 31
0.0
  0
LINE
  5
5A2
330
594
100
AcDbEntity
  8
LC-001-100-D00-0
 62
     7
370
    50
100
AcDbLine
 10
451.529288
 20
75.484798
 30
0.0
 11
451.514092
 21
75.511118
 31
0.0
  0
ENDBLK
  5
596
330
594
100
AcDbEntity
  8
0
100
AcDbBlockEnd
  0
BLOCK
  5
5C8
330
5BE
100
AcDbEntity
  8
0
100
AcDbBlockBegin
  2
*D56
 70
     1
 71
     0
 10
0.0
 20
0.0
 30
0.0
  3
*D56
  1

  0
LINE
  5
5BF
330
5BE
100
AcDbEntity
  8
LC-002-003-----0
 62
     2
370
    -2
100
AcDbLine
 10
-198.659356
 20
489.732698
 30
0.0
 11
-198.659356
 21
339.855818
 31
0.0
  0
LINE
  5
5C0
330
5BE
100
AcDbEntity
  8
LC-002-003-----0
 62
     2
370
    -2
100
AcDbLine
 10
-92.659357
 20
489.676819
 30
0.0
 11
-92.659357
 21
339.855818
 31
0.0
  0
LINE
  5
5C1
330
5BE
100
AcDbEntity
  8
LC-002-003-----0
 62
     2
370
    -2
100
AcDbLine
 10
-153.659356
 20
348.855818
 30
0.0
 11
-137.659357
 21
348.855818
 31
0.0
  0
SOLID
  5
5C2
330
5BE
100
AcDbEntity
  8
LC-002-003-----0
 62
     2
100
AcDbTrace
 10
-153.659356
 20
356.355818
 30
0.0
 11
-153.659356
 21
341.355818
 31
0.0
 12
-198.659356
 22
348.855818
 32
0.0
 13
-198.659356
 23
348.855818
 33
0.0
  0
SOLID
  5
5C3
330
5BE
100
AcDbEntity
  8
LC-002-003-----0
 62
     2
100
AcDbTrace
 10
-137.659357
 20
341.355818
 30
0.0
 11
-137.659357
 21
356.355818
 31
0.0
 12
-92.659357
 22
348.855818
 32
0.0
 13
-92.659357
 23
348.855818
 33
0.0
  0
MTEXT
  5
5C4
330
5BE
100
AcDbEntity
  8
LC-002-003-----0
 62
     2
100
AcDbMText
 10
-154.175273
 20
398.355818
 30
0.0
 40
45.0
 41
0.0
 71
     5
 72
     1
  1
\A1;106
  7
LCTX15-400-0-0pDIN-Schrift
 73
     1
 44
1.0
  0
POINT
  5
5C5
330
5BE
100
AcDbEntity
  8
Defpoints
 62
     0
100
AcDbPoint
 10
-198.659356
 20
489.732698
 30
0.0
  0
POINT
  5
5C6
330
5BE
100
AcDbEntity
  8
Defpoints
 62
     0
100
AcDbPoint
 10
-92.659357
 20
489.676819
 30
0.0
  0
POINT
  5
5C7
330
5BE
100
AcDbEntity
  8
Defpoints
 62
     0
100
AcDbPoint
 10
-92.659357
 20
348.855818
 30
0.0
  0
ENDBLK
  5
5C9
330
5BE
100
AcDbEntity
  8
0
100
AcDbBlockEnd
  0
BLOCK
  5
635
330
634
100
AcDbEntity
  8
0
100
AcDbBlockBegin
  2
KLON36
 70
     0
 71
     0
 10
0.0
 20
0.0
 30
0.0
  3
KLON36
  1

  4
KLON36
  0
LINE
  5
637
330
634
100
AcDbEntity
  8
LC-001-100-D00-0
 62
     7
370
    25
100
AcDbLine
 10
476.42872
 20
486.784561
 30
0.0
 11
484.856994
 21
495.212835
 31
0.0
  0
LINE
  5
638
330
634
100
AcDbEntity
  8
LC-001-100-D00-0
 62
     7
370
    25
100
AcDbLine
 10
453.870337
 20
486.676818
 30
0.0
 11
456.870337
 21
489.676818
 31
0.0
  0
LINE
  5
639
330
634
100
AcDbEntity
  8
LC-001-100-D00-0
 62
     7
370
    25
100
AcDbLine
 10
481.964737
 20
514.771218
 30
0.0
 11
484.964737
 21
517.771218
 31
0.0
  0
LINE
  5
63A
330
634
100
AcDbEntity
  8
LC-001-100-D00-0
 62
     7
370
    25
100
AcDbLine
 10
431.419697
 20
486.676818
 30
0.0
 11
434.419697
 21
489.676818
 31
0.0
  0
LINE
  5
63B
330
634
100
AcDbEntity
  8
LC-001-100-D00-0
 62
     7
370
    25
100
AcDbLine
 10
408.969057
 20
486.676818
 30
0.0
 11
411.969057
 21
489.676818
 31
0.0
  0
LINE
  5
63C
330
634
100
AcDbEntity
  8
LC-001-100-D00-0
 62
     7
370
    25
100
AcDbLine
 10
386.518416
 20
486.676818
 30
0.0
 11
389.518416
 21
489.676818
 31
0.0
  0
LINE
  5
63D
330
634
100
AcDbEntity
  8
LC-001-100-D00-0
 62
     7
370
    25
100
AcDbLine
 10
364.067776
 20
486.676818
 30
0.0
 11
367.067776
 21
489.676818
 31
0.0
  0
LINE
  5
63E
330
634
100
AcDbEntity
  8
LC-001-100-D00-0
 62
     7
370
    25
100
AcDbLine
 10
342.959758
 20
488.019441
 30
0.0
 11
345.190393
 21
490.250076
 31
0.0
  0
LINE
  5
63F
330
634
100
AcDbEntity
  8
LC-001-100-D00-0
 62
     7
370
    25
100
AcDbLine
 10
337.964737
 20
505.47506
 30
0.0
 11
340.964737
 21
508.47506
 31
0.0
  0
ENDBLK
  5
636
330
634
100
AcDbEntity
  8
0
100
AcDbBlockEnd
  0
BLOCK
  5
643
330
642
100
AcDbEntity
  8
0
100
AcDbBlockBegin
  2
KLON37
 70
     0
 71
     0
 10
0.0
 20
0.0
 30
0.0
  3
KLON37
  1

  4
KLON37
  0
LINE
  5
645
330
642
100
AcDbEntity
  8
LC-001-100-D00-0
 62
     7
370
    25
100
AcDbLine
 10
465.419697
 20
520.676818
 30
0.0
 11
465.964737
 21
521.221858
 31
0.0
  0
LINE
  5
646
330
642
100
AcDbEntity
  8
LC-001-100-D00-0
 62
     7
370
    25
100
AcDbLine
 10
457.755182
 20
535.462944
 30
0.0
 11
458.900359
 21
536.608121
 31
0.0
  0
LINE
  5
647
330
642
100
AcDbEntity
  8
LC-001-100-D00-0
 62
     7
370
    25
100
AcDbLine
 10
435.518416
 20
535.676818
 30
0.0
 11
437.018416
 21
537.176818
 31
0.0
  0
LINE
  5
648
330
642
100
AcDbEntity
  8
LC-001-100-D00-0
 62
     7
370
    25
100
AcDbLine
 10
413.067776
 20
535.676818
 30
0.0
 11
414.567776
 21
537.176818
 31
0.0
  0
LINE
  5
649
330
642
100
AcDbEntity
  8
LC-001-100-D00-0
 62
     7
370
    25
100
AcDbLine
 10
390.617136
 20
535.676818
 30
0.0
 11
392.117136
 21
537.176818
 31
0.0
  0
LINE
  5
64A
330
642
100
AcDbEntity
  8
LC-001-100-D00-0
 62
     7
370
    25
100
AcDbLine
 10
358.166495
 20
525.676818
 30
0.0
 11
359.666495
 21
527.176818
 31
0.0
  0
LINE
  5
64B
330
642
100
AcDbEntity
  8
LC-001-100-D00-0
 62
     7
370
    25
100
AcDbLine
 10
360.964737
 20
528.47506
 30
0.0
 11
362.464737
 21
529.97506
 31
0.0
  0
LINE
  5
64C
330
642
100
AcDbEntity
  8
LC-001-100-D00-0
 62
     7
370
    25
100
AcDbLine
 10
368.166495
 20
535.676818
 30
0.0
 11
369.666495
 21
537.176818
 31
0.0
  0
ENDBLK
  5
644
330
642
100
AcDbEntity
  8
0
100
AcDbBlockEnd
  0
BLOCK
  5
659
330
64F
100
AcDbEntity
  8
0
100
AcDbBlockBegin
  2
*D59
 70
     1
 71
     0
 10
0.0
 20
0.0
 30
0.0
  3
*D59
  1

  0
LINE
  5
650
330
64F
100
AcDbEntity
  8
LC-001-100-D00-0
 62
     2
370
    -2
100
AcDbLine
 10
337.964737
 20
496.676818
 30
0.0
 11
337.964737
 21
371.126004
 31
0.0
  0
LINE
  5
651
330
64F
100
AcDbEntity
  8
LC-001-100-D00-0
 62
     2
370
    -2
100
AcDbLine
 10
484.964737
 20
496.676818
 30
0.0
 11
484.964737
 21
371.126004
 31
0.0
  0
LINE
  5
652
330
64F
100
AcDbEntity
  8
LC-001-100-D00-0
 62
     2
370
    -2
100
AcDbLine
 10
382.964737
 20
380.126004
 30
0.0
 11
439.964737
 21
380.126004
 31
0.0
  0
SOLID
  5
653
330
64F
100
AcDbEntity
  8
LC-001-100-D00-0
 62
     2
100
AcDbTrace
 10
382.964737
 20
387.626004
 30
0.0
 11
382.964737
 21
372.626004
 31
0.0
 12
337.964737
 22
380.126004
 32
0.0
 13
337.964737
 23
380.126004
 33
0.0
  0
SOLID
  5
654
330
64F
100
AcDbEntity
  8
LC-001-100-D00-0
 62
     2
100
AcDbTrace
 10
439.964737
 20
372.626004
 30
0.0
 11
439.964737
 21
387.626004
 31
0.0
 12
484.964737
 22
380.126004
 32
0.0
 13
484.964737
 23
380.126004
 33
0.0
  0
MTEXT
  5
655
330
64F
100
AcDbEntity
  8
LC-001-100-D00-0
 62
     2
100
AcDbMText
 10
399.104827
 20
429.626004
 30
0.0
 40
45.0
 41
0.0
 71
     5
 72
     1
  1
\A1;147
  7
LCTX15-400-0-0pDIN-Schrift
 73
     1
 44
1.0
  0
POINT
  5
656
330
64F
100
AcDbEntity
  8
Defpoints
 62
     0
100
AcDbPoint
 10
337.964737
 20
496.676818
 30
0.0
  0
POINT
  5
657
330
64F
100
AcDbEntity
  8
Defpoints
 62
     0
100
AcDbPoint
 10
484.964737
 20
496.676818
 30
0.0
  0
POINT
  5
658
330
64F
100
AcDbEntity
  8
Defpoints
 62
     0
100
AcDbPoint
 10
484.964737
 20
380.126004
 30
0.0
  0
ENDBLK
  5
65A
330
64F
100
AcDbEntity
  8
0
100
AcDbBlockEnd
  0
BLOCK
  5
668
330
65D
100
AcDbEntity
  8
0
100
AcDbBlockBegin
  2
*D60
 70
     1
 71
     0
 10
0.0
 20
0.0
 30
0.0
  3
*D60
  1

  0
LINE
  5
65E
330
65D
100
AcDbEntity
  8
LC-002-003-----0
 62
     2
370
    -2
100
AcDbLine
 10
61.464736
 20
554.676818
 30
0.0
 11
280.836565
 21
554.676818
 31
0.0
  0
LINE
  5
65F
330
65D
100
AcDbEntity
  8
LC-002-003-----0
 62
     2
370
    -2
100
AcDbLine
 10
347.964736
 20
486.676818
 30
0.0
 11
262.836565
 21
486.676818
 31
0.0
  0
LINE
  5
660
330
65D
100
AcDbEntity
  8
LC-002-003-----0
 62
     2
370
    -2
100
AcDbLine
 10
271.836565
 20
599.676818
 30
0.0
 11
271.836565
 21
644.676818
 31
0.0
  0
LINE
  5
661
330
65D
100
AcDbEntity
  8
LC-002-003-----0
 62
     2
370
    -2
100
AcDbLine
 10
271.836565
 20
441.676818
 30
0.0
 11
271.836565
 21
371.363064
 31
0.0
  0
SOLID
  5
662
330
65D
100
AcDbEntity
  8
LC-002-003-----0
 62
     2
100
AcDbTrace
 10
264.336565
 20
599.676818
 30
0.0
 11
279.336565
 21
599.676818
 31
0.0
 12
271.836565
 22
554.676818
 32
0.0
 13
271.836565
 23
554.676818
 33
0.0
  0
SOLID
  5
663
330
65D
100
AcDbEntity
  8
LC-002-003-----0
 62
     2
100
AcDbTrace
 10
279.336565
 20
441.676818
 30
0.0
 11
264.336565
 21
441.676818
 31
0.0
 12
271.836565
 22
486.676818
 32
0.0
 13
271.836565
 23
486.676818
 33
0.0
  0
MTEXT
  5
664
330
65D
100
AcDbEntity
  8
LC-002-003-----0
 62
     2
100
AcDbMText
 10
222.336565
 20
409.740818
 30
0.0
 40
45.0
 41
0.0
 71
     5
 72
     1
  1
\A1;68
  7
LCTX15-400-0-0pDIN-Schrift
 11
6.123031769111886E-17
 21
1.0
 31
0.0
 73
     1
 44
1.0
  0
POINT
  5
665
330
65D
100
AcDbEntity
  8
Defpoints
 62
     0
100
AcDbPoint
 10
61.464736
 20
554.676818
 30
0.0
  0
POINT
  5
666
330
65D
100
AcDbEntity
  8
Defpoints
 62
     0
100
AcDbPoint
 10
347.964736
 20
486.676818
 30
0.0
  0
POINT
  5
667
330
65D
100
AcDbEntity
  8
Defpoints
 62
     0
100
AcDbPoint
 10
271.836565
 20
486.676818
 30
0.0
  0
ENDBLK
  5
669
330
65D
100
AcDbEntity
  8
0
100
AcDbBlockEnd
  0
BLOCK
  5
679
330
678
100
AcDbEntity
  8
0
100
AcDbBlockBegin
  2
POLY15
 70
     0
 71
     0
 10
0.0
 20
0.0
 30
0.0
  3
POLY15
  1

  4
POLY15
  0
LINE
  5
67B
330
678
100
AcDbEntity
  8
LC-001-100-D00-0
 62
     7
370
    50
100
AcDbLine
 10
620.464737
 20
494.776814
 30
0.0
 11
620.464737
 21
494.776814
 31
0.0
  0
LINE
  5
67C
330
678
100
AcDbEntity
  8
LC-001-100-D00-0
 62
     7
370
    50
100
AcDbLine
 10
620.464737
 20
494.776814
 30
0.0
 11
620.344514
 21
494.776814
 31
0.0
  0
LINE
  5
67D
330
678
100
AcDbEntity
  8
LC-001-100-D00-0
 62
     7
370
    50
100
AcDbLine
 10
620.344514
 20
494.776814
 30
0.0
 11
620.344514
 21
494.776814
 31
0.0
  0
LINE
  5
67E
330
678
100
AcDbEntity
  8
LC-001-100-D00-0
 62
     7
370
    50
100
AcDbLine
 10
620.344514
 20
494.776814
 30
0.0
 11
620.159574
 21
494.776814
 31
0.0
  0
LINE
  5
67F
330
678
100
AcDbEntity
  8
LC-001-100-D00-0
 62
     7
370
    50
100
AcDbLine
 10
620.159574
 20
494.776814
 30
0.0
 11
620.159574
 21
494.776814
 31
0.0
  0
LINE
  5
680
330
678
100
AcDbEntity
  8
LC-001-100-D00-0
 62
     7
370
    50
100
AcDbLine
 10
620.159574
 20
494.776814
 30
0.0
 11
619.037296
 21
494.776814
 31
0.0
  0
LINE
  5
681
330
678
100
AcDbEntity
  8
LC-001-100-D00-0
 62
     7
370
    50
100
AcDbLine
 10
619.037296
 20
494.776814
 30
0.0
 11
619.037296
 21
494.776814
 31
0.0
  0
LINE
  5
682
330
678
100
AcDbEntity
  8
LC-001-100-D00-0
 62
     7
370
    50
100
AcDbLine
 10
619.037296
 20
494.776814
 30
0.0
 11
617.875742
 21
494.776814
 31
0.0
  0
LINE
  5
683
330
678
100
AcDbEntity
  8
LC-001-100-D00-0
 62
     7
370
    50
100
AcDbLine
 10
617.875742
 20
494.776814
 30
0.0
 11
617.875742
 21
494.776814
 31
0.0
  0
LINE
  5
684
330
678
100
AcDbEntity
  8
LC-001-100-D00-0
 62
     7
370
    50
100
AcDbLine
 10
617.875742
 20
494.776814
 30
0.0
 11
616.43388
 21
494.776814
 31
0.0
  0
LINE
  5
685
330
678
100
AcDbEntity
  8
LC-001-100-D00-0
 62
     7
370
    50
100
AcDbLine
 10
616.43388
 20
494.776814
 30
0.0
 11
616.43388
 21
494.776814
 31
0.0
  0
LINE
  5
686
330
678
100
AcDbEntity
  8
LC-001-100-D00-0
 62
     7
370
    50
100
AcDbLine
 10
616.43388
 20
494.776814
 30
0.0
 11
614.338535
 21
494.776814
 31
0.0
  0
LINE
  5
687
330
678
100
AcDbEntity
  8
LC-001-100-D00-0
 62
     7
370
    50
100
AcDbLine
 10
614.338535
 20
494.776814
 30
0.0
 11
614.338535
 21
494.776814
 31
0.0
  0
LINE
  5
688
330
678
100
AcDbEntity
  8
LC-001-100-D00-0
 62
     7
370
    50
100
AcDbLine
 10
614.338535
 20
494.776814
 30
0.0
 11
611.464737
 21
494.776814
 31
0.0
  0
LINE
  5
689
330
678
100
AcDbEntity
  8
LC-001-100-D00-0
 62
     7
370
    50
100
AcDbLine
 10
611.464737
 20
494.776814
 30
0.0
 11
611.464737
 21
494.776814
 31
0.0
  0
LINE
  5
68A
330
678
100
AcDbEntity
  8
LC-001-100-D00-0
 62
     7
370
    50
100
AcDbLine
 10
611.464737
 20
494.776814
 30
0.0
 11
608.590939
 21
494.776814
 31
0.0
  0
LINE
  5
68B
330
678
100
AcDbEntity
  8
LC-001-100-D00-0
 62
     7
370
    50
100
AcDbLine
 10
608.590939
 20
494.776814
 30
0.0
 11
608.590939
 21
494.776814
 31
0.0
  0
LINE
  5
68C
330
678
100
AcDbEntity
  8
LC-001-100-D00-0
 62
     7
370
    50
100
AcDbLine
 10
608.590939
 20
494.776814
 30
0.0
 11
606.495591
 21
494.776814
 31
0.0
  0
LINE
  5
68D
330
678
100
AcDbEntity
  8
LC-001-100-D00-0
 62
     7
370
    50
100
AcDbLine
 10
606.495591
 20
494.776814
 30
0.0
 11
606.495591
 21
494.776814
 31
0.0
  0
LINE
  5
68E
330
678
100
AcDbEntity
  8
LC-001-100-D00-0
 62
     7
370
    50
100
AcDbLine
 10
606.495591
 20
494.776814
 30
0.0
 11
605.053733
 21
494.776814
 31
0.0
  0
LINE
  5
68F
330
678
100
AcDbEntity
  8
LC-001-100-D00-0
 62
     7
370
    50
100
AcDbLine
 10
605.053733
 20
494.776814
 30
0.0
 11
605.053733
 21
494.776814
 31
0.0
  0
LINE
  5
690
330
678
100
AcDbEntity
  8
LC-001-100-D00-0
 62
     7
370
    50
100
AcDbLine
 10
605.053733
 20
494.776814
 30
0.0
 11
603.892174
 21
494.776814
 31
0.0
  0
LINE
  5
691
330
678
100
AcDbEntity
  8
LC-001-100-D00-0
 62
     7
370
    50
100
AcDbLine
 10
603.892174
 20
494.776814
 30
0.0
 11
603.892174
 21
494.776814
 31
0.0
  0
LINE
  5
692
330
678
100
AcDbEntity
  8
LC-001-100-D00-0
 62
     7
370
    50
100
AcDbLine
 10
603.892174
 20
494.776814
 30
0.0
 11
602.769896
 21
494.776814
 31
0.0
  0
LINE
  5
693
330
678
100
AcDbEntity
  8
LC-001-100-D00-0
 62
     7
370
    50
100
AcDbLine
 10
602.769896
 20
494.776814
 30
0.0
 11
602.769896
 21
494.776814
 31
0.0
  0
LINE
  5
694
330
678
100
AcDbEntity
  8
LC-001-100-D00-0
 62
     7
370
    50
100
AcDbLine
 10
602.769896
 20
494.776814
 30
0.0
 11
602.584958
 21
494.776814
 31
0.0
  0
LINE
  5
695
330
678
100
AcDbEntity
  8
LC-001-100-D00-0
 62
     7
370
    50
100
AcDbLine
 10
602.584958
 20
494.776814
 30
0.0
 11
602.584958
 21
494.776814
 31
0.0
  0
LINE
  5
696
330
678
100
AcDbEntity
  8
LC-001-100-D00-0
 62
     7
370
    50
100
AcDbLine
 10
602.584958
 20
494.776814
 30
0.0
 11
602.464738
 21
494.776814
 31
0.0
  0
ENDBLK
  5
67A
330
678
100
AcDbEntity
  8
0
100
AcDbBlockEnd
  0
BLOCK
  5
6AC
330
6A1
100
AcDbEntity
  8
0
100
AcDbBlockBegin
  2
*D62
 70
     1
 71
     0
 10
0.0
 20
0.0
 30
0.0
  3
*D62
  1

  0
LINE
  5
6A2
330
6A1
100
AcDbEntity
  8
LC-002-003-----0
 62
     2
370
    -2
100
AcDbLine
 10
711.464732
 20
554.776813
 30
0.0
 11
885.155427
 21
554.776813
 31
0.0
  0
LINE
  5
6A3
330
6A1
100
AcDbEntity
  8
LC-002-003-----0
 62
     2
370
    -2
100
AcDbLine
 10
620.964738
 20
486.776813
 30
0.0
 11
885.155427
 21
486.776813
 31
0.0
  0
LINE
  5
6A4
330
6A1
100
AcDbEntity
  8
LC-002-003-----0
 62
     2
370
    -2
100
AcDbLine
 10
876.155427
 20
436.776813
 30
0.0
 11
876.155427
 21
386.776813
 31
0.0
  0
LINE
  5
6A5
330
6A1
100
AcDbEntity
  8
LC-002-003-----0
 62
     2
370
    -2
100
AcDbLine
 10
876.155427
 20
604.776813
 30
0.0
 11
876.155427
 21
735.775206
 31
0.0
  0
SOLID
  5
6A6
330
6A1
100
AcDbEntity
  8
LC-002-003-----0
 62
     2
100
AcDbTrace
 10
867.822094
 20
604.776813
 30
0.0
 11
884.488761
 21
604.776813
 31
0.0
 12
876.155427
 22
554.776813
 32
0.0
 13
876.155427
 23
554.776813
 33
0.0
  0
SOLID
  5
6A7
330
6A1
100
AcDbEntity
  8
LC-002-003-----0
 62
     2
100
AcDbTrace
 10
884.488761
 20
436.776813
 30
0.0
 11
867.822094
 21
436.776813
 31
0.0
 12
876.155427
 22
486.776813
 32
0.0
 13
876.155427
 23
486.776813
 33
0.0
  0
MTEXT
  5
6A8
330
6A1
100
AcDbEntity
  8
LC-002-003-----0
 62
     2
100
AcDbMText
 10
821.155427
 20
583.485818
 30
0.0
 40
50.0
 41
0.0
 71
     5
 72
     1
  1
\A1;68-129,5
  7
LCTX15-400-0-0pDIN-Schrift
 11
6.123031769111886E-17
 21
1.0
 31
0.0
 73
     1
 44
1.0
  0
POINT
  5
6A9
330
6A1
100
AcDbEntity
  8
Defpoints
 62
     0
100
AcDbPoint
 10
711.464732
 20
554.776813
 30
0.0
  0
POINT
  5
6AA
330
6A1
100
AcDbEntity
  8
Defpoints
 62
     0
100
AcDbPoint
 10
620.964738
 20
486.776813
 30
0.0
  0
POINT
  5
6AB
330
6A1
100
AcDbEntity
  8
Defpoints
 62
     0
100
AcDbPoint
 10
876.155427
 20
486.776813
 30
0.0
  0
ENDBLK
  5
6AD
330
6A1
100
AcDbEntity
  8
0
100
AcDbBlockEnd
  0
BLOCK
  5
6B7
330
6B6
100
AcDbEntity
  8
0
100
AcDbBlockBegin
  2
POLY16
 70
     0
 71
     0
 10
0.0
 20
0.0
 30
0.0
  3
POLY16
  1

  4
POLY16
  0
LINE
  5
6B9
330
6B6
100
AcDbEntity
  8
LC-001-100-D00-0
 62
     7
370
    50
100
AcDbLine
 10
202.464736
 20
494.776814
 30
0.0
 11
202.464736
 21
494.776814
 31
0.0
  0
LINE
  5
6BA
330
6B6
100
AcDbEntity
  8
LC-001-100-D00-0
 62
     7
370
    50
100
AcDbLine
 10
202.464736
 20
494.776814
 30
0.0
 11
202.584958
 21
494.776814
 31
0.0
  0
LINE
  5
6BB
330
6B6
100
AcDbEntity
  8
LC-001-100-D00-0
 62
     7
370
    50
100
AcDbLine
 10
202.584958
 20
494.776814
 30
0.0
 11
202.584958
 21
494.776814
 31
0.0
  0
LINE
  5
6BC
330
6B6
100
AcDbEntity
  8
LC-001-100-D00-0
 62
     7
370
    50
100
AcDbLine
 10
202.584958
 20
494.776814
 30
0.0
 11
202.769899
 21
494.776814
 31
0.0
  0
LINE
  5
6BD
330
6B6
100
AcDbEntity
  8
LC-001-100-D00-0
 62
     7
370
    50
100
AcDbLine
 10
202.769899
 20
494.776814
 30
0.0
 11
202.769899
 21
494.776814
 31
0.0
  0
LINE
  5
6BE
330
6B6
100
AcDbEntity
  8
LC-001-100-D00-0
 62
     7
370
    50
100
AcDbLine
 10
202.769899
 20
494.776814
 30
0.0
 11
203.892176
 21
494.776814
 31
0.0
  0
LINE
  5
6BF
330
6B6
100
AcDbEntity
  8
LC-001-100-D00-0
 62
     7
370
    50
100
AcDbLine
 10
203.892176
 20
494.776814
 30
0.0
 11
203.892176
 21
494.776814
 31
0.0
  0
LINE
  5
6C0
330
6B6
100
AcDbEntity
  8
LC-001-100-D00-0
 62
     7
370
    50
100
AcDbLine
 10
203.892176
 20
494.776814
 30
0.0
 11
205.053731
 21
494.776814
 31
0.0
  0
LINE
  5
6C1
330
6B6
100
AcDbEntity
  8
LC-001-100-D00-0
 62
     7
370
    50
100
AcDbLine
 10
205.053731
 20
494.776814
 30
0.0
 11
205.053731
 21
494.776814
 31
0.0
  0
LINE
  5
6C2
330
6B6
100
AcDbEntity
  8
LC-001-100-D00-0
 62
     7
370
    50
100
AcDbLine
 10
205.053731
 20
494.776814
 30
0.0
 11
206.495593
 21
494.776814
 31
0.0
  0
LINE
  5
6C3
330
6B6
100
AcDbEntity
  8
LC-001-100-D00-0
 62
     7
370
    50
100
AcDbLine
 10
206.495593
 20
494.776814
 30
0.0
 11
206.495593
 21
494.776814
 31
0.0
  0
LINE
  5
6C4
330
6B6
100
AcDbEntity
  8
LC-001-100-D00-0
 62
     7
370
    50
100
AcDbLine
 10
206.495593
 20
494.776814
 30
0.0
 11
208.590937
 21
494.776814
 31
0.0
  0
LINE
  5
6C5
330
6B6
100
AcDbEntity
  8
LC-001-100-D00-0
 62
     7
370
    50
100
AcDbLine
 10
208.590937
 20
494.776814
 30
0.0
 11
208.590937
 21
494.776814
 31
0.0
  0
LINE
  5
6C6
330
6B6
100
AcDbEntity
  8
LC-001-100-D00-0
 62
     7
370
    50
100
AcDbLine
 10
208.590937
 20
494.776814
 30
0.0
 11
211.464736
 21
494.776814
 31
0.0
  0
LINE
  5
6C7
330
6B6
100
AcDbEntity
  8
LC-001-100-D00-0
 62
     7
370
    50
100
AcDbLine
 10
211.464736
 20
494.776814
 30
0.0
 11
211.464736
 21
494.776814
 31
0.0
  0
LINE
  5
6C8
330
6B6
100
AcDbEntity
  8
LC-001-100-D00-0
 62
     7
370
    50
100
AcDbLine
 10
211.464736
 20
494.776814
 30
0.0
 11
214.338534
 21
494.776814
 31
0.0
  0
LINE
  5
6C9
330
6B6
100
AcDbEntity
  8
LC-001-100-D00-0
 62
     7
370
    50
100
AcDbLine
 10
214.338534
 20
494.776814
 30
0.0
 11
214.338534
 21
494.776814
 31
0.0
  0
LINE
  5
6CA
330
6B6
100
AcDbEntity
  8
LC-001-100-D00-0
 62
     7
370
    50
100
AcDbLine
 10
214.338534
 20
494.776814
 30
0.0
 11
216.433882
 21
494.776814
 31
0.0
  0
LINE
  5
6CB
330
6B6
100
AcDbEntity
  8
LC-001-100-D00-0
 62
     7
370
    50
100
AcDbLine
 10
216.433882
 20
494.776814
 30
0.0
 11
216.433882
 21
494.776814
 31
0.0
  0
LINE
  5
6CC
330
6B6
100
AcDbEntity
  8
LC-001-100-D00-0
 62
     7
370
    50
100
AcDbLine
 10
216.433882
 20
494.776814
 30
0.0
 11
217.87574
 21
494.776814
 31
0.0
  0
LINE
  5
6CD
330
6B6
100
AcDbEntity
  8
LC-001-100-D00-0
 62
     7
370
    50
100
AcDbLine
 10
217.87574
 20
494.776814
 30
0.0
 11
217.87574
 21
494.776814
 31
0.0
  0
LINE
  5
6CE
330
6B6
100
AcDbEntity
  8
LC-001-100-D00-0
 62
     7
370
    50
100
AcDbLine
 10
217.87574
 20
494.776814
 30
0.0
 11
219.037299
 21
494.776814
 31
0.0
  0
LINE
  5
6CF
330
6B6
100
AcDbEntity
  8
LC-001-100-D00-0
 62
     7
370
    50
100
AcDbLine
 10
219.037299
 20
494.776814
 30
0.0
 11
219.037299
 21
494.776814
 31
0.0
  0
LINE
  5
6D0
330
6B6
100
AcDbEntity
  8
LC-001-100-D00-0
 62
     7
370
    50
100
AcDbLine
 10
219.037299
 20
494.776814
 30
0.0
 11
220.159576
 21
494.776814
 31
0.0
  0
LINE
  5
6D1
330
6B6
100
AcDbEntity
  8
LC-001-100-D00-0
 62
     7
370
    50
100
AcDbLine
 10
220.159576
 20
494.776814
 30
0.0
 11
220.159576
 21
494.776814
 31
0.0
  0
LINE
  5
6D2
330
6B6
100
AcDbEntity
  8
LC-001-100-D00-0
 62
     7
370
    50
100
AcDbLine
 10
220.159576
 20
494.776814
 30
0.0
 11
220.344514
 21
494.776814
 31
0.0
  0
LINE
  5
6D3
330
6B6
100
AcDbEntity
  8
LC-001-100-D00-0
 62
     7
370
    50
100
AcDbLine
 10
220.344514
 20
494.776814
 30
0.0
 11
220.344514
 21
494.776814
 31
0.0
  0
LINE
  5
6D4
330
6B6
100
AcDbEntity
  8
LC-001-100-D00-0
 62
     7
370
    50
100
AcDbLine
 10
220.344514
 20
494.776814
 30
0.0
 11
220.464735
 21
494.776814
 31
0.0
  0
ENDBLK
  5
6B8
330
6B6
100
AcDbEntity
  8
0
100
AcDbBlockEnd
  0
BLOCK
  5
6EC
330
6EB
100
AcDbEntity
  8
0
100
AcDbBlockBegin
  2
POLY17
 70
     0
 71
     0
 10
0.0
 20
0.0
 30
0.0
  3
POLY17
  1

  4
POLY17
  0
LINE
  5
6EE
330
6EB
100
AcDbEntity
  8
LC-001-100-D00-0
 62
     7
370
    50
100
AcDbLine
 10
-37.054242
 20
494.776815
 30
0.0
 11
-37.054242
 21
494.776815
 31
0.0
  0
LINE
  5
6EF
330
6EB
100
AcDbEntity
  8
LC-001-100-D00-0
 62
     7
370
    50
100
AcDbLine
 10
-37.054242
 20
494.776815
 30
0.0
 11
-36.934019
 21
494.776815
 31
0.0
  0
LINE
  5
6F0
330
6EB
100
AcDbEntity
  8
LC-001-100-D00-0
 62
     7
370
    50
100
AcDbLine
 10
-36.934019
 20
494.776815
 30
0.0
 11
-36.934019
 21
494.776815
 31
0.0
  0
LINE
  5
6F1
330
6EB
100
AcDbEntity
  8
LC-001-100-D00-0
 62
     7
370
    50
100
AcDbLine
 10
-36.934019
 20
494.776815
 30
0.0
 11
-36.749079
 21
494.776815
 31
0.0
  0
LINE
  5
6F2
330
6EB
100
AcDbEntity
  8
LC-001-100-D00-0
 62
     7
370
    50
100
AcDbLine
 10
-36.749079
 20
494.776815
 30
0.0
 11
-36.749079
 21
494.776815
 31
0.0
  0
LINE
  5
6F3
330
6EB
100
AcDbEntity
  8
LC-001-100-D00-0
 62
     7
370
    50
100
AcDbLine
 10
-36.749079
 20
494.776815
 30
0.0
 11
-35.626801
 21
494.776815
 31
0.0
  0
LINE
  5
6F4
330
6EB
100
AcDbEntity
  8
LC-001-100-D00-0
 62
     7
370
    50
100
AcDbLine
 10
-35.626801
 20
494.776815
 30
0.0
 11
-35.626801
 21
494.776815
 31
0.0
  0
LINE
  5
6F5
330
6EB
100
AcDbEntity
  8
LC-001-100-D00-0
 62
     7
370
    50
100
AcDbLine
 10
-35.626801
 20
494.776815
 30
0.0
 11
-34.465247
 21
494.776815
 31
0.0
  0
LINE
  5
6F6
330
6EB
100
AcDbEntity
  8
LC-001-100-D00-0
 62
     7
370
    50
100
AcDbLine
 10
-34.465247
 20
494.776815
 30
0.0
 11
-34.465247
 21
494.776815
 31
0.0
  0
LINE
  5
6F7
330
6EB
100
AcDbEntity
  8
LC-001-100-D00-0
 62
     7
370
    50
100
AcDbLine
 10
-34.465247
 20
494.776815
 30
0.0
 11
-33.023385
 21
494.776815
 31
0.0
  0
LINE
  5
6F8
330
6EB
100
AcDbEntity
  8
LC-001-100-D00-0
 62
     7
370
    50
100
AcDbLine
 10
-33.023385
 20
494.776815
 30
0.0
 11
-33.023385
 21
494.776815
 31
0.0
  0
LINE
  5
6F9
330
6EB
100
AcDbEntity
  8
LC-001-100-D00-0
 62
     7
370
    50
100
AcDbLine
 10
-33.023385
 20
494.776815
 30
0.0
 11
-30.92804
 21
494.776815
 31
0.0
  0
LINE
  5
6FA
330
6EB
100
AcDbEntity
  8
LC-001-100-D00-0
 62
     7
370
    50
100
AcDbLine
 10
-30.92804
 20
494.776815
 30
0.0
 11
-30.92804
 21
494.776815
 31
0.0
  0
LINE
  5
6FB
330
6EB
100
AcDbEntity
  8
LC-001-100-D00-0
 62
     7
370
    50
100
AcDbLine
 10
-30.92804
 20
494.776815
 30
0.0
 11
-28.054242
 21
494.776815
 31
0.0
  0
LINE
  5
6FC
330
6EB
100
AcDbEntity
  8
LC-001-100-D00-0
 62
     7
370
    50
100
AcDbLine
 10
-28.054242
 20
494.776815
 30
0.0
 11
-28.054242
 21
494.776815
 31
0.0
  0
LINE
  5
6FD
330
6EB
100
AcDbEntity
  8
LC-001-100-D00-0
 62
     7
370
    50
100
AcDbLine
 10
-28.054242
 20
494.776815
 30
0.0
 11
-25.180444
 21
494.776815
 31
0.0
  0
LINE
  5
6FE
330
6EB
100
AcDbEntity
  8
LC-001-100-D00-0
 62
     7
370
    50
100
AcDbLine
 10
-25.180444
 20
494.776815
 30
0.0
 11
-25.180444
 21
494.776815
 31
0.0
  0
LINE
  5
6FF
330
6EB
100
AcDbEntity
  8
LC-001-100-D00-0
 62
     7
370
    50
100
AcDbLine
 10
-25.180444
 20
494.776815
 30
0.0
 11
-23.085096
 21
494.776815
 31
0.0
  0
LINE
  5
700
330
6EB
100
AcDbEntity
  8
LC-001-100-D00-0
 62
     7
370
    50
100
AcDbLine
 10
-23.085096
 20
494.776815
 30
0.0
 11
-23.085096
 21
494.776815
 31
0.0
  0
LINE
  5
701
330
6EB
100
AcDbEntity
  8
LC-001-100-D00-0
 62
     7
370
    50
100
AcDbLine
 10
-23.085096
 20
494.776815
 30
0.0
 11
-21.643238
 21
494.776815
 31
0.0
  0
LINE
  5
702
330
6EB
100
AcDbEntity
  8
LC-001-100-D00-0
 62
     7
370
    50
100
AcDbLine
 10
-21.643238
 20
494.776815
 30
0.0
 11
-21.643238
 21
494.776815
 31
0.0
  0
LINE
  5
703
330
6EB
100
AcDbEntity
  8
LC-001-100-D00-0
 62
     7
370
    50
100
AcDbLine
 10
-21.643238
 20
494.776815
 30
0.0
 11
-20.481679
 21
494.776815
 31
0.0
  0
LINE
  5
704
330
6EB
100
AcDbEntity
  8
LC-001-100-D00-0
 62
     7
370
    50
100
AcDbLine
 10
-20.481679
 20
494.776815
 30
0.0
 11
-20.481679
 21
494.776815
 31
0.0
  0
LINE
  5
705
330
6EB
100
AcDbEntity
  8
LC-001-100-D00-0
 62
     7
370
    50
100
AcDbLine
 10
-20.481679
 20
494.776815
 30
0.0
 11
-19.359401
 21
494.776815
 31
0.0
  0
LINE
  5
706
330
6EB
100
AcDbEntity
  8
LC-001-100-D00-0
 62
     7
370
    50
100
AcDbLine
 10
-19.359401
 20
494.776815
 30
0.0
 11
-19.359401
 21
494.776815
 31
0.0
  0
LINE
  5
707
330
6EB
100
AcDbEntity
  8
LC-001-100-D00-0
 62
     7
370
    50
100
AcDbLine
 10
-19.359401
 20
494.776815
 30
0.0
 11
-19.174463
 21
494.776815
 31
0.0
  0
LINE
  5
708
330
6EB
100
AcDbEntity
  8
LC-001-100-D00-0
 62
     7
370
    50
100
AcDbLine
 10
-19.174463
 20
494.776815
 30
0.0
 11
-19.174463
 21
494.776815
 31
0.0
  0
LINE
  5
709
330
6EB
100
AcDbEntity
  8
LC-001-100-D00-0
 62
     7
370
    50
100
AcDbLine
 10
-19.174463
 20
494.776815
 30
0.0
 11
-19.054243
 21
494.776815
 31
0.0
  0
ENDBLK
  5
6ED
330
6EB
100
AcDbEntity
  8
0
100
AcDbBlockEnd
  0
ENDSEC
  0
SECTION
  2
ENTITIES
  0
ARC
  5
31
330
1F
100
AcDbEntity
  8
LC-001-100-D00-0
 62
     7
370
    50
100
AcDbCircle
 10
708.964742
 20
74.55108
 30
0.0
 40
2.5
100
AcDbArc
 50
270.0
 51
0.0
  0
LINE
  5
32
330
1F
100
AcDbEntity
  8
LC-001-100-D00-0
 62
     7
370
    50
100
AcDbLine
 10
711.464742
 20
74.55108
 30
0.0
 11
711.464742
 21
121.55108
 31
0.0
  0
ARC
  5
33
330
1F
100
AcDbEntity
  8
LC-001-100-D00-0
 62
     7
370
    50
100
AcDbCircle
 10
708.964742
 20
121.55108
 30
0.0
 40
2.5
100
AcDbArc
 50
0.0
 51
90.0
  0
LINE
  5
34
330
1F
100
AcDbEntity
  8
LC-001-100-D00-0
 62
     7
370
    50
100
AcDbLine
 10
708.964742
 20
72.05108
 30
0.0
 11
113.964742
 21
72.05108
 31
0.0
  0
LINE
  5
35
330
1F
100
AcDbEntity
  8
LC-001-100-D00-0
 62
     7
370
    50
100
AcDbLine
 10
113.964742
 20
124.05108
 30
0.0
 11
708.964742
 21
124.05108
 31
0.0
  0
ARC
  5
36
330
1F
100
AcDbEntity
  8
LC-001-100-D00-0
 62
     7
370
    50
100
AcDbCircle
 10
113.964742
 20
121.55108
 30
0.0
 40
2.5
100
AcDbArc
 50
90.0
 51
180.0
  0
ARC
  5
37
330
1F
100
AcDbEntity
  8
LC-001-100-D00-0
 62
     7
370
    50
100
AcDbCircle
 10
113.964742
 20
74.55108
 30
0.0
 40
2.5
100
AcDbArc
 50
180.0
 51
270.0
  0
LINE
  5
38
330
1F
100
AcDbEntity
  8
LC-001-100-D00-0
 62
     7
370
    50
100
AcDbLine
 10
111.464742
 20
74.55108
 30
0.0
 11
111.464742
 21
121.55108
 31
0.0
  0
ARC
  5
39
330
1F
100
AcDbEntity
  8
LC-001-100-D00-0
 62
     7
370
    50
100
AcDbCircle
 10
66.464742
 20
170.55108
 30
0.0
 40
5.0
100
AcDbArc
 50
90.0
 51
180.0
  0
LINE
  5
3A
330
1F
100
AcDbEntity
  8
LC-001-100-D00-0
 62
     7
370
    25
100
AcDbLine
 10
756.464742
 20
175.55108
 30
0.0
 11
66.464742
 21
175.55108
 31
0.0
  0
ARC
  5
3B
330
1F
100
AcDbEntity
  8
LC-001-100-D00-0
 62
     7
370
    50
100
AcDbCircle
 10
756.464742
 20
170.55108
 30
0.0
 40
5.0
100
AcDbArc
 50
0.0
 51
90.0
  0
LINE
  5
3C
330
1F
100
AcDbEntity
  8
LC-001-100-D00-0
 62
     7
370
    50
100
AcDbLine
 10
66.464742
 20
20.55108
 30
0.0
 11
756.464742
 21
20.55108
 31
0.0
  0
ARC
  5
3D
330
1F
100
AcDbEntity
  8
LC-001-100-D00-0
 62
     7
370
    50
100
AcDbCircle
 10
66.464742
 20
25.55108
 30
0.0
 40
5.0
100
AcDbArc
 50
180.0
 51
270.0
  0
LINE
  5
3E
330
1F
100
AcDbEntity
  8
LC-001-100-D00-0
 62
     7
370
    50
100
AcDbLine
 10
61.464742
 20
170.55108
 30
0.0
 11
61.464742
 21
25.55108
 31
0.0
  0
ARC
  5
3F
330
1F
100
AcDbEntity
  8
LC-001-100-D00-0
 62
     7
370
    50
100
AcDbCircle
 10
756.464742
 20
25.55108
 30
0.0
 40
5.0
100
AcDbArc
 50
270.0
 51
0.0
  0
LINE
  5
40
330
1F
100
AcDbEntity
  8
LC-001-100-D00-0
 62
     7
370
    50
100
AcDbLine
 10
761.464742
 20
170.55108
 30
0.0
 11
761.464742
 21
25.55108
 31
0.0
  0
CIRCLE
  5
41
330
1F
100
AcDbEntity
  8
LC-001-100-D00-0
 62
     7
370
    50
100
AcDbCircle
 10
681.464742
 20
98.05108
 30
0.0
 40
3.000000000000227
  0
CIRCLE
  5
42
330
1F
100
AcDbEntity
  8
LC-001-100-D00-0
 62
     7
370
    50
100
AcDbCircle
 10
511.464742
 20
98.05108
 30
0.0
 40
2.999999999999886
  0
CIRCLE
  5
43
330
1F
100
AcDbEntity
  8
LC-001-100-D00-0
 62
     7
370
    50
100
AcDbCircle
 10
311.464742
 20
98.05108
 30
0.0
 40
3.000000000000227
  0
CIRCLE
  5
44
330
1F
100
AcDbEntity
  8
LC-001-100-D00-0
 62
     7
370
    50
100
AcDbCircle
 10
141.464742
 20
98.05108
 30
0.0
 40
3.000000000000227
  0
INSERT
  5
4A
330
1F
100
AcDbEntity
  8
LC-001-100-D00-0
 62
     7
370
    50
100
AcDbBlockReference
  2
KLON1
 10
0.0
 20
0.0
 30
0.0
  0
LINE
  5
4B
330
1F
100
AcDbEntity
  8
LC-001-100-D00-0
 62
     7
370
    50
100
AcDbLine
 10
703.438542
 20
85.728411
 30
0.0
 11
703.438542
 21
74.551081
 31
0.0
  0
ARC
  5
4C
330
1F
100
AcDbEntity
  8
LC-001-100-D00-0
 62
     7
370
    50
100
AcDbCircle
 10
1466.624703
 20
-33.563085
 30
0.0
 40
772.4529614869404
100
AcDbArc
 50
171.103568
 51
171.116141
  0
INSERT
  5
54
330
1F
100
AcDbEntity
  8
LC-001-100-D00-0
 62
     7
370
    50
100
AcDbBlockReference
  2
KLON2
 10
0.0
 20
0.0
 30
0.0
  0
LINE
  5
55
330
1F
100
AcDbEntity
  8
LC-001-100-D00-0
 62
     7
370
    50
100
AcDbLine
 10
703.438542
 20
121.536441
 30
0.0
 11
703.438542
 21
110.373749
 31
0.0
  0
INSERT
  5
5B
330
1F
100
AcDbEntity
  8
LC-001-100-D00-0
 62
     7
370
    50
100
AcDbBlockReference
  2
KLON3
 10
0.0
 20
0.0
 30
0.0
  0
INSERT
  5
61
330
1F
100
AcDbEntity
  8
LC-001-100-D00-0
 62
     7
370
    50
100
AcDbBlockReference
  2
KLON4
 10
0.0
 20
0.0
 30
0.0
  0
LINE
  5
62
330
1F
100
AcDbEntity
  8
LC-001-100-D00-0
 62
     7
370
    50
100
AcDbLine
 10
119.490943
 20
121.536441
 30
0.0
 11
119.490943
 21
110.373749
 31
0.0
  0
INSERT
  5
6A
330
1F
100
AcDbEntity
  8
LC-001-100-D00-0
 62
     7
370
    50
100
AcDbBlockReference
  2
KLON5
 10
0.0
 20
0.0
 30
0.0
  0
ARC
  5
6B
330
1F
100
AcDbEntity
  8
LC-001-100-D00-0
 62
     7
370
    50
100
AcDbCircle
 10
-643.695218
 20
-33.563085
 30
0.0
 40
772.452961486941
100
AcDbArc
 50
8.883859
 51
8.896432
  0
LINE
  5
6C
330
1F
100
AcDbEntity
  8
LC-001-100-D00-0
 62
     7
370
    50
100
AcDbLine
 10
119.490943
 20
85.728411
 30
0.0
 11
119.490943
 21
74.551081
 31
0.0
  0
INSERT
  5
72
330
1F
100
AcDbEntity
  8
LC-001-100-D00-0
 62
     7
370
    50
100
AcDbBlockReference
  2
KLON6
 10
0.0
 20
0.0
 30
0.0
  0
ELLIPSE
  5
73
330
1F
100
AcDbEntity
  8
LC-001-100-D00-0
 62
     7
370
    50
100
AcDbEllipse
 10
703.391774
 20
74.55108
 30
0.0
 11
0.0
 21
-2.499999633789036
 31
0.0
210
0.0
220
0.0
230
1.0
 40
0.018242
 41
3.141592653592286
 42
4.712388980377096
  0
ELLIPSE
  5
74
330
1F
100
AcDbEntity
  8
LC-001-100-D00-0
 62
     7
370
    50
100
AcDbEllipse
 10
566.391774
 20
74.55108
 30
0.0
 11
0.0
 21
-2.500000061035156
 31
0.0
210
0.0
220
0.0
230
1.0
 40
0.018242
 41
3.141592653592286
 42
4.712388980381035
  0
ELLIPSE
  5
75
330
1F
100
AcDbEntity
  8
LC-001-100-D00-0
 62
     7
370
    50
100
AcDbEllipse
 10
771.937379
 20
74.55108
 30
0.0
 11
68.49999999987237
 21
0.0
 31
0.0
210
0.0
220
0.0
230
1.0
 40
0.036496
 41
3.141592653597683
 42
3.169858841660739
  0
ELLIPSE
  5
76
330
1F
100
AcDbEntity
  8
LC-001-100-D00-0
 62
     7
370
    50
100
AcDbEllipse
 10
119.537711
 20
74.55108
 30
0.0
 11
0.0
 21
-2.500000061035156
 31
0.0
210
0.0
220
0.0
230
1.0
 40
0.018242
 41
1.570796326802553
 42
3.141592653590105
  0
ELLIPSE
  5
77
330
1F
100
AcDbEntity
  8
LC-001-100-D00-0
 62
     7
370
    50
100
AcDbEllipse
 10
256.537711
 20
74.55108
 30
0.0
 11
0.0
 21
-2.499999954223632
 31
0.0
210
0.0
220
0.0
230
1.0
 40
0.018242
 41
1.570796326798517
 42
3.141592653591039
  0
ELLIPSE
  5
78
330
1F
100
AcDbEntity
  8
LC-001-100-D00-0
 62
     7
370
    50
100
AcDbEllipse
 10
50.992106
 20
74.55108
 30
0.0
 11
68.50000000001904
 21
0.0
 31
0.0
210
0.0
220
0.0
230
1.0
 40
0.036496
 41
6.25491911910945
 42
6.283185307179592
  0
ELLIPSE
  5
79
330
1F
100
AcDbEntity
  8
LC-001-100-D00-0
 62
     7
370
    50
100
AcDbEllipse
 10
771.937379
 20
121.55108
 30
0.0
 11
68.50000000084175
 21
0.0
 31
0.0
210
0.0
220
0.0
230
1.0
 40
0.036496
 41
3.141592653589838
 42
3.147448628039428
  0
ELLIPSE
  5
7A
330
1F
100
AcDbEntity
  8
LC-001-100-D00-0
 62
     7
370
    50
100
AcDbEllipse
 10
703.391774
 20
121.55108
 30
0.0
 11
0.0
 21
-2.500000122070309
 31
0.0
210
0.0
220
0.0
230
1.0
 40
0.018242
 41
4.712388980384673
 42
6.283185357510128
  0
ELLIPSE
  5
7B
330
1F
100
AcDbEntity
  8
LC-001-100-D00-0
 62
     7
370
    50
100
AcDbEllipse
 10
50.992106
 20
121.55108
 30
0.0
 11
68.50000000001255
 21
0.0
 31
0.0
210
0.0
220
0.0
230
1.0
 40
0.036496
 41
6.277329332730758
 42
6.283185307179598
  0
ELLIPSE
  5
7C
330
1F
100
AcDbEntity
  8
LC-001-100-D00-0
 62
     7
370
    50
100
AcDbEllipse
 10
119.537711
 20
121.55108
 30
0.0
 11
0.0
 21
-2.499999755859363
 31
0.0
210
0.0
220
0.0
230
0.9999999999999999
 40
0.018242
 41
6.28318525684904
 42
7.853981633974472
  0
ELLIPSE
  5
7D
330
1F
100
AcDbEntity
  8
LC-001-100-D00-0
 62
     7
370
    50
100
AcDbEllipse
 10
566.391774
 20
121.55108
 30
0.0
 11
0.0
 21
-2.499999816894525
 31
0.0
210
0.0
220
0.0
230
0.9999999999999999
 40
0.018242
 41
4.712388980388595
 42
6.283185315682681
  0
ELLIPSE
  5
7E
330
1F
100
AcDbEntity
  8
LC-001-100-D00-0
 62
     7
370
    50
100
AcDbEllipse
 10
256.537711
 20
121.55108
 30
0.0
 11
0.0
 21
-2.500000015258789
 31
0.0
210
0.0
220
0.0
230
1.0
 40
0.018242
 41
6.283185298685217
 42
7.853981633970721
  0
LINE
  5
7F
330
1F
100
AcDbEntity
  8
LC-001-100-D00-0
 62
     7
370
    50
100
AcDbLine
 10
566.437385
 20
74.551081
 30
0.0
 11
566.437385
 21
77.401597
 31
0.0
  0
INSERT
  5
85
330
1F
100
AcDbEntity
  8
LC-001-100-D00-0
 62
     7
370
    50
100
AcDbBlockReference
  2
KLON7
 10
0.0
 20
0.0
 30
0.0
  0
INSERT
  5
8B
330
1F
100
AcDbEntity
  8
LC-001-100-D00-0
 62
     7
370
    50
100
AcDbBlockReference
  2
KLON8
 10
0.0
 20
0.0
 30
0.0
  0
LINE
  5
8C
330
1F
100
AcDbEntity
  8
LC-001-100-D00-0
 62
     7
370
    50
100
AcDbLine
 10
256.4921
 20
74.551081
 30
0.0
 11
256.4921
 21
77.401597
 31
0.0
  0
INSERT
  5
93
330
1F
100
AcDbEntity
  8
LC-001-100-D00-0
 62
     7
370
    50
100
AcDbBlockReference
  2
KLON9
 10
0.0
 20
0.0
 30
0.0
  0
INSERT
  5
9A
330
1F
100
AcDbEntity
  8
LC-001-100-D00-0
 62
     7
370
    50
100
AcDbBlockReference
  2
KLON10
 10
0.0
 20
0.0
 30
0.0
  0
INSERT
  5
A0
330
1F
100
AcDbEntity
  8
LC-001-100-D00-0
 62
     7
370
    50
100
AcDbBlockReference
  2
KLON11
 10
0.0
 20
0.0
 30
0.0
  0
INSERT
  5
A7
330
1F
100
AcDbEntity
  8
LC-001-100-D00-0
 62
     7
370
    50
100
AcDbBlockReference
  2
KLON12
 10
0.0
 20
0.0
 30
0.0
  0
INSERT
  5
AE
330
1F
100
AcDbEntity
  8
LC-001-100-D00-0
 62
     7
370
    50
100
AcDbBlockReference
  2
KLON13
 10
0.0
 20
0.0
 30
0.0
  0
INSERT
  5
B4
330
1F
100
AcDbEntity
  8
LC-001-100-D00-0
 62
     7
370
    50
100
AcDbBlockReference
  2
KLON14
 10
0.0
 20
0.0
 30
0.0
  0
LINE
  5
B5
330
1F
100
AcDbEntity
  8
LC-001-100-D00-0
 62
     7
370
    50
100
AcDbLine
 10
566.437385
 20
118.700564
 30
0.0
 11
566.437385
 21
121.551079
 31
0.0
  0
LINE
  5
B6
330
1F
100
AcDbEntity
  8
LC-001-100-D00-0
 62
     7
370
    50
100
AcDbLine
 10
256.4921
 20
118.700564
 30
0.0
 11
256.4921
 21
121.551079
 31
0.0
  0
LINE
  5
B7
330
1F
100
AcDbEntity
  8
LC-001-100-D00-0
 62
     7
370
    50
100
AcDbLine
 10
566.451645
 20
78.195402
 30
0.0
 11
566.451645
 21
92.190129
 31
0.0
  0
ELLIPSE
  5
B8
330
1F
100
AcDbEntity
  8
LC-001-100-D00-0
 62
     7
370
    50
100
AcDbEllipse
 10
423.204931
 20
69.630272
 30
0.0
 11
143.2466513496035
 21
8.567474729948245
 31
0.0
210
0.0
220
0.0
230
1.0
 40
0.016531
 41
6.280994665939387
 42
6.282196627517144
  0
ELLIPSE
  5
B9
330
1F
100
AcDbEntity
  8
LC-001-100-D00-0
 62
     7
370
    50
100
AcDbEllipse
 10
423.204931
 20
126.471888
 30
0.0
 11
143.2466512406193
 21
-8.567474723429948
 31
0.0
210
0.0
220
0.0
230
0.9999999999999999
 40
0.016531
 41
0.0009886796640836
 42
0.0021906412417456
  0
LINE
  5
BA
330
1F
100
AcDbEntity
  8
LC-001-100-D00-0
 62
     7
370
    50
100
AcDbLine
 10
566.451645
 20
103.912031
 30
0.0
 11
566.451645
 21
117.906758
 31
0.0
  0
ELLIPSE
  5
BB
330
1F
100
AcDbEntity
  8
LC-001-100-D00-0
 62
     7
370
    50
100
AcDbEllipse
 10
399.724554
 20
69.630272
 30
0.0
 11
143.2466514774197
 21
-8.567474737593123
 31
0.0
210
0.0
220
0.0
230
1.0
 40
0.016531
 41
3.142581333253656
 42
3.143783294831356
  0
LINE
  5
BC
330
1F
100
AcDbEntity
  8
LC-001-100-D00-0
 62
     7
370
    50
100
AcDbLine
 10
256.477839
 20
78.195402
 30
0.0
 11
256.477839
 21
92.190129
 31
0.0
  0
ELLIPSE
  5
BD
330
1F
100
AcDbEntity
  8
LC-001-100-D00-0
 62
     7
370
    50
100
AcDbEllipse
 10
399.724554
 20
126.471888
 30
0.0
 11
143.2466511917647
 21
8.567474720507994
 31
0.0
210
0.0
220
0.0
230
1.0
 40
0.016531
 41
3.139402012354047
 42
3.14060397393148
  0
LINE
  5
BE
330
1F
100
AcDbEntity
  8
LC-001-100-D00-0
 62
     7
370
    50
100
AcDbLine
 10
256.477839
 20
103.912031
 30
0.0
 11
256.477839
 21
117.906758
 31
0.0
  0
LINE
  5
BF
330
1F
100
AcDbEntity
  8
LC-001-100-D00-0
 62
     7
370
    50
100
AcDbLine
 10
566.437385
 20
77.401969
 30
0.0
 11
566.451556
 21
78.192539
 31
0.0
  0
LINE
  5
C0
330
1F
100
AcDbEntity
  8
LC-001-100-D00-0
 62
     7
370
    50
100
AcDbLine
 10
566.437385
 20
118.700191
 30
0.0
 11
566.451556
 21
117.909621
 31
0.0
  0
LINE
  5
C1
330
1F
100
AcDbEntity
  8
LC-001-100-D00-0
 62
     7
370
    50
100
AcDbLine
 10
256.4921
 20
77.401969
 30
0.0
 11
256.477929
 21
78.192539
 31
0.0
  0
LINE
  5
C2
330
1F
100
AcDbEntity
  8
LC-001-100-D00-0
 62
     7
370
    50
100
AcDbLine
 10
256.4921
 20
118.700191
 30
0.0
 11
256.477929
 21
117.909621
 31
0.0
  0
LINE
  5
C3
330
1F
100
AcDbEntity
  8
LC-001-100-D00-0
 62
     7
370
    50
100
AcDbLine
 10
529.714742
 20
111.30108
 30
0.0
 11
529.714742
 21
84.80108
 31
0.0
  0
ARC
  5
C4
330
1F
100
AcDbEntity
  8
LC-001-100-D00-0
 62
     7
370
    50
100
AcDbCircle
 10
524.714742
 20
111.30108
 30
0.0
 40
5.0
100
AcDbArc
 50
0.0
 51
90.0
  0
ARC
  5
C5
330
1F
100
AcDbEntity
  8
LC-001-100-D00-0
 62
     7
370
    50
100
AcDbCircle
 10
524.714742
 20
84.80108
 30
0.0
 40
5.0
100
AcDbArc
 50
270.0
 51
0.0
  0
CIRCLE
  5
C6
330
1F
100
AcDbEntity
  8
LC-001-100-D00-0
 62
     7
370
    50
100
AcDbCircle
 10
511.464742
 20
98.05108
 30
0.0
 40
3.899999999999864
  0
LINE
  5
C7
330
1F
100
AcDbEntity
  8
LC-001-100-D00-0
 62
     7
370
    50
100
AcDbLine
 10
524.714742
 20
79.80108
 30
0.0
 11
498.214742
 21
79.80108
 31
0.0
  0
LINE
  5
C8
330
1F
100
AcDbEntity
  8
LC-001-100-D00-0
 62
     7
370
    50
100
AcDbLine
 10
498.214742
 20
116.30108
 30
0.0
 11
524.714742
 21
116.30108
 31
0.0
  0
ARC
  5
C9
330
1F
100
AcDbEntity
  8
LC-001-100-D00-0
 62
     7
370
    50
100
AcDbCircle
 10
498.214742
 20
111.30108
 30
0.0
 40
5.0
100
AcDbArc
 50
90.0
 51
180.0
  0
ARC
  5
CA
330
1F
100
AcDbEntity
  8
LC-001-100-D00-0
 62
     7
370
    50
100
AcDbCircle
 10
498.214742
 20
84.80108
 30
0.0
 40
5.0
100
AcDbArc
 50
180.0
 51
270.0
  0
LINE
  5
CB
330
1F
100
AcDbEntity
  8
LC-001-100-D00-0
 62
     7
370
    50
100
AcDbLine
 10
493.214742
 20
84.80108
 30
0.0
 11
493.214742
 21
111.30108
 31
0.0
  0
ARC
  5
CC
330
1F
100
AcDbEntity
  8
LC-001-100-D00-0
 62
     7
370
    50
100
AcDbCircle
 10
694.714742
 20
84.80108
 30
0.0
 40
5.0
100
AcDbArc
 50
270.0
 51
0.0
  0
LINE
  5
CD
330
1F
100
AcDbEntity
  8
LC-001-100-D00-0
 62
     7
370
    50
100
AcDbLine
 10
699.714742
 20
111.30108
 30
0.0
 11
699.714742
 21
84.80108
 31
0.0
  0
ARC
  5
CE
330
1F
100
AcDbEntity
  8
LC-001-100-D00-0
 62
     7
370
    50
100
AcDbCircle
 10
694.714742
 20
111.30108
 30
0.0
 40
5.0
100
AcDbArc
 50
0.0
 51
90.0
  0
CIRCLE
  5
CF
330
1F
100
AcDbEntity
  8
LC-001-100-D00-0
 62
     7
370
    50
100
AcDbCircle
 10
681.464742
 20
98.05108
 30
0.0
 40
3.899999999999864
  0
LINE
  5
D0
330
1F
100
AcDbEntity
  8
LC-001-100-D00-0
 62
     7
370
    50
100
AcDbLine
 10
694.714742
 20
79.80108
 30
0.0
 11
668.214742
 21
79.80108
 31
0.0
  0
LINE
  5
D1
330
1F
100
AcDbEntity
  8
LC-001-100-D00-0
 62
     7
370
    50
100
AcDbLine
 10
668.214742
 20
116.30108
 30
0.0
 11
694.714742
 21
116.30108
 31
0.0
  0
ARC
  5
D2
330
1F
100
AcDbEntity
  8
LC-001-100-D00-0
 62
     7
370
    50
100
AcDbCircle
 10
668.214742
 20
84.80108
 30
0.0
 40
5.0
100
AcDbArc
 50
180.0
 51
270.0
  0
ARC
  5
D3
330
1F
100
AcDbEntity
  8
LC-001-100-D00-0
 62
     7
370
    50
100
AcDbCircle
 10
668.214742
 20
111.30108
 30
0.0
 40
5.0
100
AcDbArc
 50
90.0
 51
180.0
  0
LINE
  5
D4
330
1F
100
AcDbEntity
  8
LC-001-100-D00-0
 62
     7
370
    50
100
AcDbLine
 10
663.214742
 20
84.80108
 30
0.0
 11
663.214742
 21
111.30108
 31
0.0
  0
ARC
  5
D5
330
1F
100
AcDbEntity
  8
LC-001-100-D00-0
 62
     7
370
    50
100
AcDbCircle
 10
324.714742
 20
111.30108
 30
0.0
 40
5.0
100
AcDbArc
 50
0.0
 51
90.0
  0
LINE
  5
D6
330
1F
100
AcDbEntity
  8
LC-001-100-D00-0
 62
     7
370
    50
100
AcDbLine
 10
329.714742
 20
111.30108
 30
0.0
 11
329.714742
 21
84.80108
 31
0.0
  0
ARC
  5
D7
330
1F
100
AcDbEntity
  8
LC-001-100-D00-0
 62
     7
370
    50
100
AcDbCircle
 10
324.714742
 20
84.80108
 30
0.0
 40
5.0
100
AcDbArc
 50
270.0
 51
0.0
  0
CIRCLE
  5
D8
330
1F
100
AcDbEntity
  8
LC-001-100-D00-0
 62
     7
370
    50
100
AcDbCircle
 10
311.464742
 20
98.05108
 30
0.0
 40
3.899999999999864
  0
LINE
  5
D9
330
1F
100
AcDbEntity
  8
LC-001-100-D00-0
 62
     7
370
    50
100
AcDbLine
 10
298.214742
 20
116.30108
 30
0.0
 11
324.714742
 21
116.30108
 31
0.0
  0
LINE
  5
DA
330
1F
100
AcDbEntity
  8
LC-001-100-D00-0
 62
     7
370
    50
100
AcDbLine
 10
324.714742
 20
79.80108
 30
0.0
 11
298.214742
 21
79.80108
 31
0.0
  0
ARC
  5
DB
330
1F
100
AcDbEntity
  8
LC-001-100-D00-0
 62
     7
370
    50
100
AcDbCircle
 10
298.214742
 20
84.80108
 30
0.0
 40
5.0
100
AcDbArc
 50
180.0
 51
270.0
  0
ARC
  5
DC
330
1F
100
AcDbEntity
  8
LC-001-100-D00-0
 62
     7
370
    50
100
AcDbCircle
 10
298.214742
 20
111.30108
 30
0.0
 40
5.0
100
AcDbArc
 50
90.0
 51
180.0
  0
LINE
  5
DD
330
1F
100
AcDbEntity
  8
LC-001-100-D00-0
 62
     7
370
    50
100
AcDbLine
 10
293.214742
 20
84.80108
 30
0.0
 11
293.214742
 21
111.30108
 31
0.0
  0
ARC
  5
DE
330
1F
100
AcDbEntity
  8
LC-001-100-D00-0
 62
     7
370
    50
100
AcDbCircle
 10
154.714742
 20
84.80108
 30
0.0
 40
5.0
100
AcDbArc
 50
270.0
 51
0.0
  0
ARC
  5
DF
330
1F
100
AcDbEntity
  8
LC-001-100-D00-0
 62
     7
370
    50
100
AcDbCircle
 10
154.714742
 20
111.30108
 30
0.0
 40
5.0
100
AcDbArc
 50
0.0
 51
90.0
  0
LINE
  5
E0
330
1F
100
AcDbEntity
  8
LC-001-100-D00-0
 62
     7
370
    50
100
AcDbLine
 10
159.714742
 20
111.30108
 30
0.0
 11
159.714742
 21
84.80108
 31
0.0
  0
CIRCLE
  5
E1
330
1F
100
AcDbEntity
  8
LC-001-100-D00-0
 62
     7
370
    50
100
AcDbCircle
 10
141.464742
 20
98.05108
 30
0.0
 40
3.899999999999864
  0
LINE
  5
E2
330
1F
100
AcDbEntity
  8
LC-001-100-D00-0
 62
     7
370
    50
100
AcDbLine
 10
128.214742
 20
116.30108
 30
0.0
 11
154.714742
 21
116.30108
 31
0.0
  0
LINE
  5
E3
330
1F
100
AcDbEntity
  8
LC-001-100-D00-0
 62
     7
370
    50
100
AcDbLine
 10
154.714742
 20
79.80108
 30
0.0
 11
128.214742
 21
79.80108
 31
0.0
  0
ARC
  5
E4
330
1F
100
AcDbEntity
  8
LC-001-100-D00-0
 62
     7
370
    50
100
AcDbCircle
 10
128.214742
 20
111.30108
 30
0.0
 40
5.0
100
AcDbArc
 50
90.0
 51
180.0
  0
ARC
  5
E5
330
1F
100
AcDbEntity
  8
LC-001-100-D00-0
 62
     7
370
    50
100
AcDbCircle
 10
128.214742
 20
84.80108
 30
0.0
 40
5.0
100
AcDbArc
 50
180.0
 51
270.0
  0
LINE
  5
E6
330
1F
100
AcDbEntity
  8
LC-001-100-D00-0
 62
     7
370
    50
100
AcDbLine
 10
123.214742
 20
84.80108
 30
0.0
 11
123.214742
 21
111.30108
 31
0.0
  0
DIMENSION
  5
E9
330
1F
100
AcDbEntity
  8
LC-001-100-D00-0
 62
     7
370
    25
100
AcDbDimension
  2
*D15
 10
854.006623
 20
20.55108
 30
0.0
 11
804.506623
 21
93.000287
 31
0.0
 70
   160
  1
155
 71
     5
 42
155.0
 53
90.0
  3
LC-DIM-L-0090-02-02
100
AcDbAlignedDimension
 13
756.464742
 23
175.55108
 33
0.0
 14
756.464742
 24
20.55108
 34
0.0
 50
90.0
100
AcDbRotatedDimension
  0
LINE
  5
F8
330
1F
100
AcDbEntity
  8
LC-001-100-D00-0
  6
DASHDOT
 62
     7
370
    25
100
AcDbLine
 10
56.464742
 20
98.05108
 30
0.0
 11
766.464742
 21
98.05108
 31
0.0
  0
LINE
  5
F9
330
1F
100
AcDbEntity
  8
LC-001-100-D00-0
  6
DASHDOT
 62
     7
370
    25
100
AcDbLine
 10
411.464742
 20
180.55108
 30
0.0
 11
411.464742
 21
-7.948918
 31
0.0
  0
LINE
  5
FA
330
1F
100
AcDbEntity
  8
LC-001-100-D00-0
 62
     7
370
    50
100
AcDbLine
 10
598.69124
 20
528.852968
 30
0.0
 11
598.691234
 21
526.176818
 31
0.0
  0
LINE
  5
FB
330
1F
100
AcDbEntity
  8
LC-001-100-D00-0
 62
     7
370
    50
100
AcDbLine
 10
624.238239
 20
526.176818
 30
0.0
 11
624.238238
 21
529.785341
 31
0.0
  0
LINE
  5
FC
330
1F
100
AcDbEntity
  8
LC-001-100-D00-0
 62
     7
370
    50
100
AcDbLine
 10
198.691235
 20
522.17682
 30
0.0
 11
198.691234
 21
497.176818
 31
0.0
  0
LINE
  5
FD
330
1F
100
AcDbEntity
  8
LC-001-100-D00-0
 62
     7
370
    50
100
AcDbLine
 10
224.238239
 20
497.176818
 30
0.0
 11
224.238232
 21
522.17682
 31
0.0
  0
LINE
  5
FE
330
1F
100
AcDbEntity
  8
LC-001-100-D00-0
 62
     7
370
    50
100
AcDbLine
 10
198.691235
 20
529.785341
 30
0.0
 11
198.691234
 21
526.176818
 31
0.0
  0
LINE
  5
FF
330
1F
100
AcDbEntity
  8
LC-001-100-D00-0
 62
     7
370
    50
100
AcDbLine
 10
224.238239
 20
526.176818
 30
0.0
 11
224.238232
 21
528.852968
 31
0.0
  0
LINE
  5
100
330
1F
100
AcDbEntity
  8
LC-001-100-D00-0
 62
     7
370
    50
100
AcDbLine
 10
598.69124
 20
522.17682
 30
0.0
 11
598.69124
 21
497.176807
 31
0.0
  0
LINE
  5
101
330
1F
100
AcDbEntity
  8
LC-001-100-D00-0
 62
     7
370
    50
100
AcDbLine
 10
624.238239
 20
497.176818
 30
0.0
 11
624.238238
 21
522.17682
 31
0.0
  0
LINE
  5
102
330
1F
100
AcDbEntity
  8
LC-001-100-D00-0
 62
     7
370
    50
100
AcDbLine
 10
601.464734
 20
526.176818
 30
0.0
 11
601.464734
 21
526.076819
 31
0.0
  0
LINE
  5
103
330
1F
100
AcDbEntity
  8
LC-001-100-D00-0
 62
     7
370
    50
100
AcDbLine
 10
621.46473
 20
526.076819
 30
0.0
 11
621.46473
 21
526.176818
 31
0.0
  0
ARC
  5
104
330
1F
100
AcDbEntity
  8
LC-001-100-D00-0
 62
     7
370
    50
100
AcDbCircle
 10
147.264736
 20
540.908052
 30
0.0
 40
0.6000000000003082
100
AcDbArc
 50
105.0
 51
180.0
  0
LINE
  5
105
330
1F
100
AcDbEntity
  8
LC-001-100-D00-0
 62
     7
370
    50
100
AcDbLine
 10
146.664736
 20
540.908052
 30
0.0
 11
146.664736
 21
538.445585
 31
0.0
  0
ARC
  5
106
330
1F
100
AcDbEntity
  8
LC-001-100-D00-0
 62
     7
370
    50
100
AcDbCircle
 10
147.264736
 20
538.445585
 30
0.0
 40
0.5999999999999091
100
AcDbArc
 50
180.0
 51
255.0
  0
LINE
  5
107
330
1F
100
AcDbEntity
  8
LC-001-100-D00-0
 62
     7
370
    50
100
AcDbLine
 10
147.109445
 20
537.866029
 30
0.0
 11
147.815601
 21
537.676818
 31
0.0
  0
LINE
  5
108
330
1F
100
AcDbEntity
  8
LC-001-100-D00-0
 62
     7
370
    50
100
AcDbLine
 10
147.815601
 20
535.676819
 30
0.0
 11
147.815601
 21
537.676818
 31
0.0
  0
LINE
  5
109
330
1F
100
AcDbEntity
  8
LC-001-100-D00-0
 62
     7
370
    50
100
AcDbLine
 10
147.815601
 20
535.676819
 30
0.0
 11
145.864736
 21
535.676818
 31
0.0
  0
LINE
  5
10A
330
1F
100
AcDbEntity
  8
LC-001-100-D00-0
 62
     7
370
    50
100
AcDbLine
 10
145.864736
 20
535.676818
 30
0.0
 11
144.864736
 21
536.676818
 31
0.0
  0
LINE
  5
10B
330
1F
100
AcDbEntity
  8
LC-001-100-D00-0
 62
     7
370
    50
100
AcDbLine
 10
144.864724
 20
542.676818
 30
0.0
 11
144.864736
 21
536.676818
 31
0.0
  0
LINE
  5
10C
330
1F
100
AcDbEntity
  8
LC-001-100-D00-0
 62
     7
370
    50
100
AcDbLine
 10
144.864724
 20
542.676818
 30
0.0
 11
145.864741
 21
543.676819
 31
0.0
  0
LINE
  5
10D
330
1F
100
AcDbEntity
  8
LC-001-100-D00-0
 62
     7
370
    50
100
AcDbLine
 10
147.815601
 20
543.676819
 30
0.0
 11
145.864741
 21
543.676819
 31
0.0
  0
LINE
  5
10E
330
1F
100
AcDbEntity
  8
LC-001-100-D00-0
 62
     7
370
    50
100
AcDbLine
 10
147.815601
 20
541.676818
 30
0.0
 11
147.815601
 21
543.676819
 31
0.0
  0
LINE
  5
10F
330
1F
100
AcDbEntity
  8
LC-001-100-D00-0
 62
     7
370
    50
100
AcDbLine
 10
147.815601
 20
541.676818
 30
0.0
 11
147.109445
 21
541.487608
 31
0.0
  0
LINE
  5
110
330
1F
100
AcDbEntity
  8
LC-001-100-D00-0
 62
     7
370
    50
100
AcDbLine
 10
136.264736
 20
538.445585
 30
0.0
 11
136.264736
 21
540.908052
 31
0.0
  0
LINE
  5
111
330
1F
100
AcDbEntity
  8
LC-001-100-D00-0
 62
     7
370
    50
100
AcDbLine
 10
137.064741
 20
543.676819
 30
0.0
 11
138.064728
 21
542.676818
 31
0.0
  0
LINE
  5
112
330
1F
100
AcDbEntity
  8
LC-001-100-D00-0
 62
     7
370
    50
100
AcDbLine
 10
138.064736
 20
536.676818
 30
0.0
 11
137.064736
 21
535.676818
 31
0.0
  0
LINE
  5
113
330
1F
100
AcDbEntity
  8
LC-001-100-D00-0
 62
     7
370
    50
100
AcDbLine
 10
138.064736
 20
536.676818
 30
0.0
 11
138.222576
 21
536.676818
 31
0.0
  0
LINE
  5
114
330
1F
100
AcDbEntity
  8
LC-001-100-D00-0
 62
     7
370
    50
100
AcDbLine
 10
144.706897
 20
536.676818
 30
0.0
 11
144.864736
 21
536.676818
 31
0.0
  0
LINE
  5
115
330
1F
100
AcDbEntity
  8
LC-001-100-D00-0
 62
     7
370
    50
100
AcDbLine
 10
145.864736
 20
535.676818
 30
0.0
 11
145.328955
 21
535.676818
 31
0.0
  0
LINE
  5
116
330
1F
100
AcDbEntity
  8
LC-001-100-D00-0
 62
     7
370
    50
100
AcDbLine
 10
137.600518
 20
535.676818
 30
0.0
 11
137.064736
 21
535.676818
 31
0.0
  0
LINE
  5
117
330
1F
100
AcDbEntity
  8
LC-001-100-D00-0
 62
     7
370
    50
100
AcDbLine
 10
138.064736
 20
536.676818
 30
0.0
 11
138.064728
 21
542.676818
 31
0.0
  0
LINE
  5
118
330
1F
100
AcDbEntity
  8
LC-001-100-D00-0
 62
     7
370
    50
100
AcDbLine
 10
135.113881
 20
543.676819
 30
0.0
 11
135.113881
 21
541.676818
 31
0.0
  0
LINE
  5
119
330
1F
100
AcDbEntity
  8
LC-001-100-D00-0
 62
     7
370
    50
100
AcDbLine
 10
135.113881
 20
537.676818
 30
0.0
 11
135.113881
 21
535.676819
 31
0.0
  0
LINE
  5
11A
330
1F
100
AcDbEntity
  8
LC-001-100-D00-0
 62
     7
370
    50
100
AcDbLine
 10
135.113881
 20
537.676818
 30
0.0
 11
135.820028
 21
537.866029
 31
0.0
  0
ARC
  5
11B
330
1F
100
AcDbEntity
  8
LC-001-100-D00-0
 62
     7
370
    50
100
AcDbCircle
 10
135.664736
 20
538.445585
 30
0.0
 40
0.5999999999998836
100
AcDbArc
 50
285.0
 51
0.0
  0
ARC
  5
11C
330
1F
100
AcDbEntity
  8
LC-001-100-D00-0
 62
     7
370
    50
100
AcDbCircle
 10
135.664736
 20
540.908052
 30
0.0
 40
0.6000000000002501
100
AcDbArc
 50
0.0
 51
75.0
  0
LINE
  5
11D
330
1F
100
AcDbEntity
  8
LC-001-100-D00-0
 62
     7
370
    50
100
AcDbLine
 10
135.820028
 20
541.487608
 30
0.0
 11
135.113881
 21
541.676818
 31
0.0
  0
LINE
  5
11E
330
1F
100
AcDbEntity
  8
LC-001-100-D00-0
 62
     7
370
    50
100
AcDbLine
 10
137.064736
 20
535.676818
 30
0.0
 11
135.113881
 21
535.676819
 31
0.0
  0
LINE
  5
11F
330
1F
100
AcDbEntity
  8
LC-001-100-D00-0
 62
     7
370
    50
100
AcDbLine
 10
137.064741
 20
543.676819
 30
0.0
 11
135.113881
 21
543.676819
 31
0.0
  0
LINE
  5
120
330
1F
100
AcDbEntity
  8
LC-001-100-D00-0
 62
     7
370
    50
100
AcDbLine
 10
147.815601
 20
543.676819
 30
0.0
 11
147.815601
 21
541.676818
 31
0.0
  0
LINE
  5
121
330
1F
100
AcDbEntity
  8
LC-001-100-D00-0
 62
     7
370
    50
100
AcDbLine
 10
145.364747
 20
543.676819
 30
0.0
 11
147.815601
 21
543.676819
 31
0.0
  0
LINE
  5
122
330
1F
100
AcDbEntity
  8
LC-001-100-D00-0
 62
     7
370
    50
100
AcDbLine
 10
145.364736
 20
554.676818
 30
0.0
 11
145.364747
 21
543.676819
 31
0.0
  0
LINE
  5
123
330
1F
100
AcDbEntity
  8
LC-001-100-D00-0
 62
     7
370
    50
100
AcDbLine
 10
158.714736
 20
554.676818
 30
0.0
 11
145.364736
 21
554.676818
 31
0.0
  0
ARC
  5
124
330
1F
100
AcDbEntity
  8
LC-001-100-D00-0
 62
     7
370
    50
100
AcDbCircle
 10
158.714736
 20
553.676818
 30
0.0
 40
1.0
100
AcDbArc
 50
0.0
 51
90.0
  0
LINE
  5
125
330
1F
100
AcDbEntity
  8
LC-001-100-D00-0
 62
     7
370
    50
100
AcDbLine
 10
159.714744
 20
547.676818
 30
0.0
 11
159.714736
 21
553.676818
 31
0.0
  0
LINE
  5
126
330
1F
100
AcDbEntity
  8
LC-001-100-D00-0
 62
     7
370
    50
100
AcDbLine
 10
159.714744
 20
547.676818
 30
0.0
 11
156.714736
 21
547.676818
 31
0.0
  0
LINE
  5
127
330
1F
100
AcDbEntity
  8
LC-001-100-D00-0
 62
     7
370
    50
100
AcDbLine
 10
156.714723
 20
551.676818
 30
0.0
 11
156.714736
 21
547.676818
 31
0.0
  0
LINE
  5
128
330
1F
100
AcDbEntity
  8
LC-001-100-D00-0
 62
     7
370
    50
100
AcDbLine
 10
156.714723
 20
551.676818
 30
0.0
 11
152.214736
 21
551.676818
 31
0.0
  0
ARC
  5
129
330
1F
100
AcDbEntity
  8
LC-001-100-D00-0
 62
     7
370
    50
100
AcDbCircle
 10
152.214736
 20
550.676818
 30
0.0
 40
1.000000000000227
100
AcDbArc
 50
90.0
 51
180.0
  0
LINE
  5
12A
330
1F
100
AcDbEntity
  8
LC-001-100-D00-0
 62
     7
370
    50
100
AcDbLine
 10
151.214736
 20
550.676818
 30
0.0
 11
151.214736
 21
536.676818
 31
0.0
  0
ARC
  5
12B
330
1F
100
AcDbEntity
  8
LC-001-100-D00-0
 62
     7
370
    50
100
AcDbCircle
 10
150.214736
 20
536.676818
 30
0.0
 40
1.0
100
AcDbArc
 50
270.0
 51
0.0
  0
LINE
  5
12C
330
1F
100
AcDbEntity
  8
LC-001-100-D00-0
 62
     7
370
    50
100
AcDbLine
 10
147.815601
 20
535.676819
 30
0.0
 11
150.214736
 21
535.676818
 31
0.0
  0
LINE
  5
12D
330
1F
100
AcDbEntity
  8
LC-001-100-D00-0
 62
     7
370
    50
100
AcDbLine
 10
147.815601
 20
537.676818
 30
0.0
 11
147.815601
 21
535.676819
 31
0.0
  0
LINE
  5
12E
330
1F
100
AcDbEntity
  8
LC-001-100-D00-0
 62
     7
370
    50
100
AcDbLine
 10
147.815601
 20
537.676818
 30
0.0
 11
147.164736
 21
537.676818
 31
0.0
  0
ARC
  5
12F
330
1F
100
AcDbEntity
  8
LC-001-100-D00-0
 62
     7
370
    50
100
AcDbCircle
 10
147.164736
 20
538.176818
 30
0.0
 40
0.5000000000001137
100
AcDbArc
 50
180.0
 51
270.0
  0
LINE
  5
130
330
1F
100
AcDbEntity
  8
LC-001-100-D00-0
 62
     7
370
    50
100
AcDbLine
 10
146.664736
 20
538.176818
 30
0.0
 11
146.664736
 21
541.176818
 31
0.0
  0
ARC
  5
131
330
1F
100
AcDbEntity
  8
LC-001-100-D00-0
 62
     7
370
    50
100
AcDbCircle
 10
147.164736
 20
541.176818
 30
0.0
 40
0.5
100
AcDbArc
 50
90.0
 51
180.0
  0
LINE
  5
132
330
1F
100
AcDbEntity
  8
LC-001-100-D00-0
 62
     7
370
    50
100
AcDbLine
 10
147.164736
 20
541.676818
 30
0.0
 11
147.815601
 21
541.676818
 31
0.0
  0
ARC
  5
133
330
1F
100
AcDbEntity
  8
LC-001-100-D00-0
 62
     7
370
    50
100
AcDbCircle
 10
130.714736
 20
550.676818
 30
0.0
 40
1.000000000000227
100
AcDbArc
 50
0.0
 51
90.0
  0
ARC
  5
134
330
1F
100
AcDbEntity
  8
LC-001-100-D00-0
 62
     7
370
    50
100
AcDbCircle
 10
132.714736
 20
536.676818
 30
0.0
 40
1.0
100
AcDbArc
 50
180.0
 51
270.0
  0
LINE
  5
135
330
1F
100
AcDbEntity
  8
LC-001-100-D00-0
 62
     7
370
    50
100
AcDbLine
 10
131.714736
 20
536.676818
 30
0.0
 11
131.714736
 21
550.676818
 31
0.0
  0
LINE
  5
136
330
1F
100
AcDbEntity
  8
LC-001-100-D00-0
 62
     7
370
    50
100
AcDbLine
 10
136.264736
 20
541.176818
 30
0.0
 11
136.264736
 21
538.176818
 31
0.0
  0
LINE
  5
137
330
1F
100
AcDbEntity
  8
LC-001-100-D00-0
 62
     7
370
    50
100
AcDbLine
 10
137.564734
 20
543.676819
 30
0.0
 11
137.564736
 21
554.676818
 31
0.0
  0
LINE
  5
138
330
1F
100
AcDbEntity
  8
LC-001-100-D00-0
 62
     7
370
    50
100
AcDbLine
 10
137.564736
 20
554.676818
 30
0.0
 11
145.364736
 21
554.676818
 31
0.0
  0
LINE
  5
139
330
1F
100
AcDbEntity
  8
LC-001-100-D00-0
 62
     7
370
    50
100
AcDbLine
 10
135.113881
 20
535.676819
 30
0.0
 11
135.113881
 21
537.676818
 31
0.0
  0
LINE
  5
13A
330
1F
100
AcDbEntity
  8
LC-001-100-D00-0
 62
     7
370
    50
100
AcDbLine
 10
135.113881
 20
541.676818
 30
0.0
 11
135.113881
 21
543.676819
 31
0.0
  0
ARC
  5
13B
330
1F
100
AcDbEntity
  8
LC-001-100-D00-0
 62
     7
370
    50
100
AcDbCircle
 10
135.764736
 20
541.176818
 30
0.0
 40
0.5000000000001137
100
AcDbArc
 50
0.0
 51
90.0
  0
ARC
  5
13C
330
1F
100
AcDbEntity
  8
LC-001-100-D00-0
 62
     7
370
    50
100
AcDbCircle
 10
135.764736
 20
538.176818
 30
0.0
 40
0.5
100
AcDbArc
 50
270.0
 51
0.0
  0
LINE
  5
13D
330
1F
100
AcDbEntity
  8
LC-001-100-D00-0
 62
     7
370
    50
100
AcDbLine
 10
135.764736
 20
537.676818
 30
0.0
 11
135.113881
 21
537.676818
 31
0.0
  0
LINE
  5
13E
330
1F
100
AcDbEntity
  8
LC-001-100-D00-0
 62
     7
370
    50
100
AcDbLine
 10
126.214736
 20
547.676818
 30
0.0
 11
126.214728
 21
551.676818
 31
0.0
  0
LINE
  5
13F
330
1F
100
AcDbEntity
  8
LC-001-100-D00-0
 62
     7
370
    50
100
AcDbLine
 10
123.214736
 20
553.676818
 30
0.0
 11
123.214737
 21
547.676818
 31
0.0
  0
ARC
  5
140
330
1F
100
AcDbEntity
  8
LC-001-100-D00-0
 62
     7
370
    50
100
AcDbCircle
 10
124.214736
 20
553.676818
 30
0.0
 40
0.9999999999997726
100
AcDbArc
 50
90.0
 51
180.0
  0
LINE
  5
141
330
1F
100
AcDbEntity
  8
LC-001-100-D00-0
 62
     7
370
    50
100
AcDbLine
 10
135.113881
 20
541.676818
 30
0.0
 11
135.764736
 21
541.676818
 31
0.0
  0
LINE
  5
142
330
1F
100
AcDbEntity
  8
LC-001-100-D00-0
 62
     7
370
    50
100
AcDbLine
 10
135.113881
 20
543.676819
 30
0.0
 11
137.564734
 21
543.676819
 31
0.0
  0
LINE
  5
143
330
1F
100
AcDbEntity
  8
LC-001-100-D00-0
 62
     7
370
    50
100
AcDbLine
 10
132.714736
 20
535.676818
 30
0.0
 11
135.113881
 21
535.676819
 31
0.0
  0
LINE
  5
144
330
1F
100
AcDbEntity
  8
LC-001-100-D00-0
 62
     7
370
    50
100
AcDbLine
 10
130.714736
 20
551.676818
 30
0.0
 11
126.214728
 21
551.676818
 31
0.0
  0
LINE
  5
145
330
1F
100
AcDbEntity
  8
LC-001-100-D00-0
 62
     7
370
    50
100
AcDbLine
 10
137.564736
 20
554.676818
 30
0.0
 11
124.214736
 21
554.676818
 31
0.0
  0
LINE
  5
146
330
1F
100
AcDbEntity
  8
LC-001-100-D00-0
 62
     7
370
    50
100
AcDbLine
 10
126.214736
 20
547.676818
 30
0.0
 11
123.214737
 21
547.676818
 31
0.0
  0
LINE
  5
147
330
1F
100
AcDbEntity
  8
LC-001-100-D00-0
 62
     7
370
    50
100
AcDbLine
 10
154.714736
 20
547.676818
 30
0.0
 11
156.714736
 21
547.676818
 31
0.0
  0
LINE
  5
148
330
1F
100
AcDbEntity
  8
LC-001-100-D00-0
 62
     7
370
    50
100
AcDbLine
 10
126.214736
 20
547.676818
 30
0.0
 11
128.214736
 21
547.676818
 31
0.0
  0
LINE
  5
149
330
1F
100
AcDbEntity
  8
LC-001-100-D00-0
 62
     7
370
    50
100
AcDbLine
 10
128.214736
 20
547.676818
 30
0.0
 11
131.714747
 21
547.676818
 31
0.0
  0
LINE
  5
14A
330
1F
100
AcDbEntity
  8
LC-001-100-D00-0
 62
     7
370
    50
100
AcDbLine
 10
151.214734
 20
547.676818
 30
0.0
 11
154.714736
 21
547.676818
 31
0.0
  0
ARC
  5
14B
330
1F
100
AcDbEntity
  8
LC-001-100-D00-0
 62
     7
370
    50
100
AcDbCircle
 10
317.264736
 20
540.908052
 30
0.0
 40
0.6000000000003082
100
AcDbArc
 50
105.0
 51
180.0
  0
LINE
  5
14C
330
1F
100
AcDbEntity
  8
LC-001-100-D00-0
 62
     7
370
    50
100
AcDbLine
 10
316.664736
 20
540.908052
 30
0.0
 11
316.664736
 21
538.445585
 31
0.0
  0
ARC
  5
14D
330
1F
100
AcDbEntity
  8
LC-001-100-D00-0
 62
     7
370
    50
100
AcDbCircle
 10
317.264736
 20
538.445585
 30
0.0
 40
0.5999999999999091
100
AcDbArc
 50
180.0
 51
255.0
  0
LINE
  5
14E
330
1F
100
AcDbEntity
  8
LC-001-100-D00-0
 62
     7
370
    50
100
AcDbLine
 10
317.109445
 20
537.866029
 30
0.0
 11
317.815587
 21
537.676818
 31
0.0
  0
LINE
  5
14F
330
1F
100
AcDbEntity
  8
LC-001-100-D00-0
 62
     7
370
    50
100
AcDbLine
 10
317.815587
 20
535.676819
 30
0.0
 11
317.815587
 21
537.676818
 31
0.0
  0
LINE
  5
150
330
1F
100
AcDbEntity
  8
LC-001-100-D00-0
 62
     7
370
    50
100
AcDbLine
 10
317.815587
 20
535.676819
 30
0.0
 11
315.864736
 21
535.676818
 31
0.0
  0
LINE
  5
151
330
1F
100
AcDbEntity
  8
LC-001-100-D00-0
 62
     7
370
    50
100
AcDbLine
 10
315.864736
 20
535.676818
 30
0.0
 11
314.864736
 21
536.676818
 31
0.0
  0
LINE
  5
152
330
1F
100
AcDbEntity
  8
LC-001-100-D00-0
 62
     7
370
    50
100
AcDbLine
 10
314.864733
 20
542.676818
 30
0.0
 11
314.864736
 21
536.676818
 31
0.0
  0
LINE
  5
153
330
1F
100
AcDbEntity
  8
LC-001-100-D00-0
 62
     7
370
    50
100
AcDbLine
 10
314.864733
 20
542.676818
 30
0.0
 11
315.864735
 21
543.676819
 31
0.0
  0
LINE
  5
154
330
1F
100
AcDbEntity
  8
LC-001-100-D00-0
 62
     7
370
    50
100
AcDbLine
 10
317.815587
 20
543.676819
 30
0.0
 11
315.864735
 21
543.676819
 31
0.0
  0
LINE
  5
155
330
1F
100
AcDbEntity
  8
LC-001-100-D00-0
 62
     7
370
    50
100
AcDbLine
 10
317.815587
 20
541.676818
 30
0.0
 11
317.815587
 21
543.676819
 31
0.0
  0
LINE
  5
156
330
1F
100
AcDbEntity
  8
LC-001-100-D00-0
 62
     7
370
    50
100
AcDbLine
 10
317.815587
 20
541.676818
 30
0.0
 11
317.109445
 21
541.487608
 31
0.0
  0
LINE
  5
157
330
1F
100
AcDbEntity
  8
LC-001-100-D00-0
 62
     7
370
    50
100
AcDbLine
 10
306.264736
 20
538.445585
 30
0.0
 11
306.264736
 21
540.908052
 31
0.0
  0
LINE
  5
158
330
1F
100
AcDbEntity
  8
LC-001-100-D00-0
 62
     7
370
    50
100
AcDbLine
 10
307.064735
 20
543.676819
 30
0.0
 11
308.064737
 21
542.676818
 31
0.0
  0
LINE
  5
159
330
1F
100
AcDbEntity
  8
LC-001-100-D00-0
 62
     7
370
    50
100
AcDbLine
 10
308.064736
 20
536.676818
 30
0.0
 11
307.064736
 21
535.676818
 31
0.0
  0
LINE
  5
15A
330
1F
100
AcDbEntity
  8
LC-001-100-D00-0
 62
     7
370
    50
100
AcDbLine
 10
308.064736
 20
536.676818
 30
0.0
 11
308.222576
 21
536.676818
 31
0.0
  0
LINE
  5
15B
330
1F
100
AcDbEntity
  8
LC-001-100-D00-0
 62
     7
370
    50
100
AcDbLine
 10
314.706897
 20
536.676818
 30
0.0
 11
314.864736
 21
536.676818
 31
0.0
  0
LINE
  5
15C
330
1F
100
AcDbEntity
  8
LC-001-100-D00-0
 62
     7
370
    50
100
AcDbLine
 10
315.864736
 20
535.676818
 30
0.0
 11
315.328955
 21
535.676818
 31
0.0
  0
LINE
  5
15D
330
1F
100
AcDbEntity
  8
LC-001-100-D00-0
 62
     7
370
    50
100
AcDbLine
 10
307.600518
 20
535.676818
 30
0.0
 11
307.064736
 21
535.676818
 31
0.0
  0
LINE
  5
15E
330
1F
100
AcDbEntity
  8
LC-001-100-D00-0
 62
     7
370
    50
100
AcDbLine
 10
308.064736
 20
536.676818
 30
0.0
 11
308.064737
 21
542.676818
 31
0.0
  0
LINE
  5
15F
330
1F
100
AcDbEntity
  8
LC-001-100-D00-0
 62
     7
370
    50
100
AcDbLine
 10
305.113882
 20
543.676819
 30
0.0
 11
305.113882
 21
541.676818
 31
0.0
  0
LINE
  5
160
330
1F
100
AcDbEntity
  8
LC-001-100-D00-0
 62
     7
370
    50
100
AcDbLine
 10
305.113882
 20
537.676818
 30
0.0
 11
305.113882
 21
535.676819
 31
0.0
  0
LINE
  5
161
330
1F
100
AcDbEntity
  8
LC-001-100-D00-0
 62
     7
370
    50
100
AcDbLine
 10
305.113882
 20
537.676818
 30
0.0
 11
305.820028
 21
537.866029
 31
0.0
  0
ARC
  5
162
330
1F
100
AcDbEntity
  8
LC-001-100-D00-0
 62
     7
370
    50
100
AcDbCircle
 10
305.664736
 20
538.445585
 30
0.0
 40
0.6000000000003376
100
AcDbArc
 50
285.0
 51
0.0
  0
ARC
  5
163
330
1F
100
AcDbEntity
  8
LC-001-100-D00-0
 62
     7
370
    50
100
AcDbCircle
 10
305.664736
 20
540.908052
 30
0.0
 40
0.6000000000003638
100
AcDbArc
 50
0.0
 51
75.0
  0
LINE
  5
164
330
1F
100
AcDbEntity
  8
LC-001-100-D00-0
 62
     7
370
    50
100
AcDbLine
 10
305.820028
 20
541.487608
 30
0.0
 11
305.113882
 21
541.676818
 31
0.0
  0
LINE
  5
165
330
1F
100
AcDbEntity
  8
LC-001-100-D00-0
 62
     7
370
    50
100
AcDbLine
 10
307.064736
 20
535.676818
 30
0.0
 11
305.113882
 21
535.676819
 31
0.0
  0
LINE
  5
166
330
1F
100
AcDbEntity
  8
LC-001-100-D00-0
 62
     7
370
    50
100
AcDbLine
 10
307.064735
 20
543.676819
 30
0.0
 11
305.113882
 21
543.676819
 31
0.0
  0
LINE
  5
167
330
1F
100
AcDbEntity
  8
LC-001-100-D00-0
 62
     7
370
    50
100
AcDbLine
 10
317.815587
 20
543.676819
 30
0.0
 11
317.815587
 21
541.676818
 31
0.0
  0
LINE
  5
168
330
1F
100
AcDbEntity
  8
LC-001-100-D00-0
 62
     7
370
    50
100
AcDbLine
 10
315.364734
 20
543.676819
 30
0.0
 11
317.815587
 21
543.676819
 31
0.0
  0
LINE
  5
169
330
1F
100
AcDbEntity
  8
LC-001-100-D00-0
 62
     7
370
    50
100
AcDbLine
 10
315.364736
 20
554.676818
 30
0.0
 11
315.364734
 21
543.676819
 31
0.0
  0
LINE
  5
16A
330
1F
100
AcDbEntity
  8
LC-001-100-D00-0
 62
     7
370
    50
100
AcDbLine
 10
328.714736
 20
554.676818
 30
0.0
 11
315.364736
 21
554.676818
 31
0.0
  0
ARC
  5
16B
330
1F
100
AcDbEntity
  8
LC-001-100-D00-0
 62
     7
370
    50
100
AcDbCircle
 10
328.714736
 20
553.676818
 30
0.0
 40
0.9999999999998863
100
AcDbArc
 50
0.0
 51
90.0
  0
LINE
  5
16C
330
1F
100
AcDbEntity
  8
LC-001-100-D00-0
 62
     7
370
    50
100
AcDbLine
 10
329.714738
 20
547.676818
 30
0.0
 11
329.714736
 21
553.676818
 31
0.0
  0
LINE
  5
16D
330
1F
100
AcDbEntity
  8
LC-001-100-D00-0
 62
     7
370
    50
100
AcDbLine
 10
329.714738
 20
547.676818
 30
0.0
 11
326.714736
 21
547.676818
 31
0.0
  0
LINE
  5
16E
330
1F
100
AcDbEntity
  8
LC-001-100-D00-0
 62
     7
370
    50
100
AcDbLine
 10
326.71474
 20
551.676818
 30
0.0
 11
326.714736
 21
547.676818
 31
0.0
  0
LINE
  5
16F
330
1F
100
AcDbEntity
  8
LC-001-100-D00-0
 62
     7
370
    50
100
AcDbLine
 10
326.71474
 20
551.676818
 30
0.0
 11
322.214736
 21
551.676818
 31
0.0
  0
ARC
  5
170
330
1F
100
AcDbEntity
  8
LC-001-100-D00-0
 62
     7
370
    50
100
AcDbCircle
 10
322.214736
 20
550.676818
 30
0.0
 40
1.000000000000227
100
AcDbArc
 50
90.0
 51
180.0
  0
LINE
  5
171
330
1F
100
AcDbEntity
  8
LC-001-100-D00-0
 62
     7
370
    50
100
AcDbLine
 10
321.214736
 20
550.676818
 30
0.0
 11
321.214736
 21
536.676818
 31
0.0
  0
ARC
  5
172
330
1F
100
AcDbEntity
  8
LC-001-100-D00-0
 62
     7
370
    50
100
AcDbCircle
 10
320.214736
 20
536.676818
 30
0.0
 40
1.0
100
AcDbArc
 50
270.0
 51
0.0
  0
LINE
  5
173
330
1F
100
AcDbEntity
  8
LC-001-100-D00-0
 62
     7
370
    50
100
AcDbLine
 10
317.815587
 20
535.676819
 30
0.0
 11
320.214736
 21
535.676818
 31
0.0
  0
LINE
  5
174
330
1F
100
AcDbEntity
  8
LC-001-100-D00-0
 62
     7
370
    50
100
AcDbLine
 10
317.815587
 20
537.676818
 30
0.0
 11
317.815587
 21
535.676819
 31
0.0
  0
LINE
  5
175
330
1F
100
AcDbEntity
  8
LC-001-100-D00-0
 62
     7
370
    50
100
AcDbLine
 10
317.815587
 20
537.676818
 30
0.0
 11
317.164736
 21
537.676818
 31
0.0
  0
ARC
  5
176
330
1F
100
AcDbEntity
  8
LC-001-100-D00-0
 62
     7
370
    50
100
AcDbCircle
 10
317.164736
 20
538.176818
 30
0.0
 40
0.5000000000001137
100
AcDbArc
 50
180.0
 51
270.0
  0
LINE
  5
177
330
1F
100
AcDbEntity
  8
LC-001-100-D00-0
 62
     7
370
    50
100
AcDbLine
 10
316.664736
 20
538.176818
 30
0.0
 11
316.664736
 21
541.176818
 31
0.0
  0
ARC
  5
178
330
1F
100
AcDbEntity
  8
LC-001-100-D00-0
 62
     7
370
    50
100
AcDbCircle
 10
317.164736
 20
541.176818
 30
0.0
 40
0.5
100
AcDbArc
 50
90.0
 51
180.0
  0
LINE
  5
179
330
1F
100
AcDbEntity
  8
LC-001-100-D00-0
 62
     7
370
    50
100
AcDbLine
 10
317.164736
 20
541.676818
 30
0.0
 11
317.815587
 21
541.676818
 31
0.0
  0
ARC
  5
17A
330
1F
100
AcDbEntity
  8
LC-001-100-D00-0
 62
     7
370
    50
100
AcDbCircle
 10
300.714736
 20
550.676818
 30
0.0
 40
1.000000000000227
100
AcDbArc
 50
0.0
 51
90.0
  0
LINE
  5
17B
330
1F
100
AcDbEntity
  8
LC-001-100-D00-0
 62
     7
370
    50
100
AcDbLine
 10
301.714736
 20
536.676818
 30
0.0
 11
301.714736
 21
550.676818
 31
0.0
  0
LINE
  5
17C
330
1F
100
AcDbEntity
  8
LC-001-100-D00-0
 62
     7
370
    50
100
AcDbLine
 10
306.264736
 20
541.176818
 30
0.0
 11
306.264736
 21
538.176818
 31
0.0
  0
LINE
  5
17D
330
1F
100
AcDbEntity
  8
LC-001-100-D00-0
 62
     7
370
    50
100
AcDbLine
 10
307.564736
 20
543.676819
 30
0.0
 11
307.564736
 21
554.676818
 31
0.0
  0
LINE
  5
17E
330
1F
100
AcDbEntity
  8
LC-001-100-D00-0
 62
     7
370
    50
100
AcDbLine
 10
307.564736
 20
554.676818
 30
0.0
 11
315.364736
 21
554.676818
 31
0.0
  0
ARC
  5
17F
330
1F
100
AcDbEntity
  8
LC-001-100-D00-0
 62
     7
370
    50
100
AcDbCircle
 10
302.714736
 20
536.676818
 30
0.0
 40
0.9999999999998863
100
AcDbArc
 50
180.0
 51
270.0
  0
LINE
  5
180
330
1F
100
AcDbEntity
  8
LC-001-100-D00-0
 62
     7
370
    50
100
AcDbLine
 10
305.113882
 20
535.676819
 30
0.0
 11
305.113882
 21
537.676818
 31
0.0
  0
LINE
  5
181
330
1F
100
AcDbEntity
  8
LC-001-100-D00-0
 62
     7
370
    50
100
AcDbLine
 10
305.113882
 20
541.676818
 30
0.0
 11
305.113882
 21
543.676819
 31
0.0
  0
ARC
  5
182
330
1F
100
AcDbEntity
  8
LC-001-100-D00-0
 62
     7
370
    50
100
AcDbCircle
 10
305.764736
 20
541.176818
 30
0.0
 40
0.5000000000001137
100
AcDbArc
 50
0.0
 51
90.0
  0
ARC
  5
183
330
1F
100
AcDbEntity
  8
LC-001-100-D00-0
 62
     7
370
    50
100
AcDbCircle
 10
305.764736
 20
538.176818
 30
0.0
 40
0.5
100
AcDbArc
 50
270.0
 51
0.0
  0
LINE
  5
184
330
1F
100
AcDbEntity
  8
LC-001-100-D00-0
 62
     7
370
    50
100
AcDbLine
 10
305.764736
 20
537.676818
 30
0.0
 11
305.113882
 21
537.676818
 31
0.0
  0
LINE
  5
185
330
1F
100
AcDbEntity
  8
LC-001-100-D00-0
 62
     7
370
    50
100
AcDbLine
 10
296.214736
 20
547.676818
 30
0.0
 11
296.214738
 21
551.676818
 31
0.0
  0
LINE
  5
186
330
1F
100
AcDbEntity
  8
LC-001-100-D00-0
 62
     7
370
    50
100
AcDbLine
 10
293.214736
 20
553.676818
 30
0.0
 11
293.214739
 21
547.676818
 31
0.0
  0
ARC
  5
187
330
1F
100
AcDbEntity
  8
LC-001-100-D00-0
 62
     7
370
    50
100
AcDbCircle
 10
294.214736
 20
553.676818
 30
0.0
 40
1.0
100
AcDbArc
 50
90.0
 51
180.0
  0
LINE
  5
188
330
1F
100
AcDbEntity
  8
LC-001-100-D00-0
 62
     7
370
    50
100
AcDbLine
 10
305.113882
 20
541.676818
 30
0.0
 11
305.764736
 21
541.676818
 31
0.0
  0
LINE
  5
189
330
1F
100
AcDbEntity
  8
LC-001-100-D00-0
 62
     7
370
    50
100
AcDbLine
 10
305.113882
 20
543.676819
 30
0.0
 11
307.564736
 21
543.676819
 31
0.0
  0
LINE
  5
18A
330
1F
100
AcDbEntity
  8
LC-001-100-D00-0
 62
     7
370
    50
100
AcDbLine
 10
302.714736
 20
535.676818
 30
0.0
 11
305.113882
 21
535.676819
 31
0.0
  0
LINE
  5
18B
330
1F
100
AcDbEntity
  8
LC-001-100-D00-0
 62
     7
370
    50
100
AcDbLine
 10
300.714736
 20
551.676818
 30
0.0
 11
296.214738
 21
551.676818
 31
0.0
  0
LINE
  5
18C
330
1F
100
AcDbEntity
  8
LC-001-100-D00-0
 62
     7
370
    50
100
AcDbLine
 10
307.564736
 20
554.676818
 30
0.0
 11
294.214736
 21
554.676818
 31
0.0
  0
LINE
  5
18D
330
1F
100
AcDbEntity
  8
LC-001-100-D00-0
 62
     7
370
    50
100
AcDbLine
 10
296.214736
 20
547.676818
 30
0.0
 11
293.214739
 21
547.676818
 31
0.0
  0
LINE
  5
18E
330
1F
100
AcDbEntity
  8
LC-001-100-D00-0
 62
     7
370
    50
100
AcDbLine
 10
324.714736
 20
547.676818
 30
0.0
 11
326.714736
 21
547.676818
 31
0.0
  0
LINE
  5
18F
330
1F
100
AcDbEntity
  8
LC-001-100-D00-0
 62
     7
370
    50
100
AcDbLine
 10
296.214736
 20
547.676818
 30
0.0
 11
298.214736
 21
547.676818
 31
0.0
  0
LINE
  5
190
330
1F
100
AcDbEntity
  8
LC-001-100-D00-0
 62
     7
370
    50
100
AcDbLine
 10
298.214736
 20
547.676818
 30
0.0
 11
301.714734
 21
547.676818
 31
0.0
  0
LINE
  5
191
330
1F
100
AcDbEntity
  8
LC-001-100-D00-0
 62
     7
370
    50
100
AcDbLine
 10
321.214736
 20
547.676818
 30
0.0
 11
324.714736
 21
547.676818
 31
0.0
  0
ARC
  5
192
330
1F
100
AcDbEntity
  8
LC-001-100-D00-0
 62
     7
370
    50
100
AcDbCircle
 10
687.264736
 20
540.908052
 30
0.0
 40
0.6000000000003082
100
AcDbArc
 50
105.0
 51
180.0
  0
LINE
  5
193
330
1F
100
AcDbEntity
  8
LC-001-100-D00-0
 62
     7
370
    50
100
AcDbLine
 10
686.664736
 20
540.908052
 30
0.0
 11
686.664736
 21
538.445585
 31
0.0
  0
ARC
  5
194
330
1F
100
AcDbEntity
  8
LC-001-100-D00-0
 62
     7
370
    50
100
AcDbCircle
 10
687.264736
 20
538.445585
 30
0.0
 40
0.6000000000001364
100
AcDbArc
 50
180.0
 51
255.0
  0
LINE
  5
195
330
1F
100
AcDbEntity
  8
LC-001-100-D00-0
 62
     7
370
    50
100
AcDbLine
 10
687.109445
 20
537.866029
 30
0.0
 11
687.815592
 21
537.676818
 31
0.0
  0
LINE
  5
196
330
1F
100
AcDbEntity
  8
LC-001-100-D00-0
 62
     7
370
    50
100
AcDbLine
 10
687.815592
 20
535.676819
 30
0.0
 11
687.815592
 21
537.676818
 31
0.0
  0
LINE
  5
197
330
1F
100
AcDbEntity
  8
LC-001-100-D00-0
 62
     7
370
    50
100
AcDbLine
 10
687.815592
 20
535.676819
 30
0.0
 11
685.864736
 21
535.676818
 31
0.0
  0
LINE
  5
198
330
1F
100
AcDbEntity
  8
LC-001-100-D00-0
 62
     7
370
    50
100
AcDbLine
 10
685.864736
 20
535.676818
 30
0.0
 11
684.864736
 21
536.676818
 31
0.0
  0
LINE
  5
199
330
1F
100
AcDbEntity
  8
LC-001-100-D00-0
 62
     7
370
    50
100
AcDbLine
 10
684.864745
 20
542.676818
 30
0.0
 11
684.864736
 21
536.676818
 31
0.0
  0
LINE
  5
19A
330
1F
100
AcDbEntity
  8
LC-001-100-D00-0
 62
     7
370
    50
100
AcDbLine
 10
684.864745
 20
542.676818
 30
0.0
 11
685.864732
 21
543.676819
 31
0.0
  0
LINE
  5
19B
330
1F
100
AcDbEntity
  8
LC-001-100-D00-0
 62
     7
370
    50
100
AcDbLine
 10
687.815592
 20
543.676819
 30
0.0
 11
685.864732
 21
543.676819
 31
0.0
  0
LINE
  5
19C
330
1F
100
AcDbEntity
  8
LC-001-100-D00-0
 62
     7
370
    50
100
AcDbLine
 10
687.815592
 20
541.676818
 30
0.0
 11
687.815592
 21
543.676819
 31
0.0
  0
LINE
  5
19D
330
1F
100
AcDbEntity
  8
LC-001-100-D00-0
 62
     7
370
    50
100
AcDbLine
 10
687.815592
 20
541.676818
 30
0.0
 11
687.109445
 21
541.487608
 31
0.0
  0
LINE
  5
19E
330
1F
100
AcDbEntity
  8
LC-001-100-D00-0
 62
     7
370
    50
100
AcDbLine
 10
676.264736
 20
538.445585
 30
0.0
 11
676.264736
 21
540.908052
 31
0.0
  0
LINE
  5
19F
330
1F
100
AcDbEntity
  8
LC-001-100-D00-0
 62
     7
370
    50
100
AcDbLine
 10
677.064732
 20
543.676819
 30
0.0
 11
678.064749
 21
542.676818
 31
0.0
  0
LINE
  5
1A0
330
1F
100
AcDbEntity
  8
LC-001-100-D00-0
 62
     7
370
    50
100
AcDbLine
 10
678.064736
 20
536.676818
 30
0.0
 11
677.064736
 21
535.676818
 31
0.0
  0
LINE
  5
1A1
330
1F
100
AcDbEntity
  8
LC-001-100-D00-0
 62
     7
370
    50
100
AcDbLine
 10
678.064736
 20
536.676818
 30
0.0
 11
678.222576
 21
536.676818
 31
0.0
  0
LINE
  5
1A2
330
1F
100
AcDbEntity
  8
LC-001-100-D00-0
 62
     7
370
    50
100
AcDbLine
 10
684.706897
 20
536.676818
 30
0.0
 11
684.864736
 21
536.676818
 31
0.0
  0
LINE
  5
1A3
330
1F
100
AcDbEntity
  8
LC-001-100-D00-0
 62
     7
370
    50
100
AcDbLine
 10
685.864736
 20
535.676818
 30
0.0
 11
685.328955
 21
535.676818
 31
0.0
  0
LINE
  5
1A4
330
1F
100
AcDbEntity
  8
LC-001-100-D00-0
 62
     7
370
    50
100
AcDbLine
 10
677.600518
 20
535.676818
 30
0.0
 11
677.064736
 21
535.676818
 31
0.0
  0
LINE
  5
1A5
330
1F
100
AcDbEntity
  8
LC-001-100-D00-0
 62
     7
370
    50
100
AcDbLine
 10
678.064736
 20
536.676818
 30
0.0
 11
678.064749
 21
542.676818
 31
0.0
  0
LINE
  5
1A6
330
1F
100
AcDbEntity
  8
LC-001-100-D00-0
 62
     7
370
    50
100
AcDbLine
 10
675.113872
 20
543.676819
 30
0.0
 11
675.113872
 21
541.676818
 31
0.0
  0
LINE
  5
1A7
330
1F
100
AcDbEntity
  8
LC-001-100-D00-0
 62
     7
370
    50
100
AcDbLine
 10
675.113872
 20
537.676818
 30
0.0
 11
675.113872
 21
535.676819
 31
0.0
  0
LINE
  5
1A8
330
1F
100
AcDbEntity
  8
LC-001-100-D00-0
 62
     7
370
    50
100
AcDbLine
 10
675.113872
 20
537.676818
 30
0.0
 11
675.820028
 21
537.866029
 31
0.0
  0
ARC
  5
1A9
330
1F
100
AcDbEntity
  8
LC-001-100-D00-0
 62
     7
370
    50
100
AcDbCircle
 10
675.664736
 20
538.445585
 30
0.0
 40
0.5999999999999277
100
AcDbArc
 50
285.0
 51
0.0
  0
ARC
  5
1AA
330
1F
100
AcDbEntity
  8
LC-001-100-D00-0
 62
     7
370
    50
100
AcDbCircle
 10
675.664736
 20
540.908052
 30
0.0
 40
0.6000000000003638
100
AcDbArc
 50
0.0
 51
75.0
  0
LINE
  5
1AB
330
1F
100
AcDbEntity
  8
LC-001-100-D00-0
 62
     7
370
    50
100
AcDbLine
 10
675.820028
 20
541.487608
 30
0.0
 11
675.113872
 21
541.676818
 31
0.0
  0
LINE
  5
1AC
330
1F
100
AcDbEntity
  8
LC-001-100-D00-0
 62
     7
370
    50
100
AcDbLine
 10
677.064736
 20
535.676818
 30
0.0
 11
675.113872
 21
535.676819
 31
0.0
  0
LINE
  5
1AD
330
1F
100
AcDbEntity
  8
LC-001-100-D00-0
 62
     7
370
    50
100
AcDbLine
 10
677.064732
 20
543.676819
 30
0.0
 11
675.113872
 21
543.676819
 31
0.0
  0
LINE
  5
1AE
330
1F
100
AcDbEntity
  8
LC-001-100-D00-0
 62
     7
370
    50
100
AcDbLine
 10
687.815592
 20
543.676819
 30
0.0
 11
687.815592
 21
541.676818
 31
0.0
  0
LINE
  5
1AF
330
1F
100
AcDbEntity
  8
LC-001-100-D00-0
 62
     7
370
    50
100
AcDbLine
 10
685.364739
 20
543.676819
 30
0.0
 11
687.815592
 21
543.676819
 31
0.0
  0
LINE
  5
1B0
330
1F
100
AcDbEntity
  8
LC-001-100-D00-0
 62
     7
370
    50
100
AcDbLine
 10
685.364736
 20
554.676818
 30
0.0
 11
685.364739
 21
543.676819
 31
0.0
  0
LINE
  5
1B1
330
1F
100
AcDbEntity
  8
LC-001-100-D00-0
 62
     7
370
    50
100
AcDbLine
 10
698.714736
 20
554.676818
 30
0.0
 11
685.364736
 21
554.676818
 31
0.0
  0
ARC
  5
1B2
330
1F
100
AcDbEntity
  8
LC-001-100-D00-0
 62
     7
370
    50
100
AcDbCircle
 10
698.714736
 20
553.676818
 30
0.0
 40
1.0
100
AcDbArc
 50
0.0
 51
90.0
  0
LINE
  5
1B3
330
1F
100
AcDbEntity
  8
LC-001-100-D00-0
 62
     7
370
    50
100
AcDbLine
 10
699.714736
 20
547.676818
 30
0.0
 11
699.714736
 21
553.676818
 31
0.0
  0
LINE
  5
1B4
330
1F
100
AcDbEntity
  8
LC-001-100-D00-0
 62
     7
370
    50
100
AcDbLine
 10
699.714736
 20
547.676818
 30
0.0
 11
696.714736
 21
547.676818
 31
0.0
  0
LINE
  5
1B5
330
1F
100
AcDbEntity
  8
LC-001-100-D00-0
 62
     7
370
    50
100
AcDbLine
 10
696.714745
 20
551.676818
 30
0.0
 11
696.714736
 21
547.676818
 31
0.0
  0
LINE
  5
1B6
330
1F
100
AcDbEntity
  8
LC-001-100-D00-0
 62
     7
370
    50
100
AcDbLine
 10
696.714745
 20
551.676818
 30
0.0
 11
692.214736
 21
551.676818
 31
0.0
  0
ARC
  5
1B7
330
1F
100
AcDbEntity
  8
LC-001-100-D00-0
 62
     7
370
    50
100
AcDbCircle
 10
692.214736
 20
550.676818
 30
0.0
 40
1.000000000000227
100
AcDbArc
 50
90.0
 51
180.0
  0
LINE
  5
1B8
330
1F
100
AcDbEntity
  8
LC-001-100-D00-0
 62
     7
370
    50
100
AcDbLine
 10
691.214736
 20
550.676818
 30
0.0
 11
691.214736
 21
536.676818
 31
0.0
  0
ARC
  5
1B9
330
1F
100
AcDbEntity
  8
LC-001-100-D00-0
 62
     7
370
    50
100
AcDbCircle
 10
690.214736
 20
536.676818
 30
0.0
 40
1.0
100
AcDbArc
 50
270.0
 51
0.0
  0
LINE
  5
1BA
330
1F
100
AcDbEntity
  8
LC-001-100-D00-0
 62
     7
370
    50
100
AcDbLine
 10
687.815592
 20
535.676819
 30
0.0
 11
690.214736
 21
535.676818
 31
0.0
  0
LINE
  5
1BB
330
1F
100
AcDbEntity
  8
LC-001-100-D00-0
 62
     7
370
    50
100
AcDbLine
 10
687.815592
 20
537.676818
 30
0.0
 11
687.815592
 21
535.676819
 31
0.0
  0
LINE
  5
1BC
330
1F
100
AcDbEntity
  8
LC-001-100-D00-0
 62
     7
370
    50
100
AcDbLine
 10
687.815592
 20
537.676818
 30
0.0
 11
687.164736
 21
537.676818
 31
0.0
  0
ARC
  5
1BD
330
1F
100
AcDbEntity
  8
LC-001-100-D00-0
 62
     7
370
    50
100
AcDbCircle
 10
687.164736
 20
538.176818
 30
0.0
 40
0.5000000000002274
100
AcDbArc
 50
180.0
 51
270.0
  0
LINE
  5
1BE
330
1F
100
AcDbEntity
  8
LC-001-100-D00-0
 62
     7
370
    50
100
AcDbLine
 10
686.664736
 20
538.176818
 30
0.0
 11
686.664736
 21
541.176818
 31
0.0
  0
ARC
  5
1BF
330
1F
100
AcDbEntity
  8
LC-001-100-D00-0
 62
     7
370
    50
100
AcDbCircle
 10
687.164736
 20
541.176818
 30
0.0
 40
0.5
100
AcDbArc
 50
90.0
 51
180.0
  0
LINE
  5
1C0
330
1F
100
AcDbEntity
  8
LC-001-100-D00-0
 62
     7
370
    50
100
AcDbLine
 10
687.164736
 20
541.676818
 30
0.0
 11
687.815592
 21
541.676818
 31
0.0
  0
ARC
  5
1C1
330
1F
100
AcDbEntity
  8
LC-001-100-D00-0
 62
     7
370
    50
100
AcDbCircle
 10
670.714736
 20
550.676818
 30
0.0
 40
1.000000000000227
100
AcDbArc
 50
0.0
 51
90.0
  0
LINE
  5
1C2
330
1F
100
AcDbEntity
  8
LC-001-100-D00-0
 62
     7
370
    50
100
AcDbLine
 10
671.714736
 20
536.676818
 30
0.0
 11
671.714736
 21
550.676818
 31
0.0
  0
ARC
  5
1C3
330
1F
100
AcDbEntity
  8
LC-001-100-D00-0
 62
     7
370
    50
100
AcDbCircle
 10
672.714736
 20
536.676818
 30
0.0
 40
1.0
100
AcDbArc
 50
180.0
 51
270.0
  0
LINE
  5
1C4
330
1F
100
AcDbEntity
  8
LC-001-100-D00-0
 62
     7
370
    50
100
AcDbLine
 10
676.264736
 20
541.176818
 30
0.0
 11
676.264736
 21
538.176818
 31
0.0
  0
LINE
  5
1C5
330
1F
100
AcDbEntity
  8
LC-001-100-D00-0
 62
     7
370
    50
100
AcDbLine
 10
677.564726
 20
543.676819
 30
0.0
 11
677.564736
 21
554.676818
 31
0.0
  0
LINE
  5
1C6
330
1F
100
AcDbEntity
  8
LC-001-100-D00-0
 62
     7
370
    50
100
AcDbLine
 10
677.564736
 20
554.676818
 30
0.0
 11
685.364736
 21
554.676818
 31
0.0
  0
LINE
  5
1C7
330
1F
100
AcDbEntity
  8
LC-001-100-D00-0
 62
     7
370
    50
100
AcDbLine
 10
675.113872
 20
535.676819
 30
0.0
 11
675.113872
 21
537.676818
 31
0.0
  0
LINE
  5
1C8
330
1F
100
AcDbEntity
  8
LC-001-100-D00-0
 62
     7
370
    50
100
AcDbLine
 10
675.113872
 20
541.676818
 30
0.0
 11
675.113872
 21
543.676819
 31
0.0
  0
ARC
  5
1C9
330
1F
100
AcDbEntity
  8
LC-001-100-D00-0
 62
     7
370
    50
100
AcDbCircle
 10
675.764736
 20
541.176818
 30
0.0
 40
0.5000000000002274
100
AcDbArc
 50
0.0
 51
90.0
  0
ARC
  5
1CA
330
1F
100
AcDbEntity
  8
LC-001-100-D00-0
 62
     7
370
    50
100
AcDbCircle
 10
675.764736
 20
538.176818
 30
0.0
 40
0.5
100
AcDbArc
 50
270.0
 51
0.0
  0
LINE
  5
1CB
330
1F
100
AcDbEntity
  8
LC-001-100-D00-0
 62
     7
370
    50
100
AcDbLine
 10
675.764736
 20
537.676818
 30
0.0
 11
675.113872
 21
537.676818
 31
0.0
  0
LINE
  5
1CC
330
1F
100
AcDbEntity
  8
LC-001-100-D00-0
 62
     7
370
    50
100
AcDbLine
 10
666.214736
 20
547.676818
 30
0.0
 11
666.21475
 21
551.676818
 31
0.0
  0
LINE
  5
1CD
330
1F
100
AcDbEntity
  8
LC-001-100-D00-0
 62
     7
370
    50
100
AcDbLine
 10
663.214736
 20
553.676818
 30
0.0
 11
663.214729
 21
547.676818
 31
0.0
  0
ARC
  5
1CE
330
1F
100
AcDbEntity
  8
LC-001-100-D00-0
 62
     7
370
    50
100
AcDbCircle
 10
664.214736
 20
553.676818
 30
0.0
 40
1.0
100
AcDbArc
 50
90.0
 51
180.0
  0
LINE
  5
1CF
330
1F
100
AcDbEntity
  8
LC-001-100-D00-0
 62
     7
370
    50
100
AcDbLine
 10
675.113872
 20
541.676818
 30
0.0
 11
675.764736
 21
541.676818
 31
0.0
  0
LINE
  5
1D0
330
1F
100
AcDbEntity
  8
LC-001-100-D00-0
 62
     7
370
    50
100
AcDbLine
 10
675.113872
 20
543.676819
 30
0.0
 11
677.564726
 21
543.676819
 31
0.0
  0
LINE
  5
1D1
330
1F
100
AcDbEntity
  8
LC-001-100-D00-0
 62
     7
370
    50
100
AcDbLine
 10
672.714736
 20
535.676818
 30
0.0
 11
675.113872
 21
535.676819
 31
0.0
  0
LINE
  5
1D2
330
1F
100
AcDbEntity
  8
LC-001-100-D00-0
 62
     7
370
    50
100
AcDbLine
 10
670.714736
 20
551.676818
 30
0.0
 11
666.21475
 21
551.676818
 31
0.0
  0
LINE
  5
1D3
330
1F
100
AcDbEntity
  8
LC-001-100-D00-0
 62
     7
370
    50
100
AcDbLine
 10
677.564736
 20
554.676818
 30
0.0
 11
664.214736
 21
554.676818
 31
0.0
  0
LINE
  5
1D4
330
1F
100
AcDbEntity
  8
LC-001-100-D00-0
 62
     7
370
    50
100
AcDbLine
 10
666.214736
 20
547.676818
 30
0.0
 11
663.214729
 21
547.676818
 31
0.0
  0
LINE
  5
1D5
330
1F
100
AcDbEntity
  8
LC-001-100-D00-0
 62
     7
370
    50
100
AcDbLine
 10
694.714736
 20
547.676818
 30
0.0
 11
696.714736
 21
547.676818
 31
0.0
  0
LINE
  5
1D6
330
1F
100
AcDbEntity
  8
LC-001-100-D00-0
 62
     7
370
    50
100
AcDbLine
 10
666.214736
 20
547.676818
 30
0.0
 11
668.214736
 21
547.676818
 31
0.0
  0
LINE
  5
1D7
330
1F
100
AcDbEntity
  8
LC-001-100-D00-0
 62
     7
370
    50
100
AcDbLine
 10
668.214736
 20
547.676818
 30
0.0
 11
671.714739
 21
547.676818
 31
0.0
  0
LINE
  5
1D8
330
1F
100
AcDbEntity
  8
LC-001-100-D00-0
 62
     7
370
    50
100
AcDbLine
 10
691.214726
 20
547.676818
 30
0.0
 11
694.714736
 21
547.676818
 31
0.0
  0
ARC
  5
1D9
330
1F
100
AcDbEntity
  8
LC-001-100-D00-0
 62
     7
370
    50
100
AcDbCircle
 10
517.264736
 20
540.908052
 30
0.0
 40
0.6000000000003082
100
AcDbArc
 50
105.0
 51
180.0
  0
LINE
  5
1DA
330
1F
100
AcDbEntity
  8
LC-001-100-D00-0
 62
     7
370
    50
100
AcDbLine
 10
516.664736
 20
540.908052
 30
0.0
 11
516.664736
 21
538.445585
 31
0.0
  0
ARC
  5
1DB
330
1F
100
AcDbEntity
  8
LC-001-100-D00-0
 62
     7
370
    50
100
AcDbCircle
 10
517.264736
 20
538.445585
 30
0.0
 40
0.5999999999999091
100
AcDbArc
 50
180.0
 51
255.0
  0
LINE
  5
1DC
330
1F
100
AcDbEntity
  8
LC-001-100-D00-0
 62
     7
370
    50
100
AcDbLine
 10
517.109445
 20
537.866029
 30
0.0
 11
517.81559
 21
537.676818
 31
0.0
  0
LINE
  5
1DD
330
1F
100
AcDbEntity
  8
LC-001-100-D00-0
 62
     7
370
    50
100
AcDbLine
 10
517.81559
 20
535.676819
 30
0.0
 11
517.81559
 21
537.676818
 31
0.0
  0
LINE
  5
1DE
330
1F
100
AcDbEntity
  8
LC-001-100-D00-0
 62
     7
370
    50
100
AcDbLine
 10
517.81559
 20
535.676819
 30
0.0
 11
515.864736
 21
535.676818
 31
0.0
  0
LINE
  5
1DF
330
1F
100
AcDbEntity
  8
LC-001-100-D00-0
 62
     7
370
    50
100
AcDbLine
 10
515.864736
 20
535.676818
 30
0.0
 11
514.864736
 21
536.676818
 31
0.0
  0
LINE
  5
1E0
330
1F
100
AcDbEntity
  8
LC-001-100-D00-0
 62
     7
370
    50
100
AcDbLine
 10
514.864736
 20
542.676818
 30
0.0
 11
514.864736
 21
536.676818
 31
0.0
  0
LINE
  5
1E1
330
1F
100
AcDbEntity
  8
LC-001-100-D00-0
 62
     7
370
    50
100
AcDbLine
 10
514.864736
 20
542.676818
 30
0.0
 11
515.864738
 21
543.676819
 31
0.0
  0
LINE
  5
1E2
330
1F
100
AcDbEntity
  8
LC-001-100-D00-0
 62
     7
370
    50
100
AcDbLine
 10
517.81559
 20
543.676819
 30
0.0
 11
515.864738
 21
543.676819
 31
0.0
  0
LINE
  5
1E3
330
1F
100
AcDbEntity
  8
LC-001-100-D00-0
 62
     7
370
    50
100
AcDbLine
 10
517.81559
 20
541.676818
 30
0.0
 11
517.81559
 21
543.676819
 31
0.0
  0
LINE
  5
1E4
330
1F
100
AcDbEntity
  8
LC-001-100-D00-0
 62
     7
370
    50
100
AcDbLine
 10
517.81559
 20
541.676818
 30
0.0
 11
517.109445
 21
541.487608
 31
0.0
  0
LINE
  5
1E5
330
1F
100
AcDbEntity
  8
LC-001-100-D00-0
 62
     7
370
    50
100
AcDbLine
 10
506.264736
 20
538.445585
 30
0.0
 11
506.264736
 21
540.908052
 31
0.0
  0
LINE
  5
1E6
330
1F
100
AcDbEntity
  8
LC-001-100-D00-0
 62
     7
370
    50
100
AcDbLine
 10
507.064738
 20
543.676819
 30
0.0
 11
508.06474
 21
542.676818
 31
0.0
  0
LINE
  5
1E7
330
1F
100
AcDbEntity
  8
LC-001-100-D00-0
 62
     7
370
    50
100
AcDbLine
 10
508.064736
 20
536.676818
 30
0.0
 11
507.064736
 21
535.676818
 31
0.0
  0
LINE
  5
1E8
330
1F
100
AcDbEntity
  8
LC-001-100-D00-0
 62
     7
370
    50
100
AcDbLine
 10
508.064736
 20
536.676818
 30
0.0
 11
508.222576
 21
536.676818
 31
0.0
  0
LINE
  5
1E9
330
1F
100
AcDbEntity
  8
LC-001-100-D00-0
 62
     7
370
    50
100
AcDbLine
 10
514.706897
 20
536.676818
 30
0.0
 11
514.864736
 21
536.676818
 31
0.0
  0
LINE
  5
1EA
330
1F
100
AcDbEntity
  8
LC-001-100-D00-0
 62
     7
370
    50
100
AcDbLine
 10
515.864736
 20
535.676818
 30
0.0
 11
515.328955
 21
535.676818
 31
0.0
  0
LINE
  5
1EB
330
1F
100
AcDbEntity
  8
LC-001-100-D00-0
 62
     7
370
    50
100
AcDbLine
 10
507.600518
 20
535.676818
 30
0.0
 11
507.064736
 21
535.676818
 31
0.0
  0
LINE
  5
1EC
330
1F
100
AcDbEntity
  8
LC-001-100-D00-0
 62
     7
370
    50
100
AcDbLine
 10
508.064736
 20
536.676818
 30
0.0
 11
508.06474
 21
542.676818
 31
0.0
  0
LINE
  5
1ED
330
1F
100
AcDbEntity
  8
LC-001-100-D00-0
 62
     7
370
    50
100
AcDbLine
 10
505.113885
 20
543.676819
 30
0.0
 11
505.113885
 21
541.676818
 31
0.0
  0
LINE
  5
1EE
330
1F
100
AcDbEntity
  8
LC-001-100-D00-0
 62
     7
370
    50
100
AcDbLine
 10
505.113885
 20
537.676818
 30
0.0
 11
505.113885
 21
535.676819
 31
0.0
  0
LINE
  5
1EF
330
1F
100
AcDbEntity
  8
LC-001-100-D00-0
 62
     7
370
    50
100
AcDbLine
 10
505.113885
 20
537.676818
 30
0.0
 11
505.820028
 21
537.866029
 31
0.0
  0
ARC
  5
1F0
330
1F
100
AcDbEntity
  8
LC-001-100-D00-0
 62
     7
370
    50
100
AcDbCircle
 10
505.664736
 20
538.445585
 30
0.0
 40
0.5999999999998983
100
AcDbArc
 50
285.0
 51
0.0
  0
ARC
  5
1F1
330
1F
100
AcDbEntity
  8
LC-001-100-D00-0
 62
     7
370
    50
100
AcDbCircle
 10
505.664736
 20
540.908052
 30
0.0
 40
0.6000000000003638
100
AcDbArc
 50
0.0
 51
75.0
  0
LINE
  5
1F2
330
1F
100
AcDbEntity
  8
LC-001-100-D00-0
 62
     7
370
    50
100
AcDbLine
 10
505.820028
 20
541.487608
 30
0.0
 11
505.113885
 21
541.676818
 31
0.0
  0
LINE
  5
1F3
330
1F
100
AcDbEntity
  8
LC-001-100-D00-0
 62
     7
370
    50
100
AcDbLine
 10
507.064736
 20
535.676818
 30
0.0
 11
505.113885
 21
535.676819
 31
0.0
  0
LINE
  5
1F4
330
1F
100
AcDbEntity
  8
LC-001-100-D00-0
 62
     7
370
    50
100
AcDbLine
 10
507.064738
 20
543.676819
 30
0.0
 11
505.113885
 21
543.676819
 31
0.0
  0
LINE
  5
1F5
330
1F
100
AcDbEntity
  8
LC-001-100-D00-0
 62
     7
370
    50
100
AcDbLine
 10
517.81559
 20
543.676819
 30
0.0
 11
517.81559
 21
541.676818
 31
0.0
  0
LINE
  5
1F6
330
1F
100
AcDbEntity
  8
LC-001-100-D00-0
 62
     7
370
    50
100
AcDbLine
 10
515.364737
 20
543.676819
 30
0.0
 11
517.81559
 21
543.676819
 31
0.0
  0
LINE
  5
1F7
330
1F
100
AcDbEntity
  8
LC-001-100-D00-0
 62
     7
370
    50
100
AcDbLine
 10
515.364736
 20
554.676818
 30
0.0
 11
515.364737
 21
543.676819
 31
0.0
  0
LINE
  5
1F8
330
1F
100
AcDbEntity
  8
LC-001-100-D00-0
 62
     7
370
    50
100
AcDbLine
 10
528.714736
 20
554.676818
 30
0.0
 11
515.364736
 21
554.676818
 31
0.0
  0
ARC
  5
1F9
330
1F
100
AcDbEntity
  8
LC-001-100-D00-0
 62
     7
370
    50
100
AcDbCircle
 10
528.714736
 20
553.676818
 30
0.0
 40
1.0
100
AcDbArc
 50
0.0
 51
90.0
  0
LINE
  5
1FA
330
1F
100
AcDbEntity
  8
LC-001-100-D00-0
 62
     7
370
    50
100
AcDbLine
 10
529.714734
 20
547.676818
 30
0.0
 11
529.714736
 21
553.676818
 31
0.0
  0
LINE
  5
1FB
330
1F
100
AcDbEntity
  8
LC-001-100-D00-0
 62
     7
370
    50
100
AcDbLine
 10
529.714734
 20
547.676818
 30
0.0
 11
526.714736
 21
547.676818
 31
0.0
  0
LINE
  5
1FC
330
1F
100
AcDbEntity
  8
LC-001-100-D00-0
 62
     7
370
    50
100
AcDbLine
 10
526.714735
 20
551.676818
 30
0.0
 11
526.714736
 21
547.676818
 31
0.0
  0
LINE
  5
1FD
330
1F
100
AcDbEntity
  8
LC-001-100-D00-0
 62
     7
370
    50
100
AcDbLine
 10
526.714735
 20
551.676818
 30
0.0
 11
522.214736
 21
551.676818
 31
0.0
  0
ARC
  5
1FE
330
1F
100
AcDbEntity
  8
LC-001-100-D00-0
 62
     7
370
    50
100
AcDbCircle
 10
522.214736
 20
550.676818
 30
0.0
 40
1.000000000000227
100
AcDbArc
 50
90.0
 51
180.0
  0
LINE
  5
1FF
330
1F
100
AcDbEntity
  8
LC-001-100-D00-0
 62
     7
370
    50
100
AcDbLine
 10
521.214736
 20
550.676818
 30
0.0
 11
521.214736
 21
536.676818
 31
0.0
  0
ARC
  5
200
330
1F
100
AcDbEntity
  8
LC-001-100-D00-0
 62
     7
370
    50
100
AcDbCircle
 10
520.214736
 20
536.676818
 30
0.0
 40
1.0
100
AcDbArc
 50
270.0
 51
0.0
  0
LINE
  5
201
330
1F
100
AcDbEntity
  8
LC-001-100-D00-0
 62
     7
370
    50
100
AcDbLine
 10
517.81559
 20
535.676819
 30
0.0
 11
520.214736
 21
535.676818
 31
0.0
  0
LINE
  5
202
330
1F
100
AcDbEntity
  8
LC-001-100-D00-0
 62
     7
370
    50
100
AcDbLine
 10
517.81559
 20
537.676818
 30
0.0
 11
517.81559
 21
535.676819
 31
0.0
  0
LINE
  5
203
330
1F
100
AcDbEntity
  8
LC-001-100-D00-0
 62
     7
370
    50
100
AcDbLine
 10
517.81559
 20
537.676818
 30
0.0
 11
517.164736
 21
537.676818
 31
0.0
  0
ARC
  5
204
330
1F
100
AcDbEntity
  8
LC-001-100-D00-0
 62
     7
370
    50
100
AcDbCircle
 10
517.164736
 20
538.176818
 30
0.0
 40
0.5000000000001137
100
AcDbArc
 50
180.0
 51
270.0
  0
LINE
  5
205
330
1F
100
AcDbEntity
  8
LC-001-100-D00-0
 62
     7
370
    50
100
AcDbLine
 10
516.664736
 20
538.176818
 30
0.0
 11
516.664736
 21
541.176818
 31
0.0
  0
ARC
  5
206
330
1F
100
AcDbEntity
  8
LC-001-100-D00-0
 62
     7
370
    50
100
AcDbCircle
 10
517.164736
 20
541.176818
 30
0.0
 40
0.5
100
AcDbArc
 50
90.0
 51
180.0
  0
LINE
  5
207
330
1F
100
AcDbEntity
  8
LC-001-100-D00-0
 62
     7
370
    50
100
AcDbLine
 10
517.164736
 20
541.676818
 30
0.0
 11
517.81559
 21
541.676818
 31
0.0
  0
ARC
  5
208
330
1F
100
AcDbEntity
  8
LC-001-100-D00-0
 62
     7
370
    50
100
AcDbCircle
 10
500.714736
 20
550.676818
 30
0.0
 40
1.000000000000227
100
AcDbArc
 50
0.0
 51
90.0
  0
LINE
  5
209
330
1F
100
AcDbEntity
  8
LC-001-100-D00-0
 62
     7
370
    50
100
AcDbLine
 10
501.714736
 20
536.676818
 30
0.0
 11
501.714736
 21
550.676818
 31
0.0
  0
LINE
  5
20A
330
1F
100
AcDbEntity
  8
LC-001-100-D00-0
 62
     7
370
    50
100
AcDbLine
 10
506.264736
 20
541.176818
 30
0.0
 11
506.264736
 21
538.176818
 31
0.0
  0
LINE
  5
20B
330
1F
100
AcDbEntity
  8
LC-001-100-D00-0
 62
     7
370
    50
100
AcDbLine
 10
507.564739
 20
543.676819
 30
0.0
 11
507.564736
 21
554.676818
 31
0.0
  0
LINE
  5
20C
330
1F
100
AcDbEntity
  8
LC-001-100-D00-0
 62
     7
370
    50
100
AcDbLine
 10
507.564736
 20
554.676818
 30
0.0
 11
515.364736
 21
554.676818
 31
0.0
  0
ARC
  5
20D
330
1F
100
AcDbEntity
  8
LC-001-100-D00-0
 62
     7
370
    50
100
AcDbCircle
 10
502.714736
 20
536.676818
 30
0.0
 40
0.9999999999998863
100
AcDbArc
 50
180.0
 51
270.0
  0
LINE
  5
20E
330
1F
100
AcDbEntity
  8
LC-001-100-D00-0
 62
     7
370
    50
100
AcDbLine
 10
505.113885
 20
535.676819
 30
0.0
 11
505.113885
 21
537.676818
 31
0.0
  0
LINE
  5
20F
330
1F
100
AcDbEntity
  8
LC-001-100-D00-0
 62
     7
370
    50
100
AcDbLine
 10
505.113885
 20
541.676818
 30
0.0
 11
505.113885
 21
543.676819
 31
0.0
  0
ARC
  5
210
330
1F
100
AcDbEntity
  8
LC-001-100-D00-0
 62
     7
370
    50
100
AcDbCircle
 10
505.764736
 20
541.176818
 30
0.0
 40
0.5000000000001137
100
AcDbArc
 50
0.0
 51
90.0
  0
ARC
  5
211
330
1F
100
AcDbEntity
  8
LC-001-100-D00-0
 62
     7
370
    50
100
AcDbCircle
 10
505.764736
 20
538.176818
 30
0.0
 40
0.5
100
AcDbArc
 50
270.0
 51
0.0
  0
LINE
  5
212
330
1F
100
AcDbEntity
  8
LC-001-100-D00-0
 62
     7
370
    50
100
AcDbLine
 10
505.764736
 20
537.676818
 30
0.0
 11
505.113885
 21
537.676818
 31
0.0
  0
LINE
  5
213
330
1F
100
AcDbEntity
  8
LC-001-100-D00-0
 62
     7
370
    50
100
AcDbLine
 10
496.214736
 20
547.676818
 30
0.0
 11
496.214733
 21
551.676818
 31
0.0
  0
LINE
  5
214
330
1F
100
AcDbEntity
  8
LC-001-100-D00-0
 62
     7
370
    50
100
AcDbLine
 10
493.214736
 20
553.676818
 30
0.0
 11
493.214734
 21
547.676818
 31
0.0
  0
ARC
  5
215
330
1F
100
AcDbEntity
  8
LC-001-100-D00-0
 62
     7
370
    50
100
AcDbCircle
 10
494.214736
 20
553.676818
 30
0.0
 40
1.0
100
AcDbArc
 50
90.0
 51
180.0
  0
LINE
  5
216
330
1F
100
AcDbEntity
  8
LC-001-100-D00-0
 62
     7
370
    50
100
AcDbLine
 10
505.113885
 20
541.676818
 30
0.0
 11
505.764736
 21
541.676818
 31
0.0
  0
LINE
  5
217
330
1F
100
AcDbEntity
  8
LC-001-100-D00-0
 62
     7
370
    50
100
AcDbLine
 10
505.113885
 20
543.676819
 30
0.0
 11
507.564739
 21
543.676819
 31
0.0
  0
LINE
  5
218
330
1F
100
AcDbEntity
  8
LC-001-100-D00-0
 62
     7
370
    50
100
AcDbLine
 10
502.714736
 20
535.676818
 30
0.0
 11
505.113885
 21
535.676819
 31
0.0
  0
LINE
  5
219
330
1F
100
AcDbEntity
  8
LC-001-100-D00-0
 62
     7
370
    50
100
AcDbLine
 10
500.714736
 20
551.676818
 30
0.0
 11
496.214733
 21
551.676818
 31
0.0
  0
LINE
  5
21A
330
1F
100
AcDbEntity
  8
LC-001-100-D00-0
 62
     7
370
    50
100
AcDbLine
 10
507.564736
 20
554.676818
 30
0.0
 11
494.214736
 21
554.676818
 31
0.0
  0
LINE
  5
21B
330
1F
100
AcDbEntity
  8
LC-001-100-D00-0
 62
     7
370
    50
100
AcDbLine
 10
496.214736
 20
547.676818
 30
0.0
 11
493.214734
 21
547.676818
 31
0.0
  0
LINE
  5
21C
330
1F
100
AcDbEntity
  8
LC-001-100-D00-0
 62
     7
370
    50
100
AcDbLine
 10
524.714736
 20
547.676818
 30
0.0
 11
526.714736
 21
547.676818
 31
0.0
  0
LINE
  5
21D
330
1F
100
AcDbEntity
  8
LC-001-100-D00-0
 62
     7
370
    50
100
AcDbLine
 10
496.214736
 20
547.676818
 30
0.0
 11
498.214736
 21
547.676818
 31
0.0
  0
LINE
  5
21E
330
1F
100
AcDbEntity
  8
LC-001-100-D00-0
 62
     7
370
    50
100
AcDbLine
 10
498.214736
 20
547.676818
 30
0.0
 11
501.714737
 21
547.676818
 31
0.0
  0
LINE
  5
21F
330
1F
100
AcDbEntity
  8
LC-001-100-D00-0
 62
     7
370
    50
100
AcDbLine
 10
521.214739
 20
547.676818
 30
0.0
 11
524.714736
 21
547.676818
 31
0.0
  0
ARC
  5
220
330
1F
100
AcDbEntity
  8
LC-001-100-D00-0
 62
     7
370
    50
100
AcDbCircle
 10
485.938126
 20
531.676818
 30
0.0
 40
2.500000000000227
100
AcDbArc
 50
270.0
 51
285.0
  0
LINE
  5
221
330
1F
100
AcDbEntity
  8
LC-001-100-D00-0
 62
     7
370
    50
100
AcDbLine
 10
486.585174
 20
529.262004
 30
0.0
 11
504.418846
 21
534.040522
 31
0.0
  0
ARC
  5
222
330
1F
100
AcDbEntity
  8
LC-001-100-D00-0
 62
     7
370
    50
100
AcDbCircle
 10
505.454122
 20
530.176818
 30
0.0
 40
4.0
100
AcDbArc
 50
90.0
 51
105.0
  0
LINE
  5
223
330
1F
100
AcDbEntity
  8
LC-001-100-D00-0
 62
     7
370
    50
100
AcDbLine
 10
506.964736
 20
534.176818
 30
0.0
 11
505.454122
 21
534.176818
 31
0.0
  0
LINE
  5
224
330
1F
100
AcDbEntity
  8
LC-001-100-D00-0
 62
     7
370
    50
100
AcDbLine
 10
506.964736
 20
535.576819
 30
0.0
 11
506.964736
 21
534.176818
 31
0.0
  0
LINE
  5
225
330
1F
100
AcDbEntity
  8
LC-001-100-D00-0
 62
     7
370
    50
100
AcDbLine
 10
506.964736
 20
535.576819
 30
0.0
 11
507.464736
 21
535.576818
 31
0.0
  0
ARC
  5
226
330
1F
100
AcDbEntity
  8
LC-001-100-D00-0
 62
     7
370
    50
100
AcDbCircle
 10
506.464736
 20
537.076818
 30
0.0
 40
1.802775637732184
100
AcDbArc
 50
303.690068
 51
56.309932
  0
LINE
  5
227
330
1F
100
AcDbEntity
  8
LC-001-100-D00-0
 62
     7
370
    50
100
AcDbLine
 10
507.464736
 20
538.576818
 30
0.0
 11
507.464737
 21
553.176818
 31
0.0
  0
LINE
  5
228
330
1F
100
AcDbEntity
  8
LC-001-100-D00-0
 62
     7
370
    50
100
AcDbLine
 10
507.464737
 20
553.176818
 30
0.0
 11
508.464739
 21
554.176818
 31
0.0
  0
LINE
  5
229
330
1F
100
AcDbEntity
  8
LC-001-100-D00-0
 62
     7
370
    50
100
AcDbLine
 10
508.464739
 20
554.176818
 30
0.0
 11
514.464737
 21
554.176818
 31
0.0
  0
LINE
  5
22A
330
1F
100
AcDbEntity
  8
LC-001-100-D00-0
 62
     7
370
    50
100
AcDbLine
 10
514.464737
 20
554.176818
 30
0.0
 11
515.464739
 21
553.176818
 31
0.0
  0
LINE
  5
22B
330
1F
100
AcDbEntity
  8
LC-001-100-D00-0
 62
     7
370
    50
100
AcDbLine
 10
515.464739
 20
553.176818
 30
0.0
 11
515.464736
 21
538.576818
 31
0.0
  0
ARC
  5
22C
330
1F
100
AcDbEntity
  8
LC-001-100-D00-0
 62
     7
370
    50
100
AcDbCircle
 10
516.464736
 20
537.076818
 30
0.0
 40
1.802775637732184
100
AcDbArc
 50
123.690068
 51
236.309932
  0
LINE
  5
22D
330
1F
100
AcDbEntity
  8
LC-001-100-D00-0
 62
     7
370
    50
100
AcDbLine
 10
515.464736
 20
535.576818
 30
0.0
 11
515.96474
 21
535.576819
 31
0.0
  0
LINE
  5
22E
330
1F
100
AcDbEntity
  8
LC-001-100-D00-0
 62
     7
370
    50
100
AcDbLine
 10
515.96474
 20
534.176818
 30
0.0
 11
515.96474
 21
535.576819
 31
0.0
  0
LINE
  5
22F
330
1F
100
AcDbEntity
  8
LC-001-100-D00-0
 62
     7
370
    50
100
AcDbLine
 10
676.964745
 20
534.176818
 30
0.0
 11
515.96474
 21
534.176818
 31
0.0
  0
LINE
  5
230
330
1F
100
AcDbEntity
  8
LC-001-100-D00-0
 62
     7
370
    50
100
AcDbLine
 10
676.964745
 20
535.576819
 30
0.0
 11
676.964745
 21
534.176818
 31
0.0
  0
LINE
  5
231
330
1F
100
AcDbEntity
  8
LC-001-100-D00-0
 62
     7
370
    50
100
AcDbLine
 10
676.964745
 20
535.576819
 30
0.0
 11
677.464736
 21
535.576818
 31
0.0
  0
ARC
  5
232
330
1F
100
AcDbEntity
  8
LC-001-100-D00-0
 62
     7
370
    50
100
AcDbCircle
 10
676.464736
 20
537.076818
 30
0.0
 40
1.802775637731868
100
AcDbArc
 50
303.690068
 51
56.309932
  0
LINE
  5
233
330
1F
100
AcDbEntity
  8
LC-001-100-D00-0
 62
     7
370
    50
100
AcDbLine
 10
677.464736
 20
538.576818
 30
0.0
 11
677.464739
 21
553.176818
 31
0.0
  0
LINE
  5
234
330
1F
100
AcDbEntity
  8
LC-001-100-D00-0
 62
     7
370
    50
100
AcDbLine
 10
677.464739
 20
553.176818
 30
0.0
 11
678.464726
 21
554.176818
 31
0.0
  0
LINE
  5
235
330
1F
100
AcDbEntity
  8
LC-001-100-D00-0
 62
     7
370
    50
100
AcDbLine
 10
678.464726
 20
554.176818
 30
0.0
 11
684.464738
 21
554.176818
 31
0.0
  0
LINE
  5
236
330
1F
100
AcDbEntity
  8
LC-001-100-D00-0
 62
     7
370
    50
100
AcDbLine
 10
684.464738
 20
554.176818
 30
0.0
 11
685.464725
 21
553.176818
 31
0.0
  0
LINE
  5
237
330
1F
100
AcDbEntity
  8
LC-001-100-D00-0
 62
     7
370
    50
100
AcDbLine
 10
685.464725
 20
553.176818
 30
0.0
 11
685.464736
 21
538.576818
 31
0.0
  0
ARC
  5
238
330
1F
100
AcDbEntity
  8
LC-001-100-D00-0
 62
     7
370
    50
100
AcDbCircle
 10
686.464736
 20
537.076818
 30
0.0
 40
1.802775637732058
100
AcDbArc
 50
123.690068
 51
236.309932
  0
LINE
  5
239
330
1F
100
AcDbEntity
  8
LC-001-100-D00-0
 62
     7
370
    50
100
AcDbLine
 10
685.464736
 20
535.576818
 30
0.0
 11
685.964749
 21
535.576819
 31
0.0
  0
LINE
  5
23A
330
1F
100
AcDbEntity
  8
LC-001-100-D00-0
 62
     7
370
    50
100
AcDbLine
 10
685.964749
 20
534.176818
 30
0.0
 11
685.964749
 21
535.576819
 31
0.0
  0
LINE
  5
23B
330
1F
100
AcDbEntity
  8
LC-001-100-D00-0
 62
     7
370
    50
100
AcDbLine
 10
703.464736
 20
534.176818
 30
0.0
 11
685.964749
 21
534.176818
 31
0.0
  0
ARC
  5
23C
330
1F
100
AcDbEntity
  8
LC-001-100-D00-0
 62
     7
370
    50
100
AcDbCircle
 10
703.464736
 20
542.176818
 30
0.0
 40
7.999999999999773
100
AcDbArc
 50
270.0
 51
0.0
  0
LINE
  5
23D
330
1F
100
AcDbEntity
  8
LC-001-100-D00-0
 62
     7
370
    50
100
AcDbLine
 10
711.464736
 20
551.676818
 30
0.0
 11
711.464736
 21
542.176818
 31
0.0
  0
ARC
  5
23E
330
1F
100
AcDbEntity
  8
LC-001-100-D00-0
 62
     7
370
    50
100
AcDbCircle
 10
714.464736
 20
551.676818
 30
0.0
 40
3.0
100
AcDbArc
 50
90.0
 51
180.0
  0
LINE
  5
23F
330
1F
100
AcDbEntity
  8
LC-001-100-D00-0
 62
     7
370
    50
100
AcDbLine
 10
714.464736
 20
554.676818
 30
0.0
 11
761.46473
 21
554.676818
 31
0.0
  0
LINE
  5
240
330
1F
100
AcDbEntity
  8
LC-001-100-D00-0
 62
     7
370
    50
100
AcDbLine
 10
761.46473
 20
554.676818
 30
0.0
 11
761.46473
 21
553.176818
 31
0.0
  0
LINE
  5
241
330
1F
100
AcDbEntity
  8
LC-001-100-D00-0
 62
     7
370
    50
100
AcDbLine
 10
714.464736
 20
553.176818
 30
0.0
 11
761.46473
 21
553.176818
 31
0.0
  0
ARC
  5
242
330
1F
100
AcDbEntity
  8
LC-001-100-D00-0
 62
     7
370
    50
100
AcDbCircle
 10
714.464736
 20
551.676818
 30
0.0
 40
1.500000000000455
100
AcDbArc
 50
90.0
 51
180.0
  0
LINE
  5
243
330
1F
100
AcDbEntity
  8
LC-001-100-D00-0
 62
     7
370
    50
100
AcDbLine
 10
712.964736
 20
551.676818
 30
0.0
 11
712.964736
 21
542.176818
 31
0.0
  0
ARC
  5
244
330
1F
100
AcDbEntity
  8
LC-001-100-D00-0
 62
     7
370
    50
100
AcDbCircle
 10
703.464736
 20
542.176818
 30
0.0
 40
9.5
100
AcDbArc
 50
270.0
 51
0.0
  0
LINE
  5
245
330
1F
100
AcDbEntity
  8
LC-001-100-D00-0
 62
     7
370
    50
100
AcDbLine
 10
703.464736
 20
532.676818
 30
0.0
 11
505.454122
 21
532.676818
 31
0.0
  0
ARC
  5
246
330
1F
100
AcDbEntity
  8
LC-001-100-D00-0
 62
     7
370
    50
100
AcDbCircle
 10
505.454122
 20
530.176818
 30
0.0
 40
2.5
100
AcDbArc
 50
90.0
 51
105.0
  0
LINE
  5
247
330
1F
100
AcDbEntity
  8
LC-001-100-D00-0
 62
     7
370
    50
100
AcDbLine
 10
486.973403
 20
527.813115
 30
0.0
 11
504.807074
 21
532.591633
 31
0.0
  0
ARC
  5
248
330
1F
100
AcDbEntity
  8
LC-001-100-D00-0
 62
     7
370
    50
100
AcDbCircle
 10
485.938126
 20
531.676818
 30
0.0
 40
4.000000000000227
100
AcDbArc
 50
270.0
 51
285.0
  0
LINE
  5
249
330
1F
100
AcDbEntity
  8
LC-001-100-D00-0
 62
     7
370
    50
100
AcDbLine
 10
144.464747
 20
554.176818
 30
0.0
 11
145.464734
 21
553.176818
 31
0.0
  0
LINE
  5
24A
330
1F
100
AcDbEntity
  8
LC-001-100-D00-0
 62
     7
370
    50
100
AcDbLine
 10
145.464734
 20
553.176818
 30
0.0
 11
145.464736
 21
538.576818
 31
0.0
  0
ARC
  5
24B
330
1F
100
AcDbEntity
  8
LC-001-100-D00-0
 62
     7
370
    50
100
AcDbCircle
 10
146.464736
 20
537.076818
 30
0.0
 40
1.802775637732121
100
AcDbArc
 50
123.690068
 51
236.309932
  0
LINE
  5
24C
330
1F
100
AcDbEntity
  8
LC-001-100-D00-0
 62
     7
370
    50
100
AcDbLine
 10
145.464736
 20
535.576818
 30
0.0
 11
145.964727
 21
535.576819
 31
0.0
  0
LINE
  5
24D
330
1F
100
AcDbEntity
  8
LC-001-100-D00-0
 62
     7
370
    50
100
AcDbLine
 10
145.964727
 20
534.176818
 30
0.0
 11
145.964727
 21
535.576819
 31
0.0
  0
LINE
  5
24E
330
1F
100
AcDbEntity
  8
LC-001-100-D00-0
 62
     7
370
    50
100
AcDbLine
 10
306.964733
 20
534.176818
 30
0.0
 11
145.964727
 21
534.176818
 31
0.0
  0
LINE
  5
24F
330
1F
100
AcDbEntity
  8
LC-001-100-D00-0
 62
     7
370
    50
100
AcDbLine
 10
306.964733
 20
535.576819
 30
0.0
 11
306.964733
 21
534.176818
 31
0.0
  0
LINE
  5
250
330
1F
100
AcDbEntity
  8
LC-001-100-D00-0
 62
     7
370
    50
100
AcDbLine
 10
306.964733
 20
535.576819
 30
0.0
 11
307.464736
 21
535.576818
 31
0.0
  0
ARC
  5
251
330
1F
100
AcDbEntity
  8
LC-001-100-D00-0
 62
     7
370
    50
100
AcDbCircle
 10
306.464736
 20
537.076818
 30
0.0
 40
1.802775637732184
100
AcDbArc
 50
303.690068
 51
56.309932
  0
LINE
  5
252
330
1F
100
AcDbEntity
  8
LC-001-100-D00-0
 62
     7
370
    50
100
AcDbLine
 10
307.464736
 20
538.576818
 30
0.0
 11
307.464734
 21
553.176818
 31
0.0
  0
LINE
  5
253
330
1F
100
AcDbEntity
  8
LC-001-100-D00-0
 62
     7
370
    50
100
AcDbLine
 10
307.464734
 20
553.176818
 30
0.0
 11
308.464736
 21
554.176818
 31
0.0
  0
LINE
  5
254
330
1F
100
AcDbEntity
  8
LC-001-100-D00-0
 62
     7
370
    50
100
AcDbLine
 10
308.464736
 20
554.176818
 30
0.0
 11
314.464734
 21
554.176818
 31
0.0
  0
LINE
  5
255
330
1F
100
AcDbEntity
  8
LC-001-100-D00-0
 62
     7
370
    50
100
AcDbLine
 10
314.464734
 20
554.176818
 30
0.0
 11
315.464736
 21
553.176818
 31
0.0
  0
LINE
  5
256
330
1F
100
AcDbEntity
  8
LC-001-100-D00-0
 62
     7
370
    50
100
AcDbLine
 10
315.464736
 20
553.176818
 30
0.0
 11
315.464736
 21
538.576818
 31
0.0
  0
ARC
  5
257
330
1F
100
AcDbEntity
  8
LC-001-100-D00-0
 62
     7
370
    50
100
AcDbCircle
 10
316.464736
 20
537.076818
 30
0.0
 40
1.802775637732184
100
AcDbArc
 50
123.690068
 51
236.309932
  0
LINE
  5
258
330
1F
100
AcDbEntity
  8
LC-001-100-D00-0
 62
     7
370
    50
100
AcDbLine
 10
315.464736
 20
535.576818
 30
0.0
 11
315.964737
 21
535.576819
 31
0.0
  0
LINE
  5
259
330
1F
100
AcDbEntity
  8
LC-001-100-D00-0
 62
     7
370
    50
100
AcDbLine
 10
315.964737
 20
534.176818
 30
0.0
 11
315.964737
 21
535.576819
 31
0.0
  0
LINE
  5
25A
330
1F
100
AcDbEntity
  8
LC-001-100-D00-0
 62
     7
370
    50
100
AcDbLine
 10
317.475351
 20
534.176818
 30
0.0
 11
315.964737
 21
534.176818
 31
0.0
  0
ARC
  5
25B
330
1F
100
AcDbEntity
  8
LC-001-100-D00-0
 62
     7
370
    50
100
AcDbCircle
 10
317.475351
 20
530.176818
 30
0.0
 40
4.000000000000122
100
AcDbArc
 50
75.0
 51
90.0
  0
LINE
  5
25C
330
1F
100
AcDbEntity
  8
LC-001-100-D00-0
 62
     7
370
    50
100
AcDbLine
 10
318.510627
 20
534.040522
 30
0.0
 11
336.344299
 21
529.262004
 31
0.0
  0
ARC
  5
25D
330
1F
100
AcDbEntity
  8
LC-001-100-D00-0
 62
     7
370
    50
100
AcDbCircle
 10
336.991346
 20
531.676818
 30
0.0
 40
2.500000000000091
100
AcDbArc
 50
255.0
 51
270.0
  0
ARC
  5
25E
330
1F
100
AcDbEntity
  8
LC-001-100-D00-0
 62
     7
370
    50
100
AcDbCircle
 10
336.991346
 20
531.676818
 30
0.0
 40
4.000000000000122
100
AcDbArc
 50
255.0
 51
270.0
  0
LINE
  5
25F
330
1F
100
AcDbEntity
  8
LC-001-100-D00-0
 62
     7
370
    50
100
AcDbLine
 10
318.122399
 20
532.591633
 30
0.0
 11
335.95607
 21
527.813115
 31
0.0
  0
ARC
  5
260
330
1F
100
AcDbEntity
  8
LC-001-100-D00-0
 62
     7
370
    50
100
AcDbCircle
 10
317.475351
 20
530.176818
 30
0.0
 40
2.500000000000091
100
AcDbArc
 50
75.0
 51
90.0
  0
LINE
  5
261
330
1F
100
AcDbEntity
  8
LC-001-100-D00-0
 62
     7
370
    50
100
AcDbLine
 10
317.475351
 20
532.676818
 30
0.0
 11
119.464736
 21
532.676818
 31
0.0
  0
ARC
  5
262
330
1F
100
AcDbEntity
  8
LC-001-100-D00-0
 62
     7
370
    50
100
AcDbCircle
 10
119.464736
 20
542.176818
 30
0.0
 40
9.5
100
AcDbArc
 50
180.0
 51
270.0
  0
LINE
  5
263
330
1F
100
AcDbEntity
  8
LC-001-100-D00-0
 62
     7
370
    50
100
AcDbLine
 10
109.964736
 20
542.176818
 30
0.0
 11
109.964736
 21
551.676818
 31
0.0
  0
ARC
  5
264
330
1F
100
AcDbEntity
  8
LC-001-100-D00-0
 62
     7
370
    50
100
AcDbCircle
 10
108.464736
 20
551.676818
 30
0.0
 40
1.500000000000057
100
AcDbArc
 50
0.0
 51
90.0
  0
LINE
  5
265
330
1F
100
AcDbEntity
  8
LC-001-100-D00-0
 62
     7
370
    50
100
AcDbLine
 10
61.464742
 20
553.176818
 30
0.0
 11
61.464742
 21
554.676818
 31
0.0
  0
ARC
  5
266
330
1F
100
AcDbEntity
  8
LC-001-100-D00-0
 62
     7
370
    50
100
AcDbCircle
 10
108.464736
 20
551.676818
 30
0.0
 40
2.999999999999943
100
AcDbArc
 50
0.0
 51
90.0
  0
LINE
  5
267
330
1F
100
AcDbEntity
  8
LC-001-100-D00-0
 62
     7
370
    50
100
AcDbLine
 10
111.464736
 20
542.176818
 30
0.0
 11
111.464736
 21
551.676818
 31
0.0
  0
ARC
  5
268
330
1F
100
AcDbEntity
  8
LC-001-100-D00-0
 62
     7
370
    50
100
AcDbCircle
 10
119.464736
 20
542.176818
 30
0.0
 40
8.000000000000227
100
AcDbArc
 50
180.0
 51
270.0
  0
LINE
  5
269
330
1F
100
AcDbEntity
  8
LC-001-100-D00-0
 62
     7
370
    50
100
AcDbLine
 10
136.964724
 20
534.176818
 30
0.0
 11
119.464736
 21
534.176818
 31
0.0
  0
LINE
  5
26A
330
1F
100
AcDbEntity
  8
LC-001-100-D00-0
 62
     7
370
    50
100
AcDbLine
 10
136.964724
 20
535.576819
 30
0.0
 11
136.964724
 21
534.176818
 31
0.0
  0
LINE
  5
26B
330
1F
100
AcDbEntity
  8
LC-001-100-D00-0
 62
     7
370
    50
100
AcDbLine
 10
136.964724
 20
535.576819
 30
0.0
 11
137.464736
 21
535.576818
 31
0.0
  0
ARC
  5
26C
330
1F
100
AcDbEntity
  8
LC-001-100-D00-0
 62
     7
370
    50
100
AcDbCircle
 10
136.464736
 20
537.076818
 30
0.0
 40
1.802775637731963
100
AcDbArc
 50
303.690068
 51
56.309932
  0
LINE
  5
26D
330
1F
100
AcDbEntity
  8
LC-001-100-D00-0
 62
     7
370
    50
100
AcDbLine
 10
137.464736
 20
538.576818
 30
0.0
 11
137.464747
 21
553.176818
 31
0.0
  0
LINE
  5
26E
330
1F
100
AcDbEntity
  8
LC-001-100-D00-0
 62
     7
370
    50
100
AcDbLine
 10
137.464747
 20
553.176818
 30
0.0
 11
138.464735
 21
554.176818
 31
0.0
  0
LINE
  5
26F
330
1F
100
AcDbEntity
  8
LC-001-100-D00-0
 62
     7
370
    50
100
AcDbLine
 10
138.464735
 20
554.176818
 30
0.0
 11
144.464747
 21
554.176818
 31
0.0
  0
LINE
  5
270
330
1F
100
AcDbEntity
  8
LC-001-100-D00-0
 62
     7
370
    50
100
AcDbLine
 10
61.464742
 20
554.676818
 30
0.0
 11
108.464736
 21
554.676818
 31
0.0
  0
LINE
  5
271
330
1F
100
AcDbEntity
  8
LC-001-100-D00-0
 62
     7
370
    50
100
AcDbLine
 10
61.464742
 20
553.176818
 30
0.0
 11
108.464736
 21
553.176818
 31
0.0
  0
ELLIPSE
  5
272
330
1F
100
AcDbEntity
  8
LC-001-100-D00-0
 62
     7
370
    50
100
AcDbEllipse
 10
566.486554
 20
530.176818
 30
0.0
 11
0.0
 21
-2.500000061035156
 31
0.0
210
0.0
220
0.0
230
1.0
 40
0.027578
 41
0.0000000000049469
 42
0.321750554402181
  0
ELLIPSE
  5
273
330
1F
100
AcDbEntity
  8
LC-001-100-D00-0
 62
     7
370
    50
100
AcDbEllipse
 10
256.442919
 20
530.176818
 30
0.0
 11
0.0
 21
-2.500000011444092
 31
0.0
210
0.0
220
0.0
230
1.0
 40
0.027578
 41
5.961434752784974
 42
6.283185307180411
  0
LINE
  5
274
330
1F
100
AcDbEntity
  8
LC-001-100-D00-0
 62
     7
370
    50
100
AcDbLine
 10
566.464738
 20
532.548166
 30
0.0
 11
566.464738
 21
527.882778
 31
0.0
  0
LINE
  5
275
330
1F
100
AcDbEntity
  8
LC-001-100-D00-0
 62
     7
370
    50
100
AcDbLine
 10
256.464735
 20
532.548166
 30
0.0
 11
256.464735
 21
527.882778
 31
0.0
  0
INSERT
  5
27F
330
1F
100
AcDbEntity
  8
LC-001-100-D00-0
 62
     7
370
    50
100
AcDbBlockReference
  2
KLON15
 10
0.0
 20
0.0
 30
0.0
  0
INSERT
  5
289
330
1F
100
AcDbEntity
  8
LC-001-100-D00-0
 62
     7
370
    50
100
AcDbBlockReference
  2
KLON16
 10
0.0
 20
0.0
 30
0.0
  0
LINE
  5
28A
330
1F
100
AcDbEntity
  8
LC-001-100-D00-0
 62
     7
370
    50
100
AcDbLine
 10
566.464723
 20
527.676818
 30
0.0
 11
566.464708
 21
527.882085
 31
0.0
  0
LINE
  5
28B
330
1F
100
AcDbEntity
  8
LC-001-100-D00-0
 62
     7
370
    50
100
AcDbLine
 10
566.464738
 20
527.676818
 30
0.0
 11
694.372431
 21
532.344983
 31
0.0
  0
LINE
  5
28C
330
1F
100
AcDbEntity
  8
LC-001-100-D00-0
 62
     7
370
    50
100
AcDbLine
 10
566.464723
 20
527.676818
 30
0.0
 11
566.464723
 21
527.676818
 31
0.0
  0
LINE
  5
28D
330
1F
100
AcDbEntity
  8
LC-001-100-D00-0
 62
     7
370
    50
100
AcDbLine
 10
256.46475
 20
527.676818
 30
0.0
 11
256.464765
 21
527.882085
 31
0.0
  0
LINE
  5
28E
330
1F
100
AcDbEntity
  8
LC-001-100-D00-0
 62
     7
370
    50
100
AcDbLine
 10
256.464735
 20
527.676818
 30
0.0
 11
128.557042
 21
532.344983
 31
0.0
  0
LINE
  5
28F
330
1F
100
AcDbEntity
  8
LC-001-100-D00-0
 62
     7
370
    50
100
AcDbLine
 10
256.46475
 20
527.676818
 30
0.0
 11
256.46475
 21
527.676818
 31
0.0
  0
LINE
  5
290
330
1F
100
AcDbEntity
  8
LC-001-100-D00-0
 62
     7
370
    50
100
AcDbLine
 10
485.938126
 20
527.676818
 30
0.0
 11
488.038727
 21
527.676818
 31
0.0
  0
LINE
  5
291
330
1F
100
AcDbEntity
  8
LC-001-100-D00-0
 62
     7
370
    50
100
AcDbLine
 10
336.991346
 20
527.676818
 30
0.0
 11
334.890746
 21
527.676818
 31
0.0
  0
LINE
  5
292
330
1F
100
AcDbEntity
  8
LC-001-100-D00-0
 62
     7
370
    50
100
AcDbLine
 10
488.038727
 20
527.676818
 30
0.0
 11
566.464723
 21
527.676818
 31
0.0
  0
LINE
  5
293
330
1F
100
AcDbEntity
  8
LC-001-100-D00-0
 62
     7
370
    50
100
AcDbLine
 10
334.890746
 20
527.676818
 30
0.0
 11
256.46475
 21
527.676818
 31
0.0
  0
INSERT
  5
2A0
330
1F
100
AcDbEntity
  8
LC-001-100-D00-0
 62
     7
370
    50
100
AcDbBlockReference
  2
KLON17
 10
0.0
 20
0.0
 30
0.0
  0
INSERT
  5
2AD
330
1F
100
AcDbEntity
  8
LC-001-100-D00-0
 62
     7
370
    50
100
AcDbBlockReference
  2
KLON18
 10
0.0
 20
0.0
 30
0.0
  0
LINE
  5
2AE
330
1F
100
AcDbEntity
  8
LC-001-100-D00-0
 62
     7
370
    50
100
AcDbLine
 10
708.964736
 20
554.676818
 30
0.0
 11
714.464736
 21
554.676818
 31
0.0
  0
LINE
  5
2AF
330
1F
100
AcDbEntity
  8
LC-001-100-D00-0
 62
     7
370
    50
100
AcDbLine
 10
113.964736
 20
554.676818
 30
0.0
 11
108.464736
 21
554.676818
 31
0.0
  0
LINE
  5
2B0
330
1F
100
AcDbEntity
  8
LC-001-100-D00-0
 62
     7
370
    50
100
AcDbLine
 10
708.964736
 20
554.676818
 30
0.0
 11
698.714736
 21
554.676818
 31
0.0
  0
LINE
  5
2B1
330
1F
100
AcDbEntity
  8
LC-001-100-D00-0
 62
     7
370
    50
100
AcDbLine
 10
664.214736
 20
554.676818
 30
0.0
 11
528.714736
 21
554.676818
 31
0.0
  0
LINE
  5
2B2
330
1F
100
AcDbEntity
  8
LC-001-100-D00-0
 62
     7
370
    50
100
AcDbLine
 10
494.214736
 20
554.676818
 30
0.0
 11
328.714736
 21
554.676818
 31
0.0
  0
LINE
  5
2B3
330
1F
100
AcDbEntity
  8
LC-001-100-D00-0
 62
     7
370
    50
100
AcDbLine
 10
294.214736
 20
554.676818
 30
0.0
 11
158.714736
 21
554.676818
 31
0.0
  0
LINE
  5
2B4
330
1F
100
AcDbEntity
  8
LC-001-100-D00-0
 62
     7
370
    50
100
AcDbLine
 10
124.214736
 20
554.676818
 30
0.0
 11
113.964736
 21
554.676818
 31
0.0
  0
ARC
  5
2B5
330
1F
100
AcDbEntity
  8
LC-001-100-D00-0
 62
     7
370
    50
100
AcDbCircle
 10
598.564736
 20
528.076818
 30
0.0
 40
2.000000000000114
100
AcDbArc
 50
180.0
 51
270.0
  0
LINE
  5
2B6
330
1F
100
AcDbEntity
  8
LC-001-100-D00-0
 62
     7
370
    50
100
AcDbLine
 10
598.564736
 20
526.076818
 30
0.0
 11
624.364736
 21
526.076818
 31
0.0
  0
ARC
  5
2B7
330
1F
100
AcDbEntity
  8
LC-001-100-D00-0
 62
     7
370
    50
100
AcDbCircle
 10
624.364736
 20
528.076818
 30
0.0
 40
2.000000000000227
100
AcDbArc
 50
270.0
 51
0.0
  0
LINE
  5
2B8
330
1F
100
AcDbEntity
  8
LC-001-100-D00-0
 62
     7
370
    50
100
AcDbLine
 10
626.364736
 20
528.076818
 30
0.0
 11
626.364738
 21
529.86295
 31
0.0
  0
LINE
  5
2B9
330
1F
100
AcDbEntity
  8
LC-001-100-D00-0
 62
     7
370
    50
100
AcDbLine
 10
628.364742
 20
529.935942
 30
0.0
 11
628.364736
 21
528.076818
 31
0.0
  0
ARC
  5
2BA
330
1F
100
AcDbEntity
  8
LC-001-100-D00-0
 62
     7
370
    50
100
AcDbCircle
 10
624.364736
 20
528.076818
 30
0.0
 40
4.000000000000227
100
AcDbArc
 50
270.0
 51
0.0
  0
LINE
  5
2BB
330
1F
100
AcDbEntity
  8
LC-001-100-D00-0
 62
     7
370
    50
100
AcDbLine
 10
624.364736
 20
524.076818
 30
0.0
 11
598.564736
 21
524.076818
 31
0.0
  0
ARC
  5
2BC
330
1F
100
AcDbEntity
  8
LC-001-100-D00-0
 62
     7
370
    50
100
AcDbCircle
 10
598.564736
 20
528.076818
 30
0.0
 40
4.000000000000114
100
AcDbArc
 50
180.0
 51
270.0
  0
LINE
  5
2BD
330
1F
100
AcDbEntity
  8
LC-001-100-D00-0
 62
     7
370
    50
100
AcDbLine
 10
594.564736
 20
528.076818
 30
0.0
 11
594.564736
 21
528.702366
 31
0.0
  0
LINE
  5
2BE
330
1F
100
AcDbEntity
  8
LC-001-100-D00-0
 62
     7
370
    50
100
AcDbLine
 10
596.56474
 20
528.775359
 30
0.0
 11
596.564736
 21
528.076818
 31
0.0
  0
LINE
  5
2BF
330
1F
100
AcDbEntity
  8
LC-001-100-D00-0
 62
     7
370
    50
100
AcDbLine
 10
228.364736
 20
528.076818
 30
0.0
 11
228.364736
 21
528.702366
 31
0.0
  0
ARC
  5
2C0
330
1F
100
AcDbEntity
  8
LC-001-100-D00-0
 62
     7
370
    50
100
AcDbCircle
 10
224.364736
 20
528.076818
 30
0.0
 40
4.000000000000227
100
AcDbArc
 50
270.0
 51
0.0
  0
LINE
  5
2C1
330
1F
100
AcDbEntity
  8
LC-001-100-D00-0
 62
     7
370
    50
100
AcDbLine
 10
198.564736
 20
524.076818
 30
0.0
 11
224.364736
 21
524.076818
 31
0.0
  0
ARC
  5
2C2
330
1F
100
AcDbEntity
  8
LC-001-100-D00-0
 62
     7
370
    50
100
AcDbCircle
 10
198.564736
 20
528.076818
 30
0.0
 40
4.000000000000227
100
AcDbArc
 50
180.0
 51
270.0
  0
LINE
  5
2C3
330
1F
100
AcDbEntity
  8
LC-001-100-D00-0
 62
     7
370
    50
100
AcDbLine
 10
194.56473
 20
529.935942
 30
0.0
 11
194.564736
 21
528.076818
 31
0.0
  0
LINE
  5
2C4
330
1F
100
AcDbEntity
  8
LC-001-100-D00-0
 62
     7
370
    50
100
AcDbLine
 10
196.564736
 20
528.076818
 30
0.0
 11
196.564735
 21
529.86295
 31
0.0
  0
ARC
  5
2C5
330
1F
100
AcDbEntity
  8
LC-001-100-D00-0
 62
     7
370
    50
100
AcDbCircle
 10
198.564736
 20
528.076818
 30
0.0
 40
2.000000000000114
100
AcDbArc
 50
180.0
 51
270.0
  0
LINE
  5
2C6
330
1F
100
AcDbEntity
  8
LC-001-100-D00-0
 62
     7
370
    50
100
AcDbLine
 10
224.364736
 20
526.076818
 30
0.0
 11
198.564736
 21
526.076818
 31
0.0
  0
ARC
  5
2C7
330
1F
100
AcDbEntity
  8
LC-001-100-D00-0
 62
     7
370
    50
100
AcDbCircle
 10
224.364736
 20
528.076818
 30
0.0
 40
2.000000000000227
100
AcDbArc
 50
270.0
 51
0.0
  0
LINE
  5
2C8
330
1F
100
AcDbEntity
  8
LC-001-100-D00-0
 62
     7
370
    50
100
AcDbLine
 10
226.364732
 20
528.775359
 30
0.0
 11
226.364736
 21
528.076818
 31
0.0
  0
LINE
  5
2C9
330
1F
100
AcDbEntity
  8
LC-001-100-D00-0
 62
     7
370
    50
100
AcDbLine
 10
614.351488
 20
526.176818
 30
0.0
 11
608.577985
 21
526.176818
 31
0.0
  0
LINE
  5
2CA
330
1F
100
AcDbEntity
  8
LC-001-100-D00-0
 62
     7
370
    50
100
AcDbLine
 10
608.577985
 20
526.176818
 30
0.0
 11
602.515807
 21
526.176818
 31
0.0
  0
LINE
  5
2CB
330
1F
100
AcDbEntity
  8
LC-001-100-D00-0
 62
     7
370
    50
100
AcDbLine
 10
620.413666
 20
526.176818
 30
0.0
 11
614.351488
 21
526.176818
 31
0.0
  0
LINE
  5
2CC
330
1F
100
AcDbEntity
  8
LC-001-100-D00-0
 62
     7
370
    50
100
AcDbLine
 10
623.300417
 20
526.176818
 30
0.0
 11
620.413666
 21
526.176818
 31
0.0
  0
LINE
  5
2CD
330
1F
100
AcDbEntity
  8
LC-001-100-D00-0
 62
     7
370
    50
100
AcDbLine
 10
602.515807
 20
526.176818
 30
0.0
 11
599.629056
 21
526.176818
 31
0.0
  0
LINE
  5
2CE
330
1F
100
AcDbEntity
  8
LC-001-100-D00-0
 62
     7
370
    50
100
AcDbLine
 10
599.629056
 20
526.176818
 30
0.0
 11
598.691234
 21
526.176818
 31
0.0
  0
LINE
  5
2CF
330
1F
100
AcDbEntity
  8
LC-001-100-D00-0
 62
     7
370
    50
100
AcDbLine
 10
624.238239
 20
526.176818
 30
0.0
 11
623.300417
 21
526.176818
 31
0.0
  0
LINE
  5
2D0
330
1F
100
AcDbEntity
  8
LC-001-100-D00-0
 62
     7
370
    50
100
AcDbLine
 10
220.464736
 20
522.176818
 30
0.0
 11
214.351491
 21
522.17682
 31
0.0
  0
LINE
  5
2D1
330
1F
100
AcDbEntity
  8
LC-001-100-D00-0
 62
     7
370
    50
100
AcDbLine
 10
208.577991
 20
522.17682
 30
0.0
 11
202.464736
 21
522.176818
 31
0.0
  0
LINE
  5
2D2
330
1F
100
AcDbEntity
  8
LC-001-100-D00-0
 62
     7
370
    50
100
AcDbLine
 10
214.351488
 20
497.176818
 30
0.0
 11
208.577985
 21
497.176818
 31
0.0
  0
LINE
  5
2D3
330
1F
100
AcDbEntity
  8
LC-001-100-D00-0
 62
     7
370
    50
100
AcDbLine
 10
208.577985
 20
497.176818
 30
0.0
 11
202.515807
 21
497.176818
 31
0.0
  0
LINE
  5
2D4
330
1F
100
AcDbEntity
  8
LC-001-100-D00-0
 62
     7
370
    50
100
AcDbLine
 10
225.253556
 20
524.176818
 30
0.0
 11
226.464736
 21
524.176818
 31
0.0
  0
LINE
  5
2D5
330
1F
100
AcDbEntity
  8
LC-001-100-D00-0
 62
     7
370
    50
100
AcDbLine
 10
226.464736
 20
524.176818
 30
0.0
 11
226.464736
 21
522.176818
 31
0.0
  0
LINE
  5
2D6
330
1F
100
AcDbEntity
  8
LC-001-100-D00-0
 62
     7
370
    50
100
AcDbLine
 10
226.464736
 20
522.176818
 30
0.0
 11
220.464736
 21
522.176818
 31
0.0
  0
LINE
  5
2D7
330
1F
100
AcDbEntity
  8
LC-001-100-D00-0
 62
     7
370
    50
100
AcDbLine
 10
220.413666
 20
497.176818
 30
0.0
 11
214.351488
 21
497.176818
 31
0.0
  0
LINE
  5
2D8
330
1F
100
AcDbEntity
  8
LC-001-100-D00-0
 62
     7
370
    50
100
AcDbLine
 10
196.464736
 20
522.176818
 30
0.0
 11
196.464736
 21
524.176818
 31
0.0
  0
LINE
  5
2D9
330
1F
100
AcDbEntity
  8
LC-001-100-D00-0
 62
     7
370
    50
100
AcDbLine
 10
202.464736
 20
522.176818
 30
0.0
 11
196.464736
 21
522.176818
 31
0.0
  0
LINE
  5
2DA
330
1F
100
AcDbEntity
  8
LC-001-100-D00-0
 62
     7
370
    50
100
AcDbLine
 10
196.464736
 20
524.176818
 30
0.0
 11
197.675917
 21
524.176818
 31
0.0
  0
LINE
  5
2DB
330
1F
100
AcDbEntity
  8
LC-001-100-D00-0
 62
     7
370
    50
100
AcDbLine
 10
223.300417
 20
497.176818
 30
0.0
 11
220.413666
 21
497.176818
 31
0.0
  0
LINE
  5
2DC
330
1F
100
AcDbEntity
  8
LC-001-100-D00-0
 62
     7
370
    50
100
AcDbLine
 10
202.515807
 20
497.176818
 30
0.0
 11
199.629056
 21
497.176818
 31
0.0
  0
LINE
  5
2DD
330
1F
100
AcDbEntity
  8
LC-001-100-D00-0
 62
     7
370
    50
100
AcDbLine
 10
199.629056
 20
497.176818
 30
0.0
 11
198.691234
 21
497.176818
 31
0.0
  0
LINE
  5
2DE
330
1F
100
AcDbEntity
  8
LC-001-100-D00-0
 62
     7
370
    50
100
AcDbLine
 10
224.238239
 20
497.176818
 30
0.0
 11
223.300417
 21
497.176818
 31
0.0
  0
LINE
  5
2DF
330
1F
100
AcDbEntity
  8
LC-001-100-D00-0
 62
     7
370
    50
100
AcDbLine
 10
214.351488
 20
526.176818
 30
0.0
 11
208.577985
 21
526.176818
 31
0.0
  0
LINE
  5
2E0
330
1F
100
AcDbEntity
  8
LC-001-100-D00-0
 62
     7
370
    50
100
AcDbLine
 10
208.577985
 20
526.176818
 30
0.0
 11
202.515807
 21
526.176818
 31
0.0
  0
LINE
  5
2E1
330
1F
100
AcDbEntity
  8
LC-001-100-D00-0
 62
     7
370
    50
100
AcDbLine
 10
220.413666
 20
526.176818
 30
0.0
 11
214.351488
 21
526.176818
 31
0.0
  0
LINE
  5
2E2
330
1F
100
AcDbEntity
  8
LC-001-100-D00-0
 62
     7
370
    50
100
AcDbLine
 10
223.300417
 20
526.176818
 30
0.0
 11
220.413666
 21
526.176818
 31
0.0
  0
LINE
  5
2E3
330
1F
100
AcDbEntity
  8
LC-001-100-D00-0
 62
     7
370
    50
100
AcDbLine
 10
202.515807
 20
526.176818
 30
0.0
 11
199.629056
 21
526.176818
 31
0.0
  0
LINE
  5
2E4
330
1F
100
AcDbEntity
  8
LC-001-100-D00-0
 62
     7
370
    50
100
AcDbLine
 10
199.629056
 20
526.176818
 30
0.0
 11
198.691234
 21
526.176818
 31
0.0
  0
LINE
  5
2E5
330
1F
100
AcDbEntity
  8
LC-001-100-D00-0
 62
     7
370
    50
100
AcDbLine
 10
224.238239
 20
526.176818
 30
0.0
 11
223.300417
 21
526.176818
 31
0.0
  0
LINE
  5
2E6
330
1F
100
AcDbEntity
  8
LC-001-100-D00-0
 62
     7
370
    50
100
AcDbLine
 10
620.464736
 20
522.176818
 30
0.0
 11
614.351482
 21
522.17682
 31
0.0
  0
LINE
  5
2E7
330
1F
100
AcDbEntity
  8
LC-001-100-D00-0
 62
     7
370
    50
100
AcDbLine
 10
608.577982
 20
522.17682
 30
0.0
 11
602.464736
 21
522.176818
 31
0.0
  0
LINE
  5
2E8
330
1F
100
AcDbEntity
  8
LC-001-100-D00-0
 62
     7
370
    50
100
AcDbLine
 10
626.464736
 20
524.176818
 30
0.0
 11
626.464736
 21
522.176818
 31
0.0
  0
LINE
  5
2E9
330
1F
100
AcDbEntity
  8
LC-001-100-D00-0
 62
     7
370
    50
100
AcDbLine
 10
626.464736
 20
522.176818
 30
0.0
 11
620.464736
 21
522.176818
 31
0.0
  0
LINE
  5
2EA
330
1F
100
AcDbEntity
  8
LC-001-100-D00-0
 62
     7
370
    50
100
AcDbLine
 10
625.253556
 20
524.176818
 30
0.0
 11
626.464736
 21
524.176818
 31
0.0
  0
LINE
  5
2EB
330
1F
100
AcDbEntity
  8
LC-001-100-D00-0
 62
     7
370
    50
100
AcDbLine
 10
596.464736
 20
522.176818
 30
0.0
 11
596.464736
 21
524.176818
 31
0.0
  0
LINE
  5
2EC
330
1F
100
AcDbEntity
  8
LC-001-100-D00-0
 62
     7
370
    50
100
AcDbLine
 10
602.464736
 20
522.176818
 30
0.0
 11
596.464736
 21
522.176818
 31
0.0
  0
LINE
  5
2ED
330
1F
100
AcDbEntity
  8
LC-001-100-D00-0
 62
     7
370
    50
100
AcDbLine
 10
596.464736
 20
524.176818
 30
0.0
 11
597.675917
 21
524.176818
 31
0.0
  0
LINE
  5
2EE
330
1F
100
AcDbEntity
  8
LC-001-100-D00-0
 62
     7
370
    50
100
AcDbLine
 10
623.300417
 20
497.176818
 30
0.0
 11
598.69124
 21
497.176807
 31
0.0
  0
LINE
  5
2EF
330
1F
100
AcDbEntity
  8
LC-001-100-D00-0
 62
     7
370
    50
100
AcDbLine
 10
624.238239
 20
497.176818
 30
0.0
 11
623.300417
 21
497.176818
 31
0.0
  0
DIMENSION
  5
2F0
330
1F
100
AcDbEntity
  8
LC-001-100-D00-0
 62
     7
370
    25
100
AcDbDimension
  2
*D20
 10
61.464736
 20
681.870253
 30
0.0
 11
416.246997
 21
731.370253
 31
0.0
 70
   160
  1
700
 71
     5
 42
700.0
  3
LC-DIM-L-0090-02-02
100
AcDbAlignedDimension
 13
761.464736
 23
554.676818
 33
0.0
 14
61.464736
 24
554.676818
 34
0.0
100
AcDbRotatedDimension
  0
DIMENSION
  5
2FD
330
1F
100
AcDbEntity
  8
LC-001-100-D00-0
 62
     7
370
    25
100
AcDbDimension
  2
*D21
 10
711.464736
 20
594.335528
 30
0.0
 11
406.965874
 21
643.835528
 31
0.0
 70
   160
  1
600
 71
     5
 42
600.0
  3
LC-DIM-L-0090-02-02
100
AcDbAlignedDimension
 13
111.464736
 23
551.676818
 33
0.0
 14
711.464736
 24
551.676818
 34
0.0
100
AcDbRotatedDimension
  0
LINE
  5
30A
330
1F
100
AcDbEntity
  8
LC-001-100-D00-0
 62
     7
370
    50
100
AcDbLine
 10
144.864736
 20
537.318994
 30
0.0
 11
146.664736
 21
539.118994
 31
0.0
  0
INSERT
  5
310
330
1F
100
AcDbEntity
  8
LC-001-100-D00-0
 62
     7
370
    50
100
AcDbBlockReference
  2
KLON19
 10
0.0
 20
0.0
 30
0.0
  0
LINE
  5
311
330
1F
100
AcDbEntity
  8
LC-001-100-D00-0
 62
     7
370
    25
100
AcDbLine
 10
131.714736
 20
546.619634
 30
0.0
 11
137.564736
 21
552.469634
 31
0.0
  0
LINE
  5
312
330
1F
100
AcDbEntity
  8
LC-001-100-D00-0
 62
     7
370
    50
100
AcDbLine
 10
306.059827
 20
541.359608
 30
0.0
 11
307.720887
 21
543.020668
 31
0.0
  0
LINE
  5
313
330
1F
100
AcDbEntity
  8
LC-001-100-D00-0
 62
     7
370
    25
100
AcDbLine
 10
315.364736
 20
550.664518
 30
0.0
 11
319.377036
 21
554.676818
 31
0.0
  0
INSERT
  5
319
330
1F
100
AcDbEntity
  8
LC-001-100-D00-0
 62
     7
370
    25
100
AcDbBlockReference
  2
KLON20
 10
0.0
 20
0.0
 30
0.0
  0
LINE
  5
31A
330
1F
100
AcDbEntity
  8
LC-001-100-D00-0
 62
     7
370
    50
100
AcDbLine
 10
684.864736
 20
538.503646
 30
0.0
 11
686.664736
 21
540.303646
 31
0.0
  0
INSERT
  5
320
330
1F
100
AcDbEntity
  8
LC-001-100-D00-0
 62
     7
370
    25
100
AcDbBlockReference
  2
KLON21
 10
0.0
 20
0.0
 30
0.0
  0
LINE
  5
321
330
1F
100
AcDbEntity
  8
LC-001-100-D00-0
 62
     7
370
    25
100
AcDbLine
 10
671.714736
 20
547.804286
 30
0.0
 11
677.564736
 21
553.654287
 31
0.0
  0
LINE
  5
322
330
1F
100
AcDbEntity
  8
LC-001-100-D00-0
 62
     7
370
    50
100
AcDbLine
 10
506.264736
 20
539.508762
 30
0.0
 11
508.064736
 21
541.308762
 31
0.0
  0
LINE
  5
323
330
1F
100
AcDbEntity
  8
LC-001-100-D00-0
 62
     7
370
    25
100
AcDbLine
 10
515.364736
 20
548.608763
 30
0.0
 11
521.432792
 21
554.676818
 31
0.0
  0
INSERT
  5
329
330
1F
100
AcDbEntity
  8
LC-001-100-D00-0
 62
     7
370
    25
100
AcDbBlockReference
  2
KLON22
 10
0.0
 20
0.0
 30
0.0
  0
INSERT
  5
33D
330
1F
100
AcDbEntity
  8
LC-001-100-D00-0
 62
     7
370
    25
100
AcDbBlockReference
  2
KLON23
 10
0.0
 20
0.0
 30
0.0
  0
LINE
  5
33E
330
1F
100
AcDbEntity
  8
LC-001-100-D00-0
  6
DASHDOT
 62
     7
370
    25
100
AcDbLine
 10
611.464736
 20
486.776813
 30
0.0
 11
611.464736
 21
534.176818
 31
0.0
  0
LINE
  5
33F
330
1F
100
AcDbEntity
  8
LC-001-100-D00-0
  6
DASHDOT
 62
     7
370
    25
100
AcDbLine
 10
681.464736
 20
560.676818
 30
0.0
 11
681.464736
 21
526.676818
 31
0.0
  0
LINE
  5
340
330
1F
100
AcDbEntity
  8
LC-001-100-D00-0
  6
DASHDOT
 62
     7
370
    25
100
AcDbLine
 10
511.464736
 20
560.676818
 30
0.0
 11
511.464736
 21
526.676818
 31
0.0
  0
LINE
  5
341
330
1F
100
AcDbEntity
  8
LC-001-100-D00-0
  6
DASHDOT
 62
     7
370
    25
100
AcDbLine
 10
211.464736
 20
531.176818
 30
0.0
 11
211.464736
 21
486.776813
 31
0.0
  0
LINE
  5
342
330
1F
100
AcDbEntity
  8
LC-001-100-D00-0
  6
DASHDOT
 62
     7
370
    25
100
AcDbLine
 10
141.464736
 20
560.676818
 30
0.0
 11
141.464736
 21
526.676818
 31
0.0
  0
LINE
  5
343
330
1F
100
AcDbEntity
  8
LC-001-100-D00-0
  6
DASHDOT
 62
     7
370
    25
100
AcDbLine
 10
311.464736
 20
560.676818
 30
0.0
 11
311.464736
 21
526.676818
 31
0.0
  0
LINE
  5
344
330
1F
100
AcDbEntity
  8
LC-001-100-D00-0
 62
     7
370
    50
100
AcDbLine
 10
-110.94932
 20
519.176819
 30
0.0
 11
-110.94932
 21
520.676819
 31
0.0
  0
LINE
  5
345
330
1F
100
AcDbEntity
  8
LC-001-100-D00-0
 62
     7
370
    50
100
AcDbLine
 10
-195.659357
 20
486.676818
 30
0.0
 11
-122.659357
 21
486.676818
 31
0.0
  0
LINE
  5
346
330
1F
100
AcDbEntity
  8
LC-001-100-D00-0
 62
     7
370
    50
100
AcDbLine
 10
-148.391406
 20
536.676819
 30
0.0
 11
-195.659357
 21
536.676819
 31
0.0
  0
LINE
  5
347
330
1F
100
AcDbEntity
  8
LC-001-100-D00-0
 62
     7
370
    50
100
AcDbLine
 10
-195.659357
 20
536.676819
 30
0.0
 11
-198.659356
 21
535.872971
 31
0.0
  0
LINE
  5
348
330
1F
100
AcDbEntity
  8
LC-001-100-D00-0
 62
     7
370
    50
100
AcDbLine
 10
-198.659356
 20
487.480667
 30
0.0
 11
-195.659357
 21
486.676818
 31
0.0
  0
LINE
  5
349
330
1F
100
AcDbEntity
  8
LC-001-100-D00-0
 62
     7
370
    50
100
AcDbLine
 10
-102.409357
 20
547.676819
 30
0.0
 11
-102.409357
 21
537.176818
 31
0.0
  0
LINE
  5
34A
330
1F
100
AcDbEntity
  8
LC-001-100-D00-0
 62
     7
370
    50
100
AcDbLine
 10
-82.909357
 20
536.676819
 30
0.0
 11
-82.909357
 21
547.676819
 31
0.0
  0
ARC
  5
34B
330
1F
100
AcDbEntity
  8
LC-001-100-D00-0
 62
     7
370
    50
100
AcDbCircle
 10
-83.909357
 20
536.676819
 30
0.0
 40
1.000000000000114
100
AcDbArc
 50
270.0
 51
0.0
  0
LINE
  5
34C
330
1F
100
AcDbEntity
  8
LC-001-100-D00-0
 62
     7
370
    50
100
AcDbLine
 10
-67.859356
 20
522.676819
 30
0.0
 11
-66.359357
 21
522.676819
 31
0.0
  0
LINE
  5
34D
330
1F
100
AcDbEntity
  8
LC-001-100-D00-0
 62
     7
370
    50
100
AcDbLine
 10
-67.859356
 20
522.676819
 30
0.0
 11
-67.859356
 21
528.427203
 31
0.0
  0
ARC
  5
34E
330
1F
100
AcDbEntity
  8
LC-001-100-D00-0
 62
     7
370
    50
100
AcDbCircle
 10
-65.359357
 20
528.427204
 30
0.0
 40
2.499999999999955
100
AcDbArc
 50
139.464198
 51
180.0
  0
ARC
  5
34F
330
1F
100
AcDbEntity
  8
LC-001-100-D00-0
 62
     7
370
    50
100
AcDbCircle
 10
-69.159357
 20
531.676819
 30
0.0
 40
2.500000000000029
100
AcDbArc
 50
319.464198
 51
360.0
  0
LINE
  5
350
330
1F
100
AcDbEntity
  8
LC-001-100-D00-0
 62
     7
370
    50
100
AcDbLine
 10
-66.659357
 20
551.67682
 30
0.0
 11
-66.659357
 21
531.676818
 31
0.0
  0
ARC
  5
351
330
1F
100
AcDbEntity
  8
LC-001-100-D00-0
 62
     7
370
    50
100
AcDbCircle
 10
-63.659357
 20
551.676819
 30
0.0
 40
3.0
100
AcDbArc
 50
90.0
 51
180.0
  0
LINE
  5
352
330
1F
100
AcDbEntity
  8
LC-001-100-D00-0
 62
     7
370
    50
100
AcDbLine
 10
-63.659358
 20
554.676818
 30
0.0
 11
-15.159357
 21
554.676818
 31
0.0
  0
LINE
  5
353
330
1F
100
AcDbEntity
  8
LC-001-100-D00-0
 62
     7
370
    50
100
AcDbLine
 10
-15.159357
 20
554.676818
 30
0.0
 11
-15.159357
 21
553.176819
 31
0.0
  0
LINE
  5
354
330
1F
100
AcDbEntity
  8
LC-001-100-D00-0
 62
     7
370
    50
100
AcDbLine
 10
-63.659358
 20
553.176819
 30
0.0
 11
-15.159357
 21
553.176819
 31
0.0
  0
ARC
  5
355
330
1F
100
AcDbEntity
  8
LC-001-100-D00-0
 62
     7
370
    50
100
AcDbCircle
 10
-63.659357
 20
551.676819
 30
0.0
 40
1.5
100
AcDbArc
 50
90.0
 51
180.0
  0
LINE
  5
356
330
1F
100
AcDbEntity
  8
LC-001-100-D00-0
 62
     7
370
    50
100
AcDbLine
 10
-65.159357
 20
551.67682
 30
0.0
 11
-65.159357
 21
531.676818
 31
0.0
  0
ARC
  5
357
330
1F
100
AcDbEntity
  8
LC-001-100-D00-0
 62
     7
370
    50
100
AcDbCircle
 10
-69.159357
 20
531.676819
 30
0.0
 40
4.000000000000073
100
AcDbArc
 50
319.464198
 51
360.0
  0
ARC
  5
358
330
1F
100
AcDbEntity
  8
LC-001-100-D00-0
 62
     7
370
    50
100
AcDbCircle
 10
-65.359357
 20
528.427204
 30
0.0
 40
0.9999999999999845
100
AcDbArc
 50
139.464198
 51
180.0
  0
LINE
  5
359
330
1F
100
AcDbEntity
  8
LC-001-100-D00-0
 62
     7
370
    50
100
AcDbLine
 10
-66.359357
 20
522.676819
 30
0.0
 11
-66.359357
 21
528.427203
 31
0.0
  0
LINE
  5
35A
330
1F
100
AcDbEntity
  8
LC-001-100-D00-0
 62
     7
370
    50
100
AcDbLine
 10
-120.159357
 20
531.676818
 30
0.0
 11
-120.159357
 21
551.67682
 31
0.0
  0
ARC
  5
35B
330
1F
100
AcDbEntity
  8
LC-001-100-D00-0
 62
     7
370
    50
100
AcDbCircle
 10
-121.659357
 20
551.676819
 30
0.0
 40
1.500000000000028
100
AcDbArc
 50
0.0
 51
90.0
  0
LINE
  5
35C
330
1F
100
AcDbEntity
  8
LC-001-100-D00-0
 62
     7
370
    50
100
AcDbLine
 10
-170.159358
 20
553.176819
 30
0.0
 11
-170.159358
 21
554.676818
 31
0.0
  0
ARC
  5
35D
330
1F
100
AcDbEntity
  8
LC-001-100-D00-0
 62
     7
370
    50
100
AcDbCircle
 10
-121.659357
 20
551.676819
 30
0.0
 40
3.000000000000057
100
AcDbArc
 50
0.0
 51
90.0
  0
LINE
  5
35E
330
1F
100
AcDbEntity
  8
LC-001-100-D00-0
 62
     7
370
    50
100
AcDbLine
 10
-118.659358
 20
531.676818
 30
0.0
 11
-118.659358
 21
551.67682
 31
0.0
  0
ARC
  5
35F
330
1F
100
AcDbEntity
  8
LC-001-100-D00-0
 62
     7
370
    50
100
AcDbCircle
 10
-116.159357
 20
531.676819
 30
0.0
 40
2.5
100
AcDbArc
 50
180.0
 51
220.535802
  0
ARC
  5
360
330
1F
100
AcDbEntity
  8
LC-001-100-D00-0
 62
     7
370
    50
100
AcDbCircle
 10
-119.959357
 20
528.427204
 30
0.0
 40
2.5
100
AcDbArc
 50
0.0
 51
40.535802
  0
LINE
  5
361
330
1F
100
AcDbEntity
  8
LC-001-100-D00-0
 62
     7
370
    50
100
AcDbLine
 10
-117.459358
 20
528.427203
 30
0.0
 11
-117.459358
 21
522.676819
 31
0.0
  0
LINE
  5
362
330
1F
100
AcDbEntity
  8
LC-001-100-D00-0
 62
     7
370
    50
100
AcDbLine
 10
-118.959357
 20
522.676819
 30
0.0
 11
-117.459358
 21
522.676819
 31
0.0
  0
LINE
  5
363
330
1F
100
AcDbEntity
  8
LC-001-100-D00-0
 62
     7
370
    50
100
AcDbLine
 10
-118.959357
 20
528.427203
 30
0.0
 11
-118.959357
 21
522.676819
 31
0.0
  0
ARC
  5
364
330
1F
100
AcDbEntity
  8
LC-001-100-D00-0
 62
     7
370
    50
100
AcDbCircle
 10
-119.959357
 20
528.427204
 30
0.0
 40
1.0
100
AcDbArc
 50
0.0
 51
40.535802
  0
ARC
  5
365
330
1F
100
AcDbEntity
  8
LC-001-100-D00-0
 62
     7
370
    50
100
AcDbCircle
 10
-116.159357
 20
531.676819
 30
0.0
 40
4.0
100
AcDbArc
 50
180.0
 51
220.535802
  0
LINE
  5
366
330
1F
100
AcDbEntity
  8
LC-001-100-D00-0
 62
     7
370
    50
100
AcDbLine
 10
-170.159358
 20
553.176819
 30
0.0
 11
-121.659356
 21
553.176819
 31
0.0
  0
LINE
  5
367
330
1F
100
AcDbEntity
  8
LC-001-100-D00-0
 62
     7
370
    50
100
AcDbLine
 10
-170.159358
 20
554.676818
 30
0.0
 11
-121.659356
 21
554.676818
 31
0.0
  0
LINE
  5
368
330
1F
100
AcDbEntity
  8
LC-001-100-D00-0
 62
     7
370
    50
100
AcDbLine
 10
-116.787161
 20
521.176819
 30
0.0
 11
-116.787161
 21
522.676819
 31
0.0
  0
LINE
  5
369
330
1F
100
AcDbEntity
  8
LC-001-100-D00-0
 62
     7
370
    50
100
AcDbLine
 10
-68.531553
 20
521.176819
 30
0.0
 11
-68.531553
 21
522.676819
 31
0.0
  0
LINE
  5
36A
330
1F
100
AcDbEntity
  8
LC-001-100-D00-0
 62
     7
370
    50
100
AcDbLine
 10
-115.479066
 20
522.176819
 30
0.0
 11
-115.479066
 21
522.676819
 31
0.0
  0
LINE
  5
36B
330
1F
100
AcDbEntity
  8
LC-001-100-D00-0
 62
     7
370
    50
100
AcDbLine
 10
-69.839648
 20
522.176819
 30
0.0
 11
-69.839648
 21
522.676819
 31
0.0
  0
LINE
  5
36C
330
1F
100
AcDbEntity
  8
LC-001-100-D00-0
 62
     7
370
    50
100
AcDbLine
 10
-115.479066
 20
522.676819
 30
0.0
 11
-117.459358
 21
522.676819
 31
0.0
  0
LINE
  5
36D
330
1F
100
AcDbEntity
  8
LC-001-100-D00-0
 62
     7
370
    50
100
AcDbLine
 10
-67.859356
 20
522.676819
 30
0.0
 11
-69.839648
 21
522.676819
 31
0.0
  0
INSERT
  5
37D
330
1F
100
AcDbEntity
  8
LC-001-100-D00-0
 62
     7
370
    50
100
AcDbBlockReference
  2
POLY1
 10
0.0
 20
0.0
 30
0.0
  0
INSERT
  5
38D
330
1F
100
AcDbEntity
  8
LC-001-100-D00-0
 62
     7
370
    50
100
AcDbBlockReference
  2
POLY2
 10
0.0
 20
0.0
 30
0.0
  0
LINE
  5
38E
330
1F
100
AcDbEntity
  8
LC-001-100-D00-0
 62
     7
370
    50
100
AcDbLine
 10
-70.278474
 20
519.176819
 30
0.0
 11
-70.119395
 21
519.18488
 31
0.0
  0
LINE
  5
38F
330
1F
100
AcDbEntity
  8
LC-001-100-D00-0
 62
     7
370
    50
100
AcDbLine
 10
-70.278474
 20
519.176819
 30
0.0
 11
-72.659358
 21
519.176819
 31
0.0
  0
LINE
  5
390
330
1F
100
AcDbEntity
  8
LC-001-100-D00-0
 62
     7
370
    50
100
AcDbLine
 10
-111.758993
 20
519.176819
 30
0.0
 11
-115.04024
 21
519.176819
 31
0.0
  0
LINE
  5
391
330
1F
100
AcDbEntity
  8
LC-001-100-D00-0
 62
     7
370
    50
100
AcDbLine
 10
-115.199319
 20
519.18488
 30
0.0
 11
-115.04024
 21
519.176819
 31
0.0
  0
INSERT
  5
3A3
330
1F
100
AcDbEntity
  8
LC-001-100-D00-0
 62
     7
370
    50
100
AcDbBlockReference
  2
POLY3
 10
0.0
 20
0.0
 30
0.0
  0
INSERT
  5
3B5
330
1F
100
AcDbEntity
  8
LC-001-100-D00-0
 62
     7
370
    50
100
AcDbBlockReference
  2
POLY4
 10
0.0
 20
0.0
 30
0.0
  0
LINE
  5
3B6
330
1F
100
AcDbEntity
  8
LC-001-100-D00-0
 62
     7
370
    50
100
AcDbLine
 10
-111.310435
 20
519.176819
 30
0.0
 11
-111.758993
 21
519.176819
 31
0.0
  0
LINE
  5
3B7
330
1F
100
AcDbEntity
  8
LC-001-100-D00-0
 62
     7
370
    50
100
AcDbLine
 10
-110.94932
 20
519.176819
 30
0.0
 11
-111.310435
 21
519.176819
 31
0.0
  0
LINE
  5
3B8
330
1F
100
AcDbEntity
  8
LC-001-100-D00-0
 62
     7
370
    50
100
AcDbLine
 10
-69.159358
 20
529.176819
 30
0.0
 11
-85.909357
 21
529.176819
 31
0.0
  0
LINE
  5
3B9
330
1F
100
AcDbEntity
  8
LC-001-100-D00-0
 62
     7
370
    50
100
AcDbLine
 10
-112.659357
 20
529.176819
 30
0.0
 11
-116.159356
 21
529.176819
 31
0.0
  0
ARC
  5
3BA
330
1F
100
AcDbEntity
  8
LC-001-100-D00-0
 62
     7
370
    50
100
AcDbCircle
 10
-72.010247
 20
531.676819
 30
0.0
 40
2.500000000000079
100
AcDbArc
 50
251.565051
 51
270.0
  0
ARC
  5
3BB
330
1F
100
AcDbEntity
  8
LC-001-100-D00-0
 62
     7
370
    50
100
AcDbCircle
 10
-113.308468
 20
531.676819
 30
0.0
 40
2.5
100
AcDbArc
 50
270.0
 51
285.048955
  0
LINE
  5
3BC
330
1F
100
AcDbEntity
  8
LC-001-100-D00-0
 62
     7
370
    50
100
AcDbLine
 10
-72.800816
 20
529.30511
 30
0.0
 11
-86.343879
 21
533.819466
 31
0.0
  0
ARC
  5
3BD
330
1F
100
AcDbEntity
  8
LC-001-100-D00-0
 62
     7
370
    50
100
AcDbCircle
 10
-116.159357
 20
536.676819
 30
0.0
 40
2.5
100
AcDbArc
 50
180.0
 51
270.0
  0
ARC
  5
3BE
330
1F
100
AcDbEntity
  8
LC-001-100-D00-0
 62
     7
370
    50
100
AcDbCircle
 10
-69.159357
 20
536.676819
 30
0.0
 40
2.5
100
AcDbArc
 50
270.0
 51
360.0
  0
INSERT
  5
3CA
330
1F
100
AcDbEntity
  8
LC-001-100-D00-0
 62
     7
370
    50
100
AcDbBlockReference
  2
POLY5
 10
0.0
 20
0.0
 30
0.0
  0
LINE
  5
3CB
330
1F
100
AcDbEntity
  8
LC-001-100-D00-0
 62
     7
370
    50
100
AcDbLine
 10
-112.058315
 20
534.176863
 30
0.0
 11
-116.159356
 21
534.176863
 31
0.0
  0
LINE
  5
3CC
330
1F
100
AcDbEntity
  8
LC-001-100-D00-0
 62
     7
370
    50
100
AcDbLine
 10
-69.173997
 20
534.176863
 30
0.0
 11
-80.365651
 21
534.176863
 31
0.0
  0
ARC
  5
3CD
330
1F
100
AcDbEntity
  8
LC-001-100-D00-0
 62
     7
370
    50
100
AcDbCircle
 10
-69.159357
 20
536.676819
 30
0.0
 40
2.50000000000069
100
AcDbArc
 50
269.664477
 51
270.0
  0
LINE
  5
3CE
330
1F
100
AcDbEntity
  8
LC-001-100-D00-0
 62
     7
370
    50
100
AcDbLine
 10
-80.508189
 20
534.17682
 30
0.0
 11
-86.510378
 21
534.17682
 31
0.0
  0
LINE
  5
3CF
330
1F
100
AcDbEntity
  8
LC-001-100-D00-0
 62
     7
370
    50
100
AcDbLine
 10
-41.159357
 20
551.176819
 30
0.0
 11
-15.159357
 21
551.176819
 31
0.0
  0
LINE
  5
3D0
330
1F
100
AcDbEntity
  8
LC-001-100-D00-0
 62
     7
370
    50
100
AcDbLine
 10
-41.159357
 20
551.176819
 30
0.0
 11
-41.159357
 21
553.176819
 31
0.0
  0
LINE
  5
3D1
330
1F
100
AcDbEntity
  8
LC-001-100-D00-0
 62
     7
370
    50
100
AcDbLine
 10
-15.159357
 20
551.176819
 30
0.0
 11
-15.159357
 21
553.176819
 31
0.0
  0
LINE
  5
3D2
330
1F
100
AcDbEntity
  8
LC-001-100-D00-0
 62
     7
370
    50
100
AcDbLine
 10
-144.159357
 20
551.176819
 30
0.0
 11
-170.159358
 21
551.176819
 31
0.0
  0
LINE
  5
3D3
330
1F
100
AcDbEntity
  8
LC-001-100-D00-0
 62
     7
370
    50
100
AcDbLine
 10
-144.159357
 20
551.176819
 30
0.0
 11
-144.159357
 21
553.176819
 31
0.0
  0
LINE
  5
3D4
330
1F
100
AcDbEntity
  8
LC-001-100-D00-0
 62
     7
370
    50
100
AcDbLine
 10
-170.159358
 20
551.176819
 30
0.0
 11
-170.159358
 21
553.176819
 31
0.0
  0
LINE
  5
3D5
330
1F
100
AcDbEntity
  8
LC-001-100-D00-0
 62
     7
370
    50
100
AcDbLine
 10
-41.159357
 20
551.176819
 30
0.0
 11
-41.159357
 21
549.176818
 31
0.0
  0
LINE
  5
3D6
330
1F
100
AcDbEntity
  8
LC-001-100-D00-0
 62
     7
370
    50
100
AcDbLine
 10
-15.159357
 20
549.176818
 30
0.0
 11
-15.159357
 21
551.176819
 31
0.0
  0
LINE
  5
3D7
330
1F
100
AcDbEntity
  8
LC-001-100-D00-0
 62
     7
370
    50
100
AcDbLine
 10
-144.159357
 20
551.176819
 30
0.0
 11
-144.159357
 21
549.176818
 31
0.0
  0
LINE
  5
3D8
330
1F
100
AcDbEntity
  8
LC-001-100-D00-0
 62
     7
370
    50
100
AcDbLine
 10
-170.159358
 20
549.176818
 30
0.0
 11
-170.159358
 21
551.176819
 31
0.0
  0
LINE
  5
3D9
330
1F
100
AcDbEntity
  8
LC-001-100-D00-0
 62
     7
370
    50
100
AcDbLine
 10
-41.159357
 20
528.076819
 30
0.0
 11
-41.159357
 21
549.176818
 31
0.0
  0
LINE
  5
3DA
330
1F
100
AcDbEntity
  8
LC-001-100-D00-0
 62
     7
370
    50
100
AcDbLine
 10
-15.159357
 20
528.076819
 30
0.0
 11
-15.159357
 21
549.176818
 31
0.0
  0
LINE
  5
3DB
330
1F
100
AcDbEntity
  8
LC-001-100-D00-0
 62
     7
370
    50
100
AcDbLine
 10
-41.159357
 20
524.076819
 30
0.0
 11
-38.718964
 21
524.076819
 31
0.0
  0
LINE
  5
3DC
330
1F
100
AcDbEntity
  8
LC-001-100-D00-0
 62
     7
370
    50
100
AcDbLine
 10
-17.59975
 20
524.076819
 30
0.0
 11
-15.159357
 21
524.076819
 31
0.0
  0
LINE
  5
3DD
330
1F
100
AcDbEntity
  8
LC-001-100-D00-0
 62
     7
370
    50
100
AcDbLine
 10
-41.159357
 20
528.076819
 30
0.0
 11
-41.159357
 21
524.076819
 31
0.0
  0
LINE
  5
3DE
330
1F
100
AcDbEntity
  8
LC-001-100-D00-0
 62
     7
370
    50
100
AcDbLine
 10
-15.159357
 20
524.076819
 30
0.0
 11
-15.159357
 21
528.076819
 31
0.0
  0
LINE
  5
3DF
330
1F
100
AcDbEntity
  8
LC-001-100-D00-0
 62
     7
370
    50
100
AcDbLine
 10
-144.159357
 20
532.346693
 30
0.0
 11
-144.159357
 21
549.176818
 31
0.0
  0
LINE
  5
3E0
330
1F
100
AcDbEntity
  8
LC-001-100-D00-0
 62
     7
370
    50
100
AcDbLine
 10
-170.159358
 20
536.676819
 30
0.0
 11
-170.159358
 21
549.176818
 31
0.0
  0
LINE
  5
3E1
330
1F
100
AcDbEntity
  8
LC-001-100-D00-0
 62
     7
370
    50
100
AcDbLine
 10
-63.659358
 20
554.676818
 30
0.0
 11
-69.159358
 21
554.676818
 31
0.0
  0
LINE
  5
3E2
330
1F
100
AcDbEntity
  8
LC-001-100-D00-0
 62
     7
370
    50
100
AcDbLine
 10
-116.159356
 20
554.676818
 30
0.0
 11
-121.659356
 21
554.676818
 31
0.0
  0
LINE
  5
3E3
330
1F
100
AcDbEntity
  8
LC-001-100-D00-0
 62
     7
370
    50
100
AcDbLine
 10
-69.159358
 20
554.676818
 30
0.0
 11
-75.409358
 21
554.676818
 31
0.0
  0
LINE
  5
3E4
330
1F
100
AcDbEntity
  8
LC-001-100-D00-0
 62
     7
370
    50
100
AcDbLine
 10
-109.909357
 20
554.676818
 30
0.0
 11
-116.159356
 21
554.676818
 31
0.0
  0
LINE
  5
3E5
330
1F
100
AcDbEntity
  8
LC-001-100-D00-0
 62
     7
370
    50
100
AcDbLine
 10
-114.359358
 20
525.676819
 30
0.0
 11
-116.659357
 21
525.676819
 31
0.0
  0
LINE
  5
3E6
330
1F
100
AcDbEntity
  8
LC-001-100-D00-0
 62
     7
370
    50
100
AcDbLine
 10
-116.659357
 20
525.676819
 30
0.0
 11
-116.659357
 21
527.176819
 31
0.0
  0
LINE
  5
3E7
330
1F
100
AcDbEntity
  8
LC-001-100-D00-0
 62
     7
370
    50
100
AcDbLine
 10
-112.659357
 20
527.176819
 30
0.0
 11
-116.659357
 21
527.176819
 31
0.0
  0
LINE
  5
3E8
330
1F
100
AcDbEntity
  8
LC-001-100-D00-0
 62
     7
370
    50
100
AcDbLine
 10
-112.659357
 20
531.676818
 30
0.0
 11
-112.659357
 21
527.176819
 31
0.0
  0
ARC
  5
3E9
330
1F
100
AcDbEntity
  8
LC-001-100-D00-0
 62
     7
370
    50
100
AcDbCircle
 10
-107.159357
 20
531.676819
 30
0.0
 40
5.5
100
AcDbArc
 50
90.0
 51
180.0
  0
LINE
  5
3EA
330
1F
100
AcDbEntity
  8
LC-001-100-D00-0
 62
     7
370
    50
100
AcDbLine
 10
-107.159357
 20
537.176818
 30
0.0
 11
-91.409357
 21
537.176818
 31
0.0
  0
ARC
  5
3EB
330
1F
100
AcDbEntity
  8
LC-001-100-D00-0
 62
     7
370
    50
100
AcDbCircle
 10
-91.409357
 20
531.676819
 30
0.0
 40
5.500000000000028
100
AcDbArc
 50
0.0
 51
90.0
  0
LINE
  5
3EC
330
1F
100
AcDbEntity
  8
LC-001-100-D00-0
 62
     7
370
    50
100
AcDbLine
 10
-85.909357
 20
531.676818
 30
0.0
 11
-85.909357
 21
496.676819
 31
0.0
  0
LINE
  5
3ED
330
1F
100
AcDbEntity
  8
LC-001-100-D00-0
 62
     7
370
    50
100
AcDbLine
 10
-85.909357
 20
496.676819
 30
0.0
 11
-87.409357
 21
496.676819
 31
0.0
  0
LINE
  5
3EE
330
1F
100
AcDbEntity
  8
LC-001-100-D00-0
 62
     7
370
    50
100
AcDbLine
 10
-87.409357
 20
531.676818
 30
0.0
 11
-87.409357
 21
496.676819
 31
0.0
  0
ARC
  5
3EF
330
1F
100
AcDbEntity
  8
LC-001-100-D00-0
 62
     7
370
    50
100
AcDbCircle
 10
-91.409357
 20
531.676819
 30
0.0
 40
4.000000000000057
100
AcDbArc
 50
0.0
 51
90.0
  0
LINE
  5
3F0
330
1F
100
AcDbEntity
  8
LC-001-100-D00-0
 62
     7
370
    50
100
AcDbLine
 10
-107.159357
 20
535.676819
 30
0.0
 11
-91.409357
 21
535.676819
 31
0.0
  0
ARC
  5
3F1
330
1F
100
AcDbEntity
  8
LC-001-100-D00-0
 62
     7
370
    50
100
AcDbCircle
 10
-107.159357
 20
531.676819
 30
0.0
 40
4.0
100
AcDbArc
 50
90.0
 51
180.0
  0
LINE
  5
3F2
330
1F
100
AcDbEntity
  8
LC-001-100-D00-0
 62
     7
370
    50
100
AcDbLine
 10
-111.159357
 20
531.676818
 30
0.0
 11
-111.159357
 21
520.676819
 31
0.0
  0
LINE
  5
3F3
330
1F
100
AcDbEntity
  8
LC-001-100-D00-0
 62
     7
370
    50
100
AcDbLine
 10
-111.159357
 20
520.676819
 30
0.0
 11
-116.659357
 21
520.676819
 31
0.0
  0
LINE
  5
3F4
330
1F
100
AcDbEntity
  8
LC-001-100-D00-0
 62
     7
370
    50
100
AcDbLine
 10
-116.659357
 20
522.176819
 30
0.0
 11
-116.659357
 21
520.676819
 31
0.0
  0
LINE
  5
3F5
330
1F
100
AcDbEntity
  8
LC-001-100-D00-0
 62
     7
370
    50
100
AcDbLine
 10
-114.359358
 20
522.176819
 30
0.0
 11
-116.659357
 21
522.176819
 31
0.0
  0
LINE
  5
3F6
330
1F
100
AcDbEntity
  8
LC-001-100-D00-0
 62
     7
370
    50
100
AcDbLine
 10
-114.359358
 20
525.676819
 30
0.0
 11
-114.359358
 21
522.176819
 31
0.0
  0
LINE
  5
3F7
330
1F
100
AcDbEntity
  8
LC-001-100-D00-0
 62
     7
370
    50
100
AcDbLine
 10
-68.659357
 20
520.676819
 30
0.0
 11
-68.659357
 21
522.176819
 31
0.0
  0
LINE
  5
3F8
330
1F
100
AcDbEntity
  8
LC-001-100-D00-0
 62
     7
370
    50
100
AcDbLine
 10
-68.659357
 20
520.676819
 30
0.0
 11
-72.659358
 21
520.676819
 31
0.0
  0
LINE
  5
3F9
330
1F
100
AcDbEntity
  8
LC-001-100-D00-0
 62
     7
370
    50
100
AcDbLine
 10
-72.659358
 20
496.676819
 30
0.0
 11
-72.659358
 21
520.676819
 31
0.0
  0
LINE
  5
3FA
330
1F
100
AcDbEntity
  8
LC-001-100-D00-0
 62
     7
370
    50
100
AcDbLine
 10
-72.659358
 20
496.676819
 30
0.0
 11
-74.159357
 21
496.676819
 31
0.0
  0
LINE
  5
3FB
330
1F
100
AcDbEntity
  8
LC-001-100-D00-0
 62
     7
370
    50
100
AcDbLine
 10
-74.159357
 20
496.676819
 30
0.0
 11
-74.159357
 21
526.176818
 31
0.0
  0
ARC
  5
3FC
330
1F
100
AcDbEntity
  8
LC-001-100-D00-0
 62
     7
370
    50
100
AcDbCircle
 10
-73.159357
 20
526.176819
 30
0.0
 40
0.9999999999998863
100
AcDbArc
 50
90.0
 51
180.0
  0
LINE
  5
3FD
330
1F
100
AcDbEntity
  8
LC-001-100-D00-0
 62
     7
370
    50
100
AcDbLine
 10
-68.659357
 20
527.176819
 30
0.0
 11
-73.159357
 21
527.176819
 31
0.0
  0
LINE
  5
3FE
330
1F
100
AcDbEntity
  8
LC-001-100-D00-0
 62
     7
370
    50
100
AcDbLine
 10
-68.659357
 20
527.176819
 30
0.0
 11
-68.659357
 21
525.676819
 31
0.0
  0
LINE
  5
3FF
330
1F
100
AcDbEntity
  8
LC-001-100-D00-0
 62
     7
370
    50
100
AcDbLine
 10
-68.659357
 20
525.676819
 30
0.0
 11
-70.959357
 21
525.676819
 31
0.0
  0
LINE
  5
400
330
1F
100
AcDbEntity
  8
LC-001-100-D00-0
 62
     7
370
    50
100
AcDbLine
 10
-70.959357
 20
522.176819
 30
0.0
 11
-70.959357
 21
525.676819
 31
0.0
  0
LINE
  5
401
330
1F
100
AcDbEntity
  8
LC-001-100-D00-0
 62
     7
370
    50
100
AcDbLine
 10
-68.659357
 20
522.176819
 30
0.0
 11
-70.959357
 21
522.176819
 31
0.0
  0
LINE
  5
402
330
1F
100
AcDbEntity
  8
LC-001-100-D00-0
 62
     7
370
    50
100
AcDbLine
 10
-85.92802
 20
527.176819
 30
0.0
 11
-73.159357
 21
527.176819
 31
0.0
  0
LINE
  5
403
330
1F
100
AcDbEntity
  8
LC-001-100-D00-0
 62
     7
370
    50
100
AcDbLine
 10
-111.159357
 20
520.676819
 30
0.0
 11
-100.284357
 21
520.676819
 31
0.0
  0
LINE
  5
404
330
1F
100
AcDbEntity
  8
LC-001-100-D00-0
 62
     7
370
    50
100
AcDbLine
 10
-98.284357
 20
520.676819
 30
0.0
 11
-88.1665
 21
520.676819
 31
0.0
  0
LINE
  5
405
330
1F
100
AcDbEntity
  8
LC-001-100-D00-0
 62
     7
370
    50
100
AcDbLine
 10
-85.909357
 20
496.676819
 30
0.0
 11
-74.159357
 21
496.676819
 31
0.0
  0
LINE
  5
406
330
1F
100
AcDbEntity
  8
LC-001-100-D00-0
 62
     7
370
    50
100
AcDbLine
 10
-87.409357
 20
520.676819
 30
0.0
 11
-88.1665
 21
520.676819
 31
0.0
  0
ARC
  5
407
330
1F
100
AcDbEntity
  8
LC-001-100-D00-0
 62
     7
370
    50
100
AcDbCircle
 10
-67.5963
 20
524.220372
 30
0.0
 40
0.3000000000000115
100
AcDbArc
 50
131.633539
 51
282.528808
  0
LINE
  5
408
330
1F
100
AcDbEntity
  8
LC-001-100-D00-0
 62
     7
370
    50
100
AcDbLine
 10
-67.795609
 20
524.444596
 30
0.0
 11
-64.443522
 21
527.424228
 31
0.0
  0
ARC
  5
409
330
1F
100
AcDbEntity
  8
LC-001-100-D00-0
 62
     7
370
    50
100
AcDbCircle
 10
-63.779158
 20
526.676819
 30
0.0
 40
1.0
100
AcDbArc
 50
90.0
 51
131.633539
  0
LINE
  5
40A
330
1F
100
AcDbEntity
  8
LC-001-100-D00-0
 62
     7
370
    50
100
AcDbLine
 10
-61.159357
 20
527.67682
 30
0.0
 11
-61.159357
 21
523.676819
 31
0.0
  0
LINE
  5
40B
330
1F
100
AcDbEntity
  8
LC-001-100-D00-0
 62
     7
370
    50
100
AcDbLine
 10
-64.159357
 20
523.676819
 30
0.0
 11
-61.159357
 21
523.676819
 31
0.0
  0
LINE
  5
40C
330
1F
100
AcDbEntity
  8
LC-001-100-D00-0
 62
     7
370
    50
100
AcDbLine
 10
-64.159357
 20
523.676819
 30
0.0
 11
-64.159357
 21
524.302834
 31
0.0
  0
ARC
  5
40D
330
1F
100
AcDbEntity
  8
LC-001-100-D00-0
 62
     7
370
    50
100
AcDbCircle
 10
-64.459357
 20
524.302834
 30
0.0
 40
0.3000000000000114
100
AcDbArc
 50
0.0
 51
102.528808
  0
LINE
  5
40E
330
1F
100
AcDbEntity
  8
LC-001-100-D00-0
 62
     7
370
    50
100
AcDbLine
 10
-64.524436
 20
524.59569
 30
0.0
 11
-67.531222
 21
523.927516
 31
0.0
  0
LINE
  5
40F
330
1F
100
AcDbEntity
  8
LC-001-100-D00-0
 62
     7
370
    50
100
AcDbLine
 10
-63.779158
 20
527.67682
 30
0.0
 11
-61.159357
 21
527.67682
 31
0.0
  0
LINE
  5
410
330
1F
100
AcDbEntity
  8
LC-001-100-D00-0
 62
     7
370
    50
100
AcDbLine
 10
-121.159357
 20
524.302834
 30
0.0
 11
-121.159357
 21
523.676819
 31
0.0
  0
LINE
  5
411
330
1F
100
AcDbEntity
  8
LC-001-100-D00-0
 62
     7
370
    50
100
AcDbLine
 10
-124.159358
 20
523.676819
 30
0.0
 11
-124.159358
 21
527.67682
 31
0.0
  0
ARC
  5
412
330
1F
100
AcDbEntity
  8
LC-001-100-D00-0
 62
     7
370
    50
100
AcDbCircle
 10
-121.539557
 20
526.676819
 30
0.0
 40
1.000000000000004
100
AcDbArc
 50
48.366461
 51
90.0
  0
LINE
  5
413
330
1F
100
AcDbEntity
  8
LC-001-100-D00-0
 62
     7
370
    50
100
AcDbLine
 10
-117.523105
 20
524.444596
 30
0.0
 11
-120.875192
 21
527.424228
 31
0.0
  0
ARC
  5
414
330
1F
100
AcDbEntity
  8
LC-001-100-D00-0
 62
     7
370
    50
100
AcDbCircle
 10
-117.722414
 20
524.220372
 30
0.0
 40
0.3000000000001464
100
AcDbArc
 50
257.471192
 51
48.366461
  0
LINE
  5
415
330
1F
100
AcDbEntity
  8
LC-001-100-D00-0
 62
     7
370
    50
100
AcDbLine
 10
-120.794279
 20
524.59569
 30
0.0
 11
-117.787493
 21
523.927516
 31
0.0
  0
ARC
  5
416
330
1F
100
AcDbEntity
  8
LC-001-100-D00-0
 62
     7
370
    50
100
AcDbCircle
 10
-120.859357
 20
524.302834
 30
0.0
 40
0.3000000000001526
100
AcDbArc
 50
77.471192
 51
180.0
  0
LINE
  5
417
330
1F
100
AcDbEntity
  8
LC-001-100-D00-0
 62
     7
370
    50
100
AcDbLine
 10
-124.159358
 20
523.676819
 30
0.0
 11
-121.159357
 21
523.676819
 31
0.0
  0
LINE
  5
418
330
1F
100
AcDbEntity
  8
LC-001-100-D00-0
 62
     7
370
    50
100
AcDbLine
 10
-124.159358
 20
527.67682
 30
0.0
 11
-121.539557
 21
527.67682
 31
0.0
  0
LINE
  5
419
330
1F
100
AcDbEntity
  8
LC-001-100-D00-0
 62
     7
370
    50
100
AcDbLine
 10
-64.659356
 20
523.676819
 30
0.0
 11
-66.359357
 21
523.676819
 31
0.0
  0
LINE
  5
41A
330
1F
100
AcDbEntity
  8
LC-001-100-D00-0
 62
     7
370
    50
100
AcDbLine
 10
-118.959357
 20
523.676819
 30
0.0
 11
-120.659358
 21
523.676819
 31
0.0
  0
LINE
  5
41B
330
1F
100
AcDbEntity
  8
LC-001-100-D00-0
 62
     7
370
    50
100
AcDbLine
 10
-64.659356
 20
520.676819
 30
0.0
 11
-64.659356
 21
523.676819
 31
0.0
  0
LINE
  5
41C
330
1F
100
AcDbEntity
  8
LC-001-100-D00-0
 62
     7
370
    50
100
AcDbLine
 10
-64.659356
 20
523.676819
 30
0.0
 11
-61.659358
 21
523.676819
 31
0.0
  0
LINE
  5
41D
330
1F
100
AcDbEntity
  8
LC-001-100-D00-0
 62
     7
370
    50
100
AcDbLine
 10
-61.659358
 20
527.67682
 30
0.0
 11
-61.659358
 21
523.676819
 31
0.0
  0
LINE
  5
41E
330
1F
100
AcDbEntity
  8
LC-001-100-D00-0
 62
     7
370
    50
100
AcDbLine
 10
-61.659358
 20
527.67682
 30
0.0
 11
-56.659359
 21
527.67682
 31
0.0
  0
ARC
  5
41F
330
1F
100
AcDbEntity
  8
LC-001-100-D00-0
 62
     7
370
    50
100
AcDbCircle
 10
-56.659357
 20
528.676819
 30
0.0
 40
1.0
100
AcDbArc
 50
270.0
 51
0.0
  0
LINE
  5
420
330
1F
100
AcDbEntity
  8
LC-001-100-D00-0
 62
     7
370
    50
100
AcDbLine
 10
-55.659357
 20
553.176819
 30
0.0
 11
-55.659357
 21
528.67682
 31
0.0
  0
LINE
  5
421
330
1F
100
AcDbEntity
  8
LC-001-100-D00-0
 62
     7
370
    50
100
AcDbLine
 10
-52.659358
 20
553.176819
 30
0.0
 11
-55.659357
 21
553.176819
 31
0.0
  0
LINE
  5
422
330
1F
100
AcDbEntity
  8
LC-001-100-D00-0
 62
     7
370
    50
100
AcDbLine
 10
-52.659358
 20
553.176819
 30
0.0
 11
-52.659358
 21
523.176819
 31
0.0
  0
LINE
  5
423
330
1F
100
AcDbEntity
  8
LC-001-100-D00-0
 62
     7
370
    50
100
AcDbLine
 10
-52.659358
 20
523.176819
 30
0.0
 11
-55.659357
 21
523.176819
 31
0.0
  0
LINE
  5
424
330
1F
100
AcDbEntity
  8
LC-001-100-D00-0
 62
     7
370
    50
100
AcDbLine
 10
-55.659357
 20
523.176819
 30
0.0
 11
-55.659357
 21
524.676819
 31
0.0
  0
LINE
  5
425
330
1F
100
AcDbEntity
  8
LC-001-100-D00-0
 62
     7
370
    50
100
AcDbLine
 10
-55.659357
 20
524.676819
 30
0.0
 11
-58.659355
 21
524.676819
 31
0.0
  0
LINE
  5
426
330
1F
100
AcDbEntity
  8
LC-001-100-D00-0
 62
     7
370
    50
100
AcDbLine
 10
-58.659355
 20
520.676819
 30
0.0
 11
-58.659355
 21
524.676819
 31
0.0
  0
LINE
  5
427
330
1F
100
AcDbEntity
  8
LC-001-100-D00-0
 62
     7
370
    50
100
AcDbLine
 10
-58.659355
 20
520.676819
 30
0.0
 11
-64.659356
 21
520.676819
 31
0.0
  0
LINE
  5
428
330
1F
100
AcDbEntity
  8
LC-001-100-D00-0
 62
     7
370
    50
100
AcDbLine
 10
-129.659358
 20
524.676819
 30
0.0
 11
-129.659358
 21
523.176819
 31
0.0
  0
LINE
  5
429
330
1F
100
AcDbEntity
  8
LC-001-100-D00-0
 62
     7
370
    50
100
AcDbLine
 10
-129.659358
 20
523.176819
 30
0.0
 11
-132.659356
 21
523.176819
 31
0.0
  0
LINE
  5
42A
330
1F
100
AcDbEntity
  8
LC-001-100-D00-0
 62
     7
370
    50
100
AcDbLine
 10
-132.659356
 20
523.176819
 30
0.0
 11
-132.659356
 21
553.176819
 31
0.0
  0
LINE
  5
42B
330
1F
100
AcDbEntity
  8
LC-001-100-D00-0
 62
     7
370
    50
100
AcDbLine
 10
-129.659358
 20
553.176819
 30
0.0
 11
-132.659356
 21
553.176819
 31
0.0
  0
LINE
  5
42C
330
1F
100
AcDbEntity
  8
LC-001-100-D00-0
 62
     7
370
    50
100
AcDbLine
 10
-129.659358
 20
528.67682
 30
0.0
 11
-129.659358
 21
553.176819
 31
0.0
  0
ARC
  5
42D
330
1F
100
AcDbEntity
  8
LC-001-100-D00-0
 62
     7
370
    50
100
AcDbCircle
 10
-128.659357
 20
528.676819
 30
0.0
 40
1.000000000000028
100
AcDbArc
 50
180.0
 51
270.0
  0
LINE
  5
42E
330
1F
100
AcDbEntity
  8
LC-001-100-D00-0
 62
     7
370
    50
100
AcDbLine
 10
-128.659356
 20
527.67682
 30
0.0
 11
-123.659357
 21
527.67682
 31
0.0
  0
LINE
  5
42F
330
1F
100
AcDbEntity
  8
LC-001-100-D00-0
 62
     7
370
    50
100
AcDbLine
 10
-123.659357
 20
523.676819
 30
0.0
 11
-123.659357
 21
527.67682
 31
0.0
  0
LINE
  5
430
330
1F
100
AcDbEntity
  8
LC-001-100-D00-0
 62
     7
370
    50
100
AcDbLine
 10
-123.659357
 20
523.676819
 30
0.0
 11
-120.659358
 21
523.676819
 31
0.0
  0
LINE
  5
431
330
1F
100
AcDbEntity
  8
LC-001-100-D00-0
 62
     7
370
    50
100
AcDbLine
 10
-120.659358
 20
523.676819
 30
0.0
 11
-120.659358
 21
520.676819
 31
0.0
  0
LINE
  5
432
330
1F
100
AcDbEntity
  8
LC-001-100-D00-0
 62
     7
370
    50
100
AcDbLine
 10
-120.659358
 20
520.676819
 30
0.0
 11
-126.659359
 21
520.676819
 31
0.0
  0
LINE
  5
433
330
1F
100
AcDbEntity
  8
LC-001-100-D00-0
 62
     7
370
    50
100
AcDbLine
 10
-126.659359
 20
524.676819
 30
0.0
 11
-126.659359
 21
520.676819
 31
0.0
  0
LINE
  5
434
330
1F
100
AcDbEntity
  8
LC-001-100-D00-0
 62
     7
370
    50
100
AcDbLine
 10
-126.659359
 20
524.676819
 30
0.0
 11
-129.659358
 21
524.676819
 31
0.0
  0
LINE
  5
435
330
1F
100
AcDbEntity
  8
LC-001-100-D00-0
 62
     7
370
    50
100
AcDbLine
 10
-58.191273
 20
523.176819
 30
0.0
 11
-55.659357
 21
523.176819
 31
0.0
  0
LINE
  5
436
330
1F
100
AcDbEntity
  8
LC-001-100-D00-0
 62
     7
370
    50
100
AcDbLine
 10
-65.850846
 20
520.676819
 30
0.0
 11
-64.659356
 21
520.676819
 31
0.0
  0
LINE
  5
437
330
1F
100
AcDbEntity
  8
LC-001-100-D00-0
 62
     7
370
    50
100
AcDbLine
 10
-120.659358
 20
520.676819
 30
0.0
 11
-119.467869
 21
520.676819
 31
0.0
  0
LINE
  5
438
330
1F
100
AcDbEntity
  8
LC-001-100-D00-0
 62
     7
370
    50
100
AcDbLine
 10
-129.659358
 20
523.176819
 30
0.0
 11
-127.127442
 21
523.176819
 31
0.0
  0
LINE
  5
439
330
1F
100
AcDbEntity
  8
LC-001-100-D00-0
 62
     7
370
    50
100
AcDbLine
 10
-119.467869
 20
520.676819
 30
0.0
 11
-116.832827
 21
520.676819
 31
0.0
  0
LINE
  5
43A
330
1F
100
AcDbEntity
  8
LC-001-100-D00-0
 62
     7
370
    50
100
AcDbLine
 10
-68.587358
 20
520.676819
 30
0.0
 11
-65.850846
 21
520.676819
 31
0.0
  0
INSERT
  5
448
330
1F
100
AcDbEntity
  8
LC-001-100-D00-0
 62
     7
370
    50
100
AcDbBlockReference
  2
POLY6
 10
0.0
 20
0.0
 30
0.0
  0
LINE
  5
449
330
1F
100
AcDbEntity
  8
LC-001-100-D00-0
 62
     7
370
    50
100
AcDbLine
 10
-127.127442
 20
523.176819
 30
0.0
 11
-126.659359
 21
523.176819
 31
0.0
  0
LINE
  5
44A
330
1F
100
AcDbEntity
  8
LC-001-100-D00-0
 62
     7
370
    50
100
AcDbLine
 10
-58.659355
 20
523.176819
 30
0.0
 11
-58.191273
 21
523.176819
 31
0.0
  0
LINE
  5
44B
330
1F
100
AcDbEntity
  8
LC-001-100-D00-0
 62
     7
370
    50
100
AcDbLine
 10
-198.659356
 20
489.732698
 30
0.0
 11
-123.542077
 21
489.732698
 31
0.0
  0
ARC
  5
44C
330
1F
100
AcDbEntity
  8
LC-001-100-D00-0
 62
     7
370
    50
100
AcDbCircle
 10
-122.659357
 20
496.676819
 30
0.0
 40
7.000000000000028
100
AcDbArc
 50
262.755545
 51
270.0
  0
LINE
  5
44D
330
1F
100
AcDbEntity
  8
LC-001-100-D00-0
 62
     7
370
    50
100
AcDbLine
 10
-122.659357
 20
489.676819
 30
0.0
 11
-101.808162
 21
489.676819
 31
0.0
  0
ARC
  5
44E
330
1F
100
AcDbEntity
  8
LC-001-100-D00-0
 62
     7
370
    50
100
AcDbCircle
 10
-101.808161
 20
490.676819
 30
0.0
 40
1.0
100
AcDbArc
 50
270.0
 51
359.0
  0
LINE
  5
44F
330
1F
100
AcDbEntity
  8
LC-001-100-D00-0
 62
     7
370
    50
100
AcDbLine
 10
-100.808314
 20
490.659366
 30
0.0
 11
-100.284357
 21
520.676819
 31
0.0
  0
LINE
  5
450
330
1F
100
AcDbEntity
  8
LC-001-100-D00-0
 62
     7
370
    50
100
AcDbLine
 10
-100.284357
 20
520.676819
 30
0.0
 11
-98.284357
 21
520.676819
 31
0.0
  0
LINE
  5
451
330
1F
100
AcDbEntity
  8
LC-001-100-D00-0
 62
     7
370
    50
100
AcDbLine
 10
-98.284357
 20
520.676819
 30
0.0
 11
-97.7604
 21
490.659366
 31
0.0
  0
ARC
  5
452
330
1F
100
AcDbEntity
  8
LC-001-100-D00-0
 62
     7
370
    50
100
AcDbCircle
 10
-96.760553
 20
490.676819
 30
0.0
 40
1.000000000000014
100
AcDbArc
 50
181.0
 51
270.0
  0
LINE
  5
453
330
1F
100
AcDbEntity
  8
LC-001-100-D00-0
 62
     7
370
    50
100
AcDbLine
 10
-96.760553
 20
489.676819
 30
0.0
 11
-62.659358
 21
489.676819
 31
0.0
  0
ARC
  5
454
330
1F
100
AcDbEntity
  8
LC-001-100-D00-0
 62
     7
370
    50
100
AcDbCircle
 10
-62.659357
 20
496.676819
 30
0.0
 40
7.0
100
AcDbArc
 50
270.0
 51
0.0
  0
LINE
  5
455
330
1F
100
AcDbEntity
  8
LC-001-100-D00-0
 62
     7
370
    50
100
AcDbLine
 10
-55.659357
 20
496.676819
 30
0.0
 11
-55.659357
 21
524.676819
 31
0.0
  0
LINE
  5
456
330
1F
100
AcDbEntity
  8
LC-001-100-D00-0
 62
     7
370
    50
100
AcDbLine
 10
-55.659357
 20
524.676819
 30
0.0
 11
-52.659358
 21
524.676819
 31
0.0
  0
LINE
  5
457
330
1F
100
AcDbEntity
  8
LC-001-100-D00-0
 62
     7
370
    50
100
AcDbLine
 10
-52.659358
 20
496.676819
 30
0.0
 11
-52.659358
 21
524.676819
 31
0.0
  0
ARC
  5
458
330
1F
100
AcDbEntity
  8
LC-001-100-D00-0
 62
     7
370
    50
100
AcDbCircle
 10
-62.659357
 20
496.676819
 30
0.0
 40
10.0
100
AcDbArc
 50
270.0
 51
0.0
  0
LINE
  5
459
330
1F
100
AcDbEntity
  8
LC-001-100-D00-0
 62
     7
370
    50
100
AcDbLine
 10
-122.659357
 20
486.676818
 30
0.0
 11
-62.659358
 21
486.676818
 31
0.0
  0
ARC
  5
45A
330
1F
100
AcDbEntity
  8
LC-001-100-D00-0
 62
     7
370
    50
100
AcDbCircle
 10
-122.659357
 20
496.676819
 30
0.0
 40
10.0000000000001
100
AcDbArc
 50
264.316413
 51
270.0
  0
LINE
  5
45B
330
1F
100
AcDbEntity
  8
LC-001-100-D00-0
 62
     7
370
    50
100
AcDbLine
 10
-195.659357
 20
486.725979
 30
0.0
 11
-123.649704
 21
486.725979
 31
0.0
  0
INSERT
  5
461
330
1F
100
AcDbEntity
  8
LC-001-100-D00-0
 62
     7
370
    50
100
AcDbBlockReference
  2
KLON24
 10
0.0
 20
0.0
 30
0.0
  0
LINE
  5
462
330
1F
100
AcDbEntity
  8
LC-001-100-D00-0
 62
     7
370
    50
100
AcDbLine
 10
-198.659356
 20
487.531463
 30
0.0
 11
-198.659356
 21
489.732698
 31
0.0
  0
LINE
  5
463
330
1F
100
AcDbEntity
  8
LC-001-100-D00-0
 62
     7
370
    50
100
AcDbLine
 10
-195.659357
 20
486.725979
 30
0.0
 11
-195.659357
 21
486.676818
 31
0.0
  0
LINE
  5
464
330
1F
100
AcDbEntity
  8
LC-001-100-D00-0
 62
     7
370
    50
100
AcDbLine
 10
-195.659357
 20
536.676819
 30
0.0
 11
-195.659357
 21
536.627658
 31
0.0
  0
LINE
  5
465
330
1F
100
AcDbEntity
  8
LC-001-100-D00-0
 62
     7
370
    50
100
AcDbLine
 10
-148.366432
 20
536.627658
 30
0.0
 11
-195.659357
 21
536.627658
 31
0.0
  0
LINE
  5
466
330
1F
100
AcDbEntity
  8
LC-001-100-D00-0
 62
     7
370
    50
100
AcDbLine
 10
-129.659358
 20
520.176819
 30
0.0
 11
-129.659358
 21
496.676819
 31
0.0
  0
INSERT
  5
47A
330
1F
100
AcDbEntity
  8
LC-001-100-D00-0
 62
     7
370
    50
100
AcDbBlockReference
  2
POLY7
 10
0.0
 20
0.0
 30
0.0
  0
LINE
  5
47B
330
1F
100
AcDbEntity
  8
LC-001-100-D00-0
 62
     7
370
    50
100
AcDbLine
 10
-198.659356
 20
533.620939
 30
0.0
 11
-198.659356
 21
489.732698
 31
0.0
  0
LINE
  5
47C
330
1F
100
AcDbEntity
  8
LC-001-100-D00-0
 62
     7
370
    50
100
AcDbLine
 10
-148.359145
 20
533.620939
 30
0.0
 11
-198.659356
 21
533.620939
 31
0.0
  0
INSERT
  5
482
330
1F
100
AcDbEntity
  8
LC-001-100-D00-0
 62
     7
370
    50
100
AcDbBlockReference
  2
KLON25
 10
0.0
 20
0.0
 30
0.0
  0
LINE
  5
483
330
1F
100
AcDbEntity
  8
LC-001-100-D00-0
 62
     7
370
    50
100
AcDbLine
 10
-198.659356
 20
535.822174
 30
0.0
 11
-198.659356
 21
535.872971
 31
0.0
  0
LINE
  5
484
330
1F
100
AcDbEntity
  8
LC-001-100-D00-0
 62
     7
370
    50
100
AcDbLine
 10
-198.659356
 20
487.480667
 30
0.0
 11
-198.659356
 21
487.531463
 31
0.0
  0
LINE
  5
485
330
1F
100
AcDbEntity
  8
LC-001-100-D00-0
 62
     7
370
    50
100
AcDbLine
 10
-132.659356
 20
523.176819
 30
0.0
 11
-137.133076
 21
523.176819
 31
0.0
  0
LINE
  5
486
330
1F
100
AcDbEntity
  8
LC-001-100-D00-0
 62
     7
370
    50
100
AcDbLine
 10
-132.659356
 20
524.676819
 30
0.0
 11
-132.659356
 21
523.176819
 31
0.0
  0
LINE
  5
487
330
1F
100
AcDbEntity
  8
LC-001-100-D00-0
 62
     7
370
    50
100
AcDbLine
 10
-129.659358
 20
524.676819
 30
0.0
 11
-129.659358
 21
520.176819
 31
0.0
  0
LINE
  5
488
330
1F
100
AcDbEntity
  8
LC-001-100-D00-0
 62
     7
370
    50
100
AcDbLine
 10
-129.659358
 20
520.176819
 30
0.0
 11
-137.133076
 21
520.176819
 31
0.0
  0
ARC
  5
489
330
1F
100
AcDbEntity
  8
LC-001-100-D00-0
 62
     7
370
    50
100
AcDbCircle
 10
-137.133078
 20
526.176819
 30
0.0
 40
5.999999999999969
100
AcDbArc
 50
210.0
 51
270.0
  0
LINE
  5
48A
330
1F
100
AcDbEntity
  8
LC-001-100-D00-0
 62
     7
370
    50
100
AcDbLine
 10
-142.32923
 20
523.176819
 30
0.0
 11
-148.359145
 21
533.620939
 31
0.0
  0
INSERT
  5
498
330
1F
100
AcDbEntity
  8
LC-001-100-D00-0
 62
     7
370
    50
100
AcDbBlockReference
  2
POLY8
 10
0.0
 20
0.0
 30
0.0
  0
LINE
  5
499
330
1F
100
AcDbEntity
  8
LC-001-100-D00-0
 62
     7
370
    50
100
AcDbLine
 10
-139.731153
 20
524.676819
 30
0.0
 11
-145.761068
 21
535.120939
 31
0.0
  0
ARC
  5
49A
330
1F
100
AcDbEntity
  8
LC-001-100-D00-0
 62
     7
370
    50
100
AcDbCircle
 10
-137.133078
 20
526.176819
 30
0.0
 40
2.999999999999985
100
AcDbArc
 50
210.0
 51
270.0
  0
LINE
  5
49B
330
1F
100
AcDbEntity
  8
LC-001-100-D00-0
 62
     7
370
    50
100
AcDbLine
 10
-198.659356
 20
533.620939
 30
0.0
 11
-198.659356
 21
535.822174
 31
0.0
  0
LINE
  5
49C
330
1F
100
AcDbEntity
  8
LC-001-100-D00-0
 62
     7
370
    50
100
AcDbLine
 10
-132.659356
 20
524.676819
 30
0.0
 11
-129.659358
 21
524.676819
 31
0.0
  0
ARC
  5
49D
330
1F
100
AcDbEntity
  8
LC-001-100-D00-0
 62
     7
370
    50
100
AcDbCircle
 10
-148.391408
 20
533.676819
 30
0.0
 40
2.999999999999928
100
AcDbArc
 50
30.0
 51
90.0
  0
LINE
  5
49E
330
1F
100
AcDbEntity
  8
LC-001-100-D00-0
 62
     7
370
    50
100
AcDbLine
 10
-79.409357
 20
554.676818
 30
0.0
 11
-75.409358
 21
554.676818
 31
0.0
  0
ARC
  5
49F
330
1F
100
AcDbEntity
  8
LC-001-100-D00-0
 62
     7
370
    50
100
AcDbCircle
 10
-75.409357
 20
553.676819
 30
0.0
 40
1.000000000000114
100
AcDbArc
 50
0.0
 51
90.0
  0
LINE
  5
4A0
330
1F
100
AcDbEntity
  8
LC-001-100-D00-0
 62
     7
370
    50
100
AcDbLine
 10
-74.409357
 20
547.676819
 30
0.0
 11
-79.409357
 21
547.676819
 31
0.0
  0
LINE
  5
4A1
330
1F
100
AcDbEntity
  8
LC-001-100-D00-0
 62
     7
370
    50
100
AcDbLine
 10
-74.409357
 20
553.67682
 30
0.0
 11
-74.409357
 21
547.676819
 31
0.0
  0
LINE
  5
4A2
330
1F
100
AcDbEntity
  8
LC-001-100-D00-0
 62
     7
370
    50
100
AcDbLine
 10
-105.909357
 20
554.676818
 30
0.0
 11
-79.409357
 21
554.676818
 31
0.0
  0
LINE
  5
4A3
330
1F
100
AcDbEntity
  8
LC-001-100-D00-0
 62
     7
370
    50
100
AcDbLine
 10
-79.409357
 20
547.676819
 30
0.0
 11
-105.909357
 21
547.676819
 31
0.0
  0
LINE
  5
4A4
330
1F
100
AcDbEntity
  8
LC-001-100-D00-0
 62
     7
370
    50
100
AcDbLine
 10
-109.909357
 20
554.676818
 30
0.0
 11
-105.909357
 21
554.676818
 31
0.0
  0
ARC
  5
4A5
330
1F
100
AcDbEntity
  8
LC-001-100-D00-0
 62
     7
370
    50
100
AcDbCircle
 10
-109.909357
 20
553.676819
 30
0.0
 40
1.0
100
AcDbArc
 50
90.0
 51
180.0
  0
LINE
  5
4A6
330
1F
100
AcDbEntity
  8
LC-001-100-D00-0
 62
     7
370
    50
100
AcDbLine
 10
-110.909357
 20
547.676819
 30
0.0
 11
-110.909357
 21
553.67682
 31
0.0
  0
LINE
  5
4A7
330
1F
100
AcDbEntity
  8
LC-001-100-D00-0
 62
     7
370
    50
100
AcDbLine
 10
-105.909357
 20
547.676819
 30
0.0
 11
-110.909357
 21
547.676819
 31
0.0
  0
LINE
  5
4A8
330
1F
100
AcDbEntity
  8
LC-001-100-D00-0
 62
     7
370
    50
100
AcDbLine
 10
-83.909357
 20
535.676819
 30
0.0
 11
-87.63444
 21
535.676819
 31
0.0
  0
LINE
  5
4A9
330
1F
100
AcDbEntity
  8
LC-001-100-D00-0
 62
     7
370
    50
100
AcDbLine
 10
-22.159356
 20
524.176819
 30
0.0
 11
-18.544498
 21
524.176819
 31
0.0
  0
LINE
  5
4AA
330
1F
100
AcDbEntity
  8
LC-001-100-D00-0
 62
     7
370
    50
100
AcDbLine
 10
-16.159359
 20
524.076819
 30
0.0
 11
-16.159359
 21
522.176819
 31
0.0
  0
LINE
  5
4AB
330
1F
100
AcDbEntity
  8
LC-001-100-D00-0
 62
     7
370
    50
100
AcDbLine
 10
-16.159359
 20
522.176819
 30
0.0
 11
-22.159356
 21
522.176819
 31
0.0
  0
LINE
  5
4AC
330
1F
100
AcDbEntity
  8
LC-001-100-D00-0
 62
     7
370
    50
100
AcDbLine
 10
-22.159356
 20
522.176819
 30
0.0
 11
-34.159358
 21
522.176819
 31
0.0
  0
LINE
  5
4AD
330
1F
100
AcDbEntity
  8
LC-001-100-D00-0
 62
     7
370
    50
100
AcDbLine
 10
-22.159356
 20
524.176819
 30
0.0
 11
-34.159358
 21
524.176819
 31
0.0
  0
LINE
  5
4AE
330
1F
100
AcDbEntity
  8
LC-001-100-D00-0
 62
     7
370
    50
100
AcDbLine
 10
-40.159359
 20
522.176819
 30
0.0
 11
-40.159359
 21
524.076819
 31
0.0
  0
LINE
  5
4AF
330
1F
100
AcDbEntity
  8
LC-001-100-D00-0
 62
     7
370
    50
100
AcDbLine
 10
-34.159358
 20
522.176819
 30
0.0
 11
-40.159359
 21
522.176819
 31
0.0
  0
LINE
  5
4B0
330
1F
100
AcDbEntity
  8
LC-001-100-D00-0
 62
     7
370
    50
100
AcDbLine
 10
-37.774216
 20
524.176819
 30
0.0
 11
-34.159358
 21
524.176819
 31
0.0
  0
LINE
  5
4B1
330
1F
100
AcDbEntity
  8
LC-001-100-D00-0
 62
     7
370
    50
100
AcDbLine
 10
-24.659353
 20
497.176819
 30
0.0
 11
-31.659356
 21
497.176819
 31
0.0
  0
LINE
  5
4B2
330
1F
100
AcDbEntity
  8
LC-001-100-D00-0
 62
     7
370
    50
100
AcDbLine
 10
-19.659358
 20
497.176819
 30
0.0
 11
-24.659353
 21
497.176819
 31
0.0
  0
LINE
  5
4B3
330
1F
100
AcDbEntity
  8
LC-001-100-D00-0
 62
     7
370
    50
100
AcDbLine
 10
-31.659356
 20
497.176819
 30
0.0
 11
-36.659355
 21
497.176819
 31
0.0
  0
LINE
  5
4B4
330
1F
100
AcDbEntity
  8
LC-001-100-D00-0
 62
     7
370
    50
100
AcDbLine
 10
-16.159359
 20
522.176819
 30
0.0
 11
-16.159359
 21
497.176819
 31
0.0
  0
LINE
  5
4B5
330
1F
100
AcDbEntity
  8
LC-001-100-D00-0
 62
     7
370
    50
100
AcDbLine
 10
-16.159359
 20
497.176819
 30
0.0
 11
-19.659358
 21
497.176819
 31
0.0
  0
LINE
  5
4B6
330
1F
100
AcDbEntity
  8
LC-001-100-D00-0
 62
     7
370
    50
100
AcDbLine
 10
-40.159359
 20
497.176819
 30
0.0
 11
-40.159359
 21
522.176819
 31
0.0
  0
LINE
  5
4B7
330
1F
100
AcDbEntity
  8
LC-001-100-D00-0
 62
     7
370
    50
100
AcDbLine
 10
-36.659355
 20
497.176819
 30
0.0
 11
-40.159359
 21
497.176819
 31
0.0
  0
INSERT
  5
4BF
330
1F
100
AcDbEntity
  8
LC-001-100-D00-0
 62
     7
370
    25
100
AcDbBlockReference
  2
KLON26
 10
0.0
 20
0.0
 30
0.0
  0
INSERT
  5
4CC
330
1F
100
AcDbEntity
  8
LC-001-100-D00-0
 62
     7
370
    25
100
AcDbBlockReference
  2
KLON27
 10
0.0
 20
0.0
 30
0.0
  0
INSERT
  5
4D2
330
1F
100
AcDbEntity
  8
LC-001-100-D00-0
 62
     7
370
    25
100
AcDbBlockReference
  2
KLON28
 10
0.0
 20
0.0
 30
0.0
  0
INSERT
  5
4D8
330
1F
100
AcDbEntity
  8
LC-001-100-D00-0
 62
     7
370
    25
100
AcDbBlockReference
  2
KLON29
 10
0.0
 20
0.0
 30
0.0
  0
LINE
  5
4D9
330
1F
100
AcDbEntity
  8
LC-001-100-D00-0
 62
     7
370
    50
100
AcDbLine
 10
-119.716342
 20
524.356149
 30
0.0
 11
-118.637406
 21
525.435085
 31
0.0
  0
INSERT
  5
4E1
330
1F
100
AcDbEntity
  8
LC-001-100-D00-0
 62
     7
370
    25
100
AcDbBlockReference
  2
KLON30
 10
0.0
 20
0.0
 30
0.0
  0
INSERT
  5
4E7
330
1F
100
AcDbEntity
  8
LC-001-100-D00-0
 62
     7
370
    25
100
AcDbBlockReference
  2
KLON31
 10
0.0
 20
0.0
 30
0.0
  0
INSERT
  5
4EE
330
1F
100
AcDbEntity
  8
LC-001-100-D00-0
 62
     7
370
    25
100
AcDbBlockReference
  2
KLON32
 10
0.0
 20
0.0
 30
0.0
  0
INSERT
  5
4F6
330
1F
100
AcDbEntity
  8
LC-001-100-D00-0
 62
     7
370
    25
100
AcDbBlockReference
  2
KLON33
 10
0.0
 20
0.0
 30
0.0
  0
DIMENSION
  5
4F7
330
1F
100
AcDbEntity
  8
LC-001-100-D00-0
 62
     7
370
    25
100
AcDbDimension
  2
*D45
 10
18.869245
 20
520.676819
 30
0.0
 11
-30.630755
 21
508.988188
 31
0.0
 70
   160
  1
24
 71
     5
 42
24.0
 53
90.0
  3
LC-DIM-L-0090-02-02
100
AcDbAlignedDimension
 13
-72.659357
 23
496.676819
 33
0.0
 14
-88.1665
 24
520.676819
 34
0.0
 50
90.0
100
AcDbRotatedDimension
  0
DIMENSION
  5
506
330
1F
100
AcDbEntity
  8
LC-001-100-D00-0
 62
     7
370
    25
100
AcDbDimension
  2
*D46
 10
-237.489519
 20
486.725979
 30
0.0
 11
-286.989519
 21
527.055818
 31
0.0
 70
   160
  1
DN50
 71
     5
 42
49.90168
 53
90.0
  3
LC-DIM-L-0090-02-02
100
AcDbAlignedDimension
 13
-195.659357
 23
536.627659
 33
0.0
 14
-195.659357
 24
486.725979
 34
0.0
 50
90.0
100
AcDbRotatedDimension
  0
LINE
  5
515
330
1F
100
AcDbEntity
  8
LC-001-100-D00-0
  6
DASHDOT
 62
     7
370
    25
100
AcDbLine
 10
-208.659357
 20
511.676819
 30
0.0
 11
-125.950612
 21
511.676819
 31
0.0
  0
LINE
  5
516
330
1F
100
AcDbEntity
  8
LC-001-100-D00-0
  6
DASHDOT
 62
     7
370
    25
100
AcDbLine
 10
-92.659357
 20
554.676818
 30
0.0
 11
-92.659357
 21
489.676819
 31
0.0
  0
LINE
  5
517
330
1F
100
AcDbEntity
  8
LC-001-100-D00-0
  6
DASHDOT
 62
     7
370
    25
100
AcDbLine
 10
-28.054241
 20
486.776814
 30
0.0
 11
-28.054241
 21
551.176819
 31
0.0
  0
DIMENSION
  5
519
330
1F
100
AcDbEntity
  8
LC-002-003-----0
 62
     7
370
    25
100
AcDbDimension
  2
*D47
 10
-198.659356
 20
259.755818
 30
0.0
 11
-140.664855
 21
309.255818
 31
0.0
 70
   160
 71
     5
 42
145.999999
  3
LC-DIM-L-0090-02-02
100
AcDbAlignedDimension
 13
-52.659357
 23
496.676819
 33
0.0
 14
-198.659356
 24
489.732698
 34
0.0
100
AcDbRotatedDimension
  0
LINE
  5
526
330
1F
100
AcDbEntity
  8
LC-001-100-D00-0
 62
     7
370
    50
100
AcDbLine
 10
380.964742
 20
122.814137
 30
0.0
 11
441.964743
 21
122.814137
 31
0.0
  0
INSERT
  5
52C
330
1F
100
AcDbEntity
  8
LC-001-100-D00-0
 62
     7
370
    50
100
AcDbBlockReference
  2
KLON34
 10
0.0
 20
0.0
 30
0.0
  0
ARC
  5
52D
330
1F
100
AcDbEntity
  8
LC-001-100-D00-0
 62
     7
370
    50
100
AcDbCircle
 10
441.964742
 20
98.05108
 30
0.0
 40
24.76305695180431
100
AcDbArc
 50
286.637155
 51
62.523751
  0
LINE
  5
52E
330
1F
100
AcDbEntity
  8
LC-001-100-D00-0
 62
     7
370
    50
100
AcDbLine
 10
443.10212
 20
73.314158
 30
0.0
 11
441.964743
 21
73.288023
 31
0.0
  0
INSERT
  5
534
330
1F
100
AcDbEntity
  8
LC-001-100-D00-0
 62
     7
370
    50
100
AcDbBlockReference
  2
KLON35
 10
0.0
 20
0.0
 30
0.0
  0
ARC
  5
535
330
1F
100
AcDbEntity
  8
LC-001-100-D00-0
 62
     7
370
    50
100
AcDbCircle
 10
380.964742
 20
98.05108
 30
0.0
 40
24.76305695180422
100
AcDbArc
 50
109.469149
 51
245.19649
  0
LINE
  5
536
330
1F
100
AcDbEntity
  8
LC-001-100-D00-0
 62
     7
370
    50
100
AcDbLine
 10
379.36885
 20
122.762659
 30
0.0
 11
380.964742
 21
122.814137
 31
0.0
  0
LINE
  5
537
330
1F
100
AcDbEntity
  8
LC-001-100-D00-0
 62
     7
370
    50
100
AcDbLine
 10
441.964743
 20
73.288023
 30
0.0
 11
380.964742
 21
73.288023
 31
0.0
  0
INSERT
  5
547
330
1F
100
AcDbEntity
  8
LC-001-100-D00-0
 62
     7
370
    50
100
AcDbBlockReference
  2
POLY9
 10
0.0
 20
0.0
 30
0.0
  0
INSERT
  5
557
330
1F
100
AcDbEntity
  8
LC-001-100-D00-0
 62
     7
370
    50
100
AcDbBlockReference
  2
POLY10
 10
0.0
 20
0.0
 30
0.0
  0
INSERT
  5
567
330
1F
100
AcDbEntity
  8
LC-001-100-D00-0
 62
     7
370
    50
100
AcDbBlockReference
  2
POLY11
 10
0.0
 20
0.0
 30
0.0
  0
INSERT
  5
577
330
1F
100
AcDbEntity
  8
LC-001-100-D00-0
 62
     7
370
    50
100
AcDbBlockReference
  2
POLY12
 10
0.0
 20
0.0
 30
0.0
  0
LINE
  5
578
330
1F
100
AcDbEntity
  8
LC-001-100-D00-0
 62
     7
370
    50
100
AcDbLine
 10
380.964742
 20
122.851081
 30
0.0
 11
441.964743
 21
122.851081
 31
0.0
  0
LINE
  5
579
330
1F
100
AcDbEntity
  8
LC-001-100-D00-0
 62
     7
370
    50
100
AcDbLine
 10
441.964743
 20
73.25108
 30
0.0
 11
380.964742
 21
73.25108
 31
0.0
  0
ARC
  5
57A
330
1F
100
AcDbEntity
  8
LC-001-100-D00-0
 62
     7
370
    50
100
AcDbCircle
 10
441.964742
 20
98.05108
 30
0.0
 40
24.7999999999944
100
AcDbArc
 50
300.592814
 51
59.407186
  0
ARC
  5
57B
330
1F
100
AcDbEntity
  8
LC-001-100-D00-0
 62
     7
370
    50
100
AcDbCircle
 10
380.964742
 20
98.05108
 30
0.0
 40
24.79999999999429
100
AcDbArc
 50
120.592814
 51
239.407186
  0
LINE
  5
57C
330
1F
100
AcDbEntity
  8
LC-001-100-D00-0
 62
     7
370
    50
100
AcDbLine
 10
371.415393
 20
120.591042
 30
0.0
 11
371.499748
 21
120.431963
 31
0.0
  0
LINE
  5
57D
330
1F
100
AcDbEntity
  8
LC-001-100-D00-0
 62
     7
370
    50
100
AcDbLine
 10
366.314826
 20
117.438447
 30
0.0
 11
366.219238
 21
117.591042
 31
0.0
  0
LINE
  5
57E
330
1F
100
AcDbEntity
  8
LC-001-100-D00-0
 62
     7
370
    50
100
AcDbLine
 10
456.710246
 20
117.591042
 30
0.0
 11
456.614659
 21
117.438447
 31
0.0
  0
LINE
  5
57F
330
1F
100
AcDbEntity
  8
LC-001-100-D00-0
 62
     7
370
    50
100
AcDbLine
 10
451.429737
 20
120.431963
 30
0.0
 11
451.514092
 21
120.591042
 31
0.0
  0
LINE
  5
580
330
1F
100
AcDbEntity
  8
LC-001-100-D00-0
 62
     7
370
    50
100
AcDbLine
 10
366.219238
 20
78.511119
 30
0.0
 11
366.314826
 21
78.663714
 31
0.0
  0
LINE
  5
581
330
1F
100
AcDbEntity
  8
LC-001-100-D00-0
 62
     7
370
    50
100
AcDbLine
 10
371.499748
 20
75.670197
 30
0.0
 11
371.415393
 21
75.511118
 31
0.0
  0
INSERT
  5
591
330
1F
100
AcDbEntity
  8
LC-001-100-D00-0
 62
     7
370
    50
100
AcDbBlockReference
  2
POLY13
 10
0.0
 20
0.0
 30
0.0
  0
LINE
  5
592
330
1F
100
AcDbEntity
  8
LC-001-100-D00-0
 62
     7
370
    50
100
AcDbLine
 10
451.514092
 20
75.511118
 30
0.0
 11
451.429737
 21
75.670197
 31
0.0
  0
LINE
  5
593
330
1F
100
AcDbEntity
  8
LC-001-100-D00-0
 62
     7
370
    50
100
AcDbLine
 10
456.614659
 20
78.663714
 30
0.0
 11
456.710246
 21
78.511119
 31
0.0
  0
INSERT
  5
5A3
330
1F
100
AcDbEntity
  8
LC-001-100-D00-0
 62
     7
370
    50
100
AcDbBlockReference
  2
POLY14
 10
0.0
 20
0.0
 30
0.0
  0
LINE
  5
5A4
330
1F
100
AcDbEntity
  8
LC-001-100-D00-0
 62
     7
370
    50
100
AcDbLine
 10
451.429737
 20
120.431963
 30
0.0
 11
451.315255
 21
120.154653
 31
0.0
  0
LINE
  5
5A5
330
1F
100
AcDbEntity
  8
LC-001-100-D00-0
 62
     7
370
    50
100
AcDbLine
 10
456.43174
 20
117.200648
 30
0.0
 11
456.614659
 21
117.438447
 31
0.0
  0
LINE
  5
5A6
330
1F
100
AcDbEntity
  8
LC-001-100-D00-0
 62
     7
370
    50
100
AcDbLine
 10
371.61423
 20
120.154653
 30
0.0
 11
371.499748
 21
120.431963
 31
0.0
  0
LINE
  5
5A7
330
1F
100
AcDbEntity
  8
LC-001-100-D00-0
 62
     7
370
    50
100
AcDbLine
 10
366.314826
 20
117.438447
 30
0.0
 11
366.497741
 21
117.200648
 31
0.0
  0
LINE
  5
5A8
330
1F
100
AcDbEntity
  8
LC-001-100-D00-0
 62
     7
370
    50
100
AcDbLine
 10
371.499748
 20
75.670197
 30
0.0
 11
371.61423
 21
75.947508
 31
0.0
  0
LINE
  5
5A9
330
1F
100
AcDbEntity
  8
LC-001-100-D00-0
 62
     7
370
    50
100
AcDbLine
 10
366.497741
 20
78.901512
 30
0.0
 11
366.314826
 21
78.663714
 31
0.0
  0
LINE
  5
5AA
330
1F
100
AcDbEntity
  8
LC-001-100-D00-0
 62
     7
370
    50
100
AcDbLine
 10
451.315255
 20
75.947508
 30
0.0
 11
451.429737
 21
75.670197
 31
0.0
  0
LINE
  5
5AB
330
1F
100
AcDbEntity
  8
LC-001-100-D00-0
 62
     7
370
    50
100
AcDbLine
 10
456.614659
 20
78.663714
 30
0.0
 11
456.43174
 21
78.901512
 31
0.0
  0
ARC
  5
5AC
330
1F
100
AcDbEntity
  8
LC-001-100-D00-0
 62
     7
370
    50
100
AcDbCircle
 10
441.964742
 20
98.05108
 30
0.0
 40
20.00000000000017
100
AcDbArc
 50
270.0
 51
17.615731
  0
ARC
  5
5AD
330
1F
100
AcDbEntity
  8
LC-001-100-D00-0
 62
     7
370
    50
100
AcDbCircle
 10
460.073787
 20
103.80108
 30
0.0
 40
1.000000000000185
100
AcDbArc
 50
17.615731
 51
90.0
  0
ARC
  5
5AE
330
1F
100
AcDbEntity
  8
LC-001-100-D00-0
 62
     7
370
    50
100
AcDbCircle
 10
362.855698
 20
103.80108
 30
0.0
 40
1.0
100
AcDbArc
 50
90.0
 51
162.384269
  0
ARC
  5
5AF
330
1F
100
AcDbEntity
  8
LC-001-100-D00-0
 62
     7
370
    50
100
AcDbCircle
 10
380.964742
 20
98.05108
 30
0.0
 40
20.00000000000007
100
AcDbArc
 50
162.384269
 51
270.0
  0
LINE
  5
5B0
330
1F
100
AcDbEntity
  8
LC-001-100-D00-0
 62
     7
370
    50
100
AcDbLine
 10
362.855696
 20
104.80108
 30
0.0
 11
460.073789
 21
104.80108
 31
0.0
  0
LINE
  5
5B1
330
1F
100
AcDbEntity
  8
LC-001-100-D00-0
 62
     7
370
    50
100
AcDbLine
 10
441.964743
 20
78.051081
 30
0.0
 11
380.964742
 21
78.051081
 31
0.0
  0
ARC
  5
5B2
330
1F
100
AcDbEntity
  8
LC-001-100-D00-0
 62
     7
370
    50
100
AcDbCircle
 10
441.964742
 20
98.05108
 30
0.0
 40
18.50000000000021
100
AcDbArc
 50
21.399266
 51
90.0
  0
ARC
  5
5B3
330
1F
100
AcDbEntity
  8
LC-001-100-D00-0
 62
     7
370
    50
100
AcDbCircle
 10
380.964742
 20
98.05108
 30
0.0
 40
18.49999999999994
100
AcDbArc
 50
90.0
 51
158.600734
  0
LINE
  5
5B4
330
1F
100
AcDbEntity
  8
LC-001-100-D00-0
 62
     7
370
    50
100
AcDbLine
 10
380.964742
 20
74.05108
 30
0.0
 11
441.964743
 21
74.05108
 31
0.0
  0
ARC
  5
5B5
330
1F
100
AcDbEntity
  8
LC-001-100-D00-0
 62
     7
370
    50
100
AcDbCircle
 10
380.964742
 20
98.05108
 30
0.0
 40
24.0
100
AcDbArc
 50
90.0
 51
270.0
  0
ARC
  5
5B6
330
1F
100
AcDbEntity
  8
LC-001-100-D00-0
 62
     7
370
    50
100
AcDbCircle
 10
441.964742
 20
98.05108
 30
0.0
 40
24.0
100
AcDbArc
 50
270.0
 51
90.0
  0
LINE
  5
5B7
330
1F
100
AcDbEntity
  8
LC-001-100-D00-0
 62
     7
370
    50
100
AcDbLine
 10
441.964743
 20
122.05108
 30
0.0
 11
380.964742
 21
122.05108
 31
0.0
  0
LINE
  5
5B8
330
1F
100
AcDbEntity
  8
LC-001-100-D00-0
 62
     7
370
    50
100
AcDbLine
 10
441.964743
 20
116.551081
 30
0.0
 11
380.964742
 21
116.551081
 31
0.0
  0
LINE
  5
5B9
330
1F
100
AcDbEntity
  8
LC-001-100-D00-0
 62
     7
370
    50
100
AcDbLine
 10
356.849012
 20
92.42608
 30
0.0
 11
357.63323
 21
92.42608
 31
0.0
  0
LINE
  5
5BA
330
1F
100
AcDbEntity
  8
LC-001-100-D00-0
 62
     7
370
    50
100
AcDbLine
 10
465.296255
 20
92.42608
 30
0.0
 11
466.080469
 21
92.42608
 31
0.0
  0
LINE
  5
5BB
330
1F
100
AcDbEntity
  8
LC-001-100-D00-0
 62
     7
370
    50
100
AcDbLine
 10
357.404855
 20
90.42608
 30
0.0
 11
358.208218
 21
90.42608
 31
0.0
  0
LINE
  5
5BC
330
1F
100
AcDbEntity
  8
LC-001-100-D00-0
 62
     7
370
    50
100
AcDbLine
 10
464.721267
 20
90.42608
 30
0.0
 11
465.52463
 21
90.42608
 31
0.0
  0
DIMENSION
  5
5BD
330
1F
100
AcDbEntity
  8
LC-002-003-----0
 62
     7
370
    25
100
AcDbDimension
  2
*D56
 10
-92.659357
 20
348.855818
 30
0.0
 11
-154.175273
 21
398.355818
 31
0.0
 70
   160
 71
     5
 42
105.999999
  3
LC-DIM-L-0090-02-02
100
AcDbAlignedDimension
 13
-198.659356
 23
489.732698
 33
0.0
 14
-92.659357
 24
489.676819
 34
0.0
100
AcDbRotatedDimension
  0
LINE
  5
5CA
102
{ACAD_REACTORS
330
712
102
}
330
1F
100
AcDbEntity
  8
LC-001-100-D00-0
 62
     7
370
    50
100
AcDbLine
 10
460.907354
 20
496.676819
 30
0.0
 11
460.907354
 21
520.676819
 31
0.0
  0
LINE
  5
5CB
102
{ACAD_REACTORS
330
712
102
}
330
1F
100
AcDbEntity
  8
LC-001-100-D00-0
 62
     7
370
    50
100
AcDbLine
 10
362.02212
 20
520.676819
 30
0.0
 11
362.02212
 21
496.676819
 31
0.0
  0
ARC
  5
5CC
102
{ACAD_REACTORS
330
712
102
}
330
1F
100
AcDbEntity
  8
LC-001-100-D00-0
 62
     7
370
    50
100
AcDbCircle
 10
485.938127
 20
531.676818
 30
0.0
 40
4.000000000000114
100
AcDbArc
 50
270.0
 51
285.0
  0
LINE
  5
5CD
102
{ACAD_REACTORS
330
712
102
}
330
1F
100
AcDbEntity
  8
LC-001-100-D00-0
 62
     7
370
    50
100
AcDbLine
 10
485.938123
 20
527.676819
 30
0.0
 11
469.264737
 21
527.676819
 31
0.0
  0
ARC
  5
5CE
102
{ACAD_REACTORS
330
712
102
}
330
1F
100
AcDbEntity
  8
LC-001-100-D00-0
 62
     7
370
    50
100
AcDbCircle
 10
469.264737
 20
526.676818
 30
0.0
 40
1.0
100
AcDbArc
 50
90.0
 51
180.0
  0
LINE
  5
5CF
102
{ACAD_REACTORS
330
712
102
}
330
1F
100
AcDbEntity
  8
LC-001-100-D00-0
 62
     7
370
    50
100
AcDbLine
 10
468.264735
 20
526.676819
 30
0.0
 11
468.264735
 21
522.676818
 31
0.0
  0
LINE
  5
5D0
102
{ACAD_REACTORS
330
712
102
}
330
1F
100
AcDbEntity
  8
LC-001-100-D00-0
 62
     7
370
    50
100
AcDbLine
 10
468.264735
 20
522.676818
 30
0.0
 11
466.764736
 21
522.676818
 31
0.0
  0
LINE
  5
5D1
102
{ACAD_REACTORS
330
712
102
}
330
1F
100
AcDbEntity
  8
LC-001-100-D00-0
 62
     7
370
    50
100
AcDbLine
 10
466.764736
 20
526.676819
 30
0.0
 11
466.764736
 21
522.676818
 31
0.0
  0
ARC
  5
5D2
102
{ACAD_REACTORS
330
712
102
}
330
1F
100
AcDbEntity
  8
LC-001-100-D00-0
 62
     7
370
    50
100
AcDbCircle
 10
469.264737
 20
526.676818
 30
0.0
 40
2.5
100
AcDbArc
 50
90.0
 51
180.0
  0
LINE
  5
5D3
102
{ACAD_REACTORS
330
712
102
}
330
1F
100
AcDbEntity
  8
LC-001-100-D00-0
 62
     7
370
    50
100
AcDbLine
 10
485.938123
 20
529.176818
 30
0.0
 11
469.264737
 21
529.176818
 31
0.0
  0
ARC
  5
5D4
102
{ACAD_REACTORS
330
712
102
}
330
1F
100
AcDbEntity
  8
LC-001-100-D00-0
 62
     7
370
    50
100
AcDbCircle
 10
485.938127
 20
531.676818
 30
0.0
 40
2.500000000000227
100
AcDbArc
 50
270.0
 51
285.0
  0
LINE
  5
5D5
102
{ACAD_REACTORS
330
712
102
}
330
1F
100
AcDbEntity
  8
LC-001-100-D00-0
 62
     7
370
    50
100
AcDbLine
 10
342.387526
 20
529.176818
 30
0.0
 11
336.991346
 21
529.176818
 31
0.0
  0
LINE
  5
5D6
102
{ACAD_REACTORS
330
712
102
}
330
1F
100
AcDbEntity
  8
LC-001-100-D00-0
 62
     7
370
    50
100
AcDbLine
 10
353.664736
 20
529.176818
 30
0.0
 11
342.387526
 21
529.176818
 31
0.0
  0
ARC
  5
5D7
102
{ACAD_REACTORS
330
712
102
}
330
1F
100
AcDbEntity
  8
LC-001-100-D00-0
 62
     7
370
    50
100
AcDbCircle
 10
353.664737
 20
526.676818
 30
0.0
 40
2.5
100
AcDbArc
 50
0.0
 51
90.0
  0
LINE
  5
5D8
102
{ACAD_REACTORS
330
712
102
}
330
1F
100
AcDbEntity
  8
LC-001-100-D00-0
 62
     7
370
    50
100
AcDbLine
 10
356.164738
 20
522.676818
 30
0.0
 11
356.164738
 21
526.676819
 31
0.0
  0
LINE
  5
5D9
102
{ACAD_REACTORS
330
712
102
}
330
1F
100
AcDbEntity
  8
LC-001-100-D00-0
 62
     7
370
    50
100
AcDbLine
 10
356.164738
 20
522.676818
 30
0.0
 11
354.664738
 21
522.676818
 31
0.0
  0
LINE
  5
5DA
102
{ACAD_REACTORS
330
712
102
}
330
1F
100
AcDbEntity
  8
LC-001-100-D00-0
 62
     7
370
    50
100
AcDbLine
 10
354.664738
 20
522.676818
 30
0.0
 11
354.664738
 21
526.676819
 31
0.0
  0
ARC
  5
5DB
102
{ACAD_REACTORS
330
712
102
}
330
1F
100
AcDbEntity
  8
LC-001-100-D00-0
 62
     7
370
    50
100
AcDbCircle
 10
353.664737
 20
526.676818
 30
0.0
 40
1.0
100
AcDbArc
 50
0.0
 51
90.0
  0
LINE
  5
5DC
102
{ACAD_REACTORS
330
712
102
}
330
1F
100
AcDbEntity
  8
LC-001-100-D00-0
 62
     7
370
    50
100
AcDbLine
 10
353.664736
 20
527.676819
 30
0.0
 11
336.991346
 21
527.676819
 31
0.0
  0
LINE
  5
5DD
102
{ACAD_REACTORS
330
712
102
}
330
1F
100
AcDbEntity
  8
LC-001-100-D00-0
 62
     7
370
    50
100
AcDbLine
 10
358.964737
 20
522.676818
 30
0.0
 11
356.164738
 21
522.676818
 31
0.0
  0
LINE
  5
5DE
102
{ACAD_REACTORS
330
712
102
}
330
1F
100
AcDbEntity
  8
LC-001-100-D00-0
 62
     7
370
    50
100
AcDbLine
 10
466.764736
 20
522.676818
 30
0.0
 11
463.964737
 21
522.676818
 31
0.0
  0
LINE
  5
5DF
102
{ACAD_REACTORS
330
712
102
}
330
1F
100
AcDbEntity
  8
LC-001-100-D00-0
 62
     7
370
    50
100
AcDbLine
 10
461.964737
 20
529.176818
 30
0.0
 11
469.264737
 21
529.176818
 31
0.0
  0
LINE
  5
5E0
102
{ACAD_REACTORS
330
712
102
}
330
1F
100
AcDbEntity
  8
LC-001-100-D00-0
 62
     7
370
    50
100
AcDbLine
 10
360.964737
 20
529.176818
 30
0.0
 11
353.664736
 21
529.176818
 31
0.0
  0
LINE
  5
5E1
102
{ACAD_REACTORS
330
712
102
}
330
1F
100
AcDbEntity
  8
LC-001-100-D00-0
 62
     7
370
    50
100
AcDbLine
 10
460.464737
 20
531.676818
 30
0.0
 11
460.464737
 21
520.676819
 31
0.0
  0
LINE
  5
5E2
102
{ACAD_REACTORS
330
712
102
}
330
1F
100
AcDbEntity
  8
LC-001-100-D00-0
 62
     7
370
    50
100
AcDbLine
 10
362.464736
 20
520.676819
 30
0.0
 11
362.464736
 21
531.676818
 31
0.0
  0
LINE
  5
5E3
102
{ACAD_REACTORS
330
712
102
}
330
1F
100
AcDbEntity
  8
LC-001-100-D00-0
 62
     7
370
    50
100
AcDbLine
 10
465.964737
 20
522.176818
 30
0.0
 11
465.964737
 21
520.676819
 31
0.0
  0
LINE
  5
5E4
102
{ACAD_REACTORS
330
712
102
}
330
1F
100
AcDbEntity
  8
LC-001-100-D00-0
 62
     7
370
    50
100
AcDbLine
 10
356.964736
 20
520.676819
 30
0.0
 11
356.964736
 21
522.176818
 31
0.0
  0
LINE
  5
5E5
102
{ACAD_REACTORS
330
712
102
}
330
1F
100
AcDbEntity
  8
LC-001-100-D00-0
 62
     7
370
    50
100
AcDbLine
 10
356.964736
 20
520.676819
 30
0.0
 11
362.464736
 21
520.676819
 31
0.0
  0
LINE
  5
5E6
102
{ACAD_REACTORS
330
712
102
}
330
1F
100
AcDbEntity
  8
LC-001-100-D00-0
 62
     7
370
    50
100
AcDbLine
 10
356.964736
 20
522.176818
 30
0.0
 11
358.964737
 21
522.176818
 31
0.0
  0
LINE
  5
5E7
102
{ACAD_REACTORS
330
712
102
}
330
1F
100
AcDbEntity
  8
LC-001-100-D00-0
 62
     7
370
    50
100
AcDbLine
 10
358.964737
 20
522.176818
 30
0.0
 11
358.964737
 21
525.676819
 31
0.0
  0
LINE
  5
5E8
102
{ACAD_REACTORS
330
712
102
}
330
1F
100
AcDbEntity
  8
LC-001-100-D00-0
 62
     7
370
    50
100
AcDbLine
 10
356.964736
 20
525.676819
 30
0.0
 11
358.964737
 21
525.676819
 31
0.0
  0
LINE
  5
5E9
102
{ACAD_REACTORS
330
712
102
}
330
1F
100
AcDbEntity
  8
LC-001-100-D00-0
 62
     7
370
    50
100
AcDbLine
 10
356.964736
 20
527.176818
 30
0.0
 11
356.964736
 21
525.676819
 31
0.0
  0
LINE
  5
5EA
102
{ACAD_REACTORS
330
712
102
}
330
1F
100
AcDbEntity
  8
LC-001-100-D00-0
 62
     7
370
    50
100
AcDbLine
 10
356.964736
 20
527.176818
 30
0.0
 11
360.964737
 21
527.176818
 31
0.0
  0
LINE
  5
5EB
102
{ACAD_REACTORS
330
712
102
}
330
1F
100
AcDbEntity
  8
LC-001-100-D00-0
 62
     7
370
    50
100
AcDbLine
 10
360.964737
 20
527.176818
 30
0.0
 11
360.964737
 21
531.676818
 31
0.0
  0
ARC
  5
5EC
102
{ACAD_REACTORS
330
712
102
}
330
1F
100
AcDbEntity
  8
LC-001-100-D00-0
 62
     7
370
    50
100
AcDbCircle
 10
366.464737
 20
531.676818
 30
0.0
 40
5.499999999999886
100
AcDbArc
 50
90.0
 51
180.0
  0
LINE
  5
5ED
102
{ACAD_REACTORS
330
712
102
}
330
1F
100
AcDbEntity
  8
LC-001-100-D00-0
 62
     7
370
    50
100
AcDbLine
 10
456.464737
 20
537.176818
 30
0.0
 11
366.464737
 21
537.176818
 31
0.0
  0
ARC
  5
5EE
102
{ACAD_REACTORS
330
712
102
}
330
1F
100
AcDbEntity
  8
LC-001-100-D00-0
 62
     7
370
    50
100
AcDbCircle
 10
456.464737
 20
531.676818
 30
0.0
 40
5.5
100
AcDbArc
 50
0.0
 51
90.0
  0
LINE
  5
5EF
102
{ACAD_REACTORS
330
712
102
}
330
1F
100
AcDbEntity
  8
LC-001-100-D00-0
 62
     7
370
    50
100
AcDbLine
 10
461.964737
 20
531.676818
 30
0.0
 11
461.964737
 21
527.176818
 31
0.0
  0
LINE
  5
5F0
102
{ACAD_REACTORS
330
712
102
}
330
1F
100
AcDbEntity
  8
LC-001-100-D00-0
 62
     7
370
    50
100
AcDbLine
 10
461.964737
 20
527.176818
 30
0.0
 11
465.964737
 21
527.176818
 31
0.0
  0
LINE
  5
5F1
102
{ACAD_REACTORS
330
712
102
}
330
1F
100
AcDbEntity
  8
LC-001-100-D00-0
 62
     7
370
    50
100
AcDbLine
 10
465.964737
 20
525.676819
 30
0.0
 11
465.964737
 21
527.176818
 31
0.0
  0
LINE
  5
5F2
102
{ACAD_REACTORS
330
712
102
}
330
1F
100
AcDbEntity
  8
LC-001-100-D00-0
 62
     7
370
    50
100
AcDbLine
 10
463.964737
 20
525.676819
 30
0.0
 11
465.964737
 21
525.676819
 31
0.0
  0
LINE
  5
5F3
102
{ACAD_REACTORS
330
712
102
}
330
1F
100
AcDbEntity
  8
LC-001-100-D00-0
 62
     7
370
    50
100
AcDbLine
 10
463.964737
 20
525.676819
 30
0.0
 11
463.964737
 21
522.176818
 31
0.0
  0
LINE
  5
5F4
102
{ACAD_REACTORS
330
712
102
}
330
1F
100
AcDbEntity
  8
LC-001-100-D00-0
 62
     7
370
    50
100
AcDbLine
 10
463.964737
 20
522.176818
 30
0.0
 11
465.964737
 21
522.176818
 31
0.0
  0
LINE
  5
5F5
102
{ACAD_REACTORS
330
712
102
}
330
1F
100
AcDbEntity
  8
LC-001-100-D00-0
 62
     7
370
    50
100
AcDbLine
 10
460.464737
 20
520.676819
 30
0.0
 11
465.964737
 21
520.676819
 31
0.0
  0
ARC
  5
5F6
102
{ACAD_REACTORS
330
712
102
}
330
1F
100
AcDbEntity
  8
LC-001-100-D00-0
 62
     7
370
    50
100
AcDbCircle
 10
456.464737
 20
531.676818
 30
0.0
 40
4.000000000000114
100
AcDbArc
 50
0.0
 51
90.0
  0
LINE
  5
5F7
102
{ACAD_REACTORS
330
712
102
}
330
1F
100
AcDbEntity
  8
LC-001-100-D00-0
 62
     7
370
    50
100
AcDbLine
 10
456.464737
 20
535.676819
 30
0.0
 11
366.464737
 21
535.676819
 31
0.0
  0
ARC
  5
5F8
102
{ACAD_REACTORS
330
712
102
}
330
1F
100
AcDbEntity
  8
LC-001-100-D00-0
 62
     7
370
    50
100
AcDbCircle
 10
366.464737
 20
531.676818
 30
0.0
 40
4.0
100
AcDbArc
 50
90.0
 51
180.0
  0
LINE
  5
5F9
102
{ACAD_REACTORS
330
712
102
}
330
1F
100
AcDbEntity
  8
LC-001-100-D00-0
 62
     7
370
    50
100
AcDbLine
 10
460.907354
 20
496.676819
 30
0.0
 11
459.907352
 21
496.676819
 31
0.0
  0
LINE
  5
5FA
102
{ACAD_REACTORS
330
712
102
}
330
1F
100
AcDbEntity
  8
LC-001-100-D00-0
 62
     7
370
    50
100
AcDbLine
 10
363.022122
 20
496.676819
 30
0.0
 11
459.907352
 21
496.676819
 31
0.0
  0
LINE
  5
5FB
102
{ACAD_REACTORS
330
712
102
}
330
1F
100
AcDbEntity
  8
LC-001-100-D00-0
 62
     7
370
    50
100
AcDbLine
 10
363.022122
 20
496.676819
 30
0.0
 11
362.02212
 21
496.676819
 31
0.0
  0
LINE
  5
5FC
102
{ACAD_REACTORS
330
712
102
}
330
1F
100
AcDbEntity
  8
LC-001-100-D00-0
 62
     7
370
    50
100
AcDbLine
 10
470.464735
 20
523.676818
 30
0.0
 11
468.264735
 21
523.676818
 31
0.0
  0
LINE
  5
5FD
102
{ACAD_REACTORS
330
712
102
}
330
1F
100
AcDbEntity
  8
LC-001-100-D00-0
 62
     7
370
    50
100
AcDbLine
 10
470.464735
 20
524.302833
 30
0.0
 11
470.464735
 21
523.676818
 31
0.0
  0
LINE
  5
5FE
102
{ACAD_REACTORS
330
712
102
}
330
1F
100
AcDbEntity
  8
LC-001-100-D00-0
 62
     7
370
    50
100
AcDbLine
 10
346.464737
 20
523.676818
 30
0.0
 11
346.464737
 21
527.676819
 31
0.0
  0
LINE
  5
5FF
102
{ACAD_REACTORS
330
712
102
}
330
1F
100
AcDbEntity
  8
LC-001-100-D00-0
 62
     7
370
    50
100
AcDbLine
 10
352.084539
 20
527.676819
 30
0.0
 11
346.464737
 21
527.676819
 31
0.0
  0
ARC
  5
600
102
{ACAD_REACTORS
330
712
102
}
330
1F
100
AcDbEntity
  8
LC-001-100-D00-0
 62
     7
370
    50
100
AcDbCircle
 10
352.084537
 20
526.676818
 30
0.0
 40
0.9999999999999849
100
AcDbArc
 50
48.366461
 51
90.0
  0
LINE
  5
601
102
{ACAD_REACTORS
330
712
102
}
330
1F
100
AcDbEntity
  8
LC-001-100-D00-0
 62
     7
370
    50
100
AcDbLine
 10
356.10099
 20
524.444595
 30
0.0
 11
352.7489
 21
527.424228
 31
0.0
  0
ARC
  5
602
102
{ACAD_REACTORS
330
712
102
}
330
1F
100
AcDbEntity
  8
LC-001-100-D00-0
 62
     7
370
    50
100
AcDbCircle
 10
355.90168
 20
524.220372
 30
0.0
 40
0.3000000000001588
100
AcDbArc
 50
257.471192
 51
48.366461
  0
LINE
  5
603
102
{ACAD_REACTORS
330
712
102
}
330
1F
100
AcDbEntity
  8
LC-001-100-D00-0
 62
     7
370
    50
100
AcDbLine
 10
352.829817
 20
524.595689
 30
0.0
 11
355.836599
 21
523.927516
 31
0.0
  0
ARC
  5
604
102
{ACAD_REACTORS
330
712
102
}
330
1F
100
AcDbEntity
  8
LC-001-100-D00-0
 62
     7
370
    50
100
AcDbCircle
 10
352.764737
 20
524.302834
 30
0.0
 40
0.2999999999999368
100
AcDbArc
 50
77.471192
 51
180.0
  0
LINE
  5
605
102
{ACAD_REACTORS
330
712
102
}
330
1F
100
AcDbEntity
  8
LC-001-100-D00-0
 62
     7
370
    50
100
AcDbLine
 10
352.464738
 20
523.676818
 30
0.0
 11
352.464738
 21
524.302833
 31
0.0
  0
LINE
  5
606
102
{ACAD_REACTORS
330
712
102
}
330
1F
100
AcDbEntity
  8
LC-001-100-D00-0
 62
     7
370
    50
100
AcDbLine
 10
352.464738
 20
523.676818
 30
0.0
 11
346.464737
 21
523.676818
 31
0.0
  0
LINE
  5
607
102
{ACAD_REACTORS
330
712
102
}
330
1F
100
AcDbEntity
  8
LC-001-100-D00-0
 62
     7
370
    50
100
AcDbLine
 10
476.46474
 20
527.676819
 30
0.0
 11
476.46474
 21
523.676818
 31
0.0
  0
LINE
  5
608
102
{ACAD_REACTORS
330
712
102
}
330
1F
100
AcDbEntity
  8
LC-001-100-D00-0
 62
     7
370
    50
100
AcDbLine
 10
354.664738
 20
523.676818
 30
0.0
 11
352.464738
 21
523.676818
 31
0.0
  0
LINE
  5
609
102
{ACAD_REACTORS
330
712
102
}
330
1F
100
AcDbEntity
  8
LC-001-100-D00-0
 62
     7
370
    50
100
AcDbLine
 10
467.092874
 20
523.927516
 30
0.0
 11
470.099657
 21
524.595689
 31
0.0
  0
ARC
  5
60A
102
{ACAD_REACTORS
330
712
102
}
330
1F
100
AcDbEntity
  8
LC-001-100-D00-0
 62
     7
370
    50
100
AcDbCircle
 10
467.027794
 20
524.220372
 30
0.0
 40
0.300000000000087
100
AcDbArc
 50
131.633539
 51
282.528808
  0
LINE
  5
60B
102
{ACAD_REACTORS
330
712
102
}
330
1F
100
AcDbEntity
  8
LC-001-100-D00-0
 62
     7
370
    50
100
AcDbLine
 10
470.180574
 20
527.424228
 30
0.0
 11
466.828483
 21
524.444595
 31
0.0
  0
ARC
  5
60C
102
{ACAD_REACTORS
330
712
102
}
330
1F
100
AcDbEntity
  8
LC-001-100-D00-0
 62
     7
370
    50
100
AcDbCircle
 10
470.844936
 20
526.676818
 30
0.0
 40
0.9999999999998863
100
AcDbArc
 50
90.0
 51
131.633539
  0
ARC
  5
60D
102
{ACAD_REACTORS
330
712
102
}
330
1F
100
AcDbEntity
  8
LC-001-100-D00-0
 62
     7
370
    50
100
AcDbCircle
 10
470.164737
 20
524.302834
 30
0.0
 40
0.3000000000000682
100
AcDbArc
 50
0.0
 51
102.528808
  0
LINE
  5
60E
102
{ACAD_REACTORS
330
712
102
}
330
1F
100
AcDbEntity
  8
LC-001-100-D00-0
 62
     7
370
    50
100
AcDbLine
 10
476.46474
 20
527.676819
 30
0.0
 11
470.844935
 21
527.676819
 31
0.0
  0
LINE
  5
60F
102
{ACAD_REACTORS
330
712
102
}
330
1F
100
AcDbEntity
  8
LC-001-100-D00-0
 62
     7
370
    50
100
AcDbLine
 10
476.46474
 20
523.676818
 30
0.0
 11
470.464735
 21
523.676818
 31
0.0
  0
LINE
  5
610
102
{ACAD_REACTORS
330
712
102
}
330
1F
100
AcDbEntity
  8
LC-001-100-D00-0
 62
     7
370
    50
100
AcDbLine
 10
478.964738
 20
524.676819
 30
0.0
 11
478.964738
 21
520.676819
 31
0.0
  0
LINE
  5
611
102
{ACAD_REACTORS
330
712
102
}
330
1F
100
AcDbEntity
  8
LC-001-100-D00-0
 62
     7
370
    50
100
AcDbLine
 10
472.964737
 20
523.676818
 30
0.0
 11
472.964737
 21
520.676819
 31
0.0
  0
LINE
  5
612
102
{ACAD_REACTORS
330
712
102
}
330
1F
100
AcDbEntity
  8
LC-001-100-D00-0
 62
     7
370
    50
100
AcDbLine
 10
465.964737
 20
520.676819
 30
0.0
 11
472.964737
 21
520.676819
 31
0.0
  0
LINE
  5
613
102
{ACAD_REACTORS
330
712
102
}
330
1F
100
AcDbEntity
  8
LC-001-100-D00-0
 62
     7
370
    50
100
AcDbLine
 10
349.964737
 20
523.676818
 30
0.0
 11
346.964738
 21
523.676818
 31
0.0
  0
LINE
  5
614
102
{ACAD_REACTORS
330
712
102
}
330
1F
100
AcDbEntity
  8
LC-001-100-D00-0
 62
     7
370
    50
100
AcDbLine
 10
349.964737
 20
520.676819
 30
0.0
 11
349.964737
 21
523.676818
 31
0.0
  0
LINE
  5
615
102
{ACAD_REACTORS
330
712
102
}
330
1F
100
AcDbEntity
  8
LC-001-100-D00-0
 62
     7
370
    50
100
AcDbLine
 10
343.96474
 20
520.676819
 30
0.0
 11
343.96474
 21
524.676819
 31
0.0
  0
LINE
  5
616
102
{ACAD_REACTORS
330
712
102
}
330
1F
100
AcDbEntity
  8
LC-001-100-D00-0
 62
     7
370
    50
100
AcDbLine
 10
340.964734
 20
523.176818
 30
0.0
 11
340.964734
 21
524.676819
 31
0.0
  0
LINE
  5
617
102
{ACAD_REACTORS
330
712
102
}
330
1F
100
AcDbEntity
  8
LC-001-100-D00-0
 62
     7
370
    50
100
AcDbLine
 10
337.964735
 20
523.176818
 30
0.0
 11
337.964735
 21
527.676819
 31
0.0
  0
LINE
  5
618
102
{ACAD_REACTORS
330
712
102
}
330
1F
100
AcDbEntity
  8
LC-001-100-D00-0
 62
     7
370
    50
100
AcDbLine
 10
346.964738
 20
527.676819
 30
0.0
 11
337.964735
 21
527.676819
 31
0.0
  0
LINE
  5
619
102
{ACAD_REACTORS
330
712
102
}
330
1F
100
AcDbEntity
  8
LC-001-100-D00-0
 62
     7
370
    50
100
AcDbLine
 10
346.964738
 20
527.676819
 30
0.0
 11
346.964738
 21
523.676818
 31
0.0
  0
LINE
  5
61A
102
{ACAD_REACTORS
330
712
102
}
330
1F
100
AcDbEntity
  8
LC-001-100-D00-0
 62
     7
370
    50
100
AcDbLine
 10
337.964735
 20
523.176818
 30
0.0
 11
340.964734
 21
523.176818
 31
0.0
  0
LINE
  5
61B
102
{ACAD_REACTORS
330
712
102
}
330
1F
100
AcDbEntity
  8
LC-001-100-D00-0
 62
     7
370
    50
100
AcDbLine
 10
343.96474
 20
520.676819
 30
0.0
 11
349.964737
 21
520.676819
 31
0.0
  0
LINE
  5
61C
102
{ACAD_REACTORS
330
712
102
}
330
1F
100
AcDbEntity
  8
LC-001-100-D00-0
 62
     7
370
    50
100
AcDbLine
 10
340.964734
 20
524.676819
 30
0.0
 11
343.96474
 21
524.676819
 31
0.0
  0
LINE
  5
61D
102
{ACAD_REACTORS
330
712
102
}
330
1F
100
AcDbEntity
  8
LC-001-100-D00-0
 62
     7
370
    50
100
AcDbLine
 10
484.964735
 20
527.676819
 30
0.0
 11
475.964739
 21
527.676819
 31
0.0
  0
LINE
  5
61E
102
{ACAD_REACTORS
330
712
102
}
330
1F
100
AcDbEntity
  8
LC-001-100-D00-0
 62
     7
370
    50
100
AcDbLine
 10
484.964735
 20
527.676819
 30
0.0
 11
484.964735
 21
523.176818
 31
0.0
  0
LINE
  5
61F
102
{ACAD_REACTORS
330
712
102
}
330
1F
100
AcDbEntity
  8
LC-001-100-D00-0
 62
     7
370
    50
100
AcDbLine
 10
481.964736
 20
524.676819
 30
0.0
 11
481.964736
 21
523.176818
 31
0.0
  0
LINE
  5
620
102
{ACAD_REACTORS
330
712
102
}
330
1F
100
AcDbEntity
  8
LC-001-100-D00-0
 62
     7
370
    50
100
AcDbLine
 10
475.964739
 20
523.676818
 30
0.0
 11
472.964737
 21
523.676818
 31
0.0
  0
LINE
  5
621
102
{ACAD_REACTORS
330
712
102
}
330
1F
100
AcDbEntity
  8
LC-001-100-D00-0
 62
     7
370
    50
100
AcDbLine
 10
475.964739
 20
523.676818
 30
0.0
 11
475.964739
 21
527.676819
 31
0.0
  0
LINE
  5
622
102
{ACAD_REACTORS
330
712
102
}
330
1F
100
AcDbEntity
  8
LC-001-100-D00-0
 62
     7
370
    50
100
AcDbLine
 10
481.964736
 20
523.176818
 30
0.0
 11
484.964735
 21
523.176818
 31
0.0
  0
LINE
  5
623
102
{ACAD_REACTORS
330
712
102
}
330
1F
100
AcDbEntity
  8
LC-001-100-D00-0
 62
     7
370
    50
100
AcDbLine
 10
472.964737
 20
520.676819
 30
0.0
 11
478.964738
 21
520.676819
 31
0.0
  0
LINE
  5
624
102
{ACAD_REACTORS
330
712
102
}
330
1F
100
AcDbEntity
  8
LC-001-100-D00-0
 62
     7
370
    50
100
AcDbLine
 10
478.964738
 20
524.676819
 30
0.0
 11
481.964736
 21
524.676819
 31
0.0
  0
LINE
  5
625
102
{ACAD_REACTORS
330
712
102
}
330
1F
100
AcDbEntity
  8
LC-001-100-D00-0
 62
     7
370
    50
100
AcDbLine
 10
349.964737
 20
520.676819
 30
0.0
 11
356.964736
 21
520.676819
 31
0.0
  0
LINE
  5
626
102
{ACAD_REACTORS
330
712
102
}
330
1F
100
AcDbEntity
  8
LC-001-100-D00-0
 62
     7
370
    50
100
AcDbLine
 10
478.964738
 20
523.176818
 30
0.0
 11
481.964736
 21
523.176818
 31
0.0
  0
LINE
  5
627
102
{ACAD_REACTORS
330
712
102
}
330
1F
100
AcDbEntity
  8
LC-001-100-D00-0
 62
     7
370
    50
100
AcDbLine
 10
340.964734
 20
523.176818
 30
0.0
 11
343.96474
 21
523.176818
 31
0.0
  0
ARC
  5
628
102
{ACAD_REACTORS
330
712
102
}
330
1F
100
AcDbEntity
  8
LC-001-100-D00-0
 62
     7
370
    50
100
AcDbCircle
 10
474.964737
 20
496.676818
 30
0.0
 40
7.0
100
AcDbArc
 50
270.0
 51
0.0
  0
LINE
  5
629
102
{ACAD_REACTORS
330
712
102
}
330
1F
100
AcDbEntity
  8
LC-001-100-D00-0
 62
     7
370
    50
100
AcDbLine
 10
481.964736
 20
524.676819
 30
0.0
 11
481.964736
 21
496.676819
 31
0.0
  0
LINE
  5
62A
102
{ACAD_REACTORS
330
712
102
}
330
1F
100
AcDbEntity
  8
LC-001-100-D00-0
 62
     7
370
    50
100
AcDbLine
 10
340.964734
 20
496.676819
 30
0.0
 11
340.964734
 21
524.676819
 31
0.0
  0
ARC
  5
62B
102
{ACAD_REACTORS
330
712
102
}
330
1F
100
AcDbEntity
  8
LC-001-100-D00-0
 62
     7
370
    50
100
AcDbCircle
 10
347.964737
 20
496.676818
 30
0.0
 40
7.0
100
AcDbArc
 50
180.0
 51
270.0
  0
LINE
  5
62C
102
{ACAD_REACTORS
330
712
102
}
330
1F
100
AcDbEntity
  8
LC-001-100-D00-0
 62
     7
370
    50
100
AcDbLine
 10
474.964737
 20
489.676819
 30
0.0
 11
347.96474
 21
489.676819
 31
0.0
  0
LINE
  5
62D
102
{ACAD_REACTORS
330
712
102
}
330
1F
100
AcDbEntity
  8
LC-001-100-D00-0
 62
     7
370
    50
100
AcDbLine
 10
484.964735
 20
524.676819
 30
0.0
 11
484.964735
 21
496.676819
 31
0.0
  0
ARC
  5
62E
102
{ACAD_REACTORS
330
712
102
}
330
1F
100
AcDbEntity
  8
LC-001-100-D00-0
 62
     7
370
    50
100
AcDbCircle
 10
474.964737
 20
496.676818
 30
0.0
 40
10.0
100
AcDbArc
 50
270.0
 51
0.0
  0
LINE
  5
62F
102
{ACAD_REACTORS
330
712
102
}
330
1F
100
AcDbEntity
  8
LC-001-100-D00-0
 62
     7
370
    50
100
AcDbLine
 10
474.964737
 20
486.676818
 30
0.0
 11
347.96474
 21
486.676818
 31
0.0
  0
ARC
  5
630
102
{ACAD_REACTORS
330
712
102
}
330
1F
100
AcDbEntity
  8
LC-001-100-D00-0
 62
     7
370
    50
100
AcDbCircle
 10
347.964737
 20
496.676818
 30
0.0
 40
10.0
100
AcDbArc
 50
180.0
 51
270.0
  0
LINE
  5
631
102
{ACAD_REACTORS
330
712
102
}
330
1F
100
AcDbEntity
  8
LC-001-100-D00-0
 62
     7
370
    50
100
AcDbLine
 10
337.964735
 20
496.676819
 30
0.0
 11
337.964735
 21
524.676819
 31
0.0
  0
LINE
  5
632
102
{ACAD_REACTORS
330
712
102
}
330
1F
100
AcDbEntity
  8
LC-001-100-D00-0
 62
     7
370
    50
100
AcDbLine
 10
340.964734
 20
524.676819
 30
0.0
 11
337.964735
 21
524.676819
 31
0.0
  0
LINE
  5
633
102
{ACAD_REACTORS
330
712
102
}
330
1F
100
AcDbEntity
  8
LC-001-100-D00-0
 62
     7
370
    50
100
AcDbLine
 10
484.964735
 20
524.676819
 30
0.0
 11
481.964736
 21
524.676819
 31
0.0
  0
INSERT
  5
640
102
{ACAD_REACTORS
330
712
102
}
330
1F
100
AcDbEntity
  8
LC-001-100-D00-0
 62
     7
370
    25
100
AcDbBlockReference
  2
KLON36
 10
0.0
 20
0.0
 30
0.0
  0
LINE
  5
641
102
{ACAD_REACTORS
330
712
102
}
330
1F
100
AcDbEntity
  8
LC-001-100-D00-0
 62
     7
370
    25
100
AcDbLine
 10
469.121114
 20
524.378236
 30
0.0
 11
472.419697
 21
527.676818
 31
0.0
  0
INSERT
  5
64D
102
{ACAD_REACTORS
330
712
102
}
330
1F
100
AcDbEntity
  8
LC-001-100-D00-0
 62
     7
370
    25
100
AcDbBlockReference
  2
KLON37
 10
0.0
 20
0.0
 30
0.0
  0
DIMENSION
  5
64E
102
{ACAD_REACTORS
330
712
102
}
330
1F
100
AcDbEntity
  8
LC-001-100-D00-0
 62
     7
370
    25
100
AcDbDimension
  2
*D59
 10
484.964737
 20
380.126004
 30
0.0
 11
399.104827
 21
429.626004
 31
0.0
 70
   160
  1
147
 71
     5
 42
147.0
  3
LC-DIM-L-0090-02-02
100
AcDbAlignedDimension
 13
337.964737
 23
496.676818
 33
0.0
 14
484.964737
 24
496.676818
 34
0.0
100
AcDbRotatedDimension
  0
LINE
  5
65B
102
{ACAD_REACTORS
330
712
102
}
330
1F
100
AcDbEntity
  8
LC-001-100-D00-0
  6
DASHDOT
 62
     7
370
    25
100
AcDbLine
 10
411.464736
 20
554.676818
 30
0.0
 11
411.464736
 21
486.676818
 31
0.0
  0
DIMENSION
  5
65C
330
1F
100
AcDbEntity
  8
LC-002-003-----0
 62
     7
370
    25
100
AcDbDimension
  2
*D60
 10
271.836565
 20
486.676818
 30
0.0
 11
222.336565
 21
409.740818
 31
0.0
 70
   160
 71
     5
 42
68.0
 53
90.0
  3
LC-DIM-L-0090-02-02
100
AcDbAlignedDimension
 13
61.464736
 23
554.676818
 33
0.0
 14
347.964736
 24
486.676818
 34
0.0
 50
90.0
100
AcDbRotatedDimension
  0
LINE
  5
66A
330
1F
100
AcDbEntity
  8
LC-001-100-D00-0
 62
     7
370
    50
100
AcDbLine
 10
436.464743
 20
-4.94892
 30
0.0
 11
436.464743
 21
20.55108
 31
0.0
  0
LINE
  5
66B
330
1F
100
AcDbEntity
  8
LC-001-100-D00-0
 62
     7
370
    50
100
AcDbLine
 10
386.464742
 20
20.55108
 30
0.0
 11
386.464742
 21
-4.94892
 31
0.0
  0
LINE
  5
66C
330
1F
100
AcDbEntity
  8
LC-001-100-D00-0
 62
     7
370
    50
100
AcDbLine
 10
386.464742
 20
-4.94892
 30
0.0
 11
387.268591
 21
-7.948918
 31
0.0
  0
LINE
  5
66D
330
1F
100
AcDbEntity
  8
LC-001-100-D00-0
 62
     7
370
    50
100
AcDbLine
 10
435.660894
 20
-7.948918
 30
0.0
 11
436.464743
 21
-4.94892
 31
0.0
  0
LINE
  5
66E
330
1F
100
AcDbEntity
  8
LC-001-100-D00-0
 62
     7
370
    50
100
AcDbLine
 10
386.464742
 20
-4.94892
 30
0.0
 11
436.464743
 21
-4.94892
 31
0.0
  0
LINE
  5
66F
330
1F
100
AcDbEntity
  8
LC-001-100-D00-0
 62
     7
370
    50
100
AcDbLine
 10
435.660894
 20
-7.948918
 30
0.0
 11
387.268591
 21
-7.948918
 31
0.0
  0
ARC
  5
670
330
1F
100
AcDbEntity
  8
LC-001-100-D00-0
 62
     7
370
    50
100
AcDbCircle
 10
602.464736
 20
494.276814
 30
0.0
 40
0.5
100
AcDbArc
 50
90.0
 51
180.0
  0
ARC
  5
671
330
1F
100
AcDbEntity
  8
LC-001-100-D00-0
 62
     7
370
    50
100
AcDbCircle
 10
620.464736
 20
494.276814
 30
0.0
 40
0.5
100
AcDbArc
 50
0.0
 51
90.0
  0
LINE
  5
672
330
1F
100
AcDbEntity
  8
LC-001-100-D00-0
 62
     7
370
    50
100
AcDbLine
 10
601.964737
 20
494.276813
 30
0.0
 11
601.964737
 21
486.776813
 31
0.0
  0
LINE
  5
673
330
1F
100
AcDbEntity
  8
LC-001-100-D00-0
 62
     7
370
    50
100
AcDbLine
 10
620.964738
 20
486.776813
 30
0.0
 11
620.964738
 21
494.276813
 31
0.0
  0
LINE
  5
674
330
1F
100
AcDbEntity
  8
LC-001-100-D00-0
 62
     7
370
    50
100
AcDbLine
 10
601.464736
 20
497.176813
 30
0.0
 11
601.464736
 21
495.776816
 31
0.0
  0
LINE
  5
675
330
1F
100
AcDbEntity
  8
LC-001-100-D00-0
 62
     7
370
    50
100
AcDbLine
 10
621.464735
 20
495.776816
 30
0.0
 11
621.464735
 21
497.176813
 31
0.0
  0
LINE
  5
676
330
1F
100
AcDbEntity
  8
LC-001-100-D00-0
 62
     7
370
    50
100
AcDbLine
 10
601.464736
 20
495.776816
 30
0.0
 11
602.464738
 21
494.776814
 31
0.0
  0
LINE
  5
677
330
1F
100
AcDbEntity
  8
LC-001-100-D00-0
 62
     7
370
    50
100
AcDbLine
 10
620.464737
 20
494.776814
 30
0.0
 11
621.464735
 21
495.776816
 31
0.0
  0
INSERT
  5
697
330
1F
100
AcDbEntity
  8
LC-001-100-D00-0
 62
     7
370
    50
100
AcDbBlockReference
  2
POLY15
 10
0.0
 20
0.0
 30
0.0
  0
LINE
  5
698
330
1F
100
AcDbEntity
  8
LC-001-100-D00-0
 62
     7
370
    50
100
AcDbLine
 10
620.964738
 20
486.776813
 30
0.0
 11
601.964737
 21
486.776813
 31
0.0
  0
LINE
  5
699
330
1F
100
AcDbEntity
  8
LC-001-100-D00-0
 62
     7
370
    50
100
AcDbLine
 10
614.351488
 20
497.176813
 30
0.0
 11
608.577984
 21
497.176813
 31
0.0
  0
LINE
  5
69A
330
1F
100
AcDbEntity
  8
LC-001-100-D00-0
 62
     7
370
    50
100
AcDbLine
 10
608.577984
 20
497.176813
 30
0.0
 11
602.515808
 21
497.176813
 31
0.0
  0
LINE
  5
69B
330
1F
100
AcDbEntity
  8
LC-001-100-D00-0
 62
     7
370
    50
100
AcDbLine
 10
620.413668
 20
497.176813
 30
0.0
 11
614.351488
 21
497.176813
 31
0.0
  0
LINE
  5
69C
330
1F
100
AcDbEntity
  8
LC-001-100-D00-0
 62
     7
370
    50
100
AcDbLine
 10
602.515808
 20
497.176813
 30
0.0
 11
599.629058
 21
497.176813
 31
0.0
  0
LINE
  5
69D
330
1F
100
AcDbEntity
  8
LC-001-100-D00-0
 62
     7
370
    50
100
AcDbLine
 10
601.464736
 20
495.776816
 30
0.0
 11
621.464735
 21
495.776816
 31
0.0
  0
LINE
  5
69E
330
1F
100
AcDbEntity
  8
LC-001-100-D00-0
 62
     7
370
    50
100
AcDbLine
 10
620.464737
 20
494.776814
 30
0.0
 11
602.464738
 21
494.776814
 31
0.0
  0
DIMENSION
  5
6A0
330
1F
100
AcDbEntity
  8
LC-002-003-----0
 62
     7
370
    25
100
AcDbDimension
  2
*D62
 10
876.155427
 20
486.776813
 30
0.0
 11
821.155427
 21
583.485818
 31
0.0
 70
   160
  1
68-129,5
 71
     5
 42
68.0
 53
90.0
  3
LC-DIM-L-0100-02-02
100
AcDbAlignedDimension
 13
711.464732
 23
554.776813
 33
0.0
 14
620.964738
 24
486.776813
 34
0.0
 50
90.0
100
AcDbRotatedDimension
  0
ARC
  5
6AE
330
1F
100
AcDbEntity
  8
LC-001-100-D00-0
 62
     7
370
    50
100
AcDbCircle
 10
220.464736
 20
494.276814
 30
0.0
 40
0.5
100
AcDbArc
 50
0.0
 51
90.0
  0
ARC
  5
6AF
330
1F
100
AcDbEntity
  8
LC-001-100-D00-0
 62
     7
370
    50
100
AcDbCircle
 10
202.464736
 20
494.276814
 30
0.0
 40
0.5
100
AcDbArc
 50
90.0
 51
180.0
  0
LINE
  5
6B0
330
1F
100
AcDbEntity
  8
LC-001-100-D00-0
 62
     7
370
    50
100
AcDbLine
 10
220.964736
 20
494.276813
 30
0.0
 11
220.964736
 21
486.776813
 31
0.0
  0
LINE
  5
6B1
330
1F
100
AcDbEntity
  8
LC-001-100-D00-0
 62
     7
370
    50
100
AcDbLine
 10
201.964735
 20
486.776813
 30
0.0
 11
201.964735
 21
494.276813
 31
0.0
  0
LINE
  5
6B2
330
1F
100
AcDbEntity
  8
LC-001-100-D00-0
 62
     7
370
    50
100
AcDbLine
 10
221.464737
 20
497.176813
 30
0.0
 11
221.464737
 21
495.776816
 31
0.0
  0
LINE
  5
6B3
330
1F
100
AcDbEntity
  8
LC-001-100-D00-0
 62
     7
370
    50
100
AcDbLine
 10
201.464738
 20
495.776816
 30
0.0
 11
201.464738
 21
497.176813
 31
0.0
  0
LINE
  5
6B4
330
1F
100
AcDbEntity
  8
LC-001-100-D00-0
 62
     7
370
    50
100
AcDbLine
 10
221.464737
 20
495.776816
 30
0.0
 11
220.464735
 21
494.776814
 31
0.0
  0
LINE
  5
6B5
330
1F
100
AcDbEntity
  8
LC-001-100-D00-0
 62
     7
370
    50
100
AcDbLine
 10
202.464736
 20
494.776814
 30
0.0
 11
201.464738
 21
495.776816
 31
0.0
  0
INSERT
  5
6D5
330
1F
100
AcDbEntity
  8
LC-001-100-D00-0
 62
     7
370
    50
100
AcDbBlockReference
  2
POLY16
 10
0.0
 20
0.0
 30
0.0
  0
LINE
  5
6D6
330
1F
100
AcDbEntity
  8
LC-001-100-D00-0
 62
     7
370
    50
100
AcDbLine
 10
201.964735
 20
486.776813
 30
0.0
 11
220.964736
 21
486.776813
 31
0.0
  0
LINE
  5
6D7
330
1F
100
AcDbEntity
  8
LC-001-100-D00-0
 62
     7
370
    50
100
AcDbLine
 10
208.577985
 20
497.176813
 30
0.0
 11
214.351488
 21
497.176813
 31
0.0
  0
LINE
  5
6D8
330
1F
100
AcDbEntity
  8
LC-001-100-D00-0
 62
     7
370
    50
100
AcDbLine
 10
214.351488
 20
497.176813
 30
0.0
 11
220.413665
 21
497.176813
 31
0.0
  0
LINE
  5
6D9
330
1F
100
AcDbEntity
  8
LC-001-100-D00-0
 62
     7
370
    50
100
AcDbLine
 10
202.515805
 20
497.176813
 30
0.0
 11
208.577985
 21
497.176813
 31
0.0
  0
LINE
  5
6DA
330
1F
100
AcDbEntity
  8
LC-001-100-D00-0
 62
     7
370
    50
100
AcDbLine
 10
220.413665
 20
497.176813
 30
0.0
 11
223.300414
 21
497.176813
 31
0.0
  0
LINE
  5
6DB
330
1F
100
AcDbEntity
  8
LC-001-100-D00-0
 62
     7
370
    50
100
AcDbLine
 10
221.464737
 20
495.776816
 30
0.0
 11
201.464738
 21
495.776816
 31
0.0
  0
LINE
  5
6DC
330
1F
100
AcDbEntity
  8
LC-001-100-D00-0
 62
     7
370
    50
100
AcDbLine
 10
202.464736
 20
494.776814
 30
0.0
 11
220.464735
 21
494.776814
 31
0.0
  0
LINE
  5
6DD
330
1F
100
AcDbEntity
  8
LC-001-100-D00-0
 62
     7
370
    50
100
AcDbLine
 10
-25.16749
 20
497.176819
 30
0.0
 11
-30.940993
 21
497.176819
 31
0.0
  0
LINE
  5
6DE
330
1F
100
AcDbEntity
  8
LC-001-100-D00-0
 62
     7
370
    50
100
AcDbLine
 10
-30.940993
 20
497.176819
 30
0.0
 11
-37.003171
 21
497.176819
 31
0.0
  0
LINE
  5
6DF
330
1F
100
AcDbEntity
  8
LC-001-100-D00-0
 62
     7
370
    50
100
AcDbLine
 10
-19.105312
 20
497.176819
 30
0.0
 11
-25.16749
 21
497.176819
 31
0.0
  0
LINE
  5
6E0
330
1F
100
AcDbEntity
  8
LC-001-100-D00-0
 62
     7
370
    50
100
AcDbLine
 10
-16.218561
 20
497.176819
 30
0.0
 11
-19.105312
 21
497.176819
 31
0.0
  0
LINE
  5
6E1
330
1F
100
AcDbEntity
  8
LC-001-100-D00-0
 62
     7
370
    50
100
AcDbLine
 10
-37.003171
 20
497.176819
 30
0.0
 11
-39.889922
 21
497.176819
 31
0.0
  0
LINE
  5
6E2
330
1F
100
AcDbEntity
  8
LC-001-100-D00-0
 62
     7
370
    50
100
AcDbLine
 10
-39.889922
 20
497.176819
 30
0.0
 11
-40.827744
 21
497.176819
 31
0.0
  0
ARC
  5
6E3
330
1F
100
AcDbEntity
  8
LC-001-100-D00-0
 62
     7
370
    50
100
AcDbCircle
 10
-19.054241
 20
494.276815
 30
0.0
 40
0.5
100
AcDbArc
 50
0.0
 51
90.0
  0
ARC
  5
6E4
330
1F
100
AcDbEntity
  8
LC-001-100-D00-0
 62
     7
370
    50
100
AcDbCircle
 10
-37.054241
 20
494.276815
 30
0.0
 40
0.5
100
AcDbArc
 50
90.0
 51
180.0
  0
LINE
  5
6E5
330
1F
100
AcDbEntity
  8
LC-001-100-D00-0
 62
     7
370
    50
100
AcDbLine
 10
-18.554242
 20
494.276814
 30
0.0
 11
-18.554242
 21
486.776814
 31
0.0
  0
LINE
  5
6E6
330
1F
100
AcDbEntity
  8
LC-001-100-D00-0
 62
     7
370
    50
100
AcDbLine
 10
-37.554243
 20
486.776814
 30
0.0
 11
-37.554243
 21
494.276814
 31
0.0
  0
LINE
  5
6E7
330
1F
100
AcDbEntity
  8
LC-001-100-D00-0
 62
     7
370
    50
100
AcDbLine
 10
-18.054241
 20
497.176814
 30
0.0
 11
-18.054241
 21
495.776817
 31
0.0
  0
LINE
  5
6E8
330
1F
100
AcDbEntity
  8
LC-001-100-D00-0
 62
     7
370
    50
100
AcDbLine
 10
-38.05424
 20
495.776817
 30
0.0
 11
-38.05424
 21
497.176814
 31
0.0
  0
LINE
  5
6E9
330
1F
100
AcDbEntity
  8
LC-001-100-D00-0
 62
     7
370
    50
100
AcDbLine
 10
-18.054241
 20
495.776817
 30
0.0
 11
-19.054243
 21
494.776815
 31
0.0
  0
LINE
  5
6EA
330
1F
100
AcDbEntity
  8
LC-001-100-D00-0
 62
     7
370
    50
100
AcDbLine
 10
-37.054242
 20
494.776815
 30
0.0
 11
-38.05424
 21
495.776817
 31
0.0
  0
INSERT
  5
70A
330
1F
100
AcDbEntity
  8
LC-001-100-D00-0
 62
     7
370
    50
100
AcDbBlockReference
  2
POLY17
 10
0.0
 20
0.0
 30
0.0
  0
LINE
  5
70B
330
1F
100
AcDbEntity
  8
LC-001-100-D00-0
 62
     7
370
    50
100
AcDbLine
 10
-37.554243
 20
486.776814
 30
0.0
 11
-18.554242
 21
486.776814
 31
0.0
  0
LINE
  5
70C
330
1F
100
AcDbEntity
  8
LC-001-100-D00-0
 62
     7
370
    50
100
AcDbLine
 10
-30.940993
 20
497.176814
 30
0.0
 11
-25.167489
 21
497.176814
 31
0.0
  0
LINE
  5
70D
330
1F
100
AcDbEntity
  8
LC-001-100-D00-0
 62
     7
370
    50
100
AcDbLine
 10
-25.167489
 20
497.176814
 30
0.0
 11
-19.105313
 21
497.176814
 31
0.0
  0
LINE
  5
70E
330
1F
100
AcDbEntity
  8
LC-001-100-D00-0
 62
     7
370
    50
100
AcDbLine
 10
-37.003172
 20
497.176814
 30
0.0
 11
-30.940993
 21
497.176814
 31
0.0
  0
LINE
  5
70F
330
1F
100
AcDbEntity
  8
LC-001-100-D00-0
 62
     7
370
    50
100
AcDbLine
 10
-19.105313
 20
497.176814
 30
0.0
 11
-16.218563
 21
497.176814
 31
0.0
  0
LINE
  5
710
330
1F
100
AcDbEntity
  8
LC-001-100-D00-0
 62
     7
370
    50
100
AcDbLine
 10
-18.054241
 20
495.776817
 30
0.0
 11
-38.05424
 21
495.776817
 31
0.0
  0
LINE
  5
711
330
1F
100
AcDbEntity
  8
LC-001-100-D00-0
 62
     7
370
    50
100
AcDbLine
 10
-37.054242
 20
494.776815
 30
0.0
 11
-19.054243
 21
494.776815
 31
0.0
  0
ENDSEC
  0
SECTION
  2
OBJECTS
  0
DICTIONARY
  5
C
330
0
100
AcDbDictionary
281
     1
  3
ACAD_GROUP
350
D
  3
ACAD_LAYOUT
350
1A
  3
ACAD_MLINESTYLE
350
17
  3
ACAD_PLOTSETTINGS
350
19
  3
ACAD_PLOTSTYLENAME
350
E
  0
DICTIONARY
  5
D
102
{ACAD_REACTORS
330
C
102
}
330
C
100
AcDbDictionary
281
     1
  3
LCGROUP1673
350
712
  0
DICTIONARY
  5
1A
102
{ACAD_REACTORS
330
C
102
}
330
C
100
AcDbDictionary
281
     1
  3
Layout1
350
1E
  3
Layout2
350
26
  3
Model
350
22
  0
DICTIONARY
  5
17
102
{ACAD_REACTORS
330
C
102
}
330
C
100
AcDbDictionary
281
     1
  3
Standard
350
18
  0
DICTIONARY
  5
19
102
{ACAD_REACTORS
330
C
102
}
330
C
100
AcDbDictionary
281
     1
  0
ACDBDICTIONARYWDFLT
  5
E
102
{ACAD_REACTORS
330
C
102
}
330
C
100
AcDbDictionary
281
     1
  3
Normal
350
F
100
AcDbDictionaryWithDefault
340
F
  0
GROUP
  5
712
102
{ACAD_REACTORS
330
D
102
}
330
D
100
AcDbGroup
300
Gehäuse
 70
     1
 71
     1
340
5CA
340
5CB
340
5CC
340
5CD
340
5CE
340
5CF
340
5D0
340
5D1
340
5D2
340
5D3
340
5D4
340
5D5
340
5D6
340
5D7
340
5D8
340
5D9
340
5DA
340
5DB
340
5DC
340
5DD
340
5DE
340
5DF
340
5E0
340
5E1
340
5E2
340
5E3
340
5E4
340
5E5
340
5E6
340
5E7
340
5E8
340
5E9
340
5EA
340
5EB
340
5EC
340
5ED
340
5EE
340
5EF
340
5F0
340
5F1
340
5F2
340
5F3
340
5F4
340
5F5
340
5F6
340
5F7
340
5F8
340
5F9
340
5FA
340
5FB
340
5FC
340
5FD
340
5FE
340
5FF
340
600
340
601
340
602
340
603
340
604
340
605
340
606
340
607
340
608
340
609
340
60A
340
60B
340
60C
340
60D
340
60E
340
60F
340
610
340
611
340
612
340
613
340
614
340
615
340
616
340
617
340
618
340
619
340
61A
340
61B
340
61C
340
61D
340
61E
340
61F
340
620
340
621
340
622
340
623
340
624
340
625
340
626
340
627
340
628
340
629
340
62A
340
62B
340
62C
340
62D
340
62E
340
62F
340
630
340
631
340
632
340
633
340
640
340
641
340
64D
340
64E
340
65B
  0
LAYOUT
  5
1E
102
{ACAD_REACTORS
330
1A
102
}
330
1A
100
AcDbPlotSettings
  1

  2

  4

  6

 40
0.0
 41
0.0
 42
0.0
 43
0.0
 44
0.0
 45
0.0
 46
0.0
 47
0.0
 48
0.0
 49
0.0
140
0.0
141
0.0
142
1.0
143
1.0
 70
   688
 72
     0
 73
     0
 74
     5
  7

 75
    16
147
1.0
148
0.0
149
0.0
100
AcDbLayout
  1
Layout1
 70
     1
 71
     1
 10
-839.393981
 20
-603.029182
 11
1260.606019
 21
881.970818
 12
0.0
 22
0.0
 32
0.0
 14
-839.393981
 24
-603.029182
 34
0.0
 15
1260.606019
 25
881.970818
 35
0.0
146
0.0
 13
0.0
 23
0.0
 33
0.0
 16
1.0
 26
0.0
 36
0.0
 17
0.0
 27
1.0
 37
0.0
 76
     0
330
1B
  0
LAYOUT
  5
26
102
{ACAD_REACTORS
330
1A
102
}
330
1A
100
AcDbPlotSettings
  1

  2

  4

  6

 40
0.0
 41
0.0
 42
0.0
 43
0.0
 44
0.0
 45
0.0
 46
0.0
 47
0.0
 48
0.0
 49
0.0
140
0.0
141
0.0
142
1.0
143
1.0
 70
   688
 72
     0
 73
     0
 74
     5
  7

 75
    16
147
1.0
148
0.0
149
0.0
100
AcDbLayout
  1
Layout2
 70
     1
 71
     2
 10
0.0
 20
0.0
 11
0.0
 21
0.0
 12
0.0
 22
0.0
 32
0.0
 14
0.0
 24
0.0
 34
0.0
 15
0.0
 25
0.0
 35
0.0
146
0.0
 13
0.0
 23
0.0
 33
0.0
 16
1.0
 26
0.0
 36
0.0
 17
0.0
 27
1.0
 37
0.0
 76
     0
330
23
  0
LAYOUT
  5
22
102
{ACAD_REACTORS
330
1A
102
}
330
1A
100
AcDbPlotSettings
  1

  2

  4

  6

 40
0.0
 41
0.0
 42
0.0
 43
0.0
 44
0.0
 45
0.0
 46
0.0
 47
0.0
 48
0.0
 49
0.0
140
0.0
141
0.0
142
1.0
143
1.0
 70
  1776
 72
     0
 73
     0
 74
     0
  7

 75
     0
147
1.0
148
0.0
149
0.0
100
AcDbLayout
  1
Model
 70
     1
 71
     0
 10
-839.393981
 20
-603.029182
 11
1260.606019
 21
881.970818
 12
0.0
 22
0.0
 32
0.0
 14
-839.393981
 24
-603.029182
 34
0.0
 15
1260.606019
 25
881.970818
 35
0.0
146
0.0
 13
0.0
 23
0.0
 33
0.0
 16
1.0
 26
0.0
 36
0.0
 17
0.0
 27
1.0
 37
0.0
 76
     0
330
1F
  0
MLINESTYLE
  5
18
102
{ACAD_REACTORS
330
17
102
}
330
17
100
AcDbMlineStyle
  2
Standard
 70
     0
  3

 62
   256
 51
90.0
 52
90.0
 71
     2
 49
0.5
 62
   256
  6
BYLAYER
 49
-0.5
 62
   256
  6
BYLAYER
  0
ACDBPLACEHOLDER
  5
F
102
{ACAD_REACTORS
330
E
102
}
330
E
  0
ENDSEC
  0
EOF
