  0
SECTION
  2
HEADER
  9
$ACADVER
  1
AC1015
  9
$ACADMAINTVER
 70
     6
  9
$DWGCODEPAGE
  3
ANSI_1252
  9
$INSBASE
 10
0.0
 20
0.0
 30
0.0
  9
$EXTMIN
 10
-840.138218
 20
-613.867995
 30
0.0
  9
$EXTMAX
 10
1259.861782
 20
871.132005
 30
0.0
  9
$LIMMIN
 10
-840.138218
 20
-613.867995
  9
$LIMMAX
 10
1259.861782
 20
871.132005
  9
$ORTHOMODE
 70
     0
  9
$REGENMODE
 70
     1
  9
$FILLMODE
 70
     1
  9
$QTEXTMODE
 70
     0
  9
$MIRRTEXT
 70
     1
  9
$LTSCALE
 40
5.0
  9
$ATTMODE
 70
     1
  9
$TEXTSIZE
 40
2.5
  9
$TRACEWID
 40
1.0
  9
$TEXTSTYLE
  7
Standard
  9
$CLAYER
  8
0
  9
$CELTYPE
  6
ByLayer
  9
$CECOLOR
 62
     7
  9
$CELTSCALE
 40
1.0
  9
$DISPSILH
 70
     0
  9
$DIMSCALE
 40
5.0
  9
$DIMASZ
 40
3.5
  9
$DIMEXO
 40
0.625
  9
$DIMDLI
 40
3.75
  9
$DIMRND
 40
0.0
  9
$DIMDLE
 40
0.0
  9
$DIMEXE
 40
1.25
  9
$DIMTP
 40
0.0
  9
$DIMTM
 40
0.0
  9
$DIMTXT
 40
3.5
  9
$DIMCEN
 40
2.5
  9
$DIMTSZ
 40
0.0
  9
$DIMTOL
 70
     0
  9
$DIMLIM
 70
     0
  9
$DIMTIH
 70
     0
  9
$DIMTOH
 70
     0
  9
$DIMSE1
 70
     0
  9
$DIMSE2
 70
     0
  9
$DIMTAD
 70
     1
  9
$DIMZIN
 70
     8
  9
$DIMBLK
  1

  9
$DIMASO
 70
     1
  9
$DIMSHO
 70
     1
  9
$DIMPOST
  1

  9
$DIMAPOST
  1

  9
$DIMALT
 70
     0
  9
$DIMALTD
 70
     3
  9
$DIMALTF
 40
0.03937
  9
$DIMLFAC
 40
1.0
  9
$DIMTOFL
 70
     1
  9
$DIMTVP
 40
0.0
  9
$DIMTIX
 70
     0
  9
$DIMSOXD
 70
     0
  9
$DIMSAH
 70
     0
  9
$DIMBLK1
  1

  9
$DIMBLK2
  1

  9
$DIMSTYLE
  2
ISO-25
  9
$DIMCLRD
 70
     0
  9
$DIMCLRE
 70
     0
  9
$DIMCLRT
 70
     0
  9
$DIMTFAC
 40
1.0
  9
$DIMGAP
 40
0.625
  9
$DIMJUST
 70
     0
  9
$DIMSD1
 70
     0
  9
$DIMSD2
 70
     0
  9
$DIMTOLJ
 70
     0
  9
$DIMTZIN
 70
     8
  9
$DIMALTZ
 70
     0
  9
$DIMALTTZ
 70
     0
  9
$DIMUPT
 70
     0
  9
$DIMDEC
 70
     2
  9
$DIMTDEC
 70
     2
  9
$DIMALTU
 70
     2
  9
$DIMALTTD
 70
     3
  9
$DIMTXSTY
  7
Standard
  9
$DIMAUNIT
 70
     0
  9
$DIMADEC
 70
     0
  9
$DIMALTRND
 40
0.0
  9
$DIMAZIN
 70
     0
  9
$DIMDSEP
 70
    44
  9
$DIMATFIT
 70
     3
  9
$DIMFRAC
 70
     0
  9
$DIMLDRBLK
  1

  9
$DIMLUNIT
 70
     2
  9
$DIMLWD
 70
    -2
  9
$DIMLWE
 70
    -2
  9
$DIMTMOVE
 70
     0
  9
$LUNITS
 70
     2
  9
$LUPREC
 70
     4
  9
$SKETCHINC
 40
1.0
  9
$FILLETRAD
 40
10.0
  9
$AUNITS
 70
     0
  9
$AUPREC
 70
     0
  9
$MENU
  1
.
  9
$ELEVATION
 40
0.0
  9
$PELEVATION
 40
0.0
  9
$THICKNESS
 40
0.0
  9
$LIMCHECK
 70
     0
  9
$CHAMFERA
 40
10.0
  9
$CHAMFERB
 40
10.0
  9
$CHAMFERC
 40
20.0
  9
$CHAMFERD
 40
0.0
  9
$SKPOLY
 70
     0
  9
$TDCREATE
 40
2456031.489294734
  9
$TDUCREATE
 40
2456031.4059614
  9
$TDUPDATE
 40
2456031.489294746
  9
$TDUUPDATE
 40
2456031.405961412
  9
$TDINDWG
 40
0.0000000116
  9
$TDUSRTIMER
 40
0.0000000116
  9
$USRTIMER
 70
     1
  9
$ANGBASE
 50
0.0
  9
$ANGDIR
 70
     0
  9
$PDMODE
 70
     0
  9
$PDSIZE
 40
0.0
  9
$PLINEWID
 40
0.0
  9
$SPLFRAME
 70
     0
  9
$SPLINETYPE
 70
     6
  9
$SPLINESEGS
 70
     8
  9
$HANDSEED
  5
794
  9
$SURFTAB1
 70
     6
  9
$SURFTAB2
 70
     6
  9
$SURFTYPE
 70
     6
  9
$SURFU
 70
     6
  9
$SURFV
 70
     6
  9
$UCSBASE
  2

  9
$UCSNAME
  2

  9
$UCSORG
 10
0.0
 20
0.0
 30
0.0
  9
$UCSXDIR
 10
1.0
 20
0.0
 30
0.0
  9
$UCSYDIR
 10
0.0
 20
1.0
 30
0.0
  9
$UCSORTHOREF
  2

  9
$UCSORTHOVIEW
 70
     0
  9
$UCSORGTOP
 10
0.0
 20
0.0
 30
0.0
  9
$UCSORGBOTTOM
 10
0.0
 20
0.0
 30
0.0
  9
$UCSORGLEFT
 10
0.0
 20
0.0
 30
0.0
  9
$UCSORGRIGHT
 10
0.0
 20
0.0
 30
0.0
  9
$UCSORGFRONT
 10
0.0
 20
0.0
 30
0.0
  9
$UCSORGBACK
 10
0.0
 20
0.0
 30
0.0
  9
$PUCSBASE
  2

  9
$PUCSNAME
  2

  9
$PUCSORG
 10
0.0
 20
0.0
 30
0.0
  9
$PUCSXDIR
 10
1.0
 20
0.0
 30
0.0
  9
$PUCSYDIR
 10
0.0
 20
1.0
 30
0.0
  9
$PUCSORTHOREF
  2

  9
$PUCSORTHOVIEW
 70
     0
  9
$PUCSORGTOP
 10
0.0
 20
0.0
 30
0.0
  9
$PUCSORGBOTTOM
 10
0.0
 20
0.0
 30
0.0
  9
$PUCSORGLEFT
 10
0.0
 20
0.0
 30
0.0
  9
$PUCSORGRIGHT
 10
0.0
 20
0.0
 30
0.0
  9
$PUCSORGFRONT
 10
0.0
 20
0.0
 30
0.0
  9
$PUCSORGBACK
 10
0.0
 20
0.0
 30
0.0
  9
$USERI1
 70
     0
  9
$USERI2
 70
     0
  9
$USERI3
 70
     0
  9
$USERI4
 70
     0
  9
$USERI5
 70
     0
  9
$USERR1
 40
0.0
  9
$USERR2
 40
0.0
  9
$USERR3
 40
0.0
  9
$USERR4
 40
0.0
  9
$USERR5
 40
0.0
  9
$WORLDVIEW
 70
     1
  9
$SHADEDGE
 70
     3
  9
$SHADEDIF
 70
    70
  9
$TILEMODE
 70
     1
  9
$MAXACTVP
 70
    64
  9
$PINSBASE
 10
0.0
 20
0.0
 30
0.0
  9
$PLIMCHECK
 70
     0
  9
$PEXTMIN
 10
-840.138218
 20
-613.867995
 30
0.0
  9
$PEXTMAX
 10
1259.861782
 20
871.132005
 30
0.0
  9
$PLIMMIN
 10
-840.138218
 20
-613.867995
  9
$PLIMMAX
 10
1259.861782
 20
871.132005
  9
$UNITMODE
 70
     0
  9
$VISRETAIN
 70
     1
  9
$PLINEGEN
 70
     0
  9
$PSLTSCALE
 70
     1
  9
$TREEDEPTH
 70
  3020
  9
$CMLSTYLE
  2
Standard
  9
$CMLJUST
 70
     0
  9
$CMLSCALE
 40
20.0
  9
$PROXYGRAPHICS
 70
     1
  9
$MEASUREMENT
 70
     1
  9
$CELWEIGHT
370
    -1
  9
$ENDCAPS
280
     0
  9
$JOINSTYLE
280
     0
  9
$LWDISPLAY
290
     0
  9
$INSUNITS
 70
     4
  9
$HYPERLINKBASE
  1

  9
$STYLESHEET
  1

  9
$XEDIT
290
     1
  9
$CEPSNTYPE
380
     0
  9
$PSTYLEMODE
290
     1
  9
$FINGERPRINTGUID
  2
{FAEB1C30-E019-11D5-929B-00C0DF256EC4}
  9
$VERSIONGUID
  2
{FAEB1C32-E019-11D5-929B-00C0DF256EC4}
  9
$EXTNAMES
290
     1
  9
$PSVPSCALE
 40
0.0
  9
$OLESTARTUP
290
     0
  0
ENDSEC
  0
SECTION
  2
CLASSES
  0
CLASS
  1
ACDBDICTIONARYWDFLT
  2
AcDbDictionaryWithDefault
  3
ObjectDBX Classes
 90
        0
280
     0
281
     0
  0
CLASS
  1
ACDBPLACEHOLDER
  2
AcDbPlaceHolder
  3
ObjectDBX Classes
 90
        0
280
     0
281
     0
  0
CLASS
  1
LAYOUT
  2
AcDbLayout
  3
ObjectDBX Classes
 90
        0
280
     0
281
     0
  0
ENDSEC
  0
SECTION
  2
TABLES
  0
TABLE
  2
VPORT
  5
8
330
0
100
AcDbSymbolTable
 70
     2
  0
VPORT
  5
29
330
8
100
AcDbSymbolTableRecord
100
AcDbViewportTableRecord
  2
*ACTIVE
 70
     0
 10
0.0
 20
0.0
 11
1.0
 21
1.0
 12
209.861782
 22
128.632005
 13
0.0
 23
0.0
 14
1.0
 24
1.0
 15
0.0
 25
0.0
 16
0.0
 26
0.0
 36
1.0
 17
0.0
 27
0.0
 37
0.0
 40
1485.0
 41
1.414141
 42
50.0
 43
0.0
 44
0.0
 50
0.0
 51
0.0
 71
    16
 72
   100
 73
     1
 74
     0
 75
     0
 76
     0
 77
     0
 78
     0
281
     0
 65
     0
110
0.0
120
0.0
130
0.0
111
1.0
121
0.0
131
0.0
112
0.0
122
1.0
132
0.0
 79
     0
146
0.0
  0
ENDTAB
  0
TABLE
  2
LTYPE
  5
5
330
0
100
AcDbSymbolTable
 70
     3
  0
LTYPE
  5
14
330
5
100
AcDbSymbolTableRecord
100
AcDbLinetypeTableRecord
  2
ByBlock
 70
     0
  3

 72
    65
 73
     0
 40
0.0
  0
LTYPE
  5
15
330
5
100
AcDbSymbolTableRecord
100
AcDbLinetypeTableRecord
  2
ByLayer
 70
     0
  3

 72
    65
 73
     0
 40
0.0
  0
LTYPE
  5
16
330
5
100
AcDbSymbolTableRecord
100
AcDbLinetypeTableRecord
  2
Continuous
 70
     0
  3
Solid line
 72
    65
 73
     0
 40
0.0
  0
LTYPE
  5
2A
330
5
100
AcDbSymbolTableRecord
100
AcDbLinetypeTableRecord
  2
DASHED
 70
     0
  3
__ __ __ __ __
 72
    65
 73
     2
 40
6.25
 49
5.0
 74
     4
 75
     0
340
0
 46
1.0
 50
0.0
 44
0.0
 45
0.0
 49
-1.25
 74
     4
 75
     0
340
0
 46
1.0
 50
0.0
 44
0.0
 45
0.0
  0
LTYPE
  5
13C
330
5
100
AcDbSymbolTableRecord
100
AcDbLinetypeTableRecord
  2
DASHDOT
 70
     0
  3
__ . __ . __ . __ . __
 72
    65
 73
     4
 40
7.5
 49
5.0
 74
     4
 75
     0
340
0
 46
1.0
 50
0.0
 44
0.0
 45
0.0
 49
-1.25
 74
     4
 75
     0
340
0
 46
1.0
 50
0.0
 44
0.0
 45
0.0
 49
0.0
 74
     4
 75
     0
340
0
 46
1.0
 50
0.0
 44
0.0
 45
0.0
 49
-1.25
 74
     4
 75
     0
340
0
 46
1.0
 50
0.0
 44
0.0
 45
0.0
  0
ENDTAB
  0
TABLE
  2
LAYER
  5
2
330
0
100
AcDbSymbolTable
 70
     9
  0
LAYER
  5
10
330
2
100
AcDbSymbolTableRecord
100
AcDbLayerTableRecord
  2
0
 70
     0
 62
     7
  6
Continuous
370
    -3
390
F
  0
LAYER
  5
2B
330
2
100
AcDbSymbolTableRecord
100
AcDbLayerTableRecord
  2
LC-INFO-1-5-mm-A3-0
 70
     1
 62
     7
  6
ByBlock
370
    -3
390
F
  0
LAYER
  5
2C
330
2
100
AcDbSymbolTableRecord
100
AcDbLayerTableRecord
  2
LC-CUT-HIDDEN
 70
     0
 62
     7
  6
DASHED
370
    -3
390
F
  0
LAYER
  5
2D
330
2
100
AcDbSymbolTableRecord
100
AcDbLayerTableRecord
  2
LC-VIEWPORT
 70
     0
 62
     7
  6
ByBlock
370
    -3
390
F
  0
LAYER
  5
2E
330
2
100
AcDbSymbolTableRecord
100
AcDbLayerTableRecord
  2
LC-3D-HIDDEN
 70
     0
 62
     9
  6
DASHED
370
    -3
390
F
  0
LAYER
  5
30
330
2
100
AcDbSymbolTableRecord
100
AcDbLayerTableRecord
  2
LC-001-002-----0
 70
     0
 62
     2
  6
ByBlock
370
    -3
390
F
  0
LAYER
  5
32
330
2
100
AcDbSymbolTableRecord
100
AcDbLayerTableRecord
  2
LC-002-100-D00-0
 70
     0
 62
     1
  6
ByBlock
370
    -3
390
F
  0
LAYER
  5
113
330
2
100
AcDbSymbolTableRecord
100
AcDbLayerTableRecord
  2
Defpoints
 70
     0
 62
     7
  6
Continuous
290
     0
370
    -3
390
F
  0
LAYER
  5
6CE
330
2
100
AcDbSymbolTableRecord
100
AcDbLayerTableRecord
  2
LC-003-003-----0
 70
     0
 62
     2
  6
ByBlock
370
    -3
390
F
  0
ENDTAB
  0
TABLE
  2
STYLE
  5
3
330
0
100
AcDbSymbolTable
 70
     3
  0
STYLE
  5
11
330
3
100
AcDbSymbolTableRecord
100
AcDbTextStyleTableRecord
  2
Standard
 70
     0
 40
0.0
 41
1.0
 50
0.0
 71
     0
 42
2.5
  3
txt
  4

  0
STYLE
  5
2F
330
3
100
AcDbSymbolTableRecord
100
AcDbTextStyleTableRecord
  2
LCTX15-400-0-0-Arial
 70
     0
 40
0.0
 41
0.8
 50
0.0
 71
     0
 42
3.5
  3

  4

1001
ACAD
1000
Arial
1071
 16777218
  0
STYLE
  5
110
330
3
100
AcDbSymbolTableRecord
100
AcDbTextStyleTableRecord
  2
LCTX15-400-0-0pDIN-Schrift
 70
     0
 40
2.5
 41
0.8
 50
15.0
 71
     0
 42
3.5
  3
STANDARD
  4

  0
ENDTAB
  0
TABLE
  2
VIEW
  5
6
330
0
100
AcDbSymbolTable
 70
     0
  0
ENDTAB
  0
TABLE
  2
UCS
  5
7
330
0
100
AcDbSymbolTable
 70
     0
  0
ENDTAB
  0
TABLE
  2
APPID
  5
9
330
0
100
AcDbSymbolTable
 70
     1
  0
APPID
  5
12
330
9
100
AcDbSymbolTableRecord
100
AcDbRegAppTableRecord
  2
ACAD
 70
     0
  0
ENDTAB
  0
TABLE
  2
DIMSTYLE
  5
A
330
0
100
AcDbSymbolTable
 70
     3
100
AcDbDimStyleTable
  0
DIMSTYLE
105
27
330
A
100
AcDbSymbolTableRecord
100
AcDbDimStyleTableRecord
  2
ISO-25
 70
     0
 41
2.5
 42
0.625
 43
3.75
 44
1.25
 73
     0
 74
     0
 77
     1
 78
     8
140
2.5
141
2.5
143
0.03937
147
0.625
171
     3
172
     1
271
     2
272
     2
274
     3
278
    44
283
     0
284
     8
340
11
  0
DIMSTYLE
105
111
102
{ACAD_REACTORS
330
112
330
121
330
12F
330
39D
330
3AB
330
3B8
330
6A1
330
6AF
330
6CF
330
6DE
330
771
330
77F
102
}
330
A
100
AcDbSymbolTableRecord
100
AcDbDimStyleTableRecord
  2
LC-DIM-L-0100-02-02
 70
     0
 40
5.0
 41
10.0
 42
0.0
 43
7.5
 44
1.8
 73
     0
 74
     0
 77
     1
 78
     8
 79
     2
140
10.0
141
0.0
146
0.71
147
1.5
176
     2
177
     2
178
     2
179
     2
271
     2
278
    44
289
     1
340
110
  0
DIMSTYLE
105
6BD
102
{ACAD_REACTORS
330
6BE
102
}
330
A
100
AcDbSymbolTableRecord
100
AcDbDimStyleTableRecord
  2
LC-DIM-L-0100-01-02
 70
     0
 40
5.0
 41
10.0
 42
0.0
 43
7.5
 44
1.8
 73
     0
 74
     0
 77
     1
 78
     8
 79
     2
140
10.0
141
0.0
146
0.71
147
1.5
176
     2
177
     2
178
     2
179
     1
271
     1
278
    44
289
     1
340
110
  0
ENDTAB
  0
TABLE
  2
BLOCK_RECORD
  5
1
330
0
100
AcDbSymbolTable
 70
    72
  0
BLOCK_RECORD
  5
1F
330
1
100
AcDbSymbolTableRecord
100
AcDbBlockTableRecord
  2
*Model_Space
340
22
  0
BLOCK_RECORD
  5
1B
330
1
100
AcDbSymbolTableRecord
100
AcDbBlockTableRecord
  2
*Paper_Space
340
1E
  0
BLOCK_RECORD
  5
23
330
1
100
AcDbSymbolTableRecord
100
AcDbBlockTableRecord
  2
*Paper_Space0
340
26
  0
BLOCK_RECORD
  5
51
330
1
100
AcDbSymbolTableRecord
100
AcDbBlockTableRecord
  2
KLON1
340
0
102
{BLKREFS
331
57
102
}
  0
BLOCK_RECORD
  5
58
330
1
100
AcDbSymbolTableRecord
100
AcDbBlockTableRecord
  2
KLON2
340
0
102
{BLKREFS
331
5F
102
}
  0
BLOCK_RECORD
  5
61
330
1
100
AcDbSymbolTableRecord
100
AcDbBlockTableRecord
  2
KLON3
340
0
102
{BLKREFS
331
66
102
}
  0
BLOCK_RECORD
  5
67
330
1
100
AcDbSymbolTableRecord
100
AcDbBlockTableRecord
  2
KLON4
340
0
102
{BLKREFS
331
6C
102
}
  0
BLOCK_RECORD
  5
6D
330
1
100
AcDbSymbolTableRecord
100
AcDbBlockTableRecord
  2
KLON5
340
0
102
{BLKREFS
331
72
102
}
  0
BLOCK_RECORD
  5
74
330
1
100
AcDbSymbolTableRecord
100
AcDbBlockTableRecord
  2
KLON6
340
0
102
{BLKREFS
331
7B
102
}
  0
BLOCK_RECORD
  5
7C
330
1
100
AcDbSymbolTableRecord
100
AcDbBlockTableRecord
  2
KLON7
340
0
102
{BLKREFS
331
82
102
}
  0
BLOCK_RECORD
  5
84
330
1
100
AcDbSymbolTableRecord
100
AcDbBlockTableRecord
  2
KLON8
340
0
102
{BLKREFS
331
89
102
}
  0
BLOCK_RECORD
  5
97
330
1
100
AcDbSymbolTableRecord
100
AcDbBlockTableRecord
  2
KLON9
340
0
102
{BLKREFS
331
9C
102
}
  0
BLOCK_RECORD
  5
9D
330
1
100
AcDbSymbolTableRecord
100
AcDbBlockTableRecord
  2
KLON10
340
0
102
{BLKREFS
331
A2
102
}
  0
BLOCK_RECORD
  5
A4
330
1
100
AcDbSymbolTableRecord
100
AcDbBlockTableRecord
  2
KLON11
340
0
102
{BLKREFS
331
AA
102
}
  0
BLOCK_RECORD
  5
AB
330
1
100
AcDbSymbolTableRecord
100
AcDbBlockTableRecord
  2
KLON12
340
0
102
{BLKREFS
331
B1
102
}
  0
BLOCK_RECORD
  5
B2
330
1
100
AcDbSymbolTableRecord
100
AcDbBlockTableRecord
  2
KLON13
340
0
102
{BLKREFS
331
B7
102
}
  0
BLOCK_RECORD
  5
B8
330
1
100
AcDbSymbolTableRecord
100
AcDbBlockTableRecord
  2
KLON14
340
0
102
{BLKREFS
331
BE
102
}
  0
BLOCK_RECORD
  5
BF
330
1
100
AcDbSymbolTableRecord
100
AcDbBlockTableRecord
  2
KLON15
340
0
102
{BLKREFS
331
C5
102
}
  0
BLOCK_RECORD
  5
C6
330
1
100
AcDbSymbolTableRecord
100
AcDbBlockTableRecord
  2
KLON16
340
0
102
{BLKREFS
331
CB
102
}
  0
BLOCK_RECORD
  5
114
330
1
100
AcDbSymbolTableRecord
100
AcDbBlockTableRecord
  2
*D17
340
0
  0
BLOCK_RECORD
  5
122
330
1
100
AcDbSymbolTableRecord
100
AcDbBlockTableRecord
  2
*D18
340
0
  0
BLOCK_RECORD
  5
130
330
1
100
AcDbSymbolTableRecord
100
AcDbBlockTableRecord
  2
*D19
340
0
  0
BLOCK_RECORD
  5
357
330
1
100
AcDbSymbolTableRecord
100
AcDbBlockTableRecord
  2
KLON17
340
0
102
{BLKREFS
331
360
102
}
  0
BLOCK_RECORD
  5
361
330
1
100
AcDbSymbolTableRecord
100
AcDbBlockTableRecord
  2
KLON18
340
0
102
{BLKREFS
331
36A
102
}
  0
BLOCK_RECORD
  5
373
330
1
100
AcDbSymbolTableRecord
100
AcDbBlockTableRecord
  2
KLON19
340
0
102
{BLKREFS
331
37F
102
}
  0
BLOCK_RECORD
  5
380
330
1
100
AcDbSymbolTableRecord
100
AcDbBlockTableRecord
  2
KLON20
340
0
102
{BLKREFS
331
38C
102
}
  0
BLOCK_RECORD
  5
39E
330
1
100
AcDbSymbolTableRecord
100
AcDbBlockTableRecord
  2
*D24
340
0
  0
BLOCK_RECORD
  5
3AC
330
1
100
AcDbSymbolTableRecord
100
AcDbBlockTableRecord
  2
*D25
340
0
  0
BLOCK_RECORD
  5
3B9
330
1
100
AcDbSymbolTableRecord
100
AcDbBlockTableRecord
  2
*D26
340
0
  0
BLOCK_RECORD
  5
3C5
330
1
100
AcDbSymbolTableRecord
100
AcDbBlockTableRecord
  2
KLON21
340
0
102
{BLKREFS
331
3DD
102
}
  0
BLOCK_RECORD
  5
3DE
330
1
100
AcDbSymbolTableRecord
100
AcDbBlockTableRecord
  2
KLON22
340
0
102
{BLKREFS
331
3F7
102
}
  0
BLOCK_RECORD
  5
3F9
330
1
100
AcDbSymbolTableRecord
100
AcDbBlockTableRecord
  2
KLON23
340
0
102
{BLKREFS
331
3FE
102
}
  0
BLOCK_RECORD
  5
401
330
1
100
AcDbSymbolTableRecord
100
AcDbBlockTableRecord
  2
KLON24
340
0
102
{BLKREFS
331
407
102
}
  0
BLOCK_RECORD
  5
408
330
1
100
AcDbSymbolTableRecord
100
AcDbBlockTableRecord
  2
KLON25
340
0
102
{BLKREFS
331
40D
102
}
  0
BLOCK_RECORD
  5
40F
330
1
100
AcDbSymbolTableRecord
100
AcDbBlockTableRecord
  2
KLON26
340
0
102
{BLKREFS
331
415
102
}
  0
BLOCK_RECORD
  5
418
330
1
100
AcDbSymbolTableRecord
100
AcDbBlockTableRecord
  2
KLON27
340
0
102
{BLKREFS
331
41D
102
}
  0
BLOCK_RECORD
  5
420
330
1
100
AcDbSymbolTableRecord
100
AcDbBlockTableRecord
  2
KLON28
340
0
102
{BLKREFS
331
426
102
}
  0
BLOCK_RECORD
  5
429
330
1
100
AcDbSymbolTableRecord
100
AcDbBlockTableRecord
  2
KLON29
340
0
102
{BLKREFS
331
42F
102
}
  0
BLOCK_RECORD
  5
437
330
1
100
AcDbSymbolTableRecord
100
AcDbBlockTableRecord
  2
KLON30
340
0
102
{BLKREFS
331
43C
102
}
  0
BLOCK_RECORD
  5
440
330
1
100
AcDbSymbolTableRecord
100
AcDbBlockTableRecord
  2
KLON31
340
0
102
{BLKREFS
331
445
102
}
  0
BLOCK_RECORD
  5
449
330
1
100
AcDbSymbolTableRecord
100
AcDbBlockTableRecord
  2
POLY1
340
0
102
{BLKREFS
331
458
102
}
  0
BLOCK_RECORD
  5
459
330
1
100
AcDbSymbolTableRecord
100
AcDbBlockTableRecord
  2
POLY2
340
0
102
{BLKREFS
331
468
102
}
  0
BLOCK_RECORD
  5
469
330
1
100
AcDbSymbolTableRecord
100
AcDbBlockTableRecord
  2
POLY3
340
0
102
{BLKREFS
331
478
102
}
  0
BLOCK_RECORD
  5
479
330
1
100
AcDbSymbolTableRecord
100
AcDbBlockTableRecord
  2
POLY4
340
0
102
{BLKREFS
331
488
102
}
  0
BLOCK_RECORD
  5
493
330
1
100
AcDbSymbolTableRecord
100
AcDbBlockTableRecord
  2
POLY5
340
0
102
{BLKREFS
331
4A2
102
}
  0
BLOCK_RECORD
  5
4A5
330
1
100
AcDbSymbolTableRecord
100
AcDbBlockTableRecord
  2
POLY6
340
0
102
{BLKREFS
331
4B4
102
}
  0
BLOCK_RECORD
  5
508
330
1
100
AcDbSymbolTableRecord
100
AcDbBlockTableRecord
  2
POLY7
340
0
102
{BLKREFS
331
517
102
}
  0
BLOCK_RECORD
  5
518
330
1
100
AcDbSymbolTableRecord
100
AcDbBlockTableRecord
  2
POLY8
340
0
102
{BLKREFS
331
527
102
}
  0
BLOCK_RECORD
  5
52C
330
1
100
AcDbSymbolTableRecord
100
AcDbBlockTableRecord
  2
POLY9
340
0
102
{BLKREFS
331
53D
102
}
  0
BLOCK_RECORD
  5
53E
330
1
100
AcDbSymbolTableRecord
100
AcDbBlockTableRecord
  2
POLY10
340
0
102
{BLKREFS
331
54F
102
}
  0
BLOCK_RECORD
  5
559
330
1
100
AcDbSymbolTableRecord
100
AcDbBlockTableRecord
  2
POLY11
340
0
102
{BLKREFS
331
564
102
}
  0
BLOCK_RECORD
  5
5CA
330
1
100
AcDbSymbolTableRecord
100
AcDbBlockTableRecord
  2
POLY12
340
0
102
{BLKREFS
331
5D7
102
}
  0
BLOCK_RECORD
  5
5EB
330
1
100
AcDbSymbolTableRecord
100
AcDbBlockTableRecord
  2
KLON32
340
0
102
{BLKREFS
331
5F0
102
}
  0
BLOCK_RECORD
  5
5F6
330
1
100
AcDbSymbolTableRecord
100
AcDbBlockTableRecord
  2
POLY13
340
0
102
{BLKREFS
331
609
102
}
  0
BLOCK_RECORD
  5
60C
330
1
100
AcDbSymbolTableRecord
100
AcDbBlockTableRecord
  2
KLON33
340
0
102
{BLKREFS
331
611
102
}
  0
BLOCK_RECORD
  5
61A
330
1
100
AcDbSymbolTableRecord
100
AcDbBlockTableRecord
  2
POLY14
340
0
102
{BLKREFS
331
627
102
}
  0
BLOCK_RECORD
  5
638
330
1
100
AcDbSymbolTableRecord
100
AcDbBlockTableRecord
  2
POLY15
340
0
102
{BLKREFS
331
659
102
}
  0
BLOCK_RECORD
  5
662
330
1
100
AcDbSymbolTableRecord
100
AcDbBlockTableRecord
  2
KLON34
340
0
102
{BLKREFS
331
669
102
}
  0
BLOCK_RECORD
  5
66A
330
1
100
AcDbSymbolTableRecord
100
AcDbBlockTableRecord
  2
KLON35
340
0
102
{BLKREFS
331
676
102
}
  0
BLOCK_RECORD
  5
677
330
1
100
AcDbSymbolTableRecord
100
AcDbBlockTableRecord
  2
KLON36
340
0
102
{BLKREFS
331
67C
102
}
  0
BLOCK_RECORD
  5
67D
330
1
100
AcDbSymbolTableRecord
100
AcDbBlockTableRecord
  2
KLON37
340
0
102
{BLKREFS
331
682
102
}
  0
BLOCK_RECORD
  5
684
330
1
100
AcDbSymbolTableRecord
100
AcDbBlockTableRecord
  2
KLON38
340
0
102
{BLKREFS
331
68B
102
}
  0
BLOCK_RECORD
  5
68C
330
1
100
AcDbSymbolTableRecord
100
AcDbBlockTableRecord
  2
KLON39
340
0
102
{BLKREFS
331
691
102
}
  0
BLOCK_RECORD
  5
692
330
1
100
AcDbSymbolTableRecord
100
AcDbBlockTableRecord
  2
KLON40
340
0
102
{BLKREFS
331
698
102
}
  0
BLOCK_RECORD
  5
699
330
1
100
AcDbSymbolTableRecord
100
AcDbBlockTableRecord
  2
KLON41
340
0
102
{BLKREFS
331
6A0
102
}
  0
BLOCK_RECORD
  5
6A2
330
1
100
AcDbSymbolTableRecord
100
AcDbBlockTableRecord
  2
*D63
340
0
  0
BLOCK_RECORD
  5
6B0
330
1
100
AcDbSymbolTableRecord
100
AcDbBlockTableRecord
  2
*D64
340
0
  0
BLOCK_RECORD
  5
6BF
330
1
100
AcDbSymbolTableRecord
100
AcDbBlockTableRecord
  2
*D65
340
0
  0
BLOCK_RECORD
  5
6D0
330
1
100
AcDbSymbolTableRecord
100
AcDbBlockTableRecord
  2
*D66
340
0
  0
BLOCK_RECORD
  5
6DF
330
1
100
AcDbSymbolTableRecord
100
AcDbBlockTableRecord
  2
*D67
340
0
  0
BLOCK_RECORD
  5
757
330
1
100
AcDbSymbolTableRecord
100
AcDbBlockTableRecord
  2
KLON42
340
0
102
{BLKREFS
331
763
102
}
  0
BLOCK_RECORD
  5
765
330
1
100
AcDbSymbolTableRecord
100
AcDbBlockTableRecord
  2
KLON43
340
0
102
{BLKREFS
331
770
102
}
  0
BLOCK_RECORD
  5
772
330
1
100
AcDbSymbolTableRecord
100
AcDbBlockTableRecord
  2
*D70
340
0
  0
BLOCK_RECORD
  5
780
330
1
100
AcDbSymbolTableRecord
100
AcDbBlockTableRecord
  2
*D71
340
0
  0
ENDTAB
  0
ENDSEC
  0
SECTION
  2
BLOCKS
  0
BLOCK
  5
20
330
1F
100
AcDbEntity
  8
0
100
AcDbBlockBegin
  2
*Model_Space
 70
     0
 71
     0
 10
0.0
 20
0.0
 30
0.0
  3
*Model_Space
  1

  0
ENDBLK
  5
21
330
1F
100
AcDbEntity
  8
0
100
AcDbBlockEnd
  0
BLOCK
  5
1C
330
1B
100
AcDbEntity
 67
     1
  8
0
100
AcDbBlockBegin
  2
*Paper_Space
 70
     0
 71
     0
 10
0.0
 20
0.0
 30
0.0
  3
*Paper_Space
  1

  0
ENDBLK
  5
1D
330
1B
100
AcDbEntity
 67
     1
  8
0
100
AcDbBlockEnd
  0
BLOCK
  5
24
330
23
100
AcDbEntity
  8
0
100
AcDbBlockBegin
  2
*Paper_Space0
 70
     0
 71
     0
 10
0.0
 20
0.0
 30
0.0
  3
*Paper_Space0
  1

  0
ENDBLK
  5
25
330
23
100
AcDbEntity
  8
0
100
AcDbBlockEnd
  0
BLOCK
  5
52
330
51
100
AcDbEntity
  8
0
100
AcDbBlockBegin
  2
KLON1
 70
     0
 71
     0
 10
0.0
 20
0.0
 30
0.0
  3
KLON1
  1

  4
KLON1
  0
LINE
  5
54
330
51
100
AcDbEntity
  8
LC-002-100-D00-0
 62
     7
370
    15
100
AcDbLine
 10
870.901413
 20
15.168987
 30
0.0
 11
870.899178
 21
15.154701
 31
0.0
  0
LINE
  5
55
330
51
100
AcDbEntity
  8
LC-002-100-D00-0
 62
     7
370
    15
100
AcDbLine
 10
870.899178
 20
15.154701
 30
0.0
 11
870.887883
 21
15.082393
 31
0.0
  0
LINE
  5
56
330
51
100
AcDbEntity
  8
LC-002-100-D00-0
 62
     7
370
    15
100
AcDbLine
 10
870.887883
 20
15.082393
 30
0.0
 11
870.875246
 21
15.001513
 31
0.0
  0
ENDBLK
  5
53
330
51
100
AcDbEntity
  8
0
100
AcDbBlockEnd
  0
BLOCK
  5
59
330
58
100
AcDbEntity
  8
0
100
AcDbBlockBegin
  2
KLON2
 70
     0
 71
     0
 10
0.0
 20
0.0
 30
0.0
  3
KLON2
  1

  4
KLON2
  0
LINE
  5
5B
330
58
100
AcDbEntity
  8
LC-002-100-D00-0
 62
     7
370
    15
100
AcDbLine
 10
870.875246
 20
39.64685
 30
0.0
 11
870.887883
 21
39.56597
 31
0.0
  0
LINE
  5
5C
330
58
100
AcDbEntity
  8
LC-002-100-D00-0
 62
     7
370
    15
100
AcDbLine
 10
870.887883
 20
39.56597
 30
0.0
 11
870.896674
 21
39.509761
 31
0.0
  0
LINE
  5
5D
330
58
100
AcDbEntity
  8
LC-002-100-D00-0
 62
     7
370
    15
100
AcDbLine
 10
870.896674
 20
39.509761
 30
0.0
 11
870.899178
 21
39.493662
 31
0.0
  0
LINE
  5
5E
330
58
100
AcDbEntity
  8
LC-002-100-D00-0
 62
     7
370
    15
100
AcDbLine
 10
870.899178
 20
39.493662
 30
0.0
 11
870.901413
 21
39.479376
 31
0.0
  0
ENDBLK
  5
5A
330
58
100
AcDbEntity
  8
0
100
AcDbBlockEnd
  0
BLOCK
  5
62
330
61
100
AcDbEntity
  8
0
100
AcDbBlockBegin
  2
KLON3
 70
     0
 71
     0
 10
0.0
 20
0.0
 30
0.0
  3
KLON3
  1

  4
KLON3
  0
LINE
  5
64
330
61
100
AcDbEntity
  8
LC-002-100-D00-0
 62
     7
370
    15
100
AcDbLine
 10
870.875246
 20
50.809542
 30
0.0
 11
870.885796
 21
50.815452
 31
0.0
  0
LINE
  5
65
330
61
100
AcDbEntity
  8
LC-002-100-D00-0
 62
     7
370
    15
100
AcDbLine
 10
870.885796
 20
50.815452
 30
0.0
 11
870.901413
 21
50.824181
 31
0.0
  0
ENDBLK
  5
63
330
61
100
AcDbEntity
  8
0
100
AcDbBlockEnd
  0
BLOCK
  5
68
330
67
100
AcDbEntity
  8
0
100
AcDbBlockBegin
  2
KLON4
 70
     0
 71
     0
 10
0.0
 20
0.0
 30
0.0
  3
KLON4
  1

  4
KLON4
  0
LINE
  5
6A
330
67
100
AcDbEntity
  8
LC-002-100-D00-0
 62
     7
370
    15
100
AcDbLine
 10
870.875246
 20
3.824182
 30
0.0
 11
870.882637
 21
3.786009
 31
0.0
  0
LINE
  5
6B
330
67
100
AcDbEntity
  8
LC-002-100-D00-0
 62
     7
370
    15
100
AcDbLine
 10
870.882637
 20
3.786009
 30
0.0
 11
870.901413
 21
3.753525
 31
0.0
  0
ENDBLK
  5
69
330
67
100
AcDbEntity
  8
0
100
AcDbBlockEnd
  0
BLOCK
  5
6E
330
6D
100
AcDbEntity
  8
0
100
AcDbBlockBegin
  2
KLON5
 70
     0
 71
     0
 10
0.0
 20
0.0
 30
0.0
  3
KLON5
  1

  4
KLON5
  0
LINE
  5
70
330
6D
100
AcDbEntity
  8
LC-002-100-D00-0
 62
     7
370
    15
100
AcDbLine
 10
86.9276
 20
50.809542
 30
0.0
 11
86.91705
 21
50.815452
 31
0.0
  0
LINE
  5
71
330
6D
100
AcDbEntity
  8
LC-002-100-D00-0
 62
     7
370
    15
100
AcDbLine
 10
86.91705
 20
50.815452
 30
0.0
 11
86.901433
 21
50.824181
 31
0.0
  0
ENDBLK
  5
6F
330
6D
100
AcDbEntity
  8
0
100
AcDbBlockEnd
  0
BLOCK
  5
75
330
74
100
AcDbEntity
  8
0
100
AcDbBlockBegin
  2
KLON6
 70
     0
 71
     0
 10
0.0
 20
0.0
 30
0.0
  3
KLON6
  1

  4
KLON6
  0
LINE
  5
77
330
74
100
AcDbEntity
  8
LC-002-100-D00-0
 62
     7
370
    15
100
AcDbLine
 10
86.9276
 20
39.64685
 30
0.0
 11
86.914964
 21
39.56597
 31
0.0
  0
LINE
  5
78
330
74
100
AcDbEntity
  8
LC-002-100-D00-0
 62
     7
370
    15
100
AcDbLine
 10
86.914964
 20
39.56597
 30
0.0
 11
86.906172
 21
39.509761
 31
0.0
  0
LINE
  5
79
330
74
100
AcDbEntity
  8
LC-002-100-D00-0
 62
     7
370
    15
100
AcDbLine
 10
86.906172
 20
39.509761
 30
0.0
 11
86.903668
 21
39.493662
 31
0.0
  0
LINE
  5
7A
330
74
100
AcDbEntity
  8
LC-002-100-D00-0
 62
     7
370
    15
100
AcDbLine
 10
86.903668
 20
39.493662
 30
0.0
 11
86.901433
 21
39.479376
 31
0.0
  0
ENDBLK
  5
76
330
74
100
AcDbEntity
  8
0
100
AcDbBlockEnd
  0
BLOCK
  5
7D
330
7C
100
AcDbEntity
  8
0
100
AcDbBlockBegin
  2
KLON7
 70
     0
 71
     0
 10
0.0
 20
0.0
 30
0.0
  3
KLON7
  1

  4
KLON7
  0
LINE
  5
7F
330
7C
100
AcDbEntity
  8
LC-002-100-D00-0
 62
     7
370
    15
100
AcDbLine
 10
86.901433
 20
15.168987
 30
0.0
 11
86.903668
 21
15.154701
 31
0.0
  0
LINE
  5
80
330
7C
100
AcDbEntity
  8
LC-002-100-D00-0
 62
     7
370
    15
100
AcDbLine
 10
86.903668
 20
15.154701
 30
0.0
 11
86.914964
 21
15.082393
 31
0.0
  0
LINE
  5
81
330
7C
100
AcDbEntity
  8
LC-002-100-D00-0
 62
     7
370
    15
100
AcDbLine
 10
86.914964
 20
15.082393
 30
0.0
 11
86.9276
 21
15.001513
 31
0.0
  0
ENDBLK
  5
7E
330
7C
100
AcDbEntity
  8
0
100
AcDbBlockEnd
  0
BLOCK
  5
85
330
84
100
AcDbEntity
  8
0
100
AcDbBlockBegin
  2
KLON8
 70
     0
 71
     0
 10
0.0
 20
0.0
 30
0.0
  3
KLON8
  1

  4
KLON8
  0
LINE
  5
87
330
84
100
AcDbEntity
  8
LC-002-100-D00-0
 62
     7
370
    15
100
AcDbLine
 10
86.9276
 20
3.824182
 30
0.0
 11
86.920209
 21
3.786009
 31
0.0
  0
LINE
  5
88
330
84
100
AcDbEntity
  8
LC-002-100-D00-0
 62
     7
370
    15
100
AcDbLine
 10
86.920209
 20
3.786009
 30
0.0
 11
86.901433
 21
3.753525
 31
0.0
  0
ENDBLK
  5
86
330
84
100
AcDbEntity
  8
0
100
AcDbBlockEnd
  0
BLOCK
  5
98
330
97
100
AcDbEntity
  8
0
100
AcDbBlockBegin
  2
KLON9
 70
     0
 71
     0
 10
0.0
 20
0.0
 30
0.0
  3
KLON9
  1

  4
KLON9
  0
LINE
  5
9A
330
97
100
AcDbEntity
  8
LC-002-100-D00-0
 62
     7
370
    15
100
AcDbLine
 10
870.846726
 20
14.990773
 30
0.0
 11
870.862878
 21
14.996857
 31
0.0
  0
LINE
  5
9B
330
97
100
AcDbEntity
  8
LC-002-100-D00-0
 62
     7
370
    15
100
AcDbLine
 10
870.862878
 20
14.996857
 30
0.0
 11
870.875246
 21
15.001513
 31
0.0
  0
ENDBLK
  5
99
330
97
100
AcDbEntity
  8
0
100
AcDbBlockEnd
  0
BLOCK
  5
9E
330
9D
100
AcDbEntity
  8
0
100
AcDbBlockBegin
  2
KLON10
 70
     0
 71
     0
 10
0.0
 20
0.0
 30
0.0
  3
KLON10
  1

  4
KLON10
  0
LINE
  5
A0
330
9D
100
AcDbEntity
  8
LC-002-100-D00-0
 62
     7
370
    15
100
AcDbLine
 10
86.956121
 20
14.990773
 30
0.0
 11
86.939968
 21
14.996857
 31
0.0
  0
LINE
  5
A1
330
9D
100
AcDbEntity
  8
LC-002-100-D00-0
 62
     7
370
    15
100
AcDbLine
 10
86.939968
 20
14.996857
 30
0.0
 11
86.9276
 21
15.001513
 31
0.0
  0
ENDBLK
  5
9F
330
9D
100
AcDbEntity
  8
0
100
AcDbBlockEnd
  0
BLOCK
  5
A5
330
A4
100
AcDbEntity
  8
0
100
AcDbBlockBegin
  2
KLON11
 70
     0
 71
     0
 10
0.0
 20
0.0
 30
0.0
  3
KLON11
  1

  4
KLON11
  0
LINE
  5
A7
330
A4
100
AcDbEntity
  8
LC-002-100-D00-0
 62
     7
370
    15
100
AcDbLine
 10
733.888365
 20
21.464964
 30
0.0
 11
733.899749
 21
21.878439
 31
0.0
  0
LINE
  5
A8
330
A4
100
AcDbEntity
  8
LC-002-100-D00-0
 62
     7
370
    15
100
AcDbLine
 10
733.899749
 20
21.878439
 30
0.0
 11
733.911432
 21
22.301697
 31
0.0
  0
LINE
  5
A9
330
A4
100
AcDbEntity
  8
LC-002-100-D00-0
 62
     7
370
    15
100
AcDbLine
 10
733.911432
 20
22.301697
 30
0.0
 11
733.923234
 21
22.729876
 31
0.0
  0
ENDBLK
  5
A6
330
A4
100
AcDbEntity
  8
0
100
AcDbBlockEnd
  0
BLOCK
  5
AC
330
AB
100
AcDbEntity
  8
0
100
AcDbBlockBegin
  2
KLON12
 70
     0
 71
     0
 10
0.0
 20
0.0
 30
0.0
  3
KLON12
  1

  4
KLON12
  0
LINE
  5
AE
330
AB
100
AcDbEntity
  8
LC-002-100-D00-0
 62
     7
370
    15
100
AcDbLine
 10
733.923234
 20
31.918488
 30
0.0
 11
733.911432
 21
32.346666
 31
0.0
  0
LINE
  5
AF
330
AB
100
AcDbEntity
  8
LC-002-100-D00-0
 62
     7
370
    15
100
AcDbLine
 10
733.911432
 20
32.346666
 30
0.0
 11
733.899749
 21
32.769925
 31
0.0
  0
LINE
  5
B0
330
AB
100
AcDbEntity
  8
LC-002-100-D00-0
 62
     7
370
    15
100
AcDbLine
 10
733.899749
 20
32.769925
 30
0.0
 11
733.888365
 21
33.183399
 31
0.0
  0
ENDBLK
  5
AD
330
AB
100
AcDbEntity
  8
0
100
AcDbBlockEnd
  0
BLOCK
  5
B3
330
B2
100
AcDbEntity
  8
0
100
AcDbBlockBegin
  2
KLON13
 70
     0
 71
     0
 10
0.0
 20
0.0
 30
0.0
  3
KLON13
  1

  4
KLON13
  0
LINE
  5
B5
330
B2
100
AcDbEntity
  8
LC-002-100-D00-0
 62
     7
370
    15
100
AcDbLine
 10
870.846726
 20
39.65759
 30
0.0
 11
870.862878
 21
39.651506
 31
0.0
  0
LINE
  5
B6
330
B2
100
AcDbEntity
  8
LC-002-100-D00-0
 62
     7
370
    15
100
AcDbLine
 10
870.862878
 20
39.651506
 30
0.0
 11
870.875246
 21
39.64685
 31
0.0
  0
ENDBLK
  5
B4
330
B2
100
AcDbEntity
  8
0
100
AcDbBlockEnd
  0
BLOCK
  5
B9
330
B8
100
AcDbEntity
  8
0
100
AcDbBlockBegin
  2
KLON14
 70
     0
 71
     0
 10
0.0
 20
0.0
 30
0.0
  3
KLON14
  1

  4
KLON14
  0
LINE
  5
BB
330
B8
100
AcDbEntity
  8
LC-002-100-D00-0
 62
     7
370
    15
100
AcDbLine
 10
223.914481
 20
21.464964
 30
0.0
 11
223.903097
 21
21.878439
 31
0.0
  0
LINE
  5
BC
330
B8
100
AcDbEntity
  8
LC-002-100-D00-0
 62
     7
370
    15
100
AcDbLine
 10
223.903097
 20
21.878439
 30
0.0
 11
223.891414
 21
22.301697
 31
0.0
  0
LINE
  5
BD
330
B8
100
AcDbEntity
  8
LC-002-100-D00-0
 62
     7
370
    15
100
AcDbLine
 10
223.891414
 20
22.301697
 30
0.0
 11
223.879613
 21
22.729876
 31
0.0
  0
ENDBLK
  5
BA
330
B8
100
AcDbEntity
  8
0
100
AcDbBlockEnd
  0
BLOCK
  5
C0
330
BF
100
AcDbEntity
  8
0
100
AcDbBlockBegin
  2
KLON15
 70
     0
 71
     0
 10
0.0
 20
0.0
 30
0.0
  3
KLON15
  1

  4
KLON15
  0
LINE
  5
C2
330
BF
100
AcDbEntity
  8
LC-002-100-D00-0
 62
     7
370
    15
100
AcDbLine
 10
223.879613
 20
31.918488
 30
0.0
 11
223.891414
 21
32.346666
 31
0.0
  0
LINE
  5
C3
330
BF
100
AcDbEntity
  8
LC-002-100-D00-0
 62
     7
370
    15
100
AcDbLine
 10
223.891414
 20
32.346666
 30
0.0
 11
223.903097
 21
32.769925
 31
0.0
  0
LINE
  5
C4
330
BF
100
AcDbEntity
  8
LC-002-100-D00-0
 62
     7
370
    15
100
AcDbLine
 10
223.903097
 20
32.769925
 30
0.0
 11
223.914481
 21
33.183399
 31
0.0
  0
ENDBLK
  5
C1
330
BF
100
AcDbEntity
  8
0
100
AcDbBlockEnd
  0
BLOCK
  5
C7
330
C6
100
AcDbEntity
  8
0
100
AcDbBlockBegin
  2
KLON16
 70
     0
 71
     0
 10
0.0
 20
0.0
 30
0.0
  3
KLON16
  1

  4
KLON16
  0
LINE
  5
C9
330
C6
100
AcDbEntity
  8
LC-002-100-D00-0
 62
     7
370
    15
100
AcDbLine
 10
86.956121
 20
39.65759
 30
0.0
 11
86.939968
 21
39.651506
 31
0.0
  0
LINE
  5
CA
330
C6
100
AcDbEntity
  8
LC-002-100-D00-0
 62
     7
370
    15
100
AcDbLine
 10
86.939968
 20
39.651506
 30
0.0
 11
86.9276
 21
39.64685
 31
0.0
  0
ENDBLK
  5
C8
330
C6
100
AcDbEntity
  8
0
100
AcDbBlockEnd
  0
BLOCK
  5
11F
330
114
100
AcDbEntity
  8
0
100
AcDbBlockBegin
  2
*D17
 70
     1
 71
     0
 10
0.0
 20
0.0
 30
0.0
  3
*D17
  1

  0
LINE
  5
115
330
114
100
AcDbEntity
  8
LC-002-100-D00-0
 62
     2
370
    -2
100
AcDbLine
 10
923.901423
 20
73.324182
 30
0.0
 11
1017.504278
 21
73.324182
 31
0.0
  0
LINE
  5
116
330
114
100
AcDbEntity
  8
LC-002-100-D00-0
 62
     2
370
    -2
100
AcDbLine
 10
923.901423
 20
71.824182
 30
0.0
 11
1017.504278
 21
71.824182
 31
0.0
  0
LINE
  5
117
330
114
100
AcDbEntity
  8
LC-002-100-D00-0
 62
     2
370
    -2
100
AcDbLine
 10
1008.504278
 20
123.324182
 30
0.0
 11
1008.504278
 21
173.324182
 31
0.0
  0
LINE
  5
118
330
114
100
AcDbEntity
  8
LC-002-100-D00-0
 62
     2
370
    -2
100
AcDbLine
 10
1008.504278
 20
21.824182
 30
0.0
 11
1008.504278
 21
21.167323
 31
0.0
  0
SOLID
  5
119
330
114
100
AcDbEntity
  8
LC-002-100-D00-0
 62
     2
100
AcDbTrace
 10
1000.170944
 20
123.324182
 30
0.0
 11
1016.837611
 21
123.324182
 31
0.0
 12
1008.504278
 22
73.324182
 32
0.0
 13
1008.504278
 23
73.324182
 33
0.0
  0
SOLID
  5
11A
330
114
100
AcDbEntity
  8
LC-002-100-D00-0
 62
     2
100
AcDbTrace
 10
1016.837611
 20
21.824182
 30
0.0
 11
1000.170944
 21
21.824182
 31
0.0
 12
1008.504278
 22
71.824182
 32
0.0
 13
1008.504278
 23
71.824182
 33
0.0
  0
MTEXT
  5
11B
330
114
100
AcDbEntity
  8
LC-002-100-D00-0
 62
     2
100
AcDbMText
 10
953.504278
 20
67.747005
 30
0.0
 40
50.0
 41
0.0
 71
     5
 72
     1
  1
\A1;1,5
  7
LCTX15-400-0-0pDIN-Schrift
 11
6.123031769111886E-17
 21
1.0
 31
0.0
 73
     1
 44
1.0
  0
POINT
  5
11C
330
114
100
AcDbEntity
  8
Defpoints
 62
     0
100
AcDbPoint
 10
923.901423
 20
73.324182
 30
0.0
  0
POINT
  5
11D
330
114
100
AcDbEntity
  8
Defpoints
 62
     0
100
AcDbPoint
 10
923.901423
 20
71.824182
 30
0.0
  0
POINT
  5
11E
330
114
100
AcDbEntity
  8
Defpoints
 62
     0
100
AcDbPoint
 10
1008.504278
 20
71.824182
 30
0.0
  0
ENDBLK
  5
120
330
114
100
AcDbEntity
  8
0
100
AcDbBlockEnd
  0
BLOCK
  5
12D
330
122
100
AcDbEntity
  8
0
100
AcDbBlockBegin
  2
*D18
 70
     1
 71
     0
 10
0.0
 20
0.0
 30
0.0
  3
*D18
  1

  0
LINE
  5
123
330
122
100
AcDbEntity
  8
LC-002-100-D00-0
 62
     2
370
    -2
100
AcDbLine
 10
923.901423
 20
71.824182
 30
0.0
 11
1097.469357
 21
71.824182
 31
0.0
  0
LINE
  5
124
330
122
100
AcDbEntity
  8
LC-002-100-D00-0
 62
     2
370
    -2
100
AcDbLine
 10
876.401423
 20
53.324182
 30
0.0
 11
1097.469357
 21
53.324182
 31
0.0
  0
LINE
  5
125
330
122
100
AcDbEntity
  8
LC-002-100-D00-0
 62
     2
370
    -2
100
AcDbLine
 10
1088.469357
 20
121.824182
 30
0.0
 11
1088.469357
 21
171.824182
 31
0.0
  0
LINE
  5
126
330
122
100
AcDbEntity
  8
LC-002-100-D00-0
 62
     2
370
    -2
100
AcDbLine
 10
1088.469357
 20
3.324182
 30
0.0
 11
1088.469357
 21
-12.730296
 31
0.0
  0
SOLID
  5
127
330
122
100
AcDbEntity
  8
LC-002-100-D00-0
 62
     2
100
AcDbTrace
 10
1080.136023
 20
121.824182
 30
0.0
 11
1096.80269
 21
121.824182
 31
0.0
 12
1088.469357
 22
71.824182
 32
0.0
 13
1088.469357
 23
71.824182
 33
0.0
  0
SOLID
  5
128
330
122
100
AcDbEntity
  8
LC-002-100-D00-0
 62
     2
100
AcDbTrace
 10
1096.80269
 20
3.324182
 30
0.0
 11
1080.136023
 21
3.324182
 31
0.0
 12
1088.469357
 22
53.324182
 32
0.0
 13
1088.469357
 23
53.324182
 33
0.0
  0
MTEXT
  5
129
330
122
100
AcDbEntity
  8
LC-002-100-D00-0
 62
     2
100
AcDbMText
 10
1033.469357
 20
52.897005
 30
0.0
 40
50.0
 41
0.0
 71
     5
 72
     1
  1
\A1;18,5
  7
LCTX15-400-0-0pDIN-Schrift
 11
6.123031769111886E-17
 21
1.0
 31
0.0
 73
     1
 44
1.0
  0
POINT
  5
12A
330
122
100
AcDbEntity
  8
Defpoints
 62
     0
100
AcDbPoint
 10
923.901423
 20
71.824182
 30
0.0
  0
POINT
  5
12B
330
122
100
AcDbEntity
  8
Defpoints
 62
     0
100
AcDbPoint
 10
876.401423
 20
53.324182
 30
0.0
  0
POINT
  5
12C
330
122
100
AcDbEntity
  8
Defpoints
 62
     0
100
AcDbPoint
 10
1088.469357
 20
53.324182
 30
0.0
  0
ENDBLK
  5
12E
330
122
100
AcDbEntity
  8
0
100
AcDbBlockEnd
  0
BLOCK
  5
13A
330
130
100
AcDbEntity
  8
0
100
AcDbBlockBegin
  2
*D19
 70
     1
 71
     0
 10
0.0
 20
0.0
 30
0.0
  3
*D19
  1

  0
LINE
  5
131
330
130
100
AcDbEntity
  8
LC-002-100-D00-0
 62
     2
370
    -2
100
AcDbLine
 10
923.901423
 20
73.324182
 30
0.0
 11
1182.593473
 21
73.324182
 31
0.0
  0
LINE
  5
132
330
130
100
AcDbEntity
  8
LC-002-100-D00-0
 62
     2
370
    -2
100
AcDbLine
 10
923.901423
 20
-50.175818
 30
0.0
 11
1182.593473
 21
-50.175818
 31
0.0
  0
LINE
  5
133
330
130
100
AcDbEntity
  8
LC-002-100-D00-0
 62
     2
370
    -2
100
AcDbLine
 10
1173.593473
 20
23.324182
 30
0.0
 11
1173.593473
 21
-0.175818
 31
0.0
  0
SOLID
  5
134
330
130
100
AcDbEntity
  8
LC-002-100-D00-0
 62
     2
100
AcDbTrace
 10
1181.926807
 20
23.324182
 30
0.0
 11
1165.26014
 21
23.324182
 31
0.0
 12
1173.593473
 22
73.324182
 32
0.0
 13
1173.593473
 23
73.324182
 33
0.0
  0
SOLID
  5
135
330
130
100
AcDbEntity
  8
LC-002-100-D00-0
 62
     2
100
AcDbTrace
 10
1165.26014
 20
-0.175818
 30
0.0
 11
1181.926807
 21
-0.175818
 31
0.0
 12
1173.593473
 22
-50.175818
 32
0.0
 13
1173.593473
 23
-50.175818
 33
0.0
  0
MTEXT
  5
136
330
130
100
AcDbEntity
  8
LC-002-100-D00-0
 62
     2
100
AcDbMText
 10
1118.593473
 20
-13.927995
 30
0.0
 40
50.0
 41
0.0
 71
     5
 72
     1
  1
\A1;123,5
  7
LCTX15-400-0-0pDIN-Schrift
 11
6.123031769111886E-17
 21
1.0
 31
0.0
 73
     1
 44
1.0
  0
POINT
  5
137
330
130
100
AcDbEntity
  8
Defpoints
 62
     0
100
AcDbPoint
 10
923.901423
 20
73.324182
 30
0.0
  0
POINT
  5
138
330
130
100
AcDbEntity
  8
Defpoints
 62
     0
100
AcDbPoint
 10
923.901423
 20
-50.175818
 30
0.0
  0
POINT
  5
139
330
130
100
AcDbEntity
  8
Defpoints
 62
     0
100
AcDbPoint
 10
1173.593473
 20
-50.175818
 30
0.0
  0
ENDBLK
  5
13B
330
130
100
AcDbEntity
  8
0
100
AcDbBlockEnd
  0
BLOCK
  5
358
330
357
100
AcDbEntity
  8
0
100
AcDbBlockBegin
  2
KLON17
 70
     0
 71
     0
 10
0.0
 20
0.0
 30
0.0
  3
KLON17
  1

  4
KLON17
  0
LINE
  5
35A
330
357
100
AcDbEntity
  8
LC-002-100-D00-0
 62
     7
370
    15
100
AcDbLine
 10
861.8091
 20
449.086517
 30
0.0
 11
864.365394
 21
449.179813
 31
0.0
  0
LINE
  5
35B
330
357
100
AcDbEntity
  8
LC-002-100-D00-0
 62
     7
370
    15
100
AcDbLine
 10
864.365394
 20
449.179813
 30
0.0
 11
866.511191
 21
449.258126
 31
0.0
  0
LINE
  5
35C
330
357
100
AcDbEntity
  8
LC-002-100-D00-0
 62
     7
370
    15
100
AcDbLine
 10
866.511191
 20
449.258126
 30
0.0
 11
868.241335
 21
449.32127
 31
0.0
  0
LINE
  5
35D
330
357
100
AcDbEntity
  8
LC-002-100-D00-0
 62
     7
370
    15
100
AcDbLine
 10
868.241335
 20
449.32127
 30
0.0
 11
869.551684
 21
449.369091
 31
0.0
  0
LINE
  5
35E
330
357
100
AcDbEntity
  8
LC-002-100-D00-0
 62
     7
370
    15
100
AcDbLine
 10
869.551684
 20
449.369091
 30
0.0
 11
870.439077
 21
449.401479
 31
0.0
  0
LINE
  5
35F
330
357
100
AcDbEntity
  8
LC-002-100-D00-0
 62
     7
370
    15
100
AcDbLine
 10
870.439077
 20
449.401479
 30
0.0
 11
870.901401
 21
449.418353
 31
0.0
  0
ENDBLK
  5
359
330
357
100
AcDbEntity
  8
0
100
AcDbBlockEnd
  0
BLOCK
  5
362
330
361
100
AcDbEntity
  8
0
100
AcDbBlockBegin
  2
KLON18
 70
     0
 71
     0
 10
0.0
 20
0.0
 30
0.0
  3
KLON18
  1

  4
KLON18
  0
LINE
  5
364
330
361
100
AcDbEntity
  8
LC-002-100-D00-0
 62
     7
370
    15
100
AcDbLine
 10
95.993723
 20
449.086517
 30
0.0
 11
93.437428
 21
449.179813
 31
0.0
  0
LINE
  5
365
330
361
100
AcDbEntity
  8
LC-002-100-D00-0
 62
     7
370
    15
100
AcDbLine
 10
93.437428
 20
449.179813
 30
0.0
 11
91.291631
 21
449.258126
 31
0.0
  0
LINE
  5
366
330
361
100
AcDbEntity
  8
LC-002-100-D00-0
 62
     7
370
    15
100
AcDbLine
 10
91.291631
 20
449.258126
 30
0.0
 11
89.561487
 21
449.32127
 31
0.0
  0
LINE
  5
367
330
361
100
AcDbEntity
  8
LC-002-100-D00-0
 62
     7
370
    15
100
AcDbLine
 10
89.561487
 20
449.32127
 30
0.0
 11
88.251139
 21
449.369091
 31
0.0
  0
LINE
  5
368
330
361
100
AcDbEntity
  8
LC-002-100-D00-0
 62
     7
370
    15
100
AcDbLine
 10
88.251139
 20
449.369091
 30
0.0
 11
87.363745
 21
449.401479
 31
0.0
  0
LINE
  5
369
330
361
100
AcDbEntity
  8
LC-002-100-D00-0
 62
     7
370
    15
100
AcDbLine
 10
87.363745
 20
449.401479
 30
0.0
 11
86.901421
 21
449.418353
 31
0.0
  0
ENDBLK
  5
363
330
361
100
AcDbEntity
  8
0
100
AcDbBlockEnd
  0
BLOCK
  5
374
330
373
100
AcDbEntity
  8
0
100
AcDbBlockBegin
  2
KLON19
 70
     0
 71
     0
 10
0.0
 20
0.0
 30
0.0
  3
KLON19
  1

  4
KLON19
  0
LINE
  5
376
330
373
100
AcDbEntity
  8
LC-002-100-D00-0
 62
     7
370
    15
100
AcDbLine
 10
870.874042
 20
450.918352
 30
0.0
 11
870.873357
 21
450.956333
 31
0.0
  0
LINE
  5
377
330
373
100
AcDbEntity
  8
LC-002-100-D00-0
 62
     7
370
    15
100
AcDbLine
 10
870.873357
 20
450.956333
 30
0.0
 11
870.871301
 21
451.06912
 31
0.0
  0
LINE
  5
378
330
373
100
AcDbEntity
  8
LC-002-100-D00-0
 62
     7
370
    15
100
AcDbLine
 10
870.871301
 20
451.06912
 30
0.0
 11
870.867933
 21
451.253289
 31
0.0
  0
LINE
  5
379
330
373
100
AcDbEntity
  8
LC-002-100-D00-0
 62
     7
370
    15
100
AcDbLine
 10
870.867933
 20
451.253289
 30
0.0
 11
870.863373
 21
451.503241
 31
0.0
  0
LINE
  5
37A
330
373
100
AcDbEntity
  8
LC-002-100-D00-0
 62
     7
370
    15
100
AcDbLine
 10
870.863373
 20
451.503241
 30
0.0
 11
870.85777
 21
451.811384
 31
0.0
  0
LINE
  5
37B
330
373
100
AcDbEntity
  8
LC-002-100-D00-0
 62
     7
370
    15
100
AcDbLine
 10
870.85777
 20
451.811384
 30
0.0
 11
870.851244
 21
452.168353
 31
0.0
  0
LINE
  5
37C
330
373
100
AcDbEntity
  8
LC-002-100-D00-0
 62
     7
370
    15
100
AcDbLine
 10
870.851244
 20
452.168353
 30
0.0
 11
870.844031
 21
452.563302
 31
0.0
  0
LINE
  5
37D
330
373
100
AcDbEntity
  8
LC-002-100-D00-0
 62
     7
370
    15
100
AcDbLine
 10
870.844031
 20
452.563302
 30
0.0
 11
870.836372
 21
452.984232
 31
0.0
  0
LINE
  5
37E
330
373
100
AcDbEntity
  8
LC-002-100-D00-0
 62
     7
370
    15
100
AcDbLine
 10
870.836372
 20
452.984232
 30
0.0
 11
870.828445
 21
453.418353
 31
0.0
  0
ENDBLK
  5
375
330
373
100
AcDbEntity
  8
0
100
AcDbBlockEnd
  0
BLOCK
  5
381
330
380
100
AcDbEntity
  8
0
100
AcDbBlockBegin
  2
KLON20
 70
     0
 71
     0
 10
0.0
 20
0.0
 30
0.0
  3
KLON20
  1

  4
KLON20
  0
LINE
  5
383
330
380
100
AcDbEntity
  8
LC-002-100-D00-0
 62
     7
370
    15
100
AcDbLine
 10
86.92878
 20
450.918352
 30
0.0
 11
86.929465
 21
450.956333
 31
0.0
  0
LINE
  5
384
330
380
100
AcDbEntity
  8
LC-002-100-D00-0
 62
     7
370
    15
100
AcDbLine
 10
86.929465
 20
450.956333
 30
0.0
 11
86.931522
 21
451.06912
 31
0.0
  0
LINE
  5
385
330
380
100
AcDbEntity
  8
LC-002-100-D00-0
 62
     7
370
    15
100
AcDbLine
 10
86.931522
 20
451.06912
 30
0.0
 11
86.934889
 21
451.253289
 31
0.0
  0
LINE
  5
386
330
380
100
AcDbEntity
  8
LC-002-100-D00-0
 62
     7
370
    15
100
AcDbLine
 10
86.934889
 20
451.253289
 30
0.0
 11
86.939449
 21
451.503241
 31
0.0
  0
LINE
  5
387
330
380
100
AcDbEntity
  8
LC-002-100-D00-0
 62
     7
370
    15
100
AcDbLine
 10
86.939449
 20
451.503241
 30
0.0
 11
86.945052
 21
451.811384
 31
0.0
  0
LINE
  5
388
330
380
100
AcDbEntity
  8
LC-002-100-D00-0
 62
     7
370
    15
100
AcDbLine
 10
86.945052
 20
451.811384
 30
0.0
 11
86.951579
 21
452.168353
 31
0.0
  0
LINE
  5
389
330
380
100
AcDbEntity
  8
LC-002-100-D00-0
 62
     7
370
    15
100
AcDbLine
 10
86.951579
 20
452.168353
 30
0.0
 11
86.958791
 21
452.563302
 31
0.0
  0
LINE
  5
38A
330
380
100
AcDbEntity
  8
LC-002-100-D00-0
 62
     7
370
    15
100
AcDbLine
 10
86.958791
 20
452.563302
 30
0.0
 11
86.96645
 21
452.984232
 31
0.0
  0
LINE
  5
38B
330
380
100
AcDbEntity
  8
LC-002-100-D00-0
 62
     7
370
    15
100
AcDbLine
 10
86.96645
 20
452.984232
 30
0.0
 11
86.974377
 21
453.418353
 31
0.0
  0
ENDBLK
  5
382
330
380
100
AcDbEntity
  8
0
100
AcDbBlockEnd
  0
BLOCK
  5
3A9
330
39E
100
AcDbEntity
  8
0
100
AcDbBlockBegin
  2
*D24
 70
     1
 71
     0
 10
0.0
 20
0.0
 30
0.0
  3
*D24
  1

  0
LINE
  5
39F
330
39E
100
AcDbEntity
  8
LC-002-100-D00-0
 62
     2
370
    -2
100
AcDbLine
 10
28.901411
 20
471.418353
 30
0.0
 11
-6.789634
 21
471.418353
 31
0.0
  0
LINE
  5
3A0
330
39E
100
AcDbEntity
  8
LC-002-100-D00-0
 62
     2
370
    -2
100
AcDbLine
 10
33.901411
 20
517.418353
 30
0.0
 11
-6.789634
 21
517.418353
 31
0.0
  0
LINE
  5
3A1
330
39E
100
AcDbEntity
  8
LC-002-100-D00-0
 62
     2
370
    -2
100
AcDbLine
 10
2.210366
 20
421.418353
 30
0.0
 11
2.210366
 21
371.418353
 31
0.0
  0
LINE
  5
3A2
330
39E
100
AcDbEntity
  8
LC-002-100-D00-0
 62
     2
370
    -2
100
AcDbLine
 10
2.210366
 20
567.418353
 30
0.0
 11
2.210366
 21
612.114435
 31
0.0
  0
SOLID
  5
3A3
330
39E
100
AcDbEntity
  8
LC-002-100-D00-0
 62
     2
100
AcDbTrace
 10
10.543699
 20
421.418353
 30
0.0
 11
-6.122967
 21
421.418353
 31
0.0
 12
2.210366
 22
471.418353
 32
0.0
 13
2.210366
 23
471.418353
 33
0.0
  0
SOLID
  5
3A4
330
39E
100
AcDbEntity
  8
LC-002-100-D00-0
 62
     2
100
AcDbTrace
 10
-6.122967
 20
567.418353
 30
0.0
 11
10.543699
 21
567.418353
 31
0.0
 12
2.210366
 22
517.418353
 32
0.0
 13
2.210366
 23
517.418353
 33
0.0
  0
MTEXT
  5
3A5
330
39E
100
AcDbEntity
  8
LC-002-100-D00-0
 62
     2
100
AcDbMText
 10
-52.789634
 20
569.677005
 30
0.0
 40
50.0
 41
0.0
 71
     5
 72
     1
  1
\A1;46
  7
LCTX15-400-0-0pDIN-Schrift
 11
6.123031769111886E-17
 21
1.0
 31
0.0
 73
     1
 44
1.0
  0
POINT
  5
3A6
330
39E
100
AcDbEntity
  8
Defpoints
 62
     0
100
AcDbPoint
 10
28.901411
 20
471.418353
 30
0.0
  0
POINT
  5
3A7
330
39E
100
AcDbEntity
  8
Defpoints
 62
     0
100
AcDbPoint
 10
33.901411
 20
517.418353
 30
0.0
  0
POINT
  5
3A8
330
39E
100
AcDbEntity
  8
Defpoints
 62
     0
100
AcDbPoint
 10
2.210366
 20
517.418353
 30
0.0
  0
ENDBLK
  5
3AA
330
39E
100
AcDbEntity
  8
0
100
AcDbBlockEnd
  0
BLOCK
  5
3B6
330
3AC
100
AcDbEntity
  8
0
100
AcDbBlockBegin
  2
*D25
 70
     1
 71
     0
 10
0.0
 20
0.0
 30
0.0
  3
*D25
  1

  0
LINE
  5
3AD
330
3AC
100
AcDbEntity
  8
LC-002-100-D00-0
 62
     2
370
    -2
100
AcDbLine
 10
28.901411
 20
512.418353
 30
0.0
 11
28.901411
 21
625.167005
 31
0.0
  0
LINE
  5
3AE
330
3AC
100
AcDbEntity
  8
LC-002-100-D00-0
 62
     2
370
    -2
100
AcDbLine
 10
928.901411
 20
512.418353
 30
0.0
 11
928.901411
 21
625.167005
 31
0.0
  0
LINE
  5
3AF
330
3AC
100
AcDbEntity
  8
LC-002-100-D00-0
 62
     2
370
    -2
100
AcDbLine
 10
78.901411
 20
616.167005
 30
0.0
 11
878.901411
 21
616.167005
 31
0.0
  0
SOLID
  5
3B0
330
3AC
100
AcDbEntity
  8
LC-002-100-D00-0
 62
     2
100
AcDbTrace
 10
78.901411
 20
624.500338
 30
0.0
 11
78.901411
 21
607.833672
 31
0.0
 12
28.901411
 22
616.167005
 32
0.0
 13
28.901411
 23
616.167005
 33
0.0
  0
SOLID
  5
3B1
330
3AC
100
AcDbEntity
  8
LC-002-100-D00-0
 62
     2
100
AcDbTrace
 10
878.901411
 20
607.833672
 30
0.0
 11
878.901411
 21
624.500338
 31
0.0
 12
928.901411
 22
616.167005
 32
0.0
 13
928.901411
 23
616.167005
 33
0.0
  0
MTEXT
  5
3B2
330
3AC
100
AcDbEntity
  8
LC-002-100-D00-0
 62
     2
100
AcDbMText
 10
466.805354
 20
671.167005
 30
0.0
 40
50.0
 41
0.0
 71
     5
 72
     1
  1
\A1;900
  7
LCTX15-400-0-0pDIN-Schrift
 73
     1
 44
1.0
  0
POINT
  5
3B3
330
3AC
100
AcDbEntity
  8
Defpoints
 62
     0
100
AcDbPoint
 10
28.901411
 20
512.418353
 30
0.0
  0
POINT
  5
3B4
330
3AC
100
AcDbEntity
  8
Defpoints
 62
     0
100
AcDbPoint
 10
928.901411
 20
512.418353
 30
0.0
  0
POINT
  5
3B5
330
3AC
100
AcDbEntity
  8
Defpoints
 62
     0
100
AcDbPoint
 10
928.901411
 20
616.167005
 30
0.0
  0
ENDBLK
  5
3B7
330
3AC
100
AcDbEntity
  8
0
100
AcDbBlockEnd
  0
BLOCK
  5
3C3
330
3B9
100
AcDbEntity
  8
0
100
AcDbBlockBegin
  2
*D26
 70
     1
 71
     0
 10
0.0
 20
0.0
 30
0.0
  3
*D26
  1

  0
LINE
  5
3BA
330
3B9
100
AcDbEntity
  8
LC-002-100-D00-0
 62
     2
370
    -2
100
AcDbLine
 10
78.901411
 20
468.418353
 30
0.0
 11
78.901411
 21
552.31972
 31
0.0
  0
LINE
  5
3BB
330
3B9
100
AcDbEntity
  8
LC-002-100-D00-0
 62
     2
370
    -2
100
AcDbLine
 10
878.901411
 20
468.418353
 30
0.0
 11
878.901411
 21
552.31972
 31
0.0
  0
LINE
  5
3BC
330
3B9
100
AcDbEntity
  8
LC-002-100-D00-0
 62
     2
370
    -2
100
AcDbLine
 10
128.901411
 20
543.31972
 30
0.0
 11
828.901411
 21
543.31972
 31
0.0
  0
SOLID
  5
3BD
330
3B9
100
AcDbEntity
  8
LC-002-100-D00-0
 62
     2
100
AcDbTrace
 10
128.901411
 20
551.653053
 30
0.0
 11
128.901411
 21
534.986387
 31
0.0
 12
78.901411
 22
543.31972
 32
0.0
 13
78.901411
 23
543.31972
 33
0.0
  0
SOLID
  5
3BE
330
3B9
100
AcDbEntity
  8
LC-002-100-D00-0
 62
     2
100
AcDbTrace
 10
828.901411
 20
534.986387
 30
0.0
 11
828.901411
 21
551.653053
 31
0.0
 12
878.901411
 22
543.31972
 32
0.0
 13
878.901411
 23
543.31972
 33
0.0
  0
MTEXT
  5
3BF
330
3B9
100
AcDbEntity
  8
LC-002-100-D00-0
 62
     2
100
AcDbMText
 10
469.268608
 20
598.31972
 30
0.0
 40
50.0
 41
0.0
 71
     5
 72
     1
  1
\A1;800
  7
LCTX15-400-0-0pDIN-Schrift
 73
     1
 44
1.0
  0
POINT
  5
3C0
330
3B9
100
AcDbEntity
  8
Defpoints
 62
     0
100
AcDbPoint
 10
78.901411
 20
468.418353
 30
0.0
  0
POINT
  5
3C1
330
3B9
100
AcDbEntity
  8
Defpoints
 62
     0
100
AcDbPoint
 10
878.901411
 20
468.418353
 30
0.0
  0
POINT
  5
3C2
330
3B9
100
AcDbEntity
  8
Defpoints
 62
     0
100
AcDbPoint
 10
878.901411
 20
543.31972
 30
0.0
  0
ENDBLK
  5
3C4
330
3B9
100
AcDbEntity
  8
0
100
AcDbBlockEnd
  0
BLOCK
  5
3C6
330
3C5
100
AcDbEntity
  8
0
100
AcDbBlockBegin
  2
KLON21
 70
     0
 71
     0
 10
0.0
 20
0.0
 30
0.0
  3
KLON21
  1

  4
KLON21
  0
LINE
  5
3C8
330
3C5
100
AcDbEntity
  8
LC-002-100-D00-0
 62
     7
370
    25
100
AcDbLine
 10
921.781601
 20
469.918353
 30
0.0
 11
923.2816
 21
471.418353
 31
0.0
  0
LINE
  5
3C9
330
3C5
100
AcDbEntity
  8
LC-002-100-D00-0
 62
     7
370
    25
100
AcDbLine
 10
899.330961
 20
469.918353
 30
0.0
 11
900.830961
 21
471.418353
 31
0.0
  0
LINE
  5
3CA
330
3C5
100
AcDbEntity
  8
LC-002-100-D00-0
 62
     7
370
    25
100
AcDbLine
 10
856.380323
 20
449.418353
 30
0.0
 11
857.880323
 21
450.918353
 31
0.0
  0
LINE
  5
3CB
330
3C5
100
AcDbEntity
  8
LC-002-100-D00-0
 62
     7
370
    25
100
AcDbLine
 10
833.929684
 20
449.418353
 30
0.0
 11
835.429684
 21
450.918353
 31
0.0
  0
LINE
  5
3CC
330
3C5
100
AcDbEntity
  8
LC-002-100-D00-0
 62
     7
370
    25
100
AcDbLine
 10
844.901411
 20
460.390081
 30
0.0
 11
852.901411
 21
468.390081
 31
0.0
  0
LINE
  5
3CD
330
3C5
100
AcDbEntity
  8
LC-002-100-D00-0
 62
     7
370
    25
100
AcDbLine
 10
811.479044
 20
449.418353
 30
0.0
 11
812.979044
 21
450.918353
 31
0.0
  0
LINE
  5
3CE
330
3C5
100
AcDbEntity
  8
LC-002-100-D00-0
 62
     7
370
    25
100
AcDbLine
 10
789.028405
 20
449.418353
 30
0.0
 11
790.528405
 21
450.918353
 31
0.0
  0
LINE
  5
3CF
330
3C5
100
AcDbEntity
  8
LC-002-100-D00-0
 62
     7
370
    25
100
AcDbLine
 10
766.577765
 20
449.418353
 30
0.0
 11
768.077765
 21
450.918353
 31
0.0
  0
LINE
  5
3D0
330
3C5
100
AcDbEntity
  8
LC-002-100-D00-0
 62
     7
370
    25
100
AcDbLine
 10
744.127126
 20
449.418353
 30
0.0
 11
745.627126
 21
450.918353
 31
0.0
  0
LINE
  5
3D1
330
3C5
100
AcDbEntity
  8
LC-002-100-D00-0
 62
     7
370
    25
100
AcDbLine
 10
721.676486
 20
449.418353
 30
0.0
 11
723.176486
 21
450.918353
 31
0.0
  0
LINE
  5
3D2
330
3C5
100
AcDbEntity
  8
LC-002-100-D00-0
 62
     7
370
    25
100
AcDbLine
 10
699.225847
 20
449.418353
 30
0.0
 11
700.725847
 21
450.918353
 31
0.0
  0
LINE
  5
3D3
330
3C5
100
AcDbEntity
  8
LC-002-100-D00-0
 62
     7
370
    25
100
AcDbLine
 10
709.901411
 20
460.093918
 30
0.0
 11
717.901411
 21
468.093918
 31
0.0
  0
LINE
  5
3D4
330
3C5
100
AcDbEntity
  8
LC-002-100-D00-0
 62
     7
370
    25
100
AcDbLine
 10
676.775207
 20
449.418353
 30
0.0
 11
678.275207
 21
450.918353
 31
0.0
  0
LINE
  5
3D5
330
3C5
100
AcDbEntity
  8
LC-002-100-D00-0
 62
     7
370
    25
100
AcDbLine
 10
654.324568
 20
449.418353
 30
0.0
 11
655.824568
 21
450.918353
 31
0.0
  0
LINE
  5
3D6
330
3C5
100
AcDbEntity
  8
LC-002-100-D00-0
 62
     7
370
    25
100
AcDbLine
 10
631.873928
 20
449.418353
 30
0.0
 11
633.373928
 21
450.918353
 31
0.0
  0
LINE
  5
3D7
330
3C5
100
AcDbEntity
  8
LC-002-100-D00-0
 62
     7
370
    25
100
AcDbLine
 10
609.423289
 20
449.418353
 30
0.0
 11
610.923289
 21
450.918353
 31
0.0
  0
LINE
  5
3D8
330
3C5
100
AcDbEntity
  8
LC-002-100-D00-0
 62
     7
370
    25
100
AcDbLine
 10
586.972649
 20
449.418353
 30
0.0
 11
588.472649
 21
450.918353
 31
0.0
  0
LINE
  5
3D9
330
3C5
100
AcDbEntity
  8
LC-002-100-D00-0
 62
     7
370
    25
100
AcDbLine
 10
561.579292
 20
446.475635
 30
0.0
 11
563.700612
 21
448.596955
 31
0.0
  0
LINE
  5
3DA
330
3C5
100
AcDbEntity
  8
LC-002-100-D00-0
 62
     7
370
    25
100
AcDbLine
 10
574.901411
 20
459.797755
 30
0.0
 11
582.901411
 21
467.797755
 31
0.0
  0
LINE
  5
3DB
330
3C5
100
AcDbEntity
  8
LC-002-100-D00-0
 62
     7
370
    25
100
AcDbLine
 10
534.201411
 20
441.548393
 30
0.0
 11
535.701411
 21
443.048393
 31
0.0
  0
LINE
  5
3DC
330
3C5
100
AcDbEntity
  8
LC-002-100-D00-0
 62
     7
370
    25
100
AcDbLine
 10
537.071371
 20
444.418353
 30
0.0
 11
538.571371
 21
445.918353
 31
0.0
  0
ENDBLK
  5
3C7
330
3C5
100
AcDbEntity
  8
0
100
AcDbBlockEnd
  0
BLOCK
  5
3DF
330
3DE
100
AcDbEntity
  8
0
100
AcDbBlockBegin
  2
KLON22
 70
     0
 71
     0
 10
0.0
 20
0.0
 30
0.0
  3
KLON22
  1

  4
KLON22
  0
LINE
  5
3E1
330
3DE
100
AcDbEntity
  8
LC-002-100-D00-0
 62
     7
370
    25
100
AcDbLine
 10
422.101411
 20
441.70159
 30
0.0
 11
423.601411
 21
443.20159
 31
0.0
  0
LINE
  5
3E2
330
3DE
100
AcDbEntity
  8
LC-002-100-D00-0
 62
     7
370
    25
100
AcDbLine
 10
402.69168
 20
444.742499
 30
0.0
 11
403.919747
 21
445.970566
 31
0.0
  0
LINE
  5
3E3
330
3DE
100
AcDbEntity
  8
LC-002-100-D00-0
 62
     7
370
    25
100
AcDbLine
 10
384.916889
 20
449.418348
 30
0.0
 11
386.210164
 21
450.711622
 31
0.0
  0
LINE
  5
3E4
330
3DE
100
AcDbEntity
  8
LC-002-100-D00-0
 62
     7
370
    25
100
AcDbLine
 10
362.466255
 20
449.418353
 30
0.0
 11
363.966254
 21
450.918353
 31
0.0
  0
LINE
  5
3E5
330
3DE
100
AcDbEntity
  8
LC-002-100-D00-0
 62
     7
370
    25
100
AcDbLine
 10
374.901411
 20
461.85351
 30
0.0
 11
382.901411
 21
469.853511
 31
0.0
  0
LINE
  5
3E6
330
3DE
100
AcDbEntity
  8
LC-002-100-D00-0
 62
     7
370
    25
100
AcDbLine
 10
340.015615
 20
449.418353
 30
0.0
 11
341.515615
 21
450.918353
 31
0.0
  0
LINE
  5
3E7
330
3DE
100
AcDbEntity
  8
LC-002-100-D00-0
 62
     7
370
    25
100
AcDbLine
 10
317.564976
 20
449.418353
 30
0.0
 11
319.064975
 21
450.918353
 31
0.0
  0
LINE
  5
3E8
330
3DE
100
AcDbEntity
  8
LC-002-100-D00-0
 62
     7
370
    25
100
AcDbLine
 10
295.114336
 20
449.418353
 30
0.0
 11
296.614336
 21
450.918353
 31
0.0
  0
LINE
  5
3E9
330
3DE
100
AcDbEntity
  8
LC-002-100-D00-0
 62
     7
370
    25
100
AcDbLine
 10
272.663697
 20
449.418353
 30
0.0
 11
274.163696
 21
450.918353
 31
0.0
  0
LINE
  5
3EA
330
3DE
100
AcDbEntity
  8
LC-002-100-D00-0
 62
     7
370
    25
100
AcDbLine
 10
250.213057
 20
449.418353
 30
0.0
 11
251.713057
 21
450.918353
 31
0.0
  0
LINE
  5
3EB
330
3DE
100
AcDbEntity
  8
LC-002-100-D00-0
 62
     7
370
    25
100
AcDbLine
 10
227.762418
 20
449.418353
 30
0.0
 11
229.262418
 21
450.918353
 31
0.0
  0
LINE
  5
3EC
330
3DE
100
AcDbEntity
  8
LC-002-100-D00-0
 62
     7
370
    25
100
AcDbLine
 10
239.901411
 20
461.557347
 30
0.0
 11
247.901411
 21
469.557348
 31
0.0
  0
LINE
  5
3ED
330
3DE
100
AcDbEntity
  8
LC-002-100-D00-0
 62
     7
370
    25
100
AcDbLine
 10
205.311778
 20
449.418353
 30
0.0
 11
206.811778
 21
450.918353
 31
0.0
  0
LINE
  5
3EE
330
3DE
100
AcDbEntity
  8
LC-002-100-D00-0
 62
     7
370
    25
100
AcDbLine
 10
182.861139
 20
449.418353
 30
0.0
 11
184.361139
 21
450.918353
 31
0.0
  0
LINE
  5
3EF
330
3DE
100
AcDbEntity
  8
LC-002-100-D00-0
 62
     7
370
    25
100
AcDbLine
 10
160.410499
 20
449.418353
 30
0.0
 11
161.910499
 21
450.918353
 31
0.0
  0
LINE
  5
3F0
330
3DE
100
AcDbEntity
  8
LC-002-100-D00-0
 62
     7
370
    25
100
AcDbLine
 10
137.95986
 20
449.418353
 30
0.0
 11
139.45986
 21
450.918353
 31
0.0
  0
LINE
  5
3F1
330
3DE
100
AcDbEntity
  8
LC-002-100-D00-0
 62
     7
370
    25
100
AcDbLine
 10
115.50922
 20
449.418353
 30
0.0
 11
117.00922
 21
450.918353
 31
0.0
  0
LINE
  5
3F2
330
3DE
100
AcDbEntity
  8
LC-002-100-D00-0
 62
     7
370
    25
100
AcDbLine
 10
93.058581
 20
449.418353
 30
0.0
 11
94.558581
 21
450.918353
 31
0.0
  0
LINE
  5
3F3
330
3DE
100
AcDbEntity
  8
LC-002-100-D00-0
 62
     7
370
    25
100
AcDbLine
 10
104.901411
 20
461.261184
 30
0.0
 11
112.901411
 21
469.261184
 31
0.0
  0
LINE
  5
3F4
330
3DE
100
AcDbEntity
  8
LC-002-100-D00-0
 62
     7
370
    25
100
AcDbLine
 10
77.70923
 20
456.519642
 30
0.0
 11
78.981161
 21
457.791573
 31
0.0
  0
LINE
  5
3F5
330
3DE
100
AcDbEntity
  8
LC-002-100-D00-0
 62
     7
370
    25
100
AcDbLine
 10
68.6573
 20
469.918353
 30
0.0
 11
70.1573
 21
471.418353
 31
0.0
  0
LINE
  5
3F6
330
3DE
100
AcDbEntity
  8
LC-002-100-D00-0
 62
     7
370
    25
100
AcDbLine
 10
46.206661
 20
469.918353
 30
0.0
 11
47.706661
 21
471.418353
 31
0.0
  0
ENDBLK
  5
3E0
330
3DE
100
AcDbEntity
  8
0
100
AcDbBlockEnd
  0
BLOCK
  5
3FA
330
3F9
100
AcDbEntity
  8
0
100
AcDbBlockBegin
  2
KLON23
 70
     0
 71
     0
 10
0.0
 20
0.0
 30
0.0
  3
KLON23
  1

  4
KLON23
  0
LINE
  5
3FC
330
3F9
100
AcDbEntity
  8
LC-002-100-D00-0
 62
     7
370
    25
100
AcDbLine
 10
704.151411
 20
454.343917
 30
0.0
 11
708.225276
 21
458.417783
 31
0.0
  0
LINE
  5
3FD
330
3F9
100
AcDbEntity
  8
LC-002-100-D00-0
 62
     7
370
    25
100
AcDbLine
 10
695.651411
 20
468.294558
 30
0.0
 11
698.775206
 21
471.418353
 31
0.0
  0
ENDBLK
  5
3FB
330
3F9
100
AcDbEntity
  8
0
100
AcDbBlockEnd
  0
BLOCK
  5
402
330
401
100
AcDbEntity
  8
0
100
AcDbBlockBegin
  2
KLON24
 70
     0
 71
     0
 10
0.0
 20
0.0
 30
0.0
  3
KLON24
  1

  4
KLON24
  0
LINE
  5
404
330
401
100
AcDbEntity
  8
LC-002-100-D00-0
 62
     7
370
    25
100
AcDbLine
 10
369.151411
 20
456.10351
 30
0.0
 11
372.550558
 21
459.502657
 31
0.0
  0
LINE
  5
405
330
401
100
AcDbEntity
  8
LC-002-100-D00-0
 62
     7
370
    25
100
AcDbLine
 10
373.466254
 20
460.418353
 30
0.0
 11
375.001411
 21
461.95351
 31
0.0
  0
LINE
  5
406
330
401
100
AcDbEntity
  8
LC-002-100-D00-0
 62
     7
370
    25
100
AcDbLine
 10
360.651411
 20
470.05415
 30
0.0
 11
362.015613
 21
471.418353
 31
0.0
  0
ENDBLK
  5
403
330
401
100
AcDbEntity
  8
0
100
AcDbBlockEnd
  0
BLOCK
  5
409
330
408
100
AcDbEntity
  8
0
100
AcDbBlockBegin
  2
KLON25
 70
     0
 71
     0
 10
0.0
 20
0.0
 30
0.0
  3
KLON25
  1

  4
KLON25
  0
LINE
  5
40B
330
408
100
AcDbEntity
  8
LC-002-100-D00-0
 62
     7
370
    25
100
AcDbLine
 10
387.968497
 20
452.469956
 30
0.0
 11
388.599808
 21
453.101267
 31
0.0
  0
LINE
  5
40C
330
408
100
AcDbEntity
  8
LC-002-100-D00-0
 62
     7
370
    25
100
AcDbLine
 10
382.801411
 20
469.753511
 30
0.0
 11
384.466253
 21
471.418353
 31
0.0
  0
ENDBLK
  5
40A
330
408
100
AcDbEntity
  8
0
100
AcDbBlockEnd
  0
BLOCK
  5
410
330
40F
100
AcDbEntity
  8
0
100
AcDbBlockBegin
  2
KLON26
 70
     0
 71
     0
 10
0.0
 20
0.0
 30
0.0
  3
KLON26
  1

  4
KLON26
  0
LINE
  5
412
330
40F
100
AcDbEntity
  8
LC-002-100-D00-0
 62
     7
370
    25
100
AcDbLine
 10
99.151411
 20
455.511183
 30
0.0
 11
102.550558
 21
458.910331
 31
0.0
  0
LINE
  5
413
330
40F
100
AcDbEntity
  8
LC-002-100-D00-0
 62
     7
370
    25
100
AcDbLine
 10
104.05858
 20
460.418353
 30
0.0
 11
105.001411
 21
461.361184
 31
0.0
  0
LINE
  5
414
330
40F
100
AcDbEntity
  8
LC-002-100-D00-0
 62
     7
370
    25
100
AcDbLine
 10
90.651411
 20
469.461824
 30
0.0
 11
92.60794
 21
471.418353
 31
0.0
  0
ENDBLK
  5
411
330
40F
100
AcDbEntity
  8
0
100
AcDbBlockEnd
  0
BLOCK
  5
419
330
418
100
AcDbEntity
  8
0
100
AcDbBlockBegin
  2
KLON27
 70
     0
 71
     0
 10
0.0
 20
0.0
 30
0.0
  3
KLON27
  1

  4
KLON27
  0
LINE
  5
41B
330
418
100
AcDbEntity
  8
LC-002-100-D00-0
 62
     7
370
    25
100
AcDbLine
 10
569.151411
 20
454.047754
 30
0.0
 11
573.453695
 21
458.350039
 31
0.0
  0
LINE
  5
41C
330
418
100
AcDbEntity
  8
LC-002-100-D00-0
 62
     7
370
    25
100
AcDbLine
 10
560.651411
 20
467.998395
 30
0.0
 11
564.071369
 21
471.418353
 31
0.0
  0
ENDBLK
  5
41A
330
418
100
AcDbEntity
  8
0
100
AcDbBlockEnd
  0
BLOCK
  5
421
330
420
100
AcDbEntity
  8
0
100
AcDbBlockBegin
  2
KLON28
 70
     0
 71
     0
 10
0.0
 20
0.0
 30
0.0
  3
KLON28
  1

  4
KLON28
  0
LINE
  5
423
330
420
100
AcDbEntity
  8
LC-002-100-D00-0
 62
     7
370
    25
100
AcDbLine
 10
234.151411
 20
455.807347
 30
0.0
 11
237.550558
 21
459.206494
 31
0.0
  0
LINE
  5
424
330
420
100
AcDbEntity
  8
LC-002-100-D00-0
 62
     7
370
    25
100
AcDbLine
 10
238.762417
 20
460.418353
 30
0.0
 11
240.001411
 21
461.657347
 31
0.0
  0
LINE
  5
425
330
420
100
AcDbEntity
  8
LC-002-100-D00-0
 62
     7
370
    25
100
AcDbLine
 10
225.651411
 20
469.757987
 30
0.0
 11
227.311777
 21
471.418353
 31
0.0
  0
ENDBLK
  5
422
330
420
100
AcDbEntity
  8
0
100
AcDbBlockEnd
  0
BLOCK
  5
42A
330
429
100
AcDbEntity
  8
0
100
AcDbBlockBegin
  2
KLON29
 70
     0
 71
     0
 10
0.0
 20
0.0
 30
0.0
  3
KLON29
  1

  4
KLON29
  0
LINE
  5
42C
330
429
100
AcDbEntity
  8
LC-002-100-D00-0
 62
     7
370
    25
100
AcDbLine
 10
839.151411
 20
454.64008
 30
0.0
 11
842.929683
 21
458.418353
 31
0.0
  0
LINE
  5
42D
330
429
100
AcDbEntity
  8
LC-002-100-D00-0
 62
     7
370
    25
100
AcDbLine
 10
844.929683
 20
460.418353
 30
0.0
 11
845.001411
 21
460.490081
 31
0.0
  0
LINE
  5
42E
330
429
100
AcDbEntity
  8
LC-002-100-D00-0
 62
     7
370
    25
100
AcDbLine
 10
830.651411
 20
468.590721
 30
0.0
 11
833.479043
 21
471.418353
 31
0.0
  0
ENDBLK
  5
42B
330
429
100
AcDbEntity
  8
0
100
AcDbBlockEnd
  0
BLOCK
  5
438
330
437
100
AcDbEntity
  8
0
100
AcDbBlockBegin
  2
KLON30
 70
     0
 71
     0
 10
0.0
 20
0.0
 30
0.0
  3
KLON30
  1

  4
KLON30
  0
LINE
  5
43A
330
437
100
AcDbEntity
  8
LC-002-100-D00-0
 62
     7
370
    15
100
AcDbLine
 10
509.401425
 20
52.087239
 30
0.0
 11
512.386281
 21
51.906689
 31
0.0
  0
LINE
  5
43B
330
437
100
AcDbEntity
  8
LC-002-100-D00-0
 62
     7
370
    15
100
AcDbLine
 10
512.386281
 20
51.906689
 30
0.0
 11
515.08915
 21
51.425193
 31
0.0
  0
ENDBLK
  5
439
330
437
100
AcDbEntity
  8
0
100
AcDbBlockEnd
  0
BLOCK
  5
441
330
440
100
AcDbEntity
  8
0
100
AcDbBlockBegin
  2
KLON31
 70
     0
 71
     0
 10
0.0
 20
0.0
 30
0.0
  3
KLON31
  1

  4
KLON31
  0
LINE
  5
443
330
440
100
AcDbEntity
  8
LC-002-100-D00-0
 62
     7
370
    15
100
AcDbLine
 10
448.401425
 20
2.561125
 30
0.0
 11
445.416569
 21
2.741674
 31
0.0
  0
LINE
  5
444
330
440
100
AcDbEntity
  8
LC-002-100-D00-0
 62
     7
370
    15
100
AcDbLine
 10
445.416569
 20
2.741674
 30
0.0
 11
443.852577
 21
2.982511
 31
0.0
  0
ENDBLK
  5
442
330
440
100
AcDbEntity
  8
0
100
AcDbBlockEnd
  0
BLOCK
  5
44A
330
449
100
AcDbEntity
  8
0
100
AcDbBlockBegin
  2
POLY1
 70
     0
 71
     0
 10
0.0
 20
0.0
 30
0.0
  3
POLY1
  1

  4
POLY1
  0
LINE
  5
44C
330
449
100
AcDbEntity
  8
LC-002-100-D00-0
 62
     7
370
    50
100
AcDbLine
 10
509.401425
 20
2.524181
 30
0.0
 11
509.401425
 21
2.524181
 31
0.0
  0
LINE
  5
44D
330
449
100
AcDbEntity
  8
LC-002-100-D00-0
 62
     7
370
    50
100
AcDbLine
 10
509.401425
 20
2.524181
 30
0.0
 11
510.437149
 21
2.561746
 31
0.0
  0
LINE
  5
44E
330
449
100
AcDbEntity
  8
LC-002-100-D00-0
 62
     7
370
    50
100
AcDbLine
 10
510.437149
 20
2.561746
 30
0.0
 11
510.437149
 21
2.561746
 31
0.0
  0
LINE
  5
44F
330
449
100
AcDbEntity
  8
LC-002-100-D00-0
 62
     7
370
    50
100
AcDbLine
 10
510.437149
 20
2.561746
 30
0.0
 11
512.538829
 21
2.637973
 31
0.0
  0
LINE
  5
450
330
449
100
AcDbEntity
  8
LC-002-100-D00-0
 62
     7
370
    50
100
AcDbLine
 10
512.538829
 20
2.637973
 30
0.0
 11
512.538829
 21
2.637973
 31
0.0
  0
LINE
  5
451
330
449
100
AcDbEntity
  8
LC-002-100-D00-0
 62
     7
370
    50
100
AcDbLine
 10
512.538829
 20
2.637973
 30
0.0
 11
515.6887
 21
3.271092
 31
0.0
  0
LINE
  5
452
330
449
100
AcDbEntity
  8
LC-002-100-D00-0
 62
     7
370
    50
100
AcDbLine
 10
515.6887
 20
3.271092
 30
0.0
 11
515.6887
 21
3.271092
 31
0.0
  0
LINE
  5
453
330
449
100
AcDbEntity
  8
LC-002-100-D00-0
 62
     7
370
    50
100
AcDbLine
 10
515.6887
 20
3.271092
 30
0.0
 11
518.89232
 21
4.297263
 31
0.0
  0
LINE
  5
454
330
449
100
AcDbEntity
  8
LC-002-100-D00-0
 62
     7
370
    50
100
AcDbLine
 10
518.89232
 20
4.297263
 30
0.0
 11
518.89232
 21
4.297263
 31
0.0
  0
LINE
  5
455
330
449
100
AcDbEntity
  8
LC-002-100-D00-0
 62
     7
370
    50
100
AcDbLine
 10
518.89232
 20
4.297263
 30
0.0
 11
520.970633
 21
5.411839
 31
0.0
  0
LINE
  5
456
330
449
100
AcDbEntity
  8
LC-002-100-D00-0
 62
     7
370
    50
100
AcDbLine
 10
520.970633
 20
5.411839
 30
0.0
 11
520.970633
 21
5.411839
 31
0.0
  0
LINE
  5
457
330
449
100
AcDbEntity
  8
LC-002-100-D00-0
 62
     7
370
    50
100
AcDbLine
 10
520.970633
 20
5.411839
 30
0.0
 11
522.022973
 21
5.976197
 31
0.0
  0
ENDBLK
  5
44B
330
449
100
AcDbEntity
  8
0
100
AcDbBlockEnd
  0
BLOCK
  5
45A
330
459
100
AcDbEntity
  8
0
100
AcDbBlockBegin
  2
POLY2
 70
     0
 71
     0
 10
0.0
 20
0.0
 30
0.0
  3
POLY2
  1

  4
POLY2
  0
LINE
  5
45C
330
459
100
AcDbEntity
  8
LC-002-100-D00-0
 62
     7
370
    50
100
AcDbLine
 10
448.401425
 20
2.524181
 30
0.0
 11
448.401425
 21
2.524181
 31
0.0
  0
LINE
  5
45D
330
459
100
AcDbEntity
  8
LC-002-100-D00-0
 62
     7
370
    50
100
AcDbLine
 10
448.401425
 20
2.524181
 30
0.0
 11
447.365701
 21
2.561746
 31
0.0
  0
LINE
  5
45E
330
459
100
AcDbEntity
  8
LC-002-100-D00-0
 62
     7
370
    50
100
AcDbLine
 10
447.365701
 20
2.561746
 30
0.0
 11
447.365701
 21
2.561746
 31
0.0
  0
LINE
  5
45F
330
459
100
AcDbEntity
  8
LC-002-100-D00-0
 62
     7
370
    50
100
AcDbLine
 10
447.365701
 20
2.561746
 30
0.0
 11
445.26402
 21
2.637973
 31
0.0
  0
LINE
  5
460
330
459
100
AcDbEntity
  8
LC-002-100-D00-0
 62
     7
370
    50
100
AcDbLine
 10
445.26402
 20
2.637973
 30
0.0
 11
445.26402
 21
2.637973
 31
0.0
  0
LINE
  5
461
330
459
100
AcDbEntity
  8
LC-002-100-D00-0
 62
     7
370
    50
100
AcDbLine
 10
445.26402
 20
2.637973
 30
0.0
 11
442.11415
 21
3.271092
 31
0.0
  0
LINE
  5
462
330
459
100
AcDbEntity
  8
LC-002-100-D00-0
 62
     7
370
    50
100
AcDbLine
 10
442.11415
 20
3.271092
 30
0.0
 11
442.11415
 21
3.271092
 31
0.0
  0
LINE
  5
463
330
459
100
AcDbEntity
  8
LC-002-100-D00-0
 62
     7
370
    50
100
AcDbLine
 10
442.11415
 20
3.271092
 30
0.0
 11
438.91053
 21
4.297263
 31
0.0
  0
LINE
  5
464
330
459
100
AcDbEntity
  8
LC-002-100-D00-0
 62
     7
370
    50
100
AcDbLine
 10
438.91053
 20
4.297263
 30
0.0
 11
438.91053
 21
4.297263
 31
0.0
  0
LINE
  5
465
330
459
100
AcDbEntity
  8
LC-002-100-D00-0
 62
     7
370
    50
100
AcDbLine
 10
438.91053
 20
4.297263
 30
0.0
 11
436.832216
 21
5.411839
 31
0.0
  0
LINE
  5
466
330
459
100
AcDbEntity
  8
LC-002-100-D00-0
 62
     7
370
    50
100
AcDbLine
 10
436.832216
 20
5.411839
 30
0.0
 11
436.832216
 21
5.411839
 31
0.0
  0
LINE
  5
467
330
459
100
AcDbEntity
  8
LC-002-100-D00-0
 62
     7
370
    50
100
AcDbLine
 10
436.832216
 20
5.411839
 30
0.0
 11
435.779877
 21
5.976197
 31
0.0
  0
ENDBLK
  5
45B
330
459
100
AcDbEntity
  8
0
100
AcDbBlockEnd
  0
BLOCK
  5
46A
330
469
100
AcDbEntity
  8
0
100
AcDbBlockBegin
  2
POLY3
 70
     0
 71
     0
 10
0.0
 20
0.0
 30
0.0
  3
POLY3
  1

  4
POLY3
  0
LINE
  5
46C
330
469
100
AcDbEntity
  8
LC-002-100-D00-0
 62
     7
370
    50
100
AcDbLine
 10
435.779877
 20
48.672166
 30
0.0
 11
435.779877
 21
48.672166
 31
0.0
  0
LINE
  5
46D
330
469
100
AcDbEntity
  8
LC-002-100-D00-0
 62
     7
370
    50
100
AcDbLine
 10
435.779877
 20
48.672166
 30
0.0
 11
436.692164
 21
49.167774
 31
0.0
  0
LINE
  5
46E
330
469
100
AcDbEntity
  8
LC-002-100-D00-0
 62
     7
370
    50
100
AcDbLine
 10
436.692164
 20
49.167774
 30
0.0
 11
436.692164
 21
49.167774
 31
0.0
  0
LINE
  5
46F
330
469
100
AcDbEntity
  8
LC-002-100-D00-0
 62
     7
370
    50
100
AcDbLine
 10
436.692164
 20
49.167774
 30
0.0
 11
438.543018
 21
50.173265
 31
0.0
  0
LINE
  5
470
330
469
100
AcDbEntity
  8
LC-002-100-D00-0
 62
     7
370
    50
100
AcDbLine
 10
438.543018
 20
50.173265
 30
0.0
 11
438.543018
 21
50.173265
 31
0.0
  0
LINE
  5
471
330
469
100
AcDbEntity
  8
LC-002-100-D00-0
 62
     7
370
    50
100
AcDbLine
 10
438.543018
 20
50.173265
 30
0.0
 11
441.580115
 21
51.231281
 31
0.0
  0
LINE
  5
472
330
469
100
AcDbEntity
  8
LC-002-100-D00-0
 62
     7
370
    50
100
AcDbLine
 10
441.580115
 20
51.231281
 30
0.0
 11
441.580115
 21
51.231281
 31
0.0
  0
LINE
  5
473
330
469
100
AcDbEntity
  8
LC-002-100-D00-0
 62
     7
370
    50
100
AcDbLine
 10
441.580115
 20
51.231281
 30
0.0
 11
444.856654
 21
51.976401
 31
0.0
  0
LINE
  5
474
330
469
100
AcDbEntity
  8
LC-002-100-D00-0
 62
     7
370
    50
100
AcDbLine
 10
444.856654
 20
51.976401
 30
0.0
 11
444.856654
 21
51.976401
 31
0.0
  0
LINE
  5
475
330
469
100
AcDbEntity
  8
LC-002-100-D00-0
 62
     7
370
    50
100
AcDbLine
 10
444.856654
 20
51.976401
 30
0.0
 11
447.209764
 21
52.074502
 31
0.0
  0
LINE
  5
476
330
469
100
AcDbEntity
  8
LC-002-100-D00-0
 62
     7
370
    50
100
AcDbLine
 10
447.209764
 20
52.074502
 30
0.0
 11
447.209764
 21
52.074502
 31
0.0
  0
LINE
  5
477
330
469
100
AcDbEntity
  8
LC-002-100-D00-0
 62
     7
370
    50
100
AcDbLine
 10
447.209764
 20
52.074502
 30
0.0
 11
448.401425
 21
52.124182
 31
0.0
  0
ENDBLK
  5
46B
330
469
100
AcDbEntity
  8
0
100
AcDbBlockEnd
  0
BLOCK
  5
47A
330
479
100
AcDbEntity
  8
0
100
AcDbBlockBegin
  2
POLY4
 70
     0
 71
     0
 10
0.0
 20
0.0
 30
0.0
  3
POLY4
  1

  4
POLY4
  0
LINE
  5
47C
330
479
100
AcDbEntity
  8
LC-002-100-D00-0
 62
     7
370
    50
100
AcDbLine
 10
522.022973
 20
48.672166
 30
0.0
 11
522.022973
 21
48.672166
 31
0.0
  0
LINE
  5
47D
330
479
100
AcDbEntity
  8
LC-002-100-D00-0
 62
     7
370
    50
100
AcDbLine
 10
522.022973
 20
48.672166
 30
0.0
 11
521.110686
 21
49.167774
 31
0.0
  0
LINE
  5
47E
330
479
100
AcDbEntity
  8
LC-002-100-D00-0
 62
     7
370
    50
100
AcDbLine
 10
521.110686
 20
49.167774
 30
0.0
 11
521.110686
 21
49.167774
 31
0.0
  0
LINE
  5
47F
330
479
100
AcDbEntity
  8
LC-002-100-D00-0
 62
     7
370
    50
100
AcDbLine
 10
521.110686
 20
49.167774
 30
0.0
 11
519.259832
 21
50.173265
 31
0.0
  0
LINE
  5
480
330
479
100
AcDbEntity
  8
LC-002-100-D00-0
 62
     7
370
    50
100
AcDbLine
 10
519.259832
 20
50.173265
 30
0.0
 11
519.259832
 21
50.173265
 31
0.0
  0
LINE
  5
481
330
479
100
AcDbEntity
  8
LC-002-100-D00-0
 62
     7
370
    50
100
AcDbLine
 10
519.259832
 20
50.173265
 30
0.0
 11
516.222735
 21
51.231281
 31
0.0
  0
LINE
  5
482
330
479
100
AcDbEntity
  8
LC-002-100-D00-0
 62
     7
370
    50
100
AcDbLine
 10
516.222735
 20
51.231281
 30
0.0
 11
516.222735
 21
51.231281
 31
0.0
  0
LINE
  5
483
330
479
100
AcDbEntity
  8
LC-002-100-D00-0
 62
     7
370
    50
100
AcDbLine
 10
516.222735
 20
51.231281
 30
0.0
 11
512.946196
 21
51.976401
 31
0.0
  0
LINE
  5
484
330
479
100
AcDbEntity
  8
LC-002-100-D00-0
 62
     7
370
    50
100
AcDbLine
 10
512.946196
 20
51.976401
 30
0.0
 11
512.946196
 21
51.976401
 31
0.0
  0
LINE
  5
485
330
479
100
AcDbEntity
  8
LC-002-100-D00-0
 62
     7
370
    50
100
AcDbLine
 10
512.946196
 20
51.976401
 30
0.0
 11
510.593086
 21
52.074502
 31
0.0
  0
LINE
  5
486
330
479
100
AcDbEntity
  8
LC-002-100-D00-0
 62
     7
370
    50
100
AcDbLine
 10
510.593086
 20
52.074502
 30
0.0
 11
510.593086
 21
52.074502
 31
0.0
  0
LINE
  5
487
330
479
100
AcDbEntity
  8
LC-002-100-D00-0
 62
     7
370
    50
100
AcDbLine
 10
510.593086
 20
52.074502
 30
0.0
 11
509.401425
 21
52.124182
 31
0.0
  0
ENDBLK
  5
47B
330
479
100
AcDbEntity
  8
0
100
AcDbBlockEnd
  0
BLOCK
  5
494
330
493
100
AcDbEntity
  8
0
100
AcDbBlockBegin
  2
POLY5
 70
     0
 71
     0
 10
0.0
 20
0.0
 30
0.0
  3
POLY5
  1

  4
POLY5
  0
LINE
  5
496
330
493
100
AcDbEntity
  8
LC-002-100-D00-0
 62
     7
370
    50
100
AcDbLine
 10
438.852075
 20
4.784219
 30
0.0
 11
438.852075
 21
4.784219
 31
0.0
  0
LINE
  5
497
330
493
100
AcDbEntity
  8
LC-002-100-D00-0
 62
     7
370
    50
100
AcDbLine
 10
438.852075
 20
4.784219
 30
0.0
 11
438.826586
 21
4.740075
 31
0.0
  0
LINE
  5
498
330
493
100
AcDbEntity
  8
LC-002-100-D00-0
 62
     7
370
    50
100
AcDbLine
 10
438.826586
 20
4.740075
 30
0.0
 11
438.826586
 21
4.740075
 31
0.0
  0
LINE
  5
499
330
493
100
AcDbEntity
  8
LC-002-100-D00-0
 62
     7
370
    50
100
AcDbLine
 10
438.826586
 20
4.740075
 30
0.0
 11
438.775603
 21
4.651776
 31
0.0
  0
LINE
  5
49A
330
493
100
AcDbEntity
  8
LC-002-100-D00-0
 62
     7
370
    50
100
AcDbLine
 10
438.775603
 20
4.651776
 30
0.0
 11
438.775603
 21
4.651776
 31
0.0
  0
LINE
  5
49B
330
493
100
AcDbEntity
  8
LC-002-100-D00-0
 62
     7
370
    50
100
AcDbLine
 10
438.775603
 20
4.651776
 30
0.0
 11
438.72103
 21
4.557243
 31
0.0
  0
LINE
  5
49C
330
493
100
AcDbEntity
  8
LC-002-100-D00-0
 62
     7
370
    50
100
AcDbLine
 10
438.72103
 20
4.557243
 30
0.0
 11
438.72103
 21
4.557243
 31
0.0
  0
LINE
  5
49D
330
493
100
AcDbEntity
  8
LC-002-100-D00-0
 62
     7
370
    50
100
AcDbLine
 10
438.72103
 20
4.557243
 30
0.0
 11
438.693958
 21
4.510352
 31
0.0
  0
LINE
  5
49E
330
493
100
AcDbEntity
  8
LC-002-100-D00-0
 62
     7
370
    50
100
AcDbLine
 10
438.693958
 20
4.510352
 30
0.0
 11
438.693958
 21
4.510352
 31
0.0
  0
LINE
  5
49F
330
493
100
AcDbEntity
  8
LC-002-100-D00-0
 62
     7
370
    50
100
AcDbLine
 10
438.693958
 20
4.510352
 30
0.0
 11
438.69146
 21
4.506029
 31
0.0
  0
LINE
  5
4A0
330
493
100
AcDbEntity
  8
LC-002-100-D00-0
 62
     7
370
    50
100
AcDbLine
 10
438.69146
 20
4.506029
 30
0.0
 11
438.69146
 21
4.506029
 31
0.0
  0
LINE
  5
4A1
330
493
100
AcDbEntity
  8
LC-002-100-D00-0
 62
     7
370
    50
100
AcDbLine
 10
438.69146
 20
4.506029
 30
0.0
 11
438.690561
 21
4.504473
 31
0.0
  0
ENDBLK
  5
495
330
493
100
AcDbEntity
  8
0
100
AcDbBlockEnd
  0
BLOCK
  5
4A6
330
4A5
100
AcDbEntity
  8
0
100
AcDbBlockBegin
  2
POLY6
 70
     0
 71
     0
 10
0.0
 20
0.0
 30
0.0
  3
POLY6
  1

  4
POLY6
  0
LINE
  5
4A8
330
4A5
100
AcDbEntity
  8
LC-002-100-D00-0
 62
     7
370
    50
100
AcDbLine
 10
519.112288
 20
4.504473
 30
0.0
 11
519.112288
 21
4.504473
 31
0.0
  0
LINE
  5
4A9
330
4A5
100
AcDbEntity
  8
LC-002-100-D00-0
 62
     7
370
    50
100
AcDbLine
 10
519.112288
 20
4.504473
 30
0.0
 11
519.109538
 21
4.509235
 31
0.0
  0
LINE
  5
4AA
330
4A5
100
AcDbEntity
  8
LC-002-100-D00-0
 62
     7
370
    50
100
AcDbLine
 10
519.109538
 20
4.509235
 30
0.0
 11
519.109538
 21
4.509235
 31
0.0
  0
LINE
  5
4AB
330
4A5
100
AcDbEntity
  8
LC-002-100-D00-0
 62
     7
370
    50
100
AcDbLine
 10
519.109538
 20
4.509235
 30
0.0
 11
519.104038
 21
4.518759
 31
0.0
  0
LINE
  5
4AC
330
4A5
100
AcDbEntity
  8
LC-002-100-D00-0
 62
     7
370
    50
100
AcDbLine
 10
519.104038
 20
4.518759
 30
0.0
 11
519.104038
 21
4.518759
 31
0.0
  0
LINE
  5
4AD
330
4A5
100
AcDbEntity
  8
LC-002-100-D00-0
 62
     7
370
    50
100
AcDbLine
 10
519.104038
 20
4.518759
 30
0.0
 11
519.061028
 21
4.593261
 31
0.0
  0
LINE
  5
4AE
330
4A5
100
AcDbEntity
  8
LC-002-100-D00-0
 62
     7
370
    50
100
AcDbLine
 10
519.061028
 20
4.593261
 30
0.0
 11
519.061028
 21
4.593261
 31
0.0
  0
LINE
  5
4AF
330
4A5
100
AcDbEntity
  8
LC-002-100-D00-0
 62
     7
370
    50
100
AcDbLine
 10
519.061028
 20
4.593261
 30
0.0
 11
519.00671
 21
4.687334
 31
0.0
  0
LINE
  5
4B0
330
4A5
100
AcDbEntity
  8
LC-002-100-D00-0
 62
     7
370
    50
100
AcDbLine
 10
519.00671
 20
4.687334
 30
0.0
 11
519.00671
 21
4.687334
 31
0.0
  0
LINE
  5
4B1
330
4A5
100
AcDbEntity
  8
LC-002-100-D00-0
 62
     7
370
    50
100
AcDbLine
 10
519.00671
 20
4.687334
 30
0.0
 11
518.96597
 21
4.757899
 31
0.0
  0
LINE
  5
4B2
330
4A5
100
AcDbEntity
  8
LC-002-100-D00-0
 62
     7
370
    50
100
AcDbLine
 10
518.96597
 20
4.757899
 30
0.0
 11
518.96597
 21
4.757899
 31
0.0
  0
LINE
  5
4B3
330
4A5
100
AcDbEntity
  8
LC-002-100-D00-0
 62
     7
370
    50
100
AcDbLine
 10
518.96597
 20
4.757899
 30
0.0
 11
518.950775
 21
4.784219
 31
0.0
  0
ENDBLK
  5
4A7
330
4A5
100
AcDbEntity
  8
0
100
AcDbBlockEnd
  0
BLOCK
  5
509
330
508
100
AcDbEntity
  8
0
100
AcDbBlockBegin
  2
POLY7
 70
     0
 71
     0
 10
0.0
 20
0.0
 30
0.0
  3
POLY7
  1

  4
POLY7
  0
LINE
  5
50B
330
508
100
AcDbEntity
  8
LC-002-100-D00-0
 62
     7
370
    50
100
AcDbLine
 10
-99.822682
 20
446.793544
 30
0.0
 11
-99.822682
 21
446.793544
 31
0.0
  0
LINE
  5
50C
330
508
100
AcDbEntity
  8
LC-002-100-D00-0
 62
     7
370
    50
100
AcDbLine
 10
-99.822682
 20
446.793544
 30
0.0
 11
-99.847787
 21
446.761148
 31
0.0
  0
LINE
  5
50D
330
508
100
AcDbEntity
  8
LC-002-100-D00-0
 62
     7
370
    50
100
AcDbLine
 10
-99.847787
 20
446.761148
 30
0.0
 11
-99.847787
 21
446.761148
 31
0.0
  0
LINE
  5
50E
330
508
100
AcDbEntity
  8
LC-002-100-D00-0
 62
     7
370
    50
100
AcDbLine
 10
-99.847787
 20
446.761148
 30
0.0
 11
-99.898202
 21
446.696094
 31
0.0
  0
LINE
  5
50F
330
508
100
AcDbEntity
  8
LC-002-100-D00-0
 62
     7
370
    50
100
AcDbLine
 10
-99.898202
 20
446.696094
 30
0.0
 11
-99.898202
 21
446.696094
 31
0.0
  0
LINE
  5
510
330
508
100
AcDbEntity
  8
LC-002-100-D00-0
 62
     7
370
    50
100
AcDbLine
 10
-99.898202
 20
446.696094
 30
0.0
 11
-100.29789
 21
446.33951
 31
0.0
  0
LINE
  5
511
330
508
100
AcDbEntity
  8
LC-002-100-D00-0
 62
     7
370
    50
100
AcDbLine
 10
-100.29789
 20
446.33951
 30
0.0
 11
-100.29789
 21
446.33951
 31
0.0
  0
LINE
  5
512
330
508
100
AcDbEntity
  8
LC-002-100-D00-0
 62
     7
370
    50
100
AcDbLine
 10
-100.29789
 20
446.33951
 30
0.0
 11
-100.877576
 21
446.012739
 31
0.0
  0
LINE
  5
513
330
508
100
AcDbEntity
  8
LC-002-100-D00-0
 62
     7
370
    50
100
AcDbLine
 10
-100.877576
 20
446.012739
 30
0.0
 11
-100.877576
 21
446.012739
 31
0.0
  0
LINE
  5
514
330
508
100
AcDbEntity
  8
LC-002-100-D00-0
 62
     7
370
    50
100
AcDbLine
 10
-100.877576
 20
446.012739
 30
0.0
 11
-101.440392
 21
445.94988
 31
0.0
  0
LINE
  5
515
330
508
100
AcDbEntity
  8
LC-002-100-D00-0
 62
     7
370
    50
100
AcDbLine
 10
-101.440392
 20
445.94988
 30
0.0
 11
-101.440392
 21
445.94988
 31
0.0
  0
LINE
  5
516
330
508
100
AcDbEntity
  8
LC-002-100-D00-0
 62
     7
370
    50
100
AcDbLine
 10
-101.440392
 20
445.94988
 30
0.0
 11
-101.722682
 21
445.918353
 31
0.0
  0
ENDBLK
  5
50A
330
508
100
AcDbEntity
  8
0
100
AcDbBlockEnd
  0
BLOCK
  5
519
330
518
100
AcDbEntity
  8
0
100
AcDbBlockBegin
  2
POLY8
 70
     0
 71
     0
 10
0.0
 20
0.0
 30
0.0
  3
POLY8
  1

  4
POLY8
  0
LINE
  5
51B
330
518
100
AcDbEntity
  8
LC-002-100-D00-0
 62
     7
370
    50
100
AcDbLine
 10
-148.72268
 20
445.918353
 30
0.0
 11
-148.72268
 21
445.918353
 31
0.0
  0
LINE
  5
51C
330
518
100
AcDbEntity
  8
LC-002-100-D00-0
 62
     7
370
    50
100
AcDbLine
 10
-148.72268
 20
445.918353
 30
0.0
 11
-149.034179
 21
445.957152
 31
0.0
  0
LINE
  5
51D
330
518
100
AcDbEntity
  8
LC-002-100-D00-0
 62
     7
370
    50
100
AcDbLine
 10
-149.034179
 20
445.957152
 30
0.0
 11
-149.034179
 21
445.957152
 31
0.0
  0
LINE
  5
51E
330
518
100
AcDbEntity
  8
LC-002-100-D00-0
 62
     7
370
    50
100
AcDbLine
 10
-149.034179
 20
445.957152
 30
0.0
 11
-149.660153
 21
446.035123
 31
0.0
  0
LINE
  5
51F
330
518
100
AcDbEntity
  8
LC-002-100-D00-0
 62
     7
370
    50
100
AcDbLine
 10
-149.660153
 20
446.035123
 30
0.0
 11
-149.660153
 21
446.035123
 31
0.0
  0
LINE
  5
520
330
518
100
AcDbEntity
  8
LC-002-100-D00-0
 62
     7
370
    50
100
AcDbLine
 10
-149.660153
 20
446.035123
 30
0.0
 11
-150.215506
 21
446.392967
 31
0.0
  0
LINE
  5
521
330
518
100
AcDbEntity
  8
LC-002-100-D00-0
 62
     7
370
    50
100
AcDbLine
 10
-150.215506
 20
446.392967
 30
0.0
 11
-150.215506
 21
446.392967
 31
0.0
  0
LINE
  5
522
330
518
100
AcDbEntity
  8
LC-002-100-D00-0
 62
     7
370
    50
100
AcDbLine
 10
-150.215506
 20
446.392967
 30
0.0
 11
-150.561647
 21
446.715418
 31
0.0
  0
LINE
  5
523
330
518
100
AcDbEntity
  8
LC-002-100-D00-0
 62
     7
370
    50
100
AcDbLine
 10
-150.561647
 20
446.715418
 30
0.0
 11
-150.561647
 21
446.715418
 31
0.0
  0
LINE
  5
524
330
518
100
AcDbEntity
  8
LC-002-100-D00-0
 62
     7
370
    50
100
AcDbLine
 10
-150.561647
 20
446.715418
 30
0.0
 11
-150.602297
 21
446.767452
 31
0.0
  0
LINE
  5
525
330
518
100
AcDbEntity
  8
LC-002-100-D00-0
 62
     7
370
    50
100
AcDbLine
 10
-150.602297
 20
446.767452
 30
0.0
 11
-150.602297
 21
446.767452
 31
0.0
  0
LINE
  5
526
330
518
100
AcDbEntity
  8
LC-002-100-D00-0
 62
     7
370
    50
100
AcDbLine
 10
-150.602297
 20
446.767452
 30
0.0
 11
-150.622681
 21
446.793544
 31
0.0
  0
ENDBLK
  5
51A
330
518
100
AcDbEntity
  8
0
100
AcDbBlockEnd
  0
BLOCK
  5
52D
330
52C
100
AcDbEntity
  8
0
100
AcDbBlockBegin
  2
POLY9
 70
     0
 71
     0
 10
0.0
 20
0.0
 30
0.0
  3
POLY9
  1

  4
POLY9
  0
LINE
  5
52F
330
52C
100
AcDbEntity
  8
LC-002-100-D00-0
 62
     7
370
    50
100
AcDbLine
 10
-102.682719
 20
435.926413
 30
0.0
 11
-102.682719
 21
435.926413
 31
0.0
  0
LINE
  5
530
330
52C
100
AcDbEntity
  8
LC-002-100-D00-0
 62
     7
370
    50
100
AcDbLine
 10
-102.682719
 20
435.926413
 30
0.0
 11
-102.488252
 21
435.968844
 31
0.0
  0
LINE
  5
531
330
52C
100
AcDbEntity
  8
LC-002-100-D00-0
 62
     7
370
    50
100
AcDbLine
 10
-102.488252
 20
435.968844
 30
0.0
 11
-102.488252
 21
435.968844
 31
0.0
  0
LINE
  5
532
330
52C
100
AcDbEntity
  8
LC-002-100-D00-0
 62
     7
370
    50
100
AcDbLine
 10
-102.488252
 20
435.968844
 30
0.0
 11
-102.099285
 21
436.053713
 31
0.0
  0
LINE
  5
533
330
52C
100
AcDbEntity
  8
LC-002-100-D00-0
 62
     7
370
    50
100
AcDbLine
 10
-102.099285
 20
436.053713
 30
0.0
 11
-102.099285
 21
436.053713
 31
0.0
  0
LINE
  5
534
330
52C
100
AcDbEntity
  8
LC-002-100-D00-0
 62
     7
370
    50
100
AcDbLine
 10
-102.099285
 20
436.053713
 30
0.0
 11
-101.60392
 21
436.45434
 31
0.0
  0
LINE
  5
535
330
52C
100
AcDbEntity
  8
LC-002-100-D00-0
 62
     7
370
    50
100
AcDbLine
 10
-101.60392
 20
436.45434
 30
0.0
 11
-101.60392
 21
436.45434
 31
0.0
  0
LINE
  5
536
330
52C
100
AcDbEntity
  8
LC-002-100-D00-0
 62
     7
370
    50
100
AcDbLine
 10
-101.60392
 20
436.45434
 30
0.0
 11
-101.250693
 21
437.004496
 31
0.0
  0
LINE
  5
537
330
52C
100
AcDbEntity
  8
LC-002-100-D00-0
 62
     7
370
    50
100
AcDbLine
 10
-101.250693
 20
437.004496
 30
0.0
 11
-101.250693
 21
437.004496
 31
0.0
  0
LINE
  5
538
330
52C
100
AcDbEntity
  8
LC-002-100-D00-0
 62
     7
370
    50
100
AcDbLine
 10
-101.250693
 20
437.004496
 30
0.0
 11
-101.10808
 21
437.526379
 31
0.0
  0
LINE
  5
539
330
52C
100
AcDbEntity
  8
LC-002-100-D00-0
 62
     7
370
    50
100
AcDbLine
 10
-101.10808
 20
437.526379
 30
0.0
 11
-101.10808
 21
437.526379
 31
0.0
  0
LINE
  5
53A
330
52C
100
AcDbEntity
  8
LC-002-100-D00-0
 62
     7
370
    50
100
AcDbLine
 10
-101.10808
 20
437.526379
 30
0.0
 11
-101.097708
 21
437.834318
 31
0.0
  0
LINE
  5
53B
330
52C
100
AcDbEntity
  8
LC-002-100-D00-0
 62
     7
370
    50
100
AcDbLine
 10
-101.097708
 20
437.834318
 30
0.0
 11
-101.097708
 21
437.834318
 31
0.0
  0
LINE
  5
53C
330
52C
100
AcDbEntity
  8
LC-002-100-D00-0
 62
     7
370
    50
100
AcDbLine
 10
-101.097708
 20
437.834318
 30
0.0
 11
-101.094878
 21
437.918352
 31
0.0
  0
ENDBLK
  5
52E
330
52C
100
AcDbEntity
  8
0
100
AcDbBlockEnd
  0
BLOCK
  5
53F
330
53E
100
AcDbEntity
  8
0
100
AcDbBlockBegin
  2
POLY10
 70
     0
 71
     0
 10
0.0
 20
0.0
 30
0.0
  3
POLY10
  1

  4
POLY10
  0
LINE
  5
541
330
53E
100
AcDbEntity
  8
LC-002-100-D00-0
 62
     7
370
    50
100
AcDbLine
 10
-149.350485
 20
437.918352
 30
0.0
 11
-149.350485
 21
437.918352
 31
0.0
  0
LINE
  5
542
330
53E
100
AcDbEntity
  8
LC-002-100-D00-0
 62
     7
370
    50
100
AcDbLine
 10
-149.350485
 20
437.918352
 30
0.0
 11
-149.331393
 21
437.694605
 31
0.0
  0
LINE
  5
543
330
53E
100
AcDbEntity
  8
LC-002-100-D00-0
 62
     7
370
    50
100
AcDbLine
 10
-149.331393
 20
437.694605
 30
0.0
 11
-149.331393
 21
437.694605
 31
0.0
  0
LINE
  5
544
330
53E
100
AcDbEntity
  8
LC-002-100-D00-0
 62
     7
370
    50
100
AcDbLine
 10
-149.331393
 20
437.694605
 30
0.0
 11
-149.293212
 21
437.247134
 31
0.0
  0
LINE
  5
545
330
53E
100
AcDbEntity
  8
LC-002-100-D00-0
 62
     7
370
    50
100
AcDbLine
 10
-149.293212
 20
437.247134
 30
0.0
 11
-149.293212
 21
437.247134
 31
0.0
  0
LINE
  5
546
330
53E
100
AcDbEntity
  8
LC-002-100-D00-0
 62
     7
370
    50
100
AcDbLine
 10
-149.293212
 20
437.247134
 30
0.0
 11
-148.995691
 21
436.650579
 31
0.0
  0
LINE
  5
547
330
53E
100
AcDbEntity
  8
LC-002-100-D00-0
 62
     7
370
    50
100
AcDbLine
 10
-148.995691
 20
436.650579
 30
0.0
 11
-148.995691
 21
436.650579
 31
0.0
  0
LINE
  5
548
330
53E
100
AcDbEntity
  8
LC-002-100-D00-0
 62
     7
370
    50
100
AcDbLine
 10
-148.995691
 20
436.650579
 30
0.0
 11
-148.557245
 21
436.19756
 31
0.0
  0
LINE
  5
549
330
53E
100
AcDbEntity
  8
LC-002-100-D00-0
 62
     7
370
    50
100
AcDbLine
 10
-148.557245
 20
436.19756
 30
0.0
 11
-148.557245
 21
436.19756
 31
0.0
  0
LINE
  5
54A
330
53E
100
AcDbEntity
  8
LC-002-100-D00-0
 62
     7
370
    50
100
AcDbLine
 10
-148.557245
 20
436.19756
 30
0.0
 11
-148.11531
 21
435.98005
 31
0.0
  0
LINE
  5
54B
330
53E
100
AcDbEntity
  8
LC-002-100-D00-0
 62
     7
370
    50
100
AcDbLine
 10
-148.11531
 20
435.98005
 30
0.0
 11
-148.11531
 21
435.98005
 31
0.0
  0
LINE
  5
54C
330
53E
100
AcDbEntity
  8
LC-002-100-D00-0
 62
     7
370
    50
100
AcDbLine
 10
-148.11531
 20
435.98005
 30
0.0
 11
-147.842407
 21
435.938544
 31
0.0
  0
LINE
  5
54D
330
53E
100
AcDbEntity
  8
LC-002-100-D00-0
 62
     7
370
    50
100
AcDbLine
 10
-147.842407
 20
435.938544
 30
0.0
 11
-147.842407
 21
435.938544
 31
0.0
  0
LINE
  5
54E
330
53E
100
AcDbEntity
  8
LC-002-100-D00-0
 62
     7
370
    50
100
AcDbLine
 10
-147.842407
 20
435.938544
 30
0.0
 11
-147.762643
 21
435.926413
 31
0.0
  0
ENDBLK
  5
540
330
53E
100
AcDbEntity
  8
0
100
AcDbBlockEnd
  0
BLOCK
  5
55A
330
559
100
AcDbEntity
  8
0
100
AcDbBlockBegin
  2
POLY11
 70
     0
 71
     0
 10
0.0
 20
0.0
 30
0.0
  3
POLY11
  1

  4
POLY11
  0
LINE
  5
55C
330
559
100
AcDbEntity
  8
LC-002-100-D00-0
 62
     7
370
    50
100
AcDbLine
 10
-148.72268
 20
450.918396
 30
0.0
 11
-148.72268
 21
450.918396
 31
0.0
  0
LINE
  5
55D
330
559
100
AcDbEntity
  8
LC-002-100-D00-0
 62
     7
370
    50
100
AcDbLine
 10
-148.72268
 20
450.918396
 30
0.0
 11
-148.735787
 21
450.918449
 31
0.0
  0
LINE
  5
55E
330
559
100
AcDbEntity
  8
LC-002-100-D00-0
 62
     7
370
    50
100
AcDbLine
 10
-148.735787
 20
450.918449
 30
0.0
 11
-148.735787
 21
450.918449
 31
0.0
  0
LINE
  5
55F
330
559
100
AcDbEntity
  8
LC-002-100-D00-0
 62
     7
370
    50
100
AcDbLine
 10
-148.735787
 20
450.918449
 30
0.0
 11
-148.761542
 21
450.918552
 31
0.0
  0
LINE
  5
560
330
559
100
AcDbEntity
  8
LC-002-100-D00-0
 62
     7
370
    50
100
AcDbLine
 10
-148.761542
 20
450.918552
 30
0.0
 11
-148.761542
 21
450.918552
 31
0.0
  0
LINE
  5
561
330
559
100
AcDbEntity
  8
LC-002-100-D00-0
 62
     7
370
    50
100
AcDbLine
 10
-148.761542
 20
450.918552
 30
0.0
 11
-148.782866
 21
450.919088
 31
0.0
  0
LINE
  5
562
330
559
100
AcDbEntity
  8
LC-002-100-D00-0
 62
     7
370
    50
100
AcDbLine
 10
-148.782866
 20
450.919088
 30
0.0
 11
-148.782866
 21
450.919088
 31
0.0
  0
LINE
  5
563
330
559
100
AcDbEntity
  8
LC-002-100-D00-0
 62
     7
370
    50
100
AcDbLine
 10
-148.782866
 20
450.919088
 30
0.0
 11
-148.793338
 21
450.919352
 31
0.0
  0
ENDBLK
  5
55B
330
559
100
AcDbEntity
  8
0
100
AcDbBlockEnd
  0
BLOCK
  5
5CB
330
5CA
100
AcDbEntity
  8
0
100
AcDbBlockBegin
  2
POLY12
 70
     0
 71
     0
 10
0.0
 20
0.0
 30
0.0
  3
POLY12
  1

  4
POLY12
  0
LINE
  5
5CD
330
5CA
100
AcDbEntity
  8
LC-002-100-D00-0
 62
     7
370
    50
100
AcDbLine
 10
-150.168071
 20
444.83819
 30
0.0
 11
-150.168071
 21
444.83819
 31
0.0
  0
LINE
  5
5CE
330
5CA
100
AcDbEntity
  8
LC-002-100-D00-0
 62
     7
370
    50
100
AcDbLine
 10
-150.168071
 20
444.83819
 30
0.0
 11
-149.89771
 21
444.718859
 31
0.0
  0
LINE
  5
5CF
330
5CA
100
AcDbEntity
  8
LC-002-100-D00-0
 62
     7
370
    50
100
AcDbLine
 10
-149.89771
 20
444.718859
 30
0.0
 11
-149.89771
 21
444.718859
 31
0.0
  0
LINE
  5
5D0
330
5CA
100
AcDbEntity
  8
LC-002-100-D00-0
 62
     7
370
    50
100
AcDbLine
 10
-149.89771
 20
444.718859
 30
0.0
 11
-149.355668
 21
444.479615
 31
0.0
  0
LINE
  5
5D1
330
5CA
100
AcDbEntity
  8
LC-002-100-D00-0
 62
     7
370
    50
100
AcDbLine
 10
-149.355668
 20
444.479615
 30
0.0
 11
-149.355668
 21
444.479615
 31
0.0
  0
LINE
  5
5D2
330
5CA
100
AcDbEntity
  8
LC-002-100-D00-0
 62
     7
370
    50
100
AcDbLine
 10
-149.355668
 20
444.479615
 30
0.0
 11
-148.735963
 21
444.418772
 31
0.0
  0
LINE
  5
5D3
330
5CA
100
AcDbEntity
  8
LC-002-100-D00-0
 62
     7
370
    50
100
AcDbLine
 10
-148.735963
 20
444.418772
 30
0.0
 11
-148.735963
 21
444.418772
 31
0.0
  0
LINE
  5
5D4
330
5CA
100
AcDbEntity
  8
LC-002-100-D00-0
 62
     7
370
    50
100
AcDbLine
 10
-148.735963
 20
444.418772
 30
0.0
 11
-148.427667
 21
444.41836
 31
0.0
  0
LINE
  5
5D5
330
5CA
100
AcDbEntity
  8
LC-002-100-D00-0
 62
     7
370
    50
100
AcDbLine
 10
-148.427667
 20
444.41836
 30
0.0
 11
-148.427667
 21
444.41836
 31
0.0
  0
LINE
  5
5D6
330
5CA
100
AcDbEntity
  8
LC-002-100-D00-0
 62
     7
370
    50
100
AcDbLine
 10
-148.427667
 20
444.41836
 30
0.0
 11
-148.422681
 21
444.418353
 31
0.0
  0
ENDBLK
  5
5CC
330
5CA
100
AcDbEntity
  8
0
100
AcDbBlockEnd
  0
BLOCK
  5
5EC
330
5EB
100
AcDbEntity
  8
0
100
AcDbBlockBegin
  2
KLON32
 70
     0
 71
     0
 10
0.0
 20
0.0
 30
0.0
  3
KLON32
  1

  4
KLON32
  0
LINE
  5
5EE
330
5EB
100
AcDbEntity
  8
LC-002-100-D00-0
 62
     7
370
    15
100
AcDbLine
 10
-228.222681
 20
403.467513
 30
0.0
 11
-231.17665
 21
404.260637
 31
0.0
  0
LINE
  5
5EF
330
5EB
100
AcDbEntity
  8
LC-002-100-D00-0
 62
     7
370
    15
100
AcDbLine
 10
-231.17665
 20
404.260637
 30
0.0
 11
-231.22268
 21
404.272997
 31
0.0
  0
ENDBLK
  5
5ED
330
5EB
100
AcDbEntity
  8
0
100
AcDbBlockEnd
  0
BLOCK
  5
5F7
330
5F6
100
AcDbEntity
  8
0
100
AcDbBlockBegin
  2
POLY13
 70
     0
 71
     0
 10
0.0
 20
0.0
 30
0.0
  3
POLY13
  1

  4
POLY13
  0
LINE
  5
5F9
330
5F6
100
AcDbEntity
  8
LC-002-100-D00-0
 62
     7
370
    50
100
AcDbLine
 10
-156.338697
 20
406.586393
 30
0.0
 11
-156.338697
 21
406.586393
 31
0.0
  0
LINE
  5
5FA
330
5F6
100
AcDbEntity
  8
LC-002-100-D00-0
 62
     7
370
    50
100
AcDbLine
 10
-156.338697
 20
406.586393
 30
0.0
 11
-156.659759
 21
406.621701
 31
0.0
  0
LINE
  5
5FB
330
5F6
100
AcDbEntity
  8
LC-002-100-D00-0
 62
     7
370
    50
100
AcDbLine
 10
-156.659759
 20
406.621701
 30
0.0
 11
-156.659759
 21
406.621701
 31
0.0
  0
LINE
  5
5FC
330
5F6
100
AcDbEntity
  8
LC-002-100-D00-0
 62
     7
370
    50
100
AcDbLine
 10
-156.659759
 20
406.621701
 30
0.0
 11
-157.687789
 21
406.734754
 31
0.0
  0
LINE
  5
5FD
330
5F6
100
AcDbEntity
  8
LC-002-100-D00-0
 62
     7
370
    50
100
AcDbLine
 10
-157.687789
 20
406.734754
 30
0.0
 11
-157.687789
 21
406.734754
 31
0.0
  0
LINE
  5
5FE
330
5F6
100
AcDbEntity
  8
LC-002-100-D00-0
 62
     7
370
    50
100
AcDbLine
 10
-157.687789
 20
406.734754
 30
0.0
 11
-159.149322
 21
407.527252
 31
0.0
  0
LINE
  5
5FF
330
5F6
100
AcDbEntity
  8
LC-002-100-D00-0
 62
     7
370
    50
100
AcDbLine
 10
-159.149322
 20
407.527252
 30
0.0
 11
-159.149322
 21
407.527252
 31
0.0
  0
LINE
  5
600
330
5F6
100
AcDbEntity
  8
LC-002-100-D00-0
 62
     7
370
    50
100
AcDbLine
 10
-159.149322
 20
407.527252
 30
0.0
 11
-160.617852
 21
408.826424
 31
0.0
  0
LINE
  5
601
330
5F6
100
AcDbEntity
  8
LC-002-100-D00-0
 62
     7
370
    50
100
AcDbLine
 10
-160.617852
 20
408.826424
 30
0.0
 11
-160.617852
 21
408.826424
 31
0.0
  0
LINE
  5
602
330
5F6
100
AcDbEntity
  8
LC-002-100-D00-0
 62
     7
370
    50
100
AcDbLine
 10
-160.617852
 20
408.826424
 30
0.0
 11
-161.546134
 21
410.273964
 31
0.0
  0
LINE
  5
603
330
5F6
100
AcDbEntity
  8
LC-002-100-D00-0
 62
     7
370
    50
100
AcDbLine
 10
-161.546134
 20
410.273964
 30
0.0
 11
-161.546134
 21
410.273964
 31
0.0
  0
LINE
  5
604
330
5F6
100
AcDbEntity
  8
LC-002-100-D00-0
 62
     7
370
    50
100
AcDbLine
 10
-161.546134
 20
410.273964
 30
0.0
 11
-162.1123
 21
411.831831
 31
0.0
  0
LINE
  5
605
330
5F6
100
AcDbEntity
  8
LC-002-100-D00-0
 62
     7
370
    50
100
AcDbLine
 10
-162.1123
 20
411.831831
 30
0.0
 11
-162.1123
 21
411.831831
 31
0.0
  0
LINE
  5
606
330
5F6
100
AcDbEntity
  8
LC-002-100-D00-0
 62
     7
370
    50
100
AcDbLine
 10
-162.1123
 20
411.831831
 30
0.0
 11
-162.185587
 21
412.885191
 31
0.0
  0
LINE
  5
607
330
5F6
100
AcDbEntity
  8
LC-002-100-D00-0
 62
     7
370
    50
100
AcDbLine
 10
-162.185587
 20
412.885191
 30
0.0
 11
-162.185587
 21
412.885191
 31
0.0
  0
LINE
  5
608
330
5F6
100
AcDbEntity
  8
LC-002-100-D00-0
 62
     7
370
    50
100
AcDbLine
 10
-162.185587
 20
412.885191
 30
0.0
 11
-162.222682
 21
413.418353
 31
0.0
  0
ENDBLK
  5
5F8
330
5F6
100
AcDbEntity
  8
0
100
AcDbBlockEnd
  0
BLOCK
  5
60D
330
60C
100
AcDbEntity
  8
0
100
AcDbBlockBegin
  2
KLON33
 70
     0
 71
     0
 10
0.0
 20
0.0
 30
0.0
  3
KLON33
  1

  4
KLON33
  0
LINE
  5
60F
330
60C
100
AcDbEntity
  8
LC-002-100-D00-0
 62
     7
370
    15
100
AcDbLine
 10
-231.22268
 20
452.563708
 30
0.0
 11
-231.17665
 21
452.576068
 31
0.0
  0
LINE
  5
610
330
60C
100
AcDbEntity
  8
LC-002-100-D00-0
 62
     7
370
    15
100
AcDbLine
 10
-231.17665
 20
452.576068
 30
0.0
 11
-228.222681
 21
453.369192
 31
0.0
  0
ENDBLK
  5
60E
330
60C
100
AcDbEntity
  8
0
100
AcDbBlockEnd
  0
BLOCK
  5
61B
330
61A
100
AcDbEntity
  8
0
100
AcDbBlockBegin
  2
POLY14
 70
     0
 71
     0
 10
0.0
 20
0.0
 30
0.0
  3
POLY14
  1

  4
POLY14
  0
LINE
  5
61D
330
61A
100
AcDbEntity
  8
LC-002-100-D00-0
 62
     7
370
    50
100
AcDbLine
 10
-180.929756
 20
453.369192
 30
0.0
 11
-180.929756
 21
453.369192
 31
0.0
  0
LINE
  5
61E
330
61A
100
AcDbEntity
  8
LC-002-100-D00-0
 62
     7
370
    50
100
AcDbLine
 10
-180.929756
 20
453.369192
 30
0.0
 11
-180.593182
 21
453.335183
 31
0.0
  0
LINE
  5
61F
330
61A
100
AcDbEntity
  8
LC-002-100-D00-0
 62
     7
370
    50
100
AcDbLine
 10
-180.593182
 20
453.335183
 30
0.0
 11
-180.593182
 21
453.335183
 31
0.0
  0
LINE
  5
620
330
61A
100
AcDbEntity
  8
LC-002-100-D00-0
 62
     7
370
    50
100
AcDbLine
 10
-180.593182
 20
453.335183
 30
0.0
 11
-179.920062
 21
453.267167
 31
0.0
  0
LINE
  5
621
330
61A
100
AcDbEntity
  8
LC-002-100-D00-0
 62
     7
370
    50
100
AcDbLine
 10
-179.920062
 20
453.267167
 30
0.0
 11
-179.920062
 21
453.267167
 31
0.0
  0
LINE
  5
622
330
61A
100
AcDbEntity
  8
LC-002-100-D00-0
 62
     7
370
    50
100
AcDbLine
 10
-179.920062
 20
453.267167
 30
0.0
 11
-178.970658
 21
452.741847
 31
0.0
  0
LINE
  5
623
330
61A
100
AcDbEntity
  8
LC-002-100-D00-0
 62
     7
370
    50
100
AcDbLine
 10
-178.970658
 20
452.741847
 30
0.0
 11
-178.970658
 21
452.741847
 31
0.0
  0
LINE
  5
624
330
61A
100
AcDbEntity
  8
LC-002-100-D00-0
 62
     7
370
    50
100
AcDbLine
 10
-178.970658
 20
452.741847
 30
0.0
 11
-178.547143
 21
452.16557
 31
0.0
  0
LINE
  5
625
330
61A
100
AcDbEntity
  8
LC-002-100-D00-0
 62
     7
370
    50
100
AcDbLine
 10
-178.547143
 20
452.16557
 30
0.0
 11
-178.547143
 21
452.16557
 31
0.0
  0
LINE
  5
626
330
61A
100
AcDbEntity
  8
LC-002-100-D00-0
 62
     7
370
    50
100
AcDbLine
 10
-178.547143
 20
452.16557
 30
0.0
 11
-178.324392
 21
451.862472
 31
0.0
  0
ENDBLK
  5
61C
330
61A
100
AcDbEntity
  8
0
100
AcDbBlockEnd
  0
BLOCK
  5
639
330
638
100
AcDbEntity
  8
0
100
AcDbBlockBegin
  2
POLY15
 70
     0
 71
     0
 10
0.0
 20
0.0
 30
0.0
  3
POLY15
  1

  4
POLY15
  0
LINE
  5
63B
330
638
100
AcDbEntity
  8
LC-002-100-D00-0
 62
     7
370
    50
100
AcDbLine
 10
-180.880757
 20
349.918352
 30
0.0
 11
-180.880757
 21
349.918352
 31
0.0
  0
LINE
  5
63C
330
638
100
AcDbEntity
  8
LC-002-100-D00-0
 62
     7
370
    50
100
AcDbLine
 10
-180.880757
 20
349.918352
 30
0.0
 11
-180.841093
 21
349.918352
 31
0.0
  0
LINE
  5
63D
330
638
100
AcDbEntity
  8
LC-002-100-D00-0
 62
     7
370
    50
100
AcDbLine
 10
-180.841093
 20
349.918352
 30
0.0
 11
-180.841093
 21
349.918352
 31
0.0
  0
LINE
  5
63E
330
638
100
AcDbEntity
  8
LC-002-100-D00-0
 62
     7
370
    50
100
AcDbLine
 10
-180.841093
 20
349.918352
 30
0.0
 11
-180.754484
 21
349.918352
 31
0.0
  0
LINE
  5
63F
330
638
100
AcDbEntity
  8
LC-002-100-D00-0
 62
     7
370
    50
100
AcDbLine
 10
-180.754484
 20
349.918352
 30
0.0
 11
-180.754484
 21
349.918352
 31
0.0
  0
LINE
  5
640
330
638
100
AcDbEntity
  8
LC-002-100-D00-0
 62
     7
370
    50
100
AcDbLine
 10
-180.754484
 20
349.918352
 30
0.0
 11
-181.308959
 21
349.918352
 31
0.0
  0
LINE
  5
641
330
638
100
AcDbEntity
  8
LC-002-100-D00-0
 62
     7
370
    50
100
AcDbLine
 10
-181.308959
 20
349.918352
 30
0.0
 11
-181.308959
 21
349.918352
 31
0.0
  0
LINE
  5
642
330
638
100
AcDbEntity
  8
LC-002-100-D00-0
 62
     7
370
    50
100
AcDbLine
 10
-181.308959
 20
349.918352
 30
0.0
 11
-182.135535
 21
349.918352
 31
0.0
  0
LINE
  5
643
330
638
100
AcDbEntity
  8
LC-002-100-D00-0
 62
     7
370
    50
100
AcDbLine
 10
-182.135535
 20
349.918352
 30
0.0
 11
-182.135535
 21
349.918352
 31
0.0
  0
LINE
  5
644
330
638
100
AcDbEntity
  8
LC-002-100-D00-0
 62
     7
370
    50
100
AcDbLine
 10
-182.135535
 20
349.918352
 30
0.0
 11
-183.313152
 21
349.918352
 31
0.0
  0
LINE
  5
645
330
638
100
AcDbEntity
  8
LC-002-100-D00-0
 62
     7
370
    50
100
AcDbLine
 10
-183.313152
 20
349.918352
 30
0.0
 11
-183.313152
 21
349.918352
 31
0.0
  0
LINE
  5
646
330
638
100
AcDbEntity
  8
LC-002-100-D00-0
 62
     7
370
    50
100
AcDbLine
 10
-183.313152
 20
349.918352
 30
0.0
 11
-185.141266
 21
349.918352
 31
0.0
  0
LINE
  5
647
330
638
100
AcDbEntity
  8
LC-002-100-D00-0
 62
     7
370
    50
100
AcDbLine
 10
-185.141266
 20
349.918352
 30
0.0
 11
-185.141266
 21
349.918352
 31
0.0
  0
LINE
  5
648
330
638
100
AcDbEntity
  8
LC-002-100-D00-0
 62
     7
370
    50
100
AcDbLine
 10
-185.141266
 20
349.918352
 30
0.0
 11
-187.842893
 21
349.918352
 31
0.0
  0
LINE
  5
649
330
638
100
AcDbEntity
  8
LC-002-100-D00-0
 62
     7
370
    50
100
AcDbLine
 10
-187.842893
 20
349.918352
 30
0.0
 11
-187.842893
 21
349.918352
 31
0.0
  0
LINE
  5
64A
330
638
100
AcDbEntity
  8
LC-002-100-D00-0
 62
     7
370
    50
100
AcDbLine
 10
-187.842893
 20
349.918352
 30
0.0
 11
-190.768157
 21
349.918352
 31
0.0
  0
LINE
  5
64B
330
638
100
AcDbEntity
  8
LC-002-100-D00-0
 62
     7
370
    50
100
AcDbLine
 10
-190.768157
 20
349.918352
 30
0.0
 11
-190.768157
 21
349.918352
 31
0.0
  0
LINE
  5
64C
330
638
100
AcDbEntity
  8
LC-002-100-D00-0
 62
     7
370
    50
100
AcDbLine
 10
-190.768157
 20
349.918352
 30
0.0
 11
-193.042261
 21
349.918352
 31
0.0
  0
LINE
  5
64D
330
638
100
AcDbEntity
  8
LC-002-100-D00-0
 62
     7
370
    50
100
AcDbLine
 10
-193.042261
 20
349.918352
 30
0.0
 11
-193.042261
 21
349.918352
 31
0.0
  0
LINE
  5
64E
330
638
100
AcDbEntity
  8
LC-002-100-D00-0
 62
     7
370
    50
100
AcDbLine
 10
-193.042261
 20
349.918352
 30
0.0
 11
-194.688936
 21
349.918352
 31
0.0
  0
LINE
  5
64F
330
638
100
AcDbEntity
  8
LC-002-100-D00-0
 62
     7
370
    50
100
AcDbLine
 10
-194.688936
 20
349.918352
 30
0.0
 11
-194.688936
 21
349.918352
 31
0.0
  0
LINE
  5
650
330
638
100
AcDbEntity
  8
LC-002-100-D00-0
 62
     7
370
    50
100
AcDbLine
 10
-194.688936
 20
349.918352
 30
0.0
 11
-196.13215
 21
349.918352
 31
0.0
  0
LINE
  5
651
330
638
100
AcDbEntity
  8
LC-002-100-D00-0
 62
     7
370
    50
100
AcDbLine
 10
-196.13215
 20
349.918352
 30
0.0
 11
-196.13215
 21
349.918352
 31
0.0
  0
LINE
  5
652
330
638
100
AcDbEntity
  8
LC-002-100-D00-0
 62
     7
370
    50
100
AcDbLine
 10
-196.13215
 20
349.918352
 30
0.0
 11
-197.600233
 21
349.918352
 31
0.0
  0
LINE
  5
653
330
638
100
AcDbEntity
  8
LC-002-100-D00-0
 62
     7
370
    50
100
AcDbLine
 10
-197.600233
 20
349.918352
 30
0.0
 11
-197.600233
 21
349.918352
 31
0.0
  0
LINE
  5
654
330
638
100
AcDbEntity
  8
LC-002-100-D00-0
 62
     7
370
    50
100
AcDbLine
 10
-197.600233
 20
349.918352
 30
0.0
 11
-198.661416
 21
349.918352
 31
0.0
  0
LINE
  5
655
330
638
100
AcDbEntity
  8
LC-002-100-D00-0
 62
     7
370
    50
100
AcDbLine
 10
-198.661416
 20
349.918352
 30
0.0
 11
-198.661416
 21
349.918352
 31
0.0
  0
LINE
  5
656
330
638
100
AcDbEntity
  8
LC-002-100-D00-0
 62
     7
370
    50
100
AcDbLine
 10
-198.661416
 20
349.918352
 30
0.0
 11
-198.589857
 21
349.918352
 31
0.0
  0
LINE
  5
657
330
638
100
AcDbEntity
  8
LC-002-100-D00-0
 62
     7
370
    50
100
AcDbLine
 10
-198.589857
 20
349.918352
 30
0.0
 11
-198.589857
 21
349.918352
 31
0.0
  0
LINE
  5
658
330
638
100
AcDbEntity
  8
LC-002-100-D00-0
 62
     7
370
    50
100
AcDbLine
 10
-198.589857
 20
349.918352
 30
0.0
 11
-198.56461
 21
349.918352
 31
0.0
  0
ENDBLK
  5
63A
330
638
100
AcDbEntity
  8
0
100
AcDbBlockEnd
  0
BLOCK
  5
663
330
662
100
AcDbEntity
  8
0
100
AcDbBlockBegin
  2
KLON34
 70
     0
 71
     0
 10
0.0
 20
0.0
 30
0.0
  3
KLON34
  1

  4
KLON34
  0
LINE
  5
665
330
662
100
AcDbEntity
  8
LC-002-100-D00-0
 62
     7
370
    25
100
AcDbLine
 10
-175.264832
 20
440.563157
 30
0.0
 11
-173.06868
 21
442.759309
 31
0.0
  0
LINE
  5
666
330
662
100
AcDbEntity
  8
LC-002-100-D00-0
 62
     7
370
    25
100
AcDbLine
 10
-187.916156
 20
450.362473
 30
0.0
 11
-184.909437
 21
453.369192
 31
0.0
  0
LINE
  5
667
330
662
100
AcDbEntity
  8
LC-002-100-D00-0
 62
     7
370
    25
100
AcDbLine
 10
-210.366797
 20
450.362473
 30
0.0
 11
-207.360077
 21
453.369192
 31
0.0
  0
LINE
  5
668
330
662
100
AcDbEntity
  8
LC-002-100-D00-0
 62
     7
370
    25
100
AcDbLine
 10
-231.222681
 20
451.957228
 30
0.0
 11
-230.393597
 21
452.786313
 31
0.0
  0
ENDBLK
  5
664
330
662
100
AcDbEntity
  8
0
100
AcDbBlockEnd
  0
BLOCK
  5
66B
330
66A
100
AcDbEntity
  8
0
100
AcDbBlockBegin
  2
KLON35
 70
     0
 71
     0
 10
0.0
 20
0.0
 30
0.0
  3
KLON35
  1

  4
KLON35
  0
LINE
  5
66D
330
66A
100
AcDbEntity
  8
LC-002-100-D00-0
 62
     7
370
    25
100
AcDbLine
 10
-100.156435
 20
403.418353
 30
0.0
 11
-97.156435
 21
406.418353
 31
0.0
  0
LINE
  5
66E
330
66A
100
AcDbEntity
  8
LC-002-100-D00-0
 62
     7
370
    25
100
AcDbLine
 10
-88.222681
 20
415.352106
 30
0.0
 11
-85.222681
 21
418.352106
 31
0.0
  0
LINE
  5
66F
330
66A
100
AcDbEntity
  8
LC-002-100-D00-0
 62
     7
370
    25
100
AcDbLine
 10
-122.607075
 20
403.418353
 30
0.0
 11
-119.607075
 21
406.418353
 31
0.0
  0
LINE
  5
670
330
66A
100
AcDbEntity
  8
LC-002-100-D00-0
 62
     7
370
    25
100
AcDbLine
 10
-88.222681
 20
437.802746
 30
0.0
 11
-85.222681
 21
440.802746
 31
0.0
  0
LINE
  5
671
330
66A
100
AcDbEntity
  8
LC-002-100-D00-0
 62
     7
370
    25
100
AcDbLine
 10
-145.057715
 20
403.418353
 30
0.0
 11
-142.057715
 21
406.418353
 31
0.0
  0
LINE
  5
672
330
66A
100
AcDbEntity
  8
LC-002-100-D00-0
 62
     7
370
    25
100
AcDbLine
 10
-133.234783
 20
415.241285
 30
0.0
 11
-130.508172
 21
417.967896
 31
0.0
  0
LINE
  5
673
330
66A
100
AcDbEntity
  8
LC-002-100-D00-0
 62
     7
370
    25
100
AcDbLine
 10
-167.459195
 20
403.467513
 30
0.0
 11
-164.452476
 21
406.474232
 31
0.0
  0
LINE
  5
674
330
66A
100
AcDbEntity
  8
LC-002-100-D00-0
 62
     7
370
    25
100
AcDbLine
 10
-189.909836
 20
403.467513
 30
0.0
 11
-186.903116
 21
406.474232
 31
0.0
  0
LINE
  5
675
330
66A
100
AcDbEntity
  8
LC-002-100-D00-0
 62
     7
370
    25
100
AcDbLine
 10
-212.360476
 20
403.467513
 30
0.0
 11
-209.353756
 21
406.474232
 31
0.0
  0
ENDBLK
  5
66C
330
66A
100
AcDbEntity
  8
0
100
AcDbBlockEnd
  0
BLOCK
  5
678
330
677
100
AcDbEntity
  8
0
100
AcDbBlockBegin
  2
KLON36
 70
     0
 71
     0
 10
0.0
 20
0.0
 30
0.0
  3
KLON36
  1

  4
KLON36
  0
LINE
  5
67A
330
677
100
AcDbEntity
  8
LC-002-100-D00-0
 62
     7
370
    25
100
AcDbLine
 10
-86.107075
 20
439.918353
 30
0.0
 11
-85.222681
 21
440.802746
 31
0.0
  0
LINE
  5
67B
330
677
100
AcDbEntity
  8
LC-002-100-D00-0
 62
     7
370
    25
100
AcDbLine
 10
-88.222681
 20
460.253387
 30
0.0
 11
-85.222681
 21
463.253387
 31
0.0
  0
ENDBLK
  5
679
330
677
100
AcDbEntity
  8
0
100
AcDbBlockEnd
  0
BLOCK
  5
67E
330
67D
100
AcDbEntity
  8
0
100
AcDbBlockBegin
  2
KLON37
 70
     0
 71
     0
 10
0.0
 20
0.0
 30
0.0
  3
KLON37
  1

  4
KLON37
  0
LINE
  5
680
330
67D
100
AcDbEntity
  8
LC-002-100-D00-0
 62
     7
370
    25
100
AcDbLine
 10
-155.958996
 20
437.418353
 30
0.0
 11
-153.222681
 21
440.154667
 31
0.0
  0
LINE
  5
681
330
67D
100
AcDbEntity
  8
LC-002-100-D00-0
 62
     7
370
    25
100
AcDbLine
 10
-165.222681
 20
450.605308
 30
0.0
 11
-162.222681
 21
453.605308
 31
0.0
  0
ENDBLK
  5
67F
330
67D
100
AcDbEntity
  8
0
100
AcDbBlockEnd
  0
BLOCK
  5
685
330
684
100
AcDbEntity
  8
0
100
AcDbBlockBegin
  2
KLON38
 70
     0
 71
     0
 10
0.0
 20
0.0
 30
0.0
  3
KLON38
  1

  4
KLON38
  0
LINE
  5
687
330
684
100
AcDbEntity
  8
LC-002-100-D00-0
 62
     7
370
    25
100
AcDbLine
 10
-119.972681
 20
428.503387
 30
0.0
 11
-118.472681
 21
430.003387
 31
0.0
  0
LINE
  5
688
330
684
100
AcDbEntity
  8
LC-002-100-D00-0
 62
     7
370
    25
100
AcDbLine
 10
-120.508498
 20
450.418211
 30
0.0
 11
-119.420972
 21
451.505737
 31
0.0
  0
LINE
  5
689
330
684
100
AcDbEntity
  8
LC-002-100-D00-0
 62
     7
370
    25
100
AcDbLine
 10
-145.222681
 20
448.154667
 30
0.0
 11
-143.411003
 21
449.966345
 31
0.0
  0
LINE
  5
68A
330
684
100
AcDbEntity
  8
LC-002-100-D00-0
 62
     7
370
    25
100
AcDbLine
 10
-141.270674
 20
452.106674
 30
0.0
 11
-139.458996
 21
453.918353
 31
0.0
  0
ENDBLK
  5
686
330
684
100
AcDbEntity
  8
0
100
AcDbBlockEnd
  0
BLOCK
  5
68D
330
68C
100
AcDbEntity
  8
0
100
AcDbBlockBegin
  2
KLON39
 70
     0
 71
     0
 10
0.0
 20
0.0
 30
0.0
  3
KLON39
  1

  4
KLON39
  0
LINE
  5
68F
330
68C
100
AcDbEntity
  8
LC-002-100-D00-0
 62
     7
370
    25
100
AcDbLine
 10
-106.722681
 20
419.302746
 30
0.0
 11
-105.222681
 21
420.802746
 31
0.0
  0
LINE
  5
690
330
68C
100
AcDbEntity
  8
LC-002-100-D00-0
 62
     7
370
    25
100
AcDbLine
 10
-106.722681
 20
441.753387
 30
0.0
 11
-104.557715
 21
443.918353
 31
0.0
  0
ENDBLK
  5
68E
330
68C
100
AcDbEntity
  8
0
100
AcDbBlockEnd
  0
BLOCK
  5
693
330
692
100
AcDbEntity
  8
0
100
AcDbBlockBegin
  2
KLON40
 70
     0
 71
     0
 10
0.0
 20
0.0
 30
0.0
  3
KLON40
  1

  4
KLON40
  0
LINE
  5
695
330
692
100
AcDbEntity
  8
LC-002-100-D00-0
 62
     7
370
    25
100
AcDbLine
 10
-99.222681
 20
449.253387
 30
0.0
 11
-97.722681
 21
450.753387
 31
0.0
  0
LINE
  5
696
330
692
100
AcDbEntity
  8
LC-002-100-D00-0
 62
     7
370
    25
100
AcDbLine
 10
-80.722681
 20
490.204027
 30
0.0
 11
-79.222681
 21
491.704027
 31
0.0
  0
LINE
  5
697
330
692
100
AcDbEntity
  8
LC-002-100-D00-0
 62
     7
370
    25
100
AcDbLine
 10
-80.722681
 20
512.654667
 30
0.0
 11
-79.222681
 21
514.154667
 31
0.0
  0
ENDBLK
  5
694
330
692
100
AcDbEntity
  8
0
100
AcDbBlockEnd
  0
BLOCK
  5
69A
330
699
100
AcDbEntity
  8
0
100
AcDbBlockBegin
  2
KLON41
 70
     0
 71
     0
 10
0.0
 20
0.0
 30
0.0
  3
KLON41
  1

  4
KLON41
  0
LINE
  5
69C
330
699
100
AcDbEntity
  8
LC-002-100-D00-0
 62
     7
370
    25
100
AcDbLine
 10
-151.522681
 20
441.854667
 30
0.0
 11
-150.022681
 21
443.354667
 31
0.0
  0
LINE
  5
69D
330
699
100
AcDbEntity
  8
LC-002-100-D00-0
 62
     7
370
    25
100
AcDbLine
 10
-152.722681
 20
463.105308
 30
0.0
 11
-151.222681
 21
464.605308
 31
0.0
  0
LINE
  5
69E
330
699
100
AcDbEntity
  8
LC-002-100-D00-0
 62
     7
370
    25
100
AcDbLine
 10
-168.360277
 20
469.918353
 30
0.0
 11
-166.860277
 21
471.418353
 31
0.0
  0
LINE
  5
69F
330
699
100
AcDbEntity
  8
LC-002-100-D00-0
 62
     7
370
    25
100
AcDbLine
 10
-190.810917
 20
469.918353
 30
0.0
 11
-189.310917
 21
471.418353
 31
0.0
  0
ENDBLK
  5
69B
330
699
100
AcDbEntity
  8
0
100
AcDbBlockEnd
  0
BLOCK
  5
6AD
330
6A2
100
AcDbEntity
  8
0
100
AcDbBlockBegin
  2
*D63
 70
     1
 71
     0
 10
0.0
 20
0.0
 30
0.0
  3
*D63
  1

  0
LINE
  5
6A3
330
6A2
100
AcDbEntity
  8
LC-002-100-D00-0
 62
     2
370
    -2
100
AcDbLine
 10
-105.222681
 20
413.418353
 30
0.0
 11
-34.046994
 21
413.418353
 31
0.0
  0
LINE
  5
6A4
330
6A2
100
AcDbEntity
  8
LC-002-100-D00-0
 62
     2
370
    -2
100
AcDbLine
 10
-120.729824
 20
437.418353
 30
0.0
 11
-34.046994
 21
437.418353
 31
0.0
  0
LINE
  5
6A5
330
6A2
100
AcDbEntity
  8
LC-002-100-D00-0
 62
     2
370
    -2
100
AcDbLine
 10
-43.046994
 20
487.418353
 30
0.0
 11
-43.046994
 21
537.418353
 31
0.0
  0
LINE
  5
6A6
330
6A2
100
AcDbEntity
  8
LC-002-100-D00-0
 62
     2
370
    -2
100
AcDbLine
 10
-43.046994
 20
363.418353
 30
0.0
 11
-43.046994
 21
257.825762
 31
0.0
  0
SOLID
  5
6A7
330
6A2
100
AcDbEntity
  8
LC-002-100-D00-0
 62
     2
100
AcDbTrace
 10
-34.71366
 20
363.418353
 30
0.0
 11
-51.380327
 21
363.418353
 31
0.0
 12
-43.046994
 22
413.418353
 32
0.0
 13
-43.046994
 23
413.418353
 33
0.0
  0
SOLID
  5
6A8
330
6A2
100
AcDbEntity
  8
LC-002-100-D00-0
 62
     2
100
AcDbTrace
 10
-51.380327
 20
487.418353
 30
0.0
 11
-34.71366
 21
487.418353
 31
0.0
 12
-43.046994
 22
437.418353
 32
0.0
 13
-43.046994
 23
437.418353
 33
0.0
  0
MTEXT
  5
6A9
330
6A2
100
AcDbEntity
  8
LC-002-100-D00-0
 62
     2
100
AcDbMText
 10
-98.046994
 20
300.892005
 30
0.0
 40
50.0
 41
0.0
 71
     5
 72
     1
  1
\A1;24
  7
LCTX15-400-0-0pDIN-Schrift
 11
6.123031769111886E-17
 21
1.0
 31
0.0
 73
     1
 44
1.0
  0
POINT
  5
6AA
330
6A2
100
AcDbEntity
  8
Defpoints
 62
     0
100
AcDbPoint
 10
-105.222681
 20
413.418353
 30
0.0
  0
POINT
  5
6AB
330
6A2
100
AcDbEntity
  8
Defpoints
 62
     0
100
AcDbPoint
 10
-120.729824
 20
437.418353
 30
0.0
  0
POINT
  5
6AC
330
6A2
100
AcDbEntity
  8
Defpoints
 62
     0
100
AcDbPoint
 10
-43.046994
 20
437.418353
 30
0.0
  0
ENDBLK
  5
6AE
330
6A2
100
AcDbEntity
  8
0
100
AcDbBlockEnd
  0
BLOCK
  5
6BB
330
6B0
100
AcDbEntity
  8
0
100
AcDbBlockBegin
  2
*D64
 70
     1
 71
     0
 10
0.0
 20
0.0
 30
0.0
  3
*D64
  1

  0
LINE
  5
6B1
330
6B0
100
AcDbEntity
  8
LC-002-100-D00-0
 62
     2
370
    -2
100
AcDbLine
 10
-228.222681
 20
453.369192
 30
0.0
 11
-304.955769
 21
453.369192
 31
0.0
  0
LINE
  5
6B2
330
6B0
100
AcDbEntity
  8
LC-002-100-D00-0
 62
     2
370
    -2
100
AcDbLine
 10
-228.222681
 20
403.467513
 30
0.0
 11
-304.955769
 21
403.467513
 31
0.0
  0
LINE
  5
6B3
330
6B0
100
AcDbEntity
  8
LC-002-100-D00-0
 62
     2
370
    -2
100
AcDbLine
 10
-295.955769
 20
353.467513
 30
0.0
 11
-295.955769
 21
303.467513
 31
0.0
  0
LINE
  5
6B4
330
6B0
100
AcDbEntity
  8
LC-002-100-D00-0
 62
     2
370
    -2
100
AcDbLine
 10
-295.955769
 20
503.369192
 30
0.0
 11
-295.955769
 21
594.628358
 31
0.0
  0
SOLID
  5
6B5
330
6B0
100
AcDbEntity
  8
LC-002-100-D00-0
 62
     2
100
AcDbTrace
 10
-304.289102
 20
503.369192
 30
0.0
 11
-287.622435
 21
503.369192
 31
0.0
 12
-295.955769
 22
453.369192
 32
0.0
 13
-295.955769
 23
453.369192
 33
0.0
  0
SOLID
  5
6B6
330
6B0
100
AcDbEntity
  8
LC-002-100-D00-0
 62
     2
100
AcDbTrace
 10
-287.622435
 20
353.467513
 30
0.0
 11
-304.289102
 21
353.467513
 31
0.0
 12
-295.955769
 22
403.467513
 32
0.0
 13
-295.955769
 23
403.467513
 33
0.0
  0
MTEXT
  5
6B7
330
6B0
100
AcDbEntity
  8
LC-002-100-D00-0
 62
     2
100
AcDbMText
 10
-350.955769
 20
510.277005
 30
0.0
 40
50.0
 41
0.0
 71
     5
 72
     1
  1
\A1;DN50
  7
LCTX15-400-0-0pDIN-Schrift
 11
6.123031769111886E-17
 21
1.0
 31
0.0
 73
     1
 44
1.0
  0
POINT
  5
6B8
330
6B0
100
AcDbEntity
  8
Defpoints
 62
     0
100
AcDbPoint
 10
-228.222681
 20
453.369192
 30
0.0
  0
POINT
  5
6B9
330
6B0
100
AcDbEntity
  8
Defpoints
 62
     0
100
AcDbPoint
 10
-228.222681
 20
403.467513
 30
0.0
  0
POINT
  5
6BA
330
6B0
100
AcDbEntity
  8
Defpoints
 62
     0
100
AcDbPoint
 10
-295.955769
 20
403.467513
 30
0.0
  0
ENDBLK
  5
6BC
330
6B0
100
AcDbEntity
  8
0
100
AcDbBlockEnd
  0
BLOCK
  5
6C9
330
6BF
100
AcDbEntity
  8
0
100
AcDbBlockBegin
  2
*D65
 70
     1
 71
     0
 10
0.0
 20
0.0
 30
0.0
  3
*D65
  1

  0
LINE
  5
6C0
330
6BF
100
AcDbEntity
  8
LC-002-100-D00-0
 62
     2
370
    -2
100
AcDbLine
 10
-202.722681
 20
471.418353
 30
0.0
 11
-414.105872
 21
471.418353
 31
0.0
  0
LINE
  5
6C1
330
6BF
100
AcDbEntity
  8
LC-002-100-D00-0
 62
     2
370
    -2
100
AcDbLine
 10
-199.222681
 20
341.918353
 30
0.0
 11
-414.105872
 21
341.918353
 31
0.0
  0
LINE
  5
6C2
330
6BF
100
AcDbEntity
  8
LC-002-100-D00-0
 62
     2
370
    -2
100
AcDbLine
 10
-405.105872
 20
421.418353
 30
0.0
 11
-405.105872
 21
391.918353
 31
0.0
  0
SOLID
  5
6C3
330
6BF
100
AcDbEntity
  8
LC-002-100-D00-0
 62
     2
100
AcDbTrace
 10
-396.772538
 20
421.418353
 30
0.0
 11
-413.439205
 21
421.418353
 31
0.0
 12
-405.105872
 22
471.418353
 32
0.0
 13
-405.105872
 23
471.418353
 33
0.0
  0
SOLID
  5
6C4
330
6BF
100
AcDbEntity
  8
LC-002-100-D00-0
 62
     2
100
AcDbTrace
 10
-413.439205
 20
391.918353
 30
0.0
 11
-396.772538
 21
391.918353
 31
0.0
 12
-405.105872
 22
341.918353
 32
0.0
 13
-405.105872
 23
341.918353
 33
0.0
  0
MTEXT
  5
6C5
330
6BF
100
AcDbEntity
  8
LC-002-100-D00-0
 62
     2
100
AcDbMText
 10
-460.105872
 20
427.117005
 30
0.0
 40
50.0
 41
0.0
 71
     5
 72
     1
  1
\A1;68-129,5
  7
LCTX15-400-0-0pDIN-Schrift
 11
6.123031769111886E-17
 21
1.0
 31
0.0
 73
     1
 44
1.0
  0
POINT
  5
6C6
330
6BF
100
AcDbEntity
  8
Defpoints
 62
     0
100
AcDbPoint
 10
-202.722681
 20
471.418353
 30
0.0
  0
POINT
  5
6C7
330
6BF
100
AcDbEntity
  8
Defpoints
 62
     0
100
AcDbPoint
 10
-199.222681
 20
341.918353
 30
0.0
  0
POINT
  5
6C8
330
6BF
100
AcDbEntity
  8
Defpoints
 62
     0
100
AcDbPoint
 10
-405.105872
 20
341.918353
 30
0.0
  0
ENDBLK
  5
6CA
330
6BF
100
AcDbEntity
  8
0
100
AcDbBlockEnd
  0
BLOCK
  5
6DC
330
6D0
100
AcDbEntity
  8
0
100
AcDbBlockBegin
  2
*D66
 70
     1
 71
     0
 10
0.0
 20
0.0
 30
0.0
  3
*D66
  1

  0
LINE
  5
6D1
330
6D0
100
AcDbEntity
  8
LC-003-003-----0
 62
     2
370
    -2
100
AcDbLine
 10
-231.22268
 20
406.474232
 30
0.0
 11
-231.22268
 21
199.822005
 31
0.0
  0
LINE
  5
6D2
330
6D0
100
AcDbEntity
  8
LC-003-003-----0
 62
     2
370
    -2
100
AcDbLine
 10
-125.222681
 20
406.418353
 30
0.0
 11
-125.222681
 21
199.822005
 31
0.0
  0
LINE
  5
6D3
330
6D0
100
AcDbEntity
  8
LC-003-003-----0
 62
     2
370
    -2
100
AcDbLine
 10
-281.22268
 20
208.822005
 30
0.0
 11
-331.22268
 21
208.822005
 31
0.0
  0
LINE
  5
6D4
330
6D0
100
AcDbEntity
  8
LC-003-003-----0
 62
     2
370
    -2
100
AcDbLine
 10
-75.222681
 20
208.822005
 30
0.0
 11
-25.222681
 21
208.822005
 31
0.0
  0
LINE
  5
6D5
330
6D0
100
AcDbEntity
  8
LC-003-003-----0
 62
     2
370
    -2
100
AcDbLine
 10
-231.22268
 20
208.822005
 30
0.0
 11
-125.222681
 21
208.822005
 31
0.0
  0
SOLID
  5
6D6
330
6D0
100
AcDbEntity
  8
LC-003-003-----0
 62
     2
100
AcDbTrace
 10
-281.22268
 20
200.488672
 30
0.0
 11
-281.22268
 21
217.155338
 31
0.0
 12
-231.22268
 22
208.822005
 32
0.0
 13
-231.22268
 23
208.822005
 33
0.0
  0
SOLID
  5
6D7
330
6D0
100
AcDbEntity
  8
LC-003-003-----0
 62
     2
100
AcDbTrace
 10
-75.222681
 20
217.155338
 30
0.0
 11
-75.222681
 21
200.488672
 31
0.0
 12
-125.222681
 22
208.822005
 32
0.0
 13
-125.222681
 23
208.822005
 33
0.0
  0
MTEXT
  5
6D8
330
6D0
100
AcDbEntity
  8
LC-003-003-----0
 62
     2
100
AcDbMText
 10
-200.116654
 20
263.822005
 30
0.0
 40
50.0
 41
0.0
 71
     5
 72
     1
  1
\A1;106
  7
LCTX15-400-0-0pDIN-Schrift
 73
     1
 44
1.0
  0
POINT
  5
6D9
330
6D0
100
AcDbEntity
  8
Defpoints
 62
     0
100
AcDbPoint
 10
-231.22268
 20
406.474232
 30
0.0
  0
POINT
  5
6DA
330
6D0
100
AcDbEntity
  8
Defpoints
 62
     0
100
AcDbPoint
 10
-125.222681
 20
406.418353
 30
0.0
  0
POINT
  5
6DB
330
6D0
100
AcDbEntity
  8
Defpoints
 62
     0
100
AcDbPoint
 10
-125.222681
 20
208.822005
 30
0.0
  0
ENDBLK
  5
6DD
330
6D0
100
AcDbEntity
  8
0
100
AcDbBlockEnd
  0
BLOCK
  5
6E9
330
6DF
100
AcDbEntity
  8
0
100
AcDbBlockBegin
  2
*D67
 70
     1
 71
     0
 10
0.0
 20
0.0
 30
0.0
  3
*D67
  1

  0
LINE
  5
6E0
330
6DF
100
AcDbEntity
  8
LC-003-003-----0
 62
     2
370
    -2
100
AcDbLine
 10
-231.22268
 20
406.474232
 30
0.0
 11
-231.22268
 21
92.902005
 31
0.0
  0
LINE
  5
6E1
330
6DF
100
AcDbEntity
  8
LC-003-003-----0
 62
     2
370
    -2
100
AcDbLine
 10
-85.222682
 20
418.352105
 30
0.0
 11
-85.222682
 21
92.902005
 31
0.0
  0
LINE
  5
6E2
330
6DF
100
AcDbEntity
  8
LC-003-003-----0
 62
     2
370
    -2
100
AcDbLine
 10
-181.22268
 20
101.902005
 30
0.0
 11
-135.222682
 21
101.902005
 31
0.0
  0
SOLID
  5
6E3
330
6DF
100
AcDbEntity
  8
LC-003-003-----0
 62
     2
100
AcDbTrace
 10
-181.22268
 20
110.235338
 30
0.0
 11
-181.22268
 21
93.568672
 31
0.0
 12
-231.22268
 22
101.902005
 32
0.0
 13
-231.22268
 23
101.902005
 33
0.0
  0
SOLID
  5
6E4
330
6DF
100
AcDbEntity
  8
LC-003-003-----0
 62
     2
100
AcDbTrace
 10
-135.222682
 20
93.568672
 30
0.0
 11
-135.222682
 21
110.235338
 31
0.0
 12
-85.222682
 22
101.902005
 32
0.0
 13
-85.222682
 23
101.902005
 33
0.0
  0
MTEXT
  5
6E5
330
6DF
100
AcDbEntity
  8
LC-003-003-----0
 62
     2
100
AcDbMText
 10
-165.508085
 20
156.902005
 30
0.0
 40
50.0
 41
0.0
 71
     5
 72
     1
  1
\A1;146
  7
LCTX15-400-0-0pDIN-Schrift
 73
     1
 44
1.0
  0
POINT
  5
6E6
330
6DF
100
AcDbEntity
  8
Defpoints
 62
     0
100
AcDbPoint
 10
-231.22268
 20
406.474232
 30
0.0
  0
POINT
  5
6E7
330
6DF
100
AcDbEntity
  8
Defpoints
 62
     0
100
AcDbPoint
 10
-85.222682
 20
418.352105
 30
0.0
  0
POINT
  5
6E8
330
6DF
100
AcDbEntity
  8
Defpoints
 62
     0
100
AcDbPoint
 10
-85.222682
 20
101.902005
 30
0.0
  0
ENDBLK
  5
6EA
330
6DF
100
AcDbEntity
  8
0
100
AcDbBlockEnd
  0
BLOCK
  5
758
330
757
100
AcDbEntity
  8
0
100
AcDbBlockBegin
  2
KLON42
 70
     0
 71
     0
 10
0.0
 20
0.0
 30
0.0
  3
KLON42
  1

  4
KLON42
  0
LINE
  5
75A
330
757
100
AcDbEntity
  8
LC-002-100-D00-0
 62
     7
370
    25
100
AcDbLine
 10
543.865395
 20
403.526095
 30
0.0
 11
552.293668
 21
411.954369
 31
0.0
  0
LINE
  5
75B
330
757
100
AcDbEntity
  8
LC-002-100-D00-0
 62
     7
370
    25
100
AcDbLine
 10
521.307012
 20
403.418353
 30
0.0
 11
524.307012
 21
406.418353
 31
0.0
  0
LINE
  5
75C
330
757
100
AcDbEntity
  8
LC-002-100-D00-0
 62
     7
370
    25
100
AcDbLine
 10
549.401411
 20
431.512752
 30
0.0
 11
552.401411
 21
434.512752
 31
0.0
  0
LINE
  5
75D
330
757
100
AcDbEntity
  8
LC-002-100-D00-0
 62
     7
370
    25
100
AcDbLine
 10
498.856371
 20
403.418353
 30
0.0
 11
501.856371
 21
406.418353
 31
0.0
  0
LINE
  5
75E
330
757
100
AcDbEntity
  8
LC-002-100-D00-0
 62
     7
370
    25
100
AcDbLine
 10
476.405731
 20
403.418353
 30
0.0
 11
479.405731
 21
406.418353
 31
0.0
  0
LINE
  5
75F
330
757
100
AcDbEntity
  8
LC-002-100-D00-0
 62
     7
370
    25
100
AcDbLine
 10
453.955091
 20
403.418353
 30
0.0
 11
456.955091
 21
406.418353
 31
0.0
  0
LINE
  5
760
330
757
100
AcDbEntity
  8
LC-002-100-D00-0
 62
     7
370
    25
100
AcDbLine
 10
431.50445
 20
403.418353
 30
0.0
 11
434.50445
 21
406.418353
 31
0.0
  0
LINE
  5
761
330
757
100
AcDbEntity
  8
LC-002-100-D00-0
 62
     7
370
    25
100
AcDbLine
 10
410.396432
 20
404.760975
 30
0.0
 11
412.627068
 21
406.99161
 31
0.0
  0
LINE
  5
762
330
757
100
AcDbEntity
  8
LC-002-100-D00-0
 62
     7
370
    25
100
AcDbLine
 10
405.401411
 20
422.216594
 30
0.0
 11
408.401411
 21
425.216594
 31
0.0
  0
ENDBLK
  5
759
330
757
100
AcDbEntity
  8
0
100
AcDbBlockEnd
  0
BLOCK
  5
766
330
765
100
AcDbEntity
  8
0
100
AcDbBlockBegin
  2
KLON43
 70
     0
 71
     0
 10
0.0
 20
0.0
 30
0.0
  3
KLON43
  1

  4
KLON43
  0
LINE
  5
768
330
765
100
AcDbEntity
  8
LC-002-100-D00-0
 62
     7
370
    25
100
AcDbLine
 10
532.856371
 20
437.418353
 30
0.0
 11
533.401411
 21
437.963392
 31
0.0
  0
LINE
  5
769
330
765
100
AcDbEntity
  8
LC-002-100-D00-0
 62
     7
370
    25
100
AcDbLine
 10
525.191857
 20
452.204479
 30
0.0
 11
526.337033
 21
453.349655
 31
0.0
  0
LINE
  5
76A
330
765
100
AcDbEntity
  8
LC-002-100-D00-0
 62
     7
370
    25
100
AcDbLine
 10
502.955091
 20
452.418353
 30
0.0
 11
504.455091
 21
453.918353
 31
0.0
  0
LINE
  5
76B
330
765
100
AcDbEntity
  8
LC-002-100-D00-0
 62
     7
370
    25
100
AcDbLine
 10
480.50445
 20
452.418353
 30
0.0
 11
482.00445
 21
453.918353
 31
0.0
  0
LINE
  5
76C
330
765
100
AcDbEntity
  8
LC-002-100-D00-0
 62
     7
370
    25
100
AcDbLine
 10
458.05381
 20
452.418353
 30
0.0
 11
459.55381
 21
453.918353
 31
0.0
  0
LINE
  5
76D
330
765
100
AcDbEntity
  8
LC-002-100-D00-0
 62
     7
370
    25
100
AcDbLine
 10
425.60317
 20
442.418353
 30
0.0
 11
427.10317
 21
443.918353
 31
0.0
  0
LINE
  5
76E
330
765
100
AcDbEntity
  8
LC-002-100-D00-0
 62
     7
370
    25
100
AcDbLine
 10
428.401411
 20
445.216594
 30
0.0
 11
429.901411
 21
446.716594
 31
0.0
  0
LINE
  5
76F
330
765
100
AcDbEntity
  8
LC-002-100-D00-0
 62
     7
370
    25
100
AcDbLine
 10
435.60317
 20
452.418353
 30
0.0
 11
437.10317
 21
453.918353
 31
0.0
  0
ENDBLK
  5
767
330
765
100
AcDbEntity
  8
0
100
AcDbBlockEnd
  0
BLOCK
  5
77C
330
772
100
AcDbEntity
  8
0
100
AcDbBlockBegin
  2
*D70
 70
     1
 71
     0
 10
0.0
 20
0.0
 30
0.0
  3
*D70
  1

  0
LINE
  5
773
330
772
100
AcDbEntity
  8
LC-002-100-D00-0
 62
     2
370
    -2
100
AcDbLine
 10
405.401411
 20
413.418353
 30
0.0
 11
405.401411
 21
296.347005
 31
0.0
  0
LINE
  5
774
330
772
100
AcDbEntity
  8
LC-002-100-D00-0
 62
     2
370
    -2
100
AcDbLine
 10
552.401411
 20
413.418353
 30
0.0
 11
552.401411
 21
296.347005
 31
0.0
  0
LINE
  5
775
330
772
100
AcDbEntity
  8
LC-002-100-D00-0
 62
     2
370
    -2
100
AcDbLine
 10
455.401411
 20
305.347005
 30
0.0
 11
502.401411
 21
305.347005
 31
0.0
  0
SOLID
  5
776
330
772
100
AcDbEntity
  8
LC-002-100-D00-0
 62
     2
100
AcDbTrace
 10
455.401411
 20
313.680338
 30
0.0
 11
455.401411
 21
297.013672
 31
0.0
 12
405.401411
 22
305.347005
 32
0.0
 13
405.401411
 23
305.347005
 33
0.0
  0
SOLID
  5
777
330
772
100
AcDbEntity
  8
LC-002-100-D00-0
 62
     2
100
AcDbTrace
 10
502.401411
 20
297.013672
 30
0.0
 11
502.401411
 21
313.680338
 31
0.0
 12
552.401411
 22
305.347005
 32
0.0
 13
552.401411
 23
305.347005
 33
0.0
  0
MTEXT
  5
778
330
772
100
AcDbEntity
  8
LC-002-100-D00-0
 62
     2
100
AcDbMText
 10
476.081545
 20
360.347005
 30
0.0
 40
50.0
 41
0.0
 71
     5
 72
     1
  1
\A1;147
  7
LCTX15-400-0-0pDIN-Schrift
 73
     1
 44
1.0
  0
POINT
  5
779
330
772
100
AcDbEntity
  8
Defpoints
 62
     0
100
AcDbPoint
 10
405.401411
 20
413.418353
 30
0.0
  0
POINT
  5
77A
330
772
100
AcDbEntity
  8
Defpoints
 62
     0
100
AcDbPoint
 10
552.401411
 20
413.418353
 30
0.0
  0
POINT
  5
77B
330
772
100
AcDbEntity
  8
Defpoints
 62
     0
100
AcDbPoint
 10
552.401411
 20
305.347005
 30
0.0
  0
ENDBLK
  5
77D
330
772
100
AcDbEntity
  8
0
100
AcDbBlockEnd
  0
BLOCK
  5
78B
330
780
100
AcDbEntity
  8
0
100
AcDbBlockBegin
  2
*D71
 70
     1
 71
     0
 10
0.0
 20
0.0
 30
0.0
  3
*D71
  1

  0
LINE
  5
781
330
780
100
AcDbEntity
  8
LC-002-100-D00-0
 62
     2
370
    -2
100
AcDbLine
 10
928.901411
 20
471.418353
 30
0.0
 11
1030.83206
 21
471.418353
 31
0.0
  0
LINE
  5
782
330
780
100
AcDbEntity
  8
LC-002-100-D00-0
 62
     2
370
    -2
100
AcDbLine
 10
692.401411
 20
403.418353
 30
0.0
 11
1030.83206
 21
403.418353
 31
0.0
  0
LINE
  5
783
330
780
100
AcDbEntity
  8
LC-002-100-D00-0
 62
     2
370
    -2
100
AcDbLine
 10
1021.83206
 20
353.418353
 30
0.0
 11
1021.83206
 21
303.418353
 31
0.0
  0
LINE
  5
784
330
780
100
AcDbEntity
  8
LC-002-100-D00-0
 62
     2
370
    -2
100
AcDbLine
 10
1021.83206
 20
521.418353
 30
0.0
 11
1021.83206
 21
541.690621
 31
0.0
  0
SOLID
  5
785
330
780
100
AcDbEntity
  8
LC-002-100-D00-0
 62
     2
100
AcDbTrace
 10
1013.498727
 20
521.418353
 30
0.0
 11
1030.165393
 21
521.418353
 31
0.0
 12
1021.83206
 22
471.418353
 32
0.0
 13
1021.83206
 23
471.418353
 33
0.0
  0
SOLID
  5
786
330
780
100
AcDbEntity
  8
LC-002-100-D00-0
 62
     2
100
AcDbTrace
 10
1030.165393
 20
353.418353
 30
0.0
 11
1013.498727
 21
353.418353
 31
0.0
 12
1021.83206
 22
403.418353
 32
0.0
 13
1021.83206
 23
403.418353
 33
0.0
  0
MTEXT
  5
787
330
780
100
AcDbEntity
  8
LC-002-100-D00-0
 62
     2
100
AcDbMText
 10
966.83206
 20
499.882005
 30
0.0
 40
50.0
 41
0.0
 71
     5
 72
     1
  1
\A1;68
  7
LCTX15-400-0-0pDIN-Schrift
 11
6.123031769111886E-17
 21
1.0
 31
0.0
 73
     1
 44
1.0
  0
POINT
  5
788
330
780
100
AcDbEntity
  8
Defpoints
 62
     0
100
AcDbPoint
 10
928.901411
 20
471.418353
 30
0.0
  0
POINT
  5
789
330
780
100
AcDbEntity
  8
Defpoints
 62
     0
100
AcDbPoint
 10
692.401411
 20
403.418353
 30
0.0
  0
POINT
  5
78A
330
780
100
AcDbEntity
  8
Defpoints
 62
     0
100
AcDbPoint
 10
1021.83206
 20
403.418353
 30
0.0
  0
ENDBLK
  5
78C
330
780
100
AcDbEntity
  8
0
100
AcDbBlockEnd
  0
ENDSEC
  0
SECTION
  2
ENTITIES
  0
LINE
  5
31
330
1F
100
AcDbEntity
  8
LC-001-002-----0
 62
     7
370
    25
100
AcDbLine
 10
542.401411
 20
403.418352
 30
0.0
 11
692.401411
 21
403.418352
 31
0.0
  0
LINE
  5
33
330
1F
100
AcDbEntity
  8
LC-002-100-D00-0
 62
     7
370
    50
100
AcDbLine
 10
928.901423
 20
73.324182
 30
0.0
 11
928.901423
 21
71.824182
 31
0.0
  0
LINE
  5
34
330
1F
100
AcDbEntity
  8
LC-002-100-D00-0
 62
     7
370
    50
100
AcDbLine
 10
928.901423
 20
71.824182
 30
0.0
 11
923.901423
 21
71.824182
 31
0.0
  0
LINE
  5
35
330
1F
100
AcDbEntity
  8
LC-002-100-D00-0
 62
     7
370
    50
100
AcDbLine
 10
923.901423
 20
73.324182
 30
0.0
 11
928.901423
 21
73.324182
 31
0.0
  0
LINE
  5
36
330
1F
100
AcDbEntity
  8
LC-002-100-D00-0
 62
     7
370
    50
100
AcDbLine
 10
33.901423
 20
71.824182
 30
0.0
 11
923.901423
 21
71.824182
 31
0.0
  0
LINE
  5
37
330
1F
100
AcDbEntity
  8
LC-002-100-D00-0
 62
     7
370
    50
100
AcDbLine
 10
33.901423
 20
73.324182
 30
0.0
 11
923.901423
 21
73.324182
 31
0.0
  0
LINE
  5
38
330
1F
100
AcDbEntity
  8
LC-002-100-D00-0
 62
     7
370
    50
100
AcDbLine
 10
28.901423
 20
71.824182
 30
0.0
 11
28.901423
 21
73.324182
 31
0.0
  0
LINE
  5
39
330
1F
100
AcDbEntity
  8
LC-002-100-D00-0
 62
     7
370
    50
100
AcDbLine
 10
33.901423
 20
71.824182
 30
0.0
 11
28.901423
 21
71.824182
 31
0.0
  0
LINE
  5
3A
330
1F
100
AcDbEntity
  8
LC-002-100-D00-0
 62
     7
370
    50
100
AcDbLine
 10
28.901423
 20
73.324182
 30
0.0
 11
33.901423
 21
73.324182
 31
0.0
  0
LINE
  5
3B
330
1F
100
AcDbEntity
  8
LC-002-100-D00-0
 62
     7
370
    50
100
AcDbLine
 10
28.901423
 20
70.324182
 30
0.0
 11
28.901423
 21
71.824182
 31
0.0
  0
LINE
  5
3C
330
1F
100
AcDbEntity
  8
LC-002-100-D00-0
 62
     7
370
    50
100
AcDbLine
 10
928.901423
 20
71.824182
 30
0.0
 11
928.901423
 21
70.324182
 31
0.0
  0
ARC
  5
3D
330
1F
100
AcDbEntity
  8
LC-002-100-D00-0
 62
     7
370
    50
100
AcDbCircle
 10
876.401423
 20
3.824182
 30
0.0
 40
2.5
100
AcDbArc
 50
270.0
 51
0.0
  0
ARC
  5
3E
330
1F
100
AcDbEntity
  8
LC-002-100-D00-0
 62
     7
370
    50
100
AcDbCircle
 10
876.401423
 20
50.824182
 30
0.0
 40
2.5
100
AcDbArc
 50
0.0
 51
90.0
  0
LINE
  5
3F
330
1F
100
AcDbEntity
  8
LC-002-100-D00-0
 62
     7
370
    50
100
AcDbLine
 10
878.901423
 20
3.824182
 30
0.0
 11
878.901423
 21
50.824182
 31
0.0
  0
LINE
  5
40
330
1F
100
AcDbEntity
  8
LC-002-100-D00-0
 62
     7
370
    50
100
AcDbLine
 10
876.401423
 20
1.324182
 30
0.0
 11
81.401423
 21
1.324182
 31
0.0
  0
LINE
  5
41
330
1F
100
AcDbEntity
  8
LC-002-100-D00-0
 62
     7
370
    50
100
AcDbLine
 10
81.401423
 20
53.324182
 30
0.0
 11
876.401423
 21
53.324182
 31
0.0
  0
ARC
  5
42
330
1F
100
AcDbEntity
  8
LC-002-100-D00-0
 62
     7
370
    50
100
AcDbCircle
 10
81.401423
 20
50.824182
 30
0.0
 40
2.500000000000341
100
AcDbArc
 50
90.0
 51
180.0
  0
ARC
  5
43
330
1F
100
AcDbEntity
  8
LC-002-100-D00-0
 62
     7
370
    50
100
AcDbCircle
 10
81.401423
 20
3.824182
 30
0.0
 40
2.5
100
AcDbArc
 50
180.0
 51
270.0
  0
LINE
  5
44
330
1F
100
AcDbEntity
  8
LC-002-100-D00-0
 62
     7
370
    50
100
AcDbLine
 10
78.901423
 20
3.824182
 30
0.0
 11
78.901423
 21
50.824182
 31
0.0
  0
LINE
  5
45
330
1F
100
AcDbEntity
  8
LC-002-100-D00-0
 62
     7
370
    50
100
AcDbLine
 10
33.901423
 20
-50.175818
 30
0.0
 11
923.901423
 21
-50.175818
 31
0.0
  0
ARC
  5
46
330
1F
100
AcDbEntity
  8
LC-002-100-D00-0
 62
     7
370
    50
100
AcDbCircle
 10
33.901423
 20
-45.175818
 30
0.0
 40
5.0
100
AcDbArc
 50
180.0
 51
270.0
  0
ARC
  5
47
330
1F
100
AcDbEntity
  8
LC-002-100-D00-0
 62
     7
370
    50
100
AcDbCircle
 10
923.901423
 20
-45.175818
 30
0.0
 40
5.0
100
AcDbArc
 50
270.0
 51
0.0
  0
LINE
  5
48
330
1F
100
AcDbEntity
  8
LC-002-100-D00-0
 62
     7
370
    50
100
AcDbLine
 10
28.901423
 20
70.324182
 30
0.0
 11
28.901423
 21
-45.175818
 31
0.0
  0
LINE
  5
49
330
1F
100
AcDbEntity
  8
LC-002-100-D00-0
 62
     7
370
    50
100
AcDbLine
 10
928.901423
 20
70.324182
 30
0.0
 11
928.901423
 21
-45.175818
 31
0.0
  0
CIRCLE
  5
4A
330
1F
100
AcDbEntity
  8
LC-002-100-D00-0
 62
     7
370
    50
100
AcDbCircle
 10
848.901423
 20
27.324182
 30
0.0
 40
2.999999999999773
  0
CIRCLE
  5
4B
330
1F
100
AcDbEntity
  8
LC-002-100-D00-0
 62
     7
370
    50
100
AcDbCircle
 10
713.901423
 20
27.324182
 30
0.0
 40
3.0
  0
CIRCLE
  5
4C
330
1F
100
AcDbEntity
  8
LC-002-100-D00-0
 62
     7
370
    50
100
AcDbCircle
 10
578.901423
 20
27.324182
 30
0.0
 40
3.0
  0
CIRCLE
  5
4D
330
1F
100
AcDbEntity
  8
LC-002-100-D00-0
 62
     7
370
    50
100
AcDbCircle
 10
378.901423
 20
27.324182
 30
0.0
 40
3.0
  0
CIRCLE
  5
4E
330
1F
100
AcDbEntity
  8
LC-002-100-D00-0
 62
     7
370
    50
100
AcDbCircle
 10
243.901423
 20
27.324182
 30
0.0
 40
3.0
  0
CIRCLE
  5
4F
330
1F
100
AcDbEntity
  8
LC-002-100-D00-0
 62
     7
370
    50
100
AcDbCircle
 10
108.901423
 20
27.324182
 30
0.0
 40
3.0
  0
LINE
  5
50
330
1F
100
AcDbEntity
  8
LC-002-100-D00-0
 62
     7
370
    50
100
AcDbLine
 10
870.875246
 20
15.001513
 30
0.0
 11
870.875246
 21
3.824182
 31
0.0
  0
INSERT
  5
57
330
1F
100
AcDbEntity
  8
LC-002-100-D00-0
 62
     7
370
    50
100
AcDbBlockReference
  2
KLON1
 10
0.0
 20
0.0
 30
0.0
  0
INSERT
  5
5F
330
1F
100
AcDbEntity
  8
LC-002-100-D00-0
 62
     7
370
    50
100
AcDbBlockReference
  2
KLON2
 10
0.0
 20
0.0
 30
0.0
  0
LINE
  5
60
330
1F
100
AcDbEntity
  8
LC-002-100-D00-0
 62
     7
370
    50
100
AcDbLine
 10
870.875246
 20
50.809542
 30
0.0
 11
870.875246
 21
39.64685
 31
0.0
  0
INSERT
  5
66
330
1F
100
AcDbEntity
  8
LC-002-100-D00-0
 62
     7
370
    50
100
AcDbBlockReference
  2
KLON3
 10
0.0
 20
0.0
 30
0.0
  0
INSERT
  5
6C
330
1F
100
AcDbEntity
  8
LC-002-100-D00-0
 62
     7
370
    50
100
AcDbBlockReference
  2
KLON4
 10
0.0
 20
0.0
 30
0.0
  0
INSERT
  5
72
330
1F
100
AcDbEntity
  8
LC-002-100-D00-0
 62
     7
370
    50
100
AcDbBlockReference
  2
KLON5
 10
0.0
 20
0.0
 30
0.0
  0
LINE
  5
73
330
1F
100
AcDbEntity
  8
LC-002-100-D00-0
 62
     7
370
    50
100
AcDbLine
 10
86.9276
 20
50.809542
 30
0.0
 11
86.9276
 21
39.64685
 31
0.0
  0
INSERT
  5
7B
330
1F
100
AcDbEntity
  8
LC-002-100-D00-0
 62
     7
370
    50
100
AcDbBlockReference
  2
KLON6
 10
0.0
 20
0.0
 30
0.0
  0
INSERT
  5
82
330
1F
100
AcDbEntity
  8
LC-002-100-D00-0
 62
     7
370
    50
100
AcDbBlockReference
  2
KLON7
 10
0.0
 20
0.0
 30
0.0
  0
LINE
  5
83
330
1F
100
AcDbEntity
  8
LC-002-100-D00-0
 62
     7
370
    50
100
AcDbLine
 10
86.9276
 20
15.001513
 30
0.0
 11
86.9276
 21
3.824182
 31
0.0
  0
INSERT
  5
89
330
1F
100
AcDbEntity
  8
LC-002-100-D00-0
 62
     7
370
    50
100
AcDbBlockReference
  2
KLON8
 10
0.0
 20
0.0
 30
0.0
  0
ELLIPSE
  5
8A
330
1F
100
AcDbEntity
  8
LC-002-100-D00-0
 62
     7
370
    50
100
AcDbEllipse
 10
870.828455
 20
3.824182
 30
0.0
 11
0.0
 21
-2.5
 31
0.0
210
0.0
220
0.0
230
1.0
 40
0.018242
 41
3.141592653594779
 42
4.712388980377186
  0
ELLIPSE
  5
8B
330
1F
100
AcDbEntity
  8
LC-002-100-D00-0
 62
     7
370
    50
100
AcDbEllipse
 10
733.828455
 20
3.824182
 30
0.0
 11
0.0
 21
-2.500000122070309
 31
0.0
210
0.0
220
0.0
230
1.0
 40
0.018242
 41
3.141592653589793
 42
4.712388980381052
  0
ELLIPSE
  5
8C
330
1F
100
AcDbEntity
  8
LC-002-100-D00-0
 62
     7
370
    50
100
AcDbEllipse
 10
939.37406
 20
3.824182
 30
0.0
 11
68.4999999999998
 21
0.0
 31
0.0
210
0.0
220
0.0
230
1.0
 40
0.036496
 41
3.141592653597523
 42
3.169858841660708
  0
ELLIPSE
  5
8D
330
1F
100
AcDbEntity
  8
LC-002-100-D00-0
 62
     7
370
    50
100
AcDbEllipse
 10
86.974391
 20
3.824182
 30
0.0
 11
0.0
 21
-2.500000015258789
 31
0.0
210
0.0
220
0.0
230
1.0
 40
0.018242
 41
1.570796326802445
 42
3.141592653591039
  0
ELLIPSE
  5
8E
330
1F
100
AcDbEntity
  8
LC-002-100-D00-0
 62
     7
370
    50
100
AcDbEllipse
 10
223.974391
 20
3.824182
 30
0.0
 11
0.0
 21
-2.499999927520751
 31
0.0
210
0.0
220
0.0
230
1.0
 40
0.018242
 41
1.570796326798488
 42
3.141592653597272
  0
ELLIPSE
  5
8F
330
1F
100
AcDbEntity
  8
LC-002-100-D00-0
 62
     7
370
    50
100
AcDbEllipse
 10
18.428786
 20
3.824182
 30
0.0
 11
68.50000000816537
 21
0.0
 31
0.0
210
0.0
220
0.0
230
1.0
 40
0.036496
 41
6.254919119109449
 42
6.283185307179586
  0
ELLIPSE
  5
90
330
1F
100
AcDbEntity
  8
LC-002-100-D00-0
 62
     7
370
    50
100
AcDbEllipse
 10
939.37406
 20
50.824182
 30
0.0
 11
68.50000000000603
 21
0.0
 31
0.0
210
0.0
220
0.0
230
1.0
 40
0.036496
 41
3.141592653589799
 42
3.147448628039367
  0
ELLIPSE
  5
91
330
1F
100
AcDbEntity
  8
LC-002-100-D00-0
 62
     7
370
    50
100
AcDbEllipse
 10
870.828455
 20
50.824182
 30
0.0
 11
0.0
 21
-2.499999633789036
 31
0.0
210
0.0
220
0.0
230
1.0
 40
0.018242
 41
4.71238898038478
 42
6.283185334015068
  0
ELLIPSE
  5
92
330
1F
100
AcDbEntity
  8
LC-002-100-D00-0
 62
     7
370
    50
100
AcDbEllipse
 10
18.428786
 20
50.824182
 30
0.0
 11
68.5000000073474
 21
0.0
 31
0.0
210
0.0
220
0.0
230
1.0
 40
0.036496
 41
6.277329332730958
 42
6.283185307179581
  0
ELLIPSE
  5
93
330
1F
100
AcDbEntity
  8
LC-002-100-D00-0
 62
     7
370
    50
100
AcDbEllipse
 10
86.974391
 20
50.824182
 30
0.0
 11
0.0
 21
-2.500000015258789
 31
0.0
210
0.0
220
0.0
230
1.0
 40
0.018242
 41
6.283185280337878
 42
7.853981633974668
  0
ELLIPSE
  5
94
330
1F
100
AcDbEntity
  8
LC-002-100-D00-0
 62
     7
370
    50
100
AcDbEllipse
 10
733.828455
 20
50.824182
 30
0.0
 11
0.0
 21
-2.500000061035156
 31
0.0
210
0.0
220
0.0
230
1.0
 40
0.018242
 41
4.712388980388467
 42
6.283185320152352
  0
ELLIPSE
  5
95
330
1F
100
AcDbEntity
  8
LC-002-100-D00-0
 62
     7
370
    50
100
AcDbEllipse
 10
223.974391
 20
50.824182
 30
0.0
 11
0.0
 21
-2.500000011444092
 31
0.0
210
0.0
220
0.0
230
1.0
 40
0.018242
 41
6.283185294211183
 42
7.853981633970703
  0
LINE
  5
96
330
1F
100
AcDbEntity
  8
LC-002-100-D00-0
 62
     7
370
    50
100
AcDbLine
 10
733.87406
 20
3.824182
 30
0.0
 11
733.87406
 21
6.674698
 31
0.0
  0
INSERT
  5
9C
330
1F
100
AcDbEntity
  8
LC-002-100-D00-0
 62
     7
370
    50
100
AcDbBlockReference
  2
KLON9
 10
0.0
 20
0.0
 30
0.0
  0
INSERT
  5
A2
330
1F
100
AcDbEntity
  8
LC-002-100-D00-0
 62
     7
370
    50
100
AcDbBlockReference
  2
KLON10
 10
0.0
 20
0.0
 30
0.0
  0
LINE
  5
A3
330
1F
100
AcDbEntity
  8
LC-002-100-D00-0
 62
     7
370
    50
100
AcDbLine
 10
223.928786
 20
3.824182
 30
0.0
 11
223.928786
 21
6.674698
 31
0.0
  0
INSERT
  5
AA
330
1F
100
AcDbEntity
  8
LC-002-100-D00-0
 62
     7
370
    50
100
AcDbBlockReference
  2
KLON11
 10
0.0
 20
0.0
 30
0.0
  0
INSERT
  5
B1
330
1F
100
AcDbEntity
  8
LC-002-100-D00-0
 62
     7
370
    50
100
AcDbBlockReference
  2
KLON12
 10
0.0
 20
0.0
 30
0.0
  0
INSERT
  5
B7
330
1F
100
AcDbEntity
  8
LC-002-100-D00-0
 62
     7
370
    50
100
AcDbBlockReference
  2
KLON13
 10
0.0
 20
0.0
 30
0.0
  0
INSERT
  5
BE
330
1F
100
AcDbEntity
  8
LC-002-100-D00-0
 62
     7
370
    50
100
AcDbBlockReference
  2
KLON14
 10
0.0
 20
0.0
 30
0.0
  0
INSERT
  5
C5
330
1F
100
AcDbEntity
  8
LC-002-100-D00-0
 62
     7
370
    50
100
AcDbBlockReference
  2
KLON15
 10
0.0
 20
0.0
 30
0.0
  0
INSERT
  5
CB
330
1F
100
AcDbEntity
  8
LC-002-100-D00-0
 62
     7
370
    50
100
AcDbBlockReference
  2
KLON16
 10
0.0
 20
0.0
 30
0.0
  0
LINE
  5
CC
330
1F
100
AcDbEntity
  8
LC-002-100-D00-0
 62
     7
370
    50
100
AcDbLine
 10
733.87406
 20
47.973665
 30
0.0
 11
733.87406
 21
50.824181
 31
0.0
  0
LINE
  5
CD
330
1F
100
AcDbEntity
  8
LC-002-100-D00-0
 62
     7
370
    50
100
AcDbLine
 10
223.928786
 20
47.973665
 30
0.0
 11
223.928786
 21
50.824181
 31
0.0
  0
LINE
  5
CE
330
1F
100
AcDbEntity
  8
LC-002-100-D00-0
 62
     7
370
    50
100
AcDbLine
 10
733.888335
 20
7.468503
 30
0.0
 11
733.888335
 21
21.463231
 31
0.0
  0
ELLIPSE
  5
CF
330
1F
100
AcDbEntity
  8
LC-002-100-D00-0
 62
     7
370
    15
100
AcDbEllipse
 10
181.304311
 20
166.799716
 30
0.0
 11
28.64933018561367
 21
1.713494940947308
 31
0.0
210
0.0
220
0.0
230
1.0
 40
0.016531
 41
6.280994665932699
 42
6.282196627510337
  0
ELLIPSE
  5
D0
330
1F
100
AcDbEntity
  8
LC-002-100-D00-0
 62
     7
370
    15
100
AcDbEllipse
 10
181.304311
 20
178.168039
 30
0.0
 11
28.64933025630985
 21
-1.713494945175595
 31
0.0
210
0.0
220
0.0
230
1.0
 40
0.016531
 41
0.0009886796614376
 42
0.0021906412388436
  0
LINE
  5
D1
330
1F
100
AcDbEntity
  8
LC-002-100-D00-0
 62
     7
370
    50
100
AcDbLine
 10
733.888335
 20
33.185132
 30
0.0
 11
733.888335
 21
47.17986
 31
0.0
  0
ELLIPSE
  5
D2
330
1F
100
AcDbEntity
  8
LC-002-100-D00-0
 62
     7
370
    15
100
AcDbEllipse
 10
136.608236
 20
166.799716
 30
0.0
 11
28.64933027406909
 21
-1.713494946237819
 31
0.0
210
0.0
220
0.0
230
1.0
 40
0.016531
 41
3.14258133325624
 42
3.143783294834017
  0
LINE
  5
D3
330
1F
100
AcDbEntity
  8
LC-002-100-D00-0
 62
     7
370
    50
100
AcDbLine
 10
223.914511
 20
7.468503
 30
0.0
 11
223.914511
 21
21.463231
 31
0.0
  0
ELLIPSE
  5
D4
330
1F
100
AcDbEntity
  8
LC-002-100-D00-0
 62
     7
370
    15
100
AcDbEllipse
 10
136.608236
 20
178.168039
 30
0.0
 11
28.64933025460202
 21
1.71349494507345
 31
0.0
210
0.0
220
0.0
230
1.0
 40
0.016531
 41
3.139402012344176
 42
3.140603973921333
  0
LINE
  5
D5
330
1F
100
AcDbEntity
  8
LC-002-100-D00-0
 62
     7
370
    50
100
AcDbLine
 10
223.914511
 20
33.185132
 30
0.0
 11
223.914511
 21
47.17986
 31
0.0
  0
LINE
  5
D6
330
1F
100
AcDbEntity
  8
LC-002-100-D00-0
 62
     7
370
    50
100
AcDbLine
 10
733.87406
 20
6.675071
 30
0.0
 11
733.888216
 21
7.465641
 31
0.0
  0
LINE
  5
D7
330
1F
100
AcDbEntity
  8
LC-002-100-D00-0
 62
     7
370
    50
100
AcDbLine
 10
733.87406
 20
47.973292
 30
0.0
 11
733.888216
 21
47.182723
 31
0.0
  0
LINE
  5
D8
330
1F
100
AcDbEntity
  8
LC-002-100-D00-0
 62
     7
370
    50
100
AcDbLine
 10
223.928786
 20
6.675071
 30
0.0
 11
223.91463
 21
7.465641
 31
0.0
  0
LINE
  5
D9
330
1F
100
AcDbEntity
  8
LC-002-100-D00-0
 62
     7
370
    50
100
AcDbLine
 10
223.928786
 20
47.973292
 30
0.0
 11
223.91463
 21
47.182723
 31
0.0
  0
ARC
  5
DA
330
1F
100
AcDbEntity
  8
LC-002-100-D00-0
 62
     7
370
    50
100
AcDbCircle
 10
727.151423
 20
14.074182
 30
0.0
 40
5.0
100
AcDbArc
 50
270.0
 51
0.0
  0
LINE
  5
DB
330
1F
100
AcDbEntity
  8
LC-002-100-D00-0
 62
     7
370
    50
100
AcDbLine
 10
732.151423
 20
40.574182
 30
0.0
 11
732.151423
 21
14.074182
 31
0.0
  0
ARC
  5
DC
330
1F
100
AcDbEntity
  8
LC-002-100-D00-0
 62
     7
370
    50
100
AcDbCircle
 10
727.151423
 20
40.574182
 30
0.0
 40
5.0
100
AcDbArc
 50
0.0
 51
90.0
  0
CIRCLE
  5
DD
330
1F
100
AcDbEntity
  8
LC-002-100-D00-0
 62
     7
370
    50
100
AcDbCircle
 10
713.901423
 20
27.324182
 30
0.0
 40
3.899999999999864
  0
LINE
  5
DE
330
1F
100
AcDbEntity
  8
LC-002-100-D00-0
 62
     7
370
    50
100
AcDbLine
 10
727.151423
 20
9.074182
 30
0.0
 11
700.651423
 21
9.074182
 31
0.0
  0
LINE
  5
DF
330
1F
100
AcDbEntity
  8
LC-002-100-D00-0
 62
     7
370
    50
100
AcDbLine
 10
700.651423
 20
45.574182
 30
0.0
 11
727.151423
 21
45.574182
 31
0.0
  0
ARC
  5
E0
330
1F
100
AcDbEntity
  8
LC-002-100-D00-0
 62
     7
370
    50
100
AcDbCircle
 10
700.651423
 20
14.074182
 30
0.0
 40
5.000000000000341
100
AcDbArc
 50
180.0
 51
270.0
  0
ARC
  5
E1
330
1F
100
AcDbEntity
  8
LC-002-100-D00-0
 62
     7
370
    50
100
AcDbCircle
 10
700.651423
 20
40.574182
 30
0.0
 40
5.0
100
AcDbArc
 50
90.0
 51
180.0
  0
LINE
  5
E2
330
1F
100
AcDbEntity
  8
LC-002-100-D00-0
 62
     7
370
    50
100
AcDbLine
 10
695.651423
 20
14.074182
 30
0.0
 11
695.651423
 21
40.574182
 31
0.0
  0
ARC
  5
E3
330
1F
100
AcDbEntity
  8
LC-002-100-D00-0
 62
     7
370
    50
100
AcDbCircle
 10
392.151423
 20
40.574182
 30
0.0
 40
5.0
100
AcDbArc
 50
0.0
 51
90.0
  0
LINE
  5
E4
330
1F
100
AcDbEntity
  8
LC-002-100-D00-0
 62
     7
370
    50
100
AcDbLine
 10
397.151423
 20
40.574182
 30
0.0
 11
397.151423
 21
14.074182
 31
0.0
  0
ARC
  5
E5
330
1F
100
AcDbEntity
  8
LC-002-100-D00-0
 62
     7
370
    50
100
AcDbCircle
 10
392.151423
 20
14.074182
 30
0.0
 40
5.0
100
AcDbArc
 50
270.0
 51
0.0
  0
CIRCLE
  5
E6
330
1F
100
AcDbEntity
  8
LC-002-100-D00-0
 62
     7
370
    50
100
AcDbCircle
 10
378.901423
 20
27.324182
 30
0.0
 40
3.900000000000091
  0
LINE
  5
E7
330
1F
100
AcDbEntity
  8
LC-002-100-D00-0
 62
     7
370
    50
100
AcDbLine
 10
365.651423
 20
45.574182
 30
0.0
 11
392.151423
 21
45.574182
 31
0.0
  0
LINE
  5
E8
330
1F
100
AcDbEntity
  8
LC-002-100-D00-0
 62
     7
370
    50
100
AcDbLine
 10
392.151423
 20
9.074182
 30
0.0
 11
365.651423
 21
9.074182
 31
0.0
  0
ARC
  5
E9
330
1F
100
AcDbEntity
  8
LC-002-100-D00-0
 62
     7
370
    50
100
AcDbCircle
 10
365.651423
 20
14.074182
 30
0.0
 40
5.000000000000341
100
AcDbArc
 50
180.0
 51
270.0
  0
ARC
  5
EA
330
1F
100
AcDbEntity
  8
LC-002-100-D00-0
 62
     7
370
    50
100
AcDbCircle
 10
365.651423
 20
40.574182
 30
0.0
 40
5.0
100
AcDbArc
 50
90.0
 51
180.0
  0
LINE
  5
EB
330
1F
100
AcDbEntity
  8
LC-002-100-D00-0
 62
     7
370
    50
100
AcDbLine
 10
360.651423
 20
14.074182
 30
0.0
 11
360.651423
 21
40.574182
 31
0.0
  0
ARC
  5
EC
330
1F
100
AcDbEntity
  8
LC-002-100-D00-0
 62
     7
370
    50
100
AcDbCircle
 10
122.151423
 20
14.074182
 30
0.0
 40
5.0
100
AcDbArc
 50
270.0
 51
0.0
  0
ARC
  5
ED
330
1F
100
AcDbEntity
  8
LC-002-100-D00-0
 62
     7
370
    50
100
AcDbCircle
 10
122.151423
 20
40.574182
 30
0.0
 40
5.0
100
AcDbArc
 50
0.0
 51
90.0
  0
LINE
  5
EE
330
1F
100
AcDbEntity
  8
LC-002-100-D00-0
 62
     7
370
    50
100
AcDbLine
 10
127.151423
 20
40.574182
 30
0.0
 11
127.151423
 21
14.074182
 31
0.0
  0
CIRCLE
  5
EF
330
1F
100
AcDbEntity
  8
LC-002-100-D00-0
 62
     7
370
    50
100
AcDbCircle
 10
108.901423
 20
27.324182
 30
0.0
 40
3.900000000000091
  0
LINE
  5
F0
330
1F
100
AcDbEntity
  8
LC-002-100-D00-0
 62
     7
370
    50
100
AcDbLine
 10
122.151423
 20
9.074182
 30
0.0
 11
95.651423
 21
9.074182
 31
0.0
  0
LINE
  5
F1
330
1F
100
AcDbEntity
  8
LC-002-100-D00-0
 62
     7
370
    50
100
AcDbLine
 10
95.651423
 20
45.574182
 30
0.0
 11
122.151423
 21
45.574182
 31
0.0
  0
ARC
  5
F2
330
1F
100
AcDbEntity
  8
LC-002-100-D00-0
 62
     7
370
    50
100
AcDbCircle
 10
95.651423
 20
14.074182
 30
0.0
 40
5.0
100
AcDbArc
 50
180.0
 51
270.0
  0
ARC
  5
F3
330
1F
100
AcDbEntity
  8
LC-002-100-D00-0
 62
     7
370
    50
100
AcDbCircle
 10
95.651423
 20
40.574182
 30
0.0
 40
5.0
100
AcDbArc
 50
90.0
 51
180.0
  0
LINE
  5
F4
330
1F
100
AcDbEntity
  8
LC-002-100-D00-0
 62
     7
370
    50
100
AcDbLine
 10
90.651423
 20
14.074182
 30
0.0
 11
90.651423
 21
40.574182
 31
0.0
  0
LINE
  5
F5
330
1F
100
AcDbEntity
  8
LC-002-100-D00-0
 62
     7
370
    50
100
AcDbLine
 10
867.151423
 20
40.574182
 30
0.0
 11
867.151423
 21
14.074182
 31
0.0
  0
ARC
  5
F6
330
1F
100
AcDbEntity
  8
LC-002-100-D00-0
 62
     7
370
    50
100
AcDbCircle
 10
862.151423
 20
14.074182
 30
0.0
 40
5.0
100
AcDbArc
 50
270.0
 51
0.0
  0
ARC
  5
F7
330
1F
100
AcDbEntity
  8
LC-002-100-D00-0
 62
     7
370
    50
100
AcDbCircle
 10
862.151423
 20
40.574182
 30
0.0
 40
5.0
100
AcDbArc
 50
0.0
 51
90.0
  0
CIRCLE
  5
F8
330
1F
100
AcDbEntity
  8
LC-002-100-D00-0
 62
     7
370
    50
100
AcDbCircle
 10
848.901423
 20
27.324182
 30
0.0
 40
3.900000000000091
  0
LINE
  5
F9
330
1F
100
AcDbEntity
  8
LC-002-100-D00-0
 62
     7
370
    50
100
AcDbLine
 10
835.651423
 20
45.574182
 30
0.0
 11
862.151423
 21
45.574182
 31
0.0
  0
LINE
  5
FA
330
1F
100
AcDbEntity
  8
LC-002-100-D00-0
 62
     7
370
    50
100
AcDbLine
 10
862.151423
 20
9.074182
 30
0.0
 11
835.651423
 21
9.074182
 31
0.0
  0
ARC
  5
FB
330
1F
100
AcDbEntity
  8
LC-002-100-D00-0
 62
     7
370
    50
100
AcDbCircle
 10
835.651423
 20
14.074182
 30
0.0
 40
5.0
100
AcDbArc
 50
180.0
 51
270.0
  0
ARC
  5
FC
330
1F
100
AcDbEntity
  8
LC-002-100-D00-0
 62
     7
370
    50
100
AcDbCircle
 10
835.651423
 20
40.574182
 30
0.0
 40
5.0
100
AcDbArc
 50
90.0
 51
180.0
  0
LINE
  5
FD
330
1F
100
AcDbEntity
  8
LC-002-100-D00-0
 62
     7
370
    50
100
AcDbLine
 10
830.651423
 20
14.074182
 30
0.0
 11
830.651423
 21
40.574182
 31
0.0
  0
ARC
  5
FE
330
1F
100
AcDbEntity
  8
LC-002-100-D00-0
 62
     7
370
    50
100
AcDbCircle
 10
592.151423
 20
14.074182
 30
0.0
 40
5.0
100
AcDbArc
 50
270.0
 51
0.0
  0
ARC
  5
FF
330
1F
100
AcDbEntity
  8
LC-002-100-D00-0
 62
     7
370
    50
100
AcDbCircle
 10
592.151423
 20
40.574182
 30
0.0
 40
5.0
100
AcDbArc
 50
0.0
 51
90.0
  0
LINE
  5
100
330
1F
100
AcDbEntity
  8
LC-002-100-D00-0
 62
     7
370
    50
100
AcDbLine
 10
597.151423
 20
40.574182
 30
0.0
 11
597.151423
 21
14.074182
 31
0.0
  0
CIRCLE
  5
101
330
1F
100
AcDbEntity
  8
LC-002-100-D00-0
 62
     7
370
    50
100
AcDbCircle
 10
578.901423
 20
27.324182
 30
0.0
 40
3.899999999999864
  0
LINE
  5
102
330
1F
100
AcDbEntity
  8
LC-002-100-D00-0
 62
     7
370
    50
100
AcDbLine
 10
565.651423
 20
45.574182
 30
0.0
 11
592.151423
 21
45.574182
 31
0.0
  0
LINE
  5
103
330
1F
100
AcDbEntity
  8
LC-002-100-D00-0
 62
     7
370
    50
100
AcDbLine
 10
592.151423
 20
9.074182
 30
0.0
 11
565.651423
 21
9.074182
 31
0.0
  0
ARC
  5
104
330
1F
100
AcDbEntity
  8
LC-002-100-D00-0
 62
     7
370
    50
100
AcDbCircle
 10
565.651423
 20
14.074182
 30
0.0
 40
5.000000000000341
100
AcDbArc
 50
180.0
 51
270.0
  0
ARC
  5
105
330
1F
100
AcDbEntity
  8
LC-002-100-D00-0
 62
     7
370
    50
100
AcDbCircle
 10
565.651423
 20
40.574182
 30
0.0
 40
5.0
100
AcDbArc
 50
90.0
 51
180.0
  0
LINE
  5
106
330
1F
100
AcDbEntity
  8
LC-002-100-D00-0
 62
     7
370
    50
100
AcDbLine
 10
560.651423
 20
14.074182
 30
0.0
 11
560.651423
 21
40.574182
 31
0.0
  0
LINE
  5
107
330
1F
100
AcDbEntity
  8
LC-002-100-D00-0
 62
     7
370
    50
100
AcDbLine
 10
262.151423
 20
40.574182
 30
0.0
 11
262.151423
 21
14.074182
 31
0.0
  0
ARC
  5
108
330
1F
100
AcDbEntity
  8
LC-002-100-D00-0
 62
     7
370
    50
100
AcDbCircle
 10
257.151423
 20
14.074182
 30
0.0
 40
5.0
100
AcDbArc
 50
270.0
 51
0.0
  0
ARC
  5
109
330
1F
100
AcDbEntity
  8
LC-002-100-D00-0
 62
     7
370
    50
100
AcDbCircle
 10
257.151423
 20
40.574182
 30
0.0
 40
5.000000000000227
100
AcDbArc
 50
0.0
 51
90.0
  0
CIRCLE
  5
10A
330
1F
100
AcDbEntity
  8
LC-002-100-D00-0
 62
     7
370
    50
100
AcDbCircle
 10
243.901423
 20
27.324182
 30
0.0
 40
3.899999999999864
  0
LINE
  5
10B
330
1F
100
AcDbEntity
  8
LC-002-100-D00-0
 62
     7
370
    50
100
AcDbLine
 10
230.651423
 20
45.574182
 30
0.0
 11
257.151423
 21
45.574182
 31
0.0
  0
LINE
  5
10C
330
1F
100
AcDbEntity
  8
LC-002-100-D00-0
 62
     7
370
    50
100
AcDbLine
 10
257.151423
 20
9.074182
 30
0.0
 11
230.651423
 21
9.074182
 31
0.0
  0
ARC
  5
10D
330
1F
100
AcDbEntity
  8
LC-002-100-D00-0
 62
     7
370
    50
100
AcDbCircle
 10
230.651423
 20
14.074182
 30
0.0
 40
5.000000000000341
100
AcDbArc
 50
180.0
 51
270.0
  0
ARC
  5
10E
330
1F
100
AcDbEntity
  8
LC-002-100-D00-0
 62
     7
370
    50
100
AcDbCircle
 10
230.651423
 20
40.574182
 30
0.0
 40
5.0
100
AcDbArc
 50
90.0
 51
180.0
  0
LINE
  5
10F
330
1F
100
AcDbEntity
  8
LC-002-100-D00-0
 62
     7
370
    50
100
AcDbLine
 10
225.651423
 20
14.074182
 30
0.0
 11
225.651423
 21
40.574182
 31
0.0
  0
DIMENSION
  5
112
330
1F
100
AcDbEntity
  8
LC-002-100-D00-0
 62
     7
370
    25
100
AcDbDimension
  2
*D17
 10
1008.504278
 20
71.824182
 30
0.0
 11
953.504278
 21
67.747005
 31
0.0
 70
   160
  1
1,5
 71
     5
 42
1.5
 53
90.0
  3
LC-DIM-L-0100-02-02
100
AcDbAlignedDimension
 13
923.901423
 23
73.324182
 33
0.0
 14
923.901423
 24
71.824182
 34
0.0
 50
90.0
100
AcDbRotatedDimension
  0
DIMENSION
  5
121
330
1F
100
AcDbEntity
  8
LC-002-100-D00-0
 62
     7
370
    25
100
AcDbDimension
  2
*D18
 10
1088.469357
 20
53.324182
 30
0.0
 11
1033.469357
 21
52.897005
 31
0.0
 70
   160
  1
18,5
 71
     5
 42
18.5
 53
90.0
  3
LC-DIM-L-0100-02-02
100
AcDbAlignedDimension
 13
923.901423
 23
71.824182
 33
0.0
 14
876.401423
 24
53.324182
 34
0.0
 50
90.0
100
AcDbRotatedDimension
  0
DIMENSION
  5
12F
330
1F
100
AcDbEntity
  8
LC-002-100-D00-0
 62
     7
370
    25
100
AcDbDimension
  2
*D19
 10
1173.593473
 20
-50.175818
 30
0.0
 11
1118.593473
 21
-13.927995
 31
0.0
 70
   160
  1
123,5
 71
     5
 42
123.5
 53
90.0
  3
LC-DIM-L-0100-02-02
100
AcDbAlignedDimension
 13
923.901423
 23
73.324182
 33
0.0
 14
923.901423
 24
-50.175818
 34
0.0
 50
90.0
100
AcDbRotatedDimension
  0
LINE
  5
13D
330
1F
100
AcDbEntity
  8
LC-002-100-D00-0
  6
DASHDOT
 62
     7
370
    25
100
AcDbLine
 10
886.401423
 20
27.324182
 30
0.0
 11
71.401423
 21
27.324182
 31
0.0
  0
LINE
  5
13E
330
1F
100
AcDbEntity
  8
LC-002-100-D00-0
  6
DASHDOT
 62
     7
370
    25
100
AcDbLine
 10
478.901423
 20
83.324182
 30
0.0
 11
478.901423
 21
-78.675817
 31
0.0
  0
LINE
  5
13F
330
1F
100
AcDbEntity
  8
LC-002-100-D00-0
 62
     7
370
    50
100
AcDbLine
 10
845.501418
 20
459.418352
 30
0.0
 11
844.501401
 21
460.418353
 31
0.0
  0
LINE
  5
140
330
1F
100
AcDbEntity
  8
LC-002-100-D00-0
 62
     7
370
    50
100
AcDbLine
 10
845.501418
 20
459.418352
 30
0.0
 11
845.501411
 21
453.418353
 31
0.0
  0
LINE
  5
141
330
1F
100
AcDbEntity
  8
LC-002-100-D00-0
 62
     7
370
    50
100
AcDbLine
 10
844.501411
 20
452.418353
 30
0.0
 11
845.501411
 21
453.418353
 31
0.0
  0
LINE
  5
142
330
1F
100
AcDbEntity
  8
LC-002-100-D00-0
 62
     7
370
    50
100
AcDbLine
 10
842.550571
 20
454.418352
 30
0.0
 11
842.550571
 21
452.418353
 31
0.0
  0
LINE
  5
143
330
1F
100
AcDbEntity
  8
LC-002-100-D00-0
 62
     7
370
    50
100
AcDbLine
 10
843.256703
 20
454.607563
 30
0.0
 11
842.550571
 21
454.418352
 31
0.0
  0
ARC
  5
144
330
1F
100
AcDbEntity
  8
LC-002-100-D00-0
 62
     7
370
    50
100
AcDbCircle
 10
843.101411
 20
455.187119
 30
0.0
 40
0.6000000000000886
100
AcDbArc
 50
285.0
 51
0.0
  0
LINE
  5
145
330
1F
100
AcDbEntity
  8
LC-002-100-D00-0
 62
     7
370
    50
100
AcDbLine
 10
843.701411
 20
457.649586
 30
0.0
 11
843.701411
 21
455.187119
 31
0.0
  0
ARC
  5
146
330
1F
100
AcDbEntity
  8
LC-002-100-D00-0
 62
     7
370
    50
100
AcDbCircle
 10
843.101411
 20
457.649586
 30
0.0
 40
0.6000000000001364
100
AcDbArc
 50
0.0
 51
75.0
  0
LINE
  5
147
330
1F
100
AcDbEntity
  8
LC-002-100-D00-0
 62
     7
370
    50
100
AcDbLine
 10
842.550571
 20
458.418352
 30
0.0
 11
843.256703
 21
458.229142
 31
0.0
  0
LINE
  5
148
330
1F
100
AcDbEntity
  8
LC-002-100-D00-0
 62
     7
370
    50
100
AcDbLine
 10
842.550571
 20
460.418353
 30
0.0
 11
842.550571
 21
458.418352
 31
0.0
  0
LINE
  5
149
330
1F
100
AcDbEntity
  8
LC-002-100-D00-0
 62
     7
370
    50
100
AcDbLine
 10
842.550571
 20
452.418353
 30
0.0
 11
844.501411
 21
452.418353
 31
0.0
  0
LINE
  5
14A
330
1F
100
AcDbEntity
  8
LC-002-100-D00-0
 62
     7
370
    50
100
AcDbLine
 10
842.550571
 20
460.418353
 30
0.0
 11
844.501401
 21
460.418353
 31
0.0
  0
LINE
  5
14B
330
1F
100
AcDbEntity
  8
LC-002-100-D00-0
 62
     7
370
    50
100
AcDbLine
 10
854.101411
 20
455.187119
 30
0.0
 11
854.101411
 21
457.649586
 31
0.0
  0
ARC
  5
14C
330
1F
100
AcDbEntity
  8
LC-002-100-D00-0
 62
     7
370
    50
100
AcDbCircle
 10
854.701411
 20
455.187119
 30
0.0
 40
0.5999999999999091
100
AcDbArc
 50
180.0
 51
255.0
  0
LINE
  5
14D
330
1F
100
AcDbEntity
  8
LC-002-100-D00-0
 62
     7
370
    50
100
AcDbLine
 10
855.252261
 20
454.418352
 30
0.0
 11
854.54612
 21
454.607563
 31
0.0
  0
LINE
  5
14E
330
1F
100
AcDbEntity
  8
LC-002-100-D00-0
 62
     7
370
    50
100
AcDbLine
 10
855.252261
 20
454.418352
 30
0.0
 11
855.252261
 21
452.418353
 31
0.0
  0
LINE
  5
14F
330
1F
100
AcDbEntity
  8
LC-002-100-D00-0
 62
     7
370
    50
100
AcDbLine
 10
852.301411
 20
453.418353
 30
0.0
 11
853.301411
 21
452.418353
 31
0.0
  0
LINE
  5
150
330
1F
100
AcDbEntity
  8
LC-002-100-D00-0
 62
     7
370
    50
100
AcDbLine
 10
852.301411
 20
453.418353
 30
0.0
 11
852.301414
 21
459.418352
 31
0.0
  0
LINE
  5
151
330
1F
100
AcDbEntity
  8
LC-002-100-D00-0
 62
     7
370
    50
100
AcDbLine
 10
853.301401
 20
460.418353
 30
0.0
 11
852.301414
 21
459.418352
 31
0.0
  0
LINE
  5
152
330
1F
100
AcDbEntity
  8
LC-002-100-D00-0
 62
     7
370
    50
100
AcDbLine
 10
855.252261
 20
460.418353
 30
0.0
 11
855.252261
 21
458.418352
 31
0.0
  0
LINE
  5
153
330
1F
100
AcDbEntity
  8
LC-002-100-D00-0
 62
     7
370
    50
100
AcDbLine
 10
854.54612
 20
458.229142
 30
0.0
 11
855.252261
 21
458.418352
 31
0.0
  0
ARC
  5
154
330
1F
100
AcDbEntity
  8
LC-002-100-D00-0
 62
     7
370
    50
100
AcDbCircle
 10
854.701411
 20
457.649586
 30
0.0
 40
0.6000000000000886
100
AcDbArc
 50
105.0
 51
180.0
  0
LINE
  5
155
330
1F
100
AcDbEntity
  8
LC-002-100-D00-0
 62
     7
370
    50
100
AcDbLine
 10
853.301411
 20
452.418353
 30
0.0
 11
855.252261
 21
452.418353
 31
0.0
  0
LINE
  5
156
330
1F
100
AcDbEntity
  8
LC-002-100-D00-0
 62
     7
370
    50
100
AcDbLine
 10
853.301401
 20
460.418353
 30
0.0
 11
855.252261
 21
460.418353
 31
0.0
  0
LINE
  5
157
330
1F
100
AcDbEntity
  8
LC-002-100-D00-0
 62
     7
370
    50
100
AcDbLine
 10
845.501411
 20
453.418353
 30
0.0
 11
845.659251
 21
453.418353
 31
0.0
  0
LINE
  5
158
330
1F
100
AcDbEntity
  8
LC-002-100-D00-0
 62
     7
370
    50
100
AcDbLine
 10
852.143572
 20
453.418353
 30
0.0
 11
852.301411
 21
453.418353
 31
0.0
  0
LINE
  5
159
330
1F
100
AcDbEntity
  8
LC-002-100-D00-0
 62
     7
370
    50
100
AcDbLine
 10
853.301411
 20
452.418353
 30
0.0
 11
852.765629
 21
452.418353
 31
0.0
  0
LINE
  5
15A
330
1F
100
AcDbEntity
  8
LC-002-100-D00-0
 62
     7
370
    50
100
AcDbLine
 10
845.037193
 20
452.418353
 30
0.0
 11
844.501411
 21
452.418353
 31
0.0
  0
LINE
  5
15B
330
1F
100
AcDbEntity
  8
LC-002-100-D00-0
 62
     7
370
    50
100
AcDbLine
 10
855.252261
 20
460.418353
 30
0.0
 11
852.801407
 21
460.418353
 31
0.0
  0
LINE
  5
15C
330
1F
100
AcDbEntity
  8
LC-002-100-D00-0
 62
     7
370
    50
100
AcDbLine
 10
852.801407
 20
460.418353
 30
0.0
 11
852.801411
 21
471.418353
 31
0.0
  0
LINE
  5
15D
330
1F
100
AcDbEntity
  8
LC-002-100-D00-0
 62
     7
370
    50
100
AcDbLine
 10
852.801411
 20
471.418353
 30
0.0
 11
866.151411
 21
471.418353
 31
0.0
  0
ARC
  5
15E
330
1F
100
AcDbEntity
  8
LC-002-100-D00-0
 62
     7
370
    50
100
AcDbCircle
 10
866.151411
 20
470.418353
 30
0.0
 40
1.0
100
AcDbArc
 50
0.0
 51
90.0
  0
LINE
  5
15F
330
1F
100
AcDbEntity
  8
LC-002-100-D00-0
 62
     7
370
    50
100
AcDbLine
 10
867.151411
 20
470.418353
 30
0.0
 11
867.151404
 21
464.418352
 31
0.0
  0
LINE
  5
160
330
1F
100
AcDbEntity
  8
LC-002-100-D00-0
 62
     7
370
    50
100
AcDbLine
 10
864.151411
 20
464.418353
 30
0.0
 11
867.151404
 21
464.418352
 31
0.0
  0
LINE
  5
161
330
1F
100
AcDbEntity
  8
LC-002-100-D00-0
 62
     7
370
    50
100
AcDbLine
 10
864.151411
 20
464.418353
 30
0.0
 11
864.151413
 21
468.418353
 31
0.0
  0
LINE
  5
162
330
1F
100
AcDbEntity
  8
LC-002-100-D00-0
 62
     7
370
    50
100
AcDbLine
 10
859.651411
 20
468.418353
 30
0.0
 11
864.151413
 21
468.418353
 31
0.0
  0
ARC
  5
163
330
1F
100
AcDbEntity
  8
LC-002-100-D00-0
 62
     7
370
    50
100
AcDbCircle
 10
859.651411
 20
467.418353
 30
0.0
 40
1.000000000000227
100
AcDbArc
 50
90.0
 51
180.0
  0
LINE
  5
164
330
1F
100
AcDbEntity
  8
LC-002-100-D00-0
 62
     7
370
    50
100
AcDbLine
 10
858.651411
 20
453.418353
 30
0.0
 11
858.651411
 21
467.418353
 31
0.0
  0
ARC
  5
165
330
1F
100
AcDbEntity
  8
LC-002-100-D00-0
 62
     7
370
    50
100
AcDbCircle
 10
857.651411
 20
453.418353
 30
0.0
 40
1.000000000000227
100
AcDbArc
 50
270.0
 51
0.0
  0
LINE
  5
166
330
1F
100
AcDbEntity
  8
LC-002-100-D00-0
 62
     7
370
    50
100
AcDbLine
 10
857.651411
 20
452.418353
 30
0.0
 11
855.252261
 21
452.418353
 31
0.0
  0
LINE
  5
167
330
1F
100
AcDbEntity
  8
LC-002-100-D00-0
 62
     7
370
    50
100
AcDbLine
 10
855.252261
 20
454.418352
 30
0.0
 11
855.252261
 21
452.418353
 31
0.0
  0
LINE
  5
168
330
1F
100
AcDbEntity
  8
LC-002-100-D00-0
 62
     7
370
    50
100
AcDbLine
 10
854.601411
 20
454.418353
 30
0.0
 11
855.252261
 21
454.418352
 31
0.0
  0
ARC
  5
169
330
1F
100
AcDbEntity
  8
LC-002-100-D00-0
 62
     7
370
    50
100
AcDbCircle
 10
854.601411
 20
454.918353
 30
0.0
 40
0.5
100
AcDbArc
 50
180.0
 51
270.0
  0
LINE
  5
16A
330
1F
100
AcDbEntity
  8
LC-002-100-D00-0
 62
     7
370
    50
100
AcDbLine
 10
854.101411
 20
457.918353
 30
0.0
 11
854.101411
 21
454.918353
 31
0.0
  0
ARC
  5
16B
330
1F
100
AcDbEntity
  8
LC-002-100-D00-0
 62
     7
370
    50
100
AcDbCircle
 10
854.601411
 20
457.918353
 30
0.0
 40
0.5
100
AcDbArc
 50
90.0
 51
180.0
  0
LINE
  5
16C
330
1F
100
AcDbEntity
  8
LC-002-100-D00-0
 62
     7
370
    50
100
AcDbLine
 10
855.252261
 20
458.418352
 30
0.0
 11
854.601411
 21
458.418353
 31
0.0
  0
LINE
  5
16D
330
1F
100
AcDbEntity
  8
LC-002-100-D00-0
 62
     7
370
    50
100
AcDbLine
 10
855.252261
 20
460.418353
 30
0.0
 11
855.252261
 21
458.418352
 31
0.0
  0
ARC
  5
16E
330
1F
100
AcDbEntity
  8
LC-002-100-D00-0
 62
     7
370
    50
100
AcDbCircle
 10
838.151411
 20
467.418353
 30
0.0
 40
1.000000000000227
100
AcDbArc
 50
0.0
 51
90.0
  0
ARC
  5
16F
330
1F
100
AcDbEntity
  8
LC-002-100-D00-0
 62
     7
370
    50
100
AcDbCircle
 10
840.151411
 20
453.418353
 30
0.0
 40
1.000000000000227
100
AcDbArc
 50
180.0
 51
270.0
  0
LINE
  5
170
330
1F
100
AcDbEntity
  8
LC-002-100-D00-0
 62
     7
370
    50
100
AcDbLine
 10
839.151411
 20
467.418353
 30
0.0
 11
839.151411
 21
453.418353
 31
0.0
  0
LINE
  5
171
330
1F
100
AcDbEntity
  8
LC-002-100-D00-0
 62
     7
370
    50
100
AcDbLine
 10
843.701411
 20
454.918353
 30
0.0
 11
843.701411
 21
457.918353
 31
0.0
  0
LINE
  5
172
330
1F
100
AcDbEntity
  8
LC-002-100-D00-0
 62
     7
370
    50
100
AcDbLine
 10
845.001411
 20
471.418353
 30
0.0
 11
845.001424
 21
460.418353
 31
0.0
  0
LINE
  5
173
330
1F
100
AcDbEntity
  8
LC-002-100-D00-0
 62
     7
370
    50
100
AcDbLine
 10
845.001411
 20
471.418353
 30
0.0
 11
852.801411
 21
471.418353
 31
0.0
  0
LINE
  5
174
330
1F
100
AcDbEntity
  8
LC-002-100-D00-0
 62
     7
370
    50
100
AcDbLine
 10
842.550571
 20
460.418353
 30
0.0
 11
842.550571
 21
458.418352
 31
0.0
  0
LINE
  5
175
330
1F
100
AcDbEntity
  8
LC-002-100-D00-0
 62
     7
370
    50
100
AcDbLine
 10
842.550571
 20
454.418352
 30
0.0
 11
842.550571
 21
452.418353
 31
0.0
  0
ARC
  5
176
330
1F
100
AcDbEntity
  8
LC-002-100-D00-0
 62
     7
370
    50
100
AcDbCircle
 10
843.201411
 20
454.918353
 30
0.0
 40
0.4999999999997726
100
AcDbArc
 50
270.0
 51
0.0
  0
LINE
  5
177
330
1F
100
AcDbEntity
  8
LC-002-100-D00-0
 62
     7
370
    50
100
AcDbLine
 10
842.550571
 20
454.418352
 30
0.0
 11
843.201411
 21
454.418353
 31
0.0
  0
LINE
  5
178
330
1F
100
AcDbEntity
  8
LC-002-100-D00-0
 62
     7
370
    50
100
AcDbLine
 10
833.651419
 20
468.418353
 30
0.0
 11
833.651411
 21
464.418353
 31
0.0
  0
LINE
  5
179
330
1F
100
AcDbEntity
  8
LC-002-100-D00-0
 62
     7
370
    50
100
AcDbLine
 10
830.651398
 20
464.418352
 30
0.0
 11
830.651411
 21
470.418353
 31
0.0
  0
ARC
  5
17A
330
1F
100
AcDbEntity
  8
LC-002-100-D00-0
 62
     7
370
    50
100
AcDbCircle
 10
831.651411
 20
470.418353
 30
0.0
 40
0.9999999999997726
100
AcDbArc
 50
90.0
 51
180.0
  0
LINE
  5
17B
330
1F
100
AcDbEntity
  8
LC-002-100-D00-0
 62
     7
370
    50
100
AcDbLine
 10
843.201411
 20
458.418353
 30
0.0
 11
842.550571
 21
458.418352
 31
0.0
  0
ARC
  5
17C
330
1F
100
AcDbEntity
  8
LC-002-100-D00-0
 62
     7
370
    50
100
AcDbCircle
 10
843.201411
 20
457.918353
 30
0.0
 40
0.5000000000002274
100
AcDbArc
 50
0.0
 51
90.0
  0
LINE
  5
17D
330
1F
100
AcDbEntity
  8
LC-002-100-D00-0
 62
     7
370
    50
100
AcDbLine
 10
830.651398
 20
464.418352
 30
0.0
 11
833.651411
 21
464.418353
 31
0.0
  0
LINE
  5
17E
330
1F
100
AcDbEntity
  8
LC-002-100-D00-0
 62
     7
370
    50
100
AcDbLine
 10
845.001424
 20
460.418353
 30
0.0
 11
842.550571
 21
460.418353
 31
0.0
  0
LINE
  5
17F
330
1F
100
AcDbEntity
  8
LC-002-100-D00-0
 62
     7
370
    50
100
AcDbLine
 10
842.550571
 20
452.418353
 30
0.0
 11
840.151411
 21
452.418353
 31
0.0
  0
LINE
  5
180
330
1F
100
AcDbEntity
  8
LC-002-100-D00-0
 62
     7
370
    50
100
AcDbLine
 10
833.651419
 20
468.418353
 30
0.0
 11
838.151411
 21
468.418353
 31
0.0
  0
LINE
  5
181
330
1F
100
AcDbEntity
  8
LC-002-100-D00-0
 62
     7
370
    50
100
AcDbLine
 10
831.651411
 20
471.418353
 30
0.0
 11
845.001411
 21
471.418353
 31
0.0
  0
LINE
  5
182
330
1F
100
AcDbEntity
  8
LC-002-100-D00-0
 62
     7
370
    50
100
AcDbLine
 10
862.151411
 20
464.418353
 30
0.0
 11
864.151411
 21
464.418353
 31
0.0
  0
LINE
  5
183
330
1F
100
AcDbEntity
  8
LC-002-100-D00-0
 62
     7
370
    50
100
AcDbLine
 10
833.651411
 20
464.418353
 30
0.0
 11
835.651411
 21
464.418353
 31
0.0
  0
LINE
  5
184
330
1F
100
AcDbEntity
  8
LC-002-100-D00-0
 62
     7
370
    50
100
AcDbLine
 10
835.651411
 20
464.418353
 30
0.0
 11
839.151407
 21
464.418352
 31
0.0
  0
LINE
  5
185
330
1F
100
AcDbEntity
  8
LC-002-100-D00-0
 62
     7
370
    50
100
AcDbLine
 10
858.651424
 20
464.418352
 30
0.0
 11
862.151411
 21
464.418353
 31
0.0
  0
LINE
  5
186
330
1F
100
AcDbEntity
  8
LC-002-100-D00-0
 62
     7
370
    50
100
AcDbLine
 10
105.501408
 20
459.418352
 30
0.0
 11
104.501421
 21
460.418353
 31
0.0
  0
LINE
  5
187
330
1F
100
AcDbEntity
  8
LC-002-100-D00-0
 62
     7
370
    50
100
AcDbLine
 10
105.501408
 20
459.418352
 30
0.0
 11
105.501411
 21
453.418353
 31
0.0
  0
LINE
  5
188
330
1F
100
AcDbEntity
  8
LC-002-100-D00-0
 62
     7
370
    50
100
AcDbLine
 10
104.501411
 20
452.418353
 30
0.0
 11
105.501411
 21
453.418353
 31
0.0
  0
LINE
  5
189
330
1F
100
AcDbEntity
  8
LC-002-100-D00-0
 62
     7
370
    50
100
AcDbLine
 10
102.550561
 20
454.418352
 30
0.0
 11
102.550561
 21
452.418353
 31
0.0
  0
LINE
  5
18A
330
1F
100
AcDbEntity
  8
LC-002-100-D00-0
 62
     7
370
    50
100
AcDbLine
 10
103.256703
 20
454.607563
 30
0.0
 11
102.550561
 21
454.418352
 31
0.0
  0
ARC
  5
18B
330
1F
100
AcDbEntity
  8
LC-002-100-D00-0
 62
     7
370
    50
100
AcDbCircle
 10
103.101411
 20
455.187119
 30
0.0
 40
0.6000000000000886
100
AcDbArc
 50
285.0
 51
0.0
  0
LINE
  5
18C
330
1F
100
AcDbEntity
  8
LC-002-100-D00-0
 62
     7
370
    50
100
AcDbLine
 10
103.701411
 20
457.649586
 30
0.0
 11
103.701411
 21
455.187119
 31
0.0
  0
ARC
  5
18D
330
1F
100
AcDbEntity
  8
LC-002-100-D00-0
 62
     7
370
    50
100
AcDbCircle
 10
103.101411
 20
457.649586
 30
0.0
 40
0.600000000000307
100
AcDbArc
 50
0.0
 51
75.0
  0
LINE
  5
18E
330
1F
100
AcDbEntity
  8
LC-002-100-D00-0
 62
     7
370
    50
100
AcDbLine
 10
102.550561
 20
458.418352
 30
0.0
 11
103.256703
 21
458.229142
 31
0.0
  0
LINE
  5
18F
330
1F
100
AcDbEntity
  8
LC-002-100-D00-0
 62
     7
370
    50
100
AcDbLine
 10
102.550561
 20
460.418353
 30
0.0
 11
102.550561
 21
458.418352
 31
0.0
  0
LINE
  5
190
330
1F
100
AcDbEntity
  8
LC-002-100-D00-0
 62
     7
370
    50
100
AcDbLine
 10
102.550561
 20
452.418353
 30
0.0
 11
104.501411
 21
452.418353
 31
0.0
  0
LINE
  5
191
330
1F
100
AcDbEntity
  8
LC-002-100-D00-0
 62
     7
370
    50
100
AcDbLine
 10
102.550561
 20
460.418353
 30
0.0
 11
104.501421
 21
460.418353
 31
0.0
  0
LINE
  5
192
330
1F
100
AcDbEntity
  8
LC-002-100-D00-0
 62
     7
370
    50
100
AcDbLine
 10
114.101411
 20
455.187119
 30
0.0
 11
114.101411
 21
457.649586
 31
0.0
  0
ARC
  5
193
330
1F
100
AcDbEntity
  8
LC-002-100-D00-0
 62
     7
370
    50
100
AcDbCircle
 10
114.701411
 20
455.187119
 30
0.0
 40
0.6000000000000227
100
AcDbArc
 50
180.0
 51
255.0
  0
LINE
  5
194
330
1F
100
AcDbEntity
  8
LC-002-100-D00-0
 62
     7
370
    50
100
AcDbLine
 10
115.252251
 20
454.418352
 30
0.0
 11
114.54612
 21
454.607563
 31
0.0
  0
LINE
  5
195
330
1F
100
AcDbEntity
  8
LC-002-100-D00-0
 62
     7
370
    50
100
AcDbLine
 10
115.252251
 20
454.418352
 30
0.0
 11
115.252251
 21
452.418353
 31
0.0
  0
LINE
  5
196
330
1F
100
AcDbEntity
  8
LC-002-100-D00-0
 62
     7
370
    50
100
AcDbLine
 10
112.301411
 20
453.418353
 30
0.0
 11
113.301411
 21
452.418353
 31
0.0
  0
LINE
  5
197
330
1F
100
AcDbEntity
  8
LC-002-100-D00-0
 62
     7
370
    50
100
AcDbLine
 10
112.301411
 20
453.418353
 30
0.0
 11
112.301404
 21
459.418352
 31
0.0
  0
LINE
  5
198
330
1F
100
AcDbEntity
  8
LC-002-100-D00-0
 62
     7
370
    50
100
AcDbLine
 10
113.301421
 20
460.418353
 30
0.0
 11
112.301404
 21
459.418352
 31
0.0
  0
LINE
  5
199
330
1F
100
AcDbEntity
  8
LC-002-100-D00-0
 62
     7
370
    50
100
AcDbLine
 10
115.252251
 20
460.418353
 30
0.0
 11
115.252251
 21
458.418352
 31
0.0
  0
LINE
  5
19A
330
1F
100
AcDbEntity
  8
LC-002-100-D00-0
 62
     7
370
    50
100
AcDbLine
 10
114.54612
 20
458.229142
 30
0.0
 11
115.252251
 21
458.418352
 31
0.0
  0
ARC
  5
19B
330
1F
100
AcDbEntity
  8
LC-002-100-D00-0
 62
     7
370
    50
100
AcDbCircle
 10
114.701411
 20
457.649586
 30
0.0
 40
0.600000000000118
100
AcDbArc
 50
105.0
 51
180.0
  0
LINE
  5
19C
330
1F
100
AcDbEntity
  8
LC-002-100-D00-0
 62
     7
370
    50
100
AcDbLine
 10
113.301411
 20
452.418353
 30
0.0
 11
115.252251
 21
452.418353
 31
0.0
  0
LINE
  5
19D
330
1F
100
AcDbEntity
  8
LC-002-100-D00-0
 62
     7
370
    50
100
AcDbLine
 10
113.301421
 20
460.418353
 30
0.0
 11
115.252251
 21
460.418353
 31
0.0
  0
LINE
  5
19E
330
1F
100
AcDbEntity
  8
LC-002-100-D00-0
 62
     7
370
    50
100
AcDbLine
 10
105.501411
 20
453.418353
 30
0.0
 11
105.659251
 21
453.418353
 31
0.0
  0
LINE
  5
19F
330
1F
100
AcDbEntity
  8
LC-002-100-D00-0
 62
     7
370
    50
100
AcDbLine
 10
112.143572
 20
453.418353
 30
0.0
 11
112.301411
 21
453.418353
 31
0.0
  0
LINE
  5
1A0
330
1F
100
AcDbEntity
  8
LC-002-100-D00-0
 62
     7
370
    50
100
AcDbLine
 10
113.301411
 20
452.418353
 30
0.0
 11
112.765629
 21
452.418353
 31
0.0
  0
LINE
  5
1A1
330
1F
100
AcDbEntity
  8
LC-002-100-D00-0
 62
     7
370
    50
100
AcDbLine
 10
105.037193
 20
452.418353
 30
0.0
 11
104.501411
 21
452.418353
 31
0.0
  0
LINE
  5
1A2
330
1F
100
AcDbEntity
  8
LC-002-100-D00-0
 62
     7
370
    50
100
AcDbLine
 10
115.252251
 20
460.418353
 30
0.0
 11
112.801398
 21
460.418353
 31
0.0
  0
LINE
  5
1A3
330
1F
100
AcDbEntity
  8
LC-002-100-D00-0
 62
     7
370
    50
100
AcDbLine
 10
112.801398
 20
460.418353
 30
0.0
 11
112.801411
 21
471.418353
 31
0.0
  0
LINE
  5
1A4
330
1F
100
AcDbEntity
  8
LC-002-100-D00-0
 62
     7
370
    50
100
AcDbLine
 10
112.801411
 20
471.418353
 30
0.0
 11
126.151411
 21
471.418353
 31
0.0
  0
ARC
  5
1A5
330
1F
100
AcDbEntity
  8
LC-002-100-D00-0
 62
     7
370
    50
100
AcDbCircle
 10
126.151411
 20
470.418353
 30
0.0
 40
1.0
100
AcDbArc
 50
0.0
 51
90.0
  0
LINE
  5
1A6
330
1F
100
AcDbEntity
  8
LC-002-100-D00-0
 62
     7
370
    50
100
AcDbLine
 10
127.151411
 20
470.418353
 30
0.0
 11
127.151425
 21
464.418352
 31
0.0
  0
LINE
  5
1A7
330
1F
100
AcDbEntity
  8
LC-002-100-D00-0
 62
     7
370
    50
100
AcDbLine
 10
124.151411
 20
464.418353
 30
0.0
 11
127.151425
 21
464.418352
 31
0.0
  0
LINE
  5
1A8
330
1F
100
AcDbEntity
  8
LC-002-100-D00-0
 62
     7
370
    50
100
AcDbLine
 10
124.151411
 20
464.418353
 30
0.0
 11
124.151404
 21
468.418353
 31
0.0
  0
LINE
  5
1A9
330
1F
100
AcDbEntity
  8
LC-002-100-D00-0
 62
     7
370
    50
100
AcDbLine
 10
119.651411
 20
468.418353
 30
0.0
 11
124.151404
 21
468.418353
 31
0.0
  0
ARC
  5
1AA
330
1F
100
AcDbEntity
  8
LC-002-100-D00-0
 62
     7
370
    50
100
AcDbCircle
 10
119.651411
 20
467.418353
 30
0.0
 40
1.000000000000227
100
AcDbArc
 50
90.0
 51
180.0
  0
LINE
  5
1AB
330
1F
100
AcDbEntity
  8
LC-002-100-D00-0
 62
     7
370
    50
100
AcDbLine
 10
118.651411
 20
453.418353
 30
0.0
 11
118.651411
 21
467.418353
 31
0.0
  0
ARC
  5
1AC
330
1F
100
AcDbEntity
  8
LC-002-100-D00-0
 62
     7
370
    50
100
AcDbCircle
 10
117.651411
 20
453.418353
 30
0.0
 40
1.000000000000227
100
AcDbArc
 50
270.0
 51
0.0
  0
LINE
  5
1AD
330
1F
100
AcDbEntity
  8
LC-002-100-D00-0
 62
     7
370
    50
100
AcDbLine
 10
117.651411
 20
452.418353
 30
0.0
 11
115.252251
 21
452.418353
 31
0.0
  0
LINE
  5
1AE
330
1F
100
AcDbEntity
  8
LC-002-100-D00-0
 62
     7
370
    50
100
AcDbLine
 10
115.252251
 20
454.418352
 30
0.0
 11
115.252251
 21
452.418353
 31
0.0
  0
LINE
  5
1AF
330
1F
100
AcDbEntity
  8
LC-002-100-D00-0
 62
     7
370
    50
100
AcDbLine
 10
114.601411
 20
454.418353
 30
0.0
 11
115.252251
 21
454.418352
 31
0.0
  0
ARC
  5
1B0
330
1F
100
AcDbEntity
  8
LC-002-100-D00-0
 62
     7
370
    50
100
AcDbCircle
 10
114.601411
 20
454.918353
 30
0.0
 40
0.5
100
AcDbArc
 50
180.0
 51
270.0
  0
LINE
  5
1B1
330
1F
100
AcDbEntity
  8
LC-002-100-D00-0
 62
     7
370
    50
100
AcDbLine
 10
114.101411
 20
457.918353
 30
0.0
 11
114.101411
 21
454.918353
 31
0.0
  0
ARC
  5
1B2
330
1F
100
AcDbEntity
  8
LC-002-100-D00-0
 62
     7
370
    50
100
AcDbCircle
 10
114.601411
 20
457.918353
 30
0.0
 40
0.5
100
AcDbArc
 50
90.0
 51
180.0
  0
LINE
  5
1B3
330
1F
100
AcDbEntity
  8
LC-002-100-D00-0
 62
     7
370
    50
100
AcDbLine
 10
115.252251
 20
458.418352
 30
0.0
 11
114.601411
 21
458.418353
 31
0.0
  0
LINE
  5
1B4
330
1F
100
AcDbEntity
  8
LC-002-100-D00-0
 62
     7
370
    50
100
AcDbLine
 10
115.252251
 20
460.418353
 30
0.0
 11
115.252251
 21
458.418352
 31
0.0
  0
ARC
  5
1B5
330
1F
100
AcDbEntity
  8
LC-002-100-D00-0
 62
     7
370
    50
100
AcDbCircle
 10
98.151411
 20
467.418353
 30
0.0
 40
1.000000000000227
100
AcDbArc
 50
0.0
 51
90.0
  0
LINE
  5
1B6
330
1F
100
AcDbEntity
  8
LC-002-100-D00-0
 62
     7
370
    50
100
AcDbLine
 10
99.151411
 20
467.418353
 30
0.0
 11
99.151411
 21
453.418353
 31
0.0
  0
ARC
  5
1B7
330
1F
100
AcDbEntity
  8
LC-002-100-D00-0
 62
     7
370
    50
100
AcDbCircle
 10
100.151411
 20
453.418353
 30
0.0
 40
1.000000000000227
100
AcDbArc
 50
180.0
 51
270.0
  0
LINE
  5
1B8
330
1F
100
AcDbEntity
  8
LC-002-100-D00-0
 62
     7
370
    50
100
AcDbLine
 10
103.701411
 20
454.918353
 30
0.0
 11
103.701411
 21
457.918353
 31
0.0
  0
LINE
  5
1B9
330
1F
100
AcDbEntity
  8
LC-002-100-D00-0
 62
     7
370
    50
100
AcDbLine
 10
105.001411
 20
471.418353
 30
0.0
 11
105.001415
 21
460.418353
 31
0.0
  0
LINE
  5
1BA
330
1F
100
AcDbEntity
  8
LC-002-100-D00-0
 62
     7
370
    50
100
AcDbLine
 10
105.001411
 20
471.418353
 30
0.0
 11
112.801411
 21
471.418353
 31
0.0
  0
LINE
  5
1BB
330
1F
100
AcDbEntity
  8
LC-002-100-D00-0
 62
     7
370
    50
100
AcDbLine
 10
102.550561
 20
460.418353
 30
0.0
 11
102.550561
 21
458.418352
 31
0.0
  0
LINE
  5
1BC
330
1F
100
AcDbEntity
  8
LC-002-100-D00-0
 62
     7
370
    50
100
AcDbLine
 10
102.550561
 20
454.418352
 30
0.0
 11
102.550561
 21
452.418353
 31
0.0
  0
ARC
  5
1BD
330
1F
100
AcDbEntity
  8
LC-002-100-D00-0
 62
     7
370
    50
100
AcDbCircle
 10
103.201411
 20
454.918353
 30
0.0
 40
0.5000000000002274
100
AcDbArc
 50
270.0
 51
0.0
  0
LINE
  5
1BE
330
1F
100
AcDbEntity
  8
LC-002-100-D00-0
 62
     7
370
    50
100
AcDbLine
 10
102.550561
 20
454.418352
 30
0.0
 11
103.201411
 21
454.418353
 31
0.0
  0
LINE
  5
1BF
330
1F
100
AcDbEntity
  8
LC-002-100-D00-0
 62
     7
370
    50
100
AcDbLine
 10
93.651409
 20
468.418353
 30
0.0
 11
93.651411
 21
464.418353
 31
0.0
  0
LINE
  5
1C0
330
1F
100
AcDbEntity
  8
LC-002-100-D00-0
 62
     7
370
    50
100
AcDbLine
 10
90.651418
 20
464.418352
 30
0.0
 11
90.651411
 21
470.418353
 31
0.0
  0
ARC
  5
1C1
330
1F
100
AcDbEntity
  8
LC-002-100-D00-0
 62
     7
370
    50
100
AcDbCircle
 10
91.651411
 20
470.418353
 30
0.0
 40
0.9999999999997726
100
AcDbArc
 50
90.0
 51
180.0
  0
LINE
  5
1C2
330
1F
100
AcDbEntity
  8
LC-002-100-D00-0
 62
     7
370
    50
100
AcDbLine
 10
103.201411
 20
458.418353
 30
0.0
 11
102.550561
 21
458.418352
 31
0.0
  0
ARC
  5
1C3
330
1F
100
AcDbEntity
  8
LC-002-100-D00-0
 62
     7
370
    50
100
AcDbCircle
 10
103.201411
 20
457.918353
 30
0.0
 40
0.5000000000001137
100
AcDbArc
 50
0.0
 51
90.0
  0
LINE
  5
1C4
330
1F
100
AcDbEntity
  8
LC-002-100-D00-0
 62
     7
370
    50
100
AcDbLine
 10
90.651418
 20
464.418352
 30
0.0
 11
93.651411
 21
464.418353
 31
0.0
  0
LINE
  5
1C5
330
1F
100
AcDbEntity
  8
LC-002-100-D00-0
 62
     7
370
    50
100
AcDbLine
 10
105.001415
 20
460.418353
 30
0.0
 11
102.550561
 21
460.418353
 31
0.0
  0
LINE
  5
1C6
330
1F
100
AcDbEntity
  8
LC-002-100-D00-0
 62
     7
370
    50
100
AcDbLine
 10
102.550561
 20
452.418353
 30
0.0
 11
100.151411
 21
452.418353
 31
0.0
  0
LINE
  5
1C7
330
1F
100
AcDbEntity
  8
LC-002-100-D00-0
 62
     7
370
    50
100
AcDbLine
 10
93.651409
 20
468.418353
 30
0.0
 11
98.151411
 21
468.418353
 31
0.0
  0
LINE
  5
1C8
330
1F
100
AcDbEntity
  8
LC-002-100-D00-0
 62
     7
370
    50
100
AcDbLine
 10
91.651411
 20
471.418353
 30
0.0
 11
105.001411
 21
471.418353
 31
0.0
  0
LINE
  5
1C9
330
1F
100
AcDbEntity
  8
LC-002-100-D00-0
 62
     7
370
    50
100
AcDbLine
 10
122.151411
 20
464.418353
 30
0.0
 11
124.151411
 21
464.418353
 31
0.0
  0
LINE
  5
1CA
330
1F
100
AcDbEntity
  8
LC-002-100-D00-0
 62
     7
370
    50
100
AcDbLine
 10
93.651411
 20
464.418353
 30
0.0
 11
95.651411
 21
464.418353
 31
0.0
  0
LINE
  5
1CB
330
1F
100
AcDbEntity
  8
LC-002-100-D00-0
 62
     7
370
    50
100
AcDbLine
 10
95.651411
 20
464.418353
 30
0.0
 11
99.151398
 21
464.418352
 31
0.0
  0
LINE
  5
1CC
330
1F
100
AcDbEntity
  8
LC-002-100-D00-0
 62
     7
370
    50
100
AcDbLine
 10
118.651415
 20
464.418352
 30
0.0
 11
122.151411
 21
464.418353
 31
0.0
  0
LINE
  5
1CD
330
1F
100
AcDbEntity
  8
LC-002-100-D00-0
 62
     7
370
    50
100
AcDbLine
 10
240.501414
 20
459.418352
 30
0.0
 11
239.501412
 21
460.418353
 31
0.0
  0
LINE
  5
1CE
330
1F
100
AcDbEntity
  8
LC-002-100-D00-0
 62
     7
370
    50
100
AcDbLine
 10
240.501414
 20
459.418352
 30
0.0
 11
240.501411
 21
453.418353
 31
0.0
  0
LINE
  5
1CF
330
1F
100
AcDbEntity
  8
LC-002-100-D00-0
 62
     7
370
    50
100
AcDbLine
 10
239.501411
 20
452.418353
 30
0.0
 11
240.501411
 21
453.418353
 31
0.0
  0
LINE
  5
1D0
330
1F
100
AcDbEntity
  8
LC-002-100-D00-0
 62
     7
370
    50
100
AcDbLine
 10
237.550552
 20
454.418352
 30
0.0
 11
237.550552
 21
452.418353
 31
0.0
  0
LINE
  5
1D1
330
1F
100
AcDbEntity
  8
LC-002-100-D00-0
 62
     7
370
    50
100
AcDbLine
 10
238.256703
 20
454.607563
 30
0.0
 11
237.550552
 21
454.418352
 31
0.0
  0
ARC
  5
1D2
330
1F
100
AcDbEntity
  8
LC-002-100-D00-0
 62
     7
370
    50
100
AcDbCircle
 10
238.101411
 20
455.187119
 30
0.0
 40
0.6000000000000886
100
AcDbArc
 50
285.0
 51
0.0
  0
LINE
  5
1D3
330
1F
100
AcDbEntity
  8
LC-002-100-D00-0
 62
     7
370
    50
100
AcDbLine
 10
238.701411
 20
457.649586
 30
0.0
 11
238.701411
 21
455.187119
 31
0.0
  0
ARC
  5
1D4
330
1F
100
AcDbEntity
  8
LC-002-100-D00-0
 62
     7
370
    50
100
AcDbCircle
 10
238.101411
 20
457.649586
 30
0.0
 40
0.6000000000002501
100
AcDbArc
 50
0.0
 51
75.0
  0
LINE
  5
1D5
330
1F
100
AcDbEntity
  8
LC-002-100-D00-0
 62
     7
370
    50
100
AcDbLine
 10
237.550552
 20
458.418352
 30
0.0
 11
238.256703
 21
458.229142
 31
0.0
  0
LINE
  5
1D6
330
1F
100
AcDbEntity
  8
LC-002-100-D00-0
 62
     7
370
    50
100
AcDbLine
 10
237.550552
 20
460.418353
 30
0.0
 11
237.550552
 21
458.418352
 31
0.0
  0
LINE
  5
1D7
330
1F
100
AcDbEntity
  8
LC-002-100-D00-0
 62
     7
370
    50
100
AcDbLine
 10
237.550552
 20
452.418353
 30
0.0
 11
239.501411
 21
452.418353
 31
0.0
  0
LINE
  5
1D8
330
1F
100
AcDbEntity
  8
LC-002-100-D00-0
 62
     7
370
    50
100
AcDbLine
 10
237.550552
 20
460.418353
 30
0.0
 11
239.501412
 21
460.418353
 31
0.0
  0
LINE
  5
1D9
330
1F
100
AcDbEntity
  8
LC-002-100-D00-0
 62
     7
370
    50
100
AcDbLine
 10
249.101411
 20
455.187119
 30
0.0
 11
249.101411
 21
457.649586
 31
0.0
  0
ARC
  5
1DA
330
1F
100
AcDbEntity
  8
LC-002-100-D00-0
 62
     7
370
    50
100
AcDbCircle
 10
249.701411
 20
455.187119
 30
0.0
 40
0.6000000000000227
100
AcDbArc
 50
180.0
 51
255.0
  0
LINE
  5
1DB
330
1F
100
AcDbEntity
  8
LC-002-100-D00-0
 62
     7
370
    50
100
AcDbLine
 10
250.252257
 20
454.418352
 30
0.0
 11
249.54612
 21
454.607563
 31
0.0
  0
LINE
  5
1DC
330
1F
100
AcDbEntity
  8
LC-002-100-D00-0
 62
     7
370
    50
100
AcDbLine
 10
250.252257
 20
454.418352
 30
0.0
 11
250.252257
 21
452.418353
 31
0.0
  0
LINE
  5
1DD
330
1F
100
AcDbEntity
  8
LC-002-100-D00-0
 62
     7
370
    50
100
AcDbLine
 10
247.301411
 20
453.418353
 30
0.0
 11
248.301411
 21
452.418353
 31
0.0
  0
LINE
  5
1DE
330
1F
100
AcDbEntity
  8
LC-002-100-D00-0
 62
     7
370
    50
100
AcDbLine
 10
247.301411
 20
453.418353
 30
0.0
 11
247.30141
 21
459.418352
 31
0.0
  0
LINE
  5
1DF
330
1F
100
AcDbEntity
  8
LC-002-100-D00-0
 62
     7
370
    50
100
AcDbLine
 10
248.301412
 20
460.418353
 30
0.0
 11
247.30141
 21
459.418352
 31
0.0
  0
LINE
  5
1E0
330
1F
100
AcDbEntity
  8
LC-002-100-D00-0
 62
     7
370
    50
100
AcDbLine
 10
250.252257
 20
460.418353
 30
0.0
 11
250.252257
 21
458.418352
 31
0.0
  0
LINE
  5
1E1
330
1F
100
AcDbEntity
  8
LC-002-100-D00-0
 62
     7
370
    50
100
AcDbLine
 10
249.54612
 20
458.229142
 30
0.0
 11
250.252257
 21
458.418352
 31
0.0
  0
ARC
  5
1E2
330
1F
100
AcDbEntity
  8
LC-002-100-D00-0
 62
     7
370
    50
100
AcDbCircle
 10
249.701411
 20
457.649586
 30
0.0
 40
0.600000000000118
100
AcDbArc
 50
105.0
 51
180.0
  0
LINE
  5
1E3
330
1F
100
AcDbEntity
  8
LC-002-100-D00-0
 62
     7
370
    50
100
AcDbLine
 10
248.301411
 20
452.418353
 30
0.0
 11
250.252257
 21
452.418353
 31
0.0
  0
LINE
  5
1E4
330
1F
100
AcDbEntity
  8
LC-002-100-D00-0
 62
     7
370
    50
100
AcDbLine
 10
248.301412
 20
460.418353
 30
0.0
 11
250.252257
 21
460.418353
 31
0.0
  0
LINE
  5
1E5
330
1F
100
AcDbEntity
  8
LC-002-100-D00-0
 62
     7
370
    50
100
AcDbLine
 10
240.501411
 20
453.418353
 30
0.0
 11
240.659251
 21
453.418353
 31
0.0
  0
LINE
  5
1E6
330
1F
100
AcDbEntity
  8
LC-002-100-D00-0
 62
     7
370
    50
100
AcDbLine
 10
247.143572
 20
453.418353
 30
0.0
 11
247.301411
 21
453.418353
 31
0.0
  0
LINE
  5
1E7
330
1F
100
AcDbEntity
  8
LC-002-100-D00-0
 62
     7
370
    50
100
AcDbLine
 10
248.301411
 20
452.418353
 30
0.0
 11
247.765629
 21
452.418353
 31
0.0
  0
LINE
  5
1E8
330
1F
100
AcDbEntity
  8
LC-002-100-D00-0
 62
     7
370
    50
100
AcDbLine
 10
240.037193
 20
452.418353
 30
0.0
 11
239.501411
 21
452.418353
 31
0.0
  0
LINE
  5
1E9
330
1F
100
AcDbEntity
  8
LC-002-100-D00-0
 62
     7
370
    50
100
AcDbLine
 10
250.252257
 20
460.418353
 30
0.0
 11
247.801418
 21
460.418353
 31
0.0
  0
LINE
  5
1EA
330
1F
100
AcDbEntity
  8
LC-002-100-D00-0
 62
     7
370
    50
100
AcDbLine
 10
247.801418
 20
460.418353
 30
0.0
 11
247.801411
 21
471.418353
 31
0.0
  0
LINE
  5
1EB
330
1F
100
AcDbEntity
  8
LC-002-100-D00-0
 62
     7
370
    50
100
AcDbLine
 10
247.801411
 20
471.418353
 30
0.0
 11
261.151411
 21
471.418353
 31
0.0
  0
ARC
  5
1EC
330
1F
100
AcDbEntity
  8
LC-002-100-D00-0
 62
     7
370
    50
100
AcDbCircle
 10
261.151411
 20
470.418353
 30
0.0
 40
1.0
100
AcDbArc
 50
0.0
 51
90.0
  0
LINE
  5
1ED
330
1F
100
AcDbEntity
  8
LC-002-100-D00-0
 62
     7
370
    50
100
AcDbLine
 10
262.151411
 20
470.418353
 30
0.0
 11
262.151415
 21
464.418352
 31
0.0
  0
LINE
  5
1EE
330
1F
100
AcDbEntity
  8
LC-002-100-D00-0
 62
     7
370
    50
100
AcDbLine
 10
259.151411
 20
464.418353
 30
0.0
 11
262.151415
 21
464.418352
 31
0.0
  0
LINE
  5
1EF
330
1F
100
AcDbEntity
  8
LC-002-100-D00-0
 62
     7
370
    50
100
AcDbLine
 10
259.151411
 20
464.418353
 30
0.0
 11
259.151409
 21
468.418353
 31
0.0
  0
LINE
  5
1F0
330
1F
100
AcDbEntity
  8
LC-002-100-D00-0
 62
     7
370
    50
100
AcDbLine
 10
254.651411
 20
468.418353
 30
0.0
 11
259.151409
 21
468.418353
 31
0.0
  0
ARC
  5
1F1
330
1F
100
AcDbEntity
  8
LC-002-100-D00-0
 62
     7
370
    50
100
AcDbCircle
 10
254.651411
 20
467.418353
 30
0.0
 40
1.000000000000227
100
AcDbArc
 50
90.0
 51
180.0
  0
LINE
  5
1F2
330
1F
100
AcDbEntity
  8
LC-002-100-D00-0
 62
     7
370
    50
100
AcDbLine
 10
253.651411
 20
453.418353
 30
0.0
 11
253.651411
 21
467.418353
 31
0.0
  0
ARC
  5
1F3
330
1F
100
AcDbEntity
  8
LC-002-100-D00-0
 62
     7
370
    50
100
AcDbCircle
 10
252.651411
 20
453.418353
 30
0.0
 40
1.000000000000227
100
AcDbArc
 50
270.0
 51
0.0
  0
LINE
  5
1F4
330
1F
100
AcDbEntity
  8
LC-002-100-D00-0
 62
     7
370
    50
100
AcDbLine
 10
252.651411
 20
452.418353
 30
0.0
 11
250.252257
 21
452.418353
 31
0.0
  0
LINE
  5
1F5
330
1F
100
AcDbEntity
  8
LC-002-100-D00-0
 62
     7
370
    50
100
AcDbLine
 10
250.252257
 20
454.418352
 30
0.0
 11
250.252257
 21
452.418353
 31
0.0
  0
LINE
  5
1F6
330
1F
100
AcDbEntity
  8
LC-002-100-D00-0
 62
     7
370
    50
100
AcDbLine
 10
249.601411
 20
454.418353
 30
0.0
 11
250.252257
 21
454.418352
 31
0.0
  0
ARC
  5
1F7
330
1F
100
AcDbEntity
  8
LC-002-100-D00-0
 62
     7
370
    50
100
AcDbCircle
 10
249.601411
 20
454.918353
 30
0.0
 40
0.4999999999998863
100
AcDbArc
 50
180.0
 51
270.0
  0
LINE
  5
1F8
330
1F
100
AcDbEntity
  8
LC-002-100-D00-0
 62
     7
370
    50
100
AcDbLine
 10
249.101411
 20
457.918353
 30
0.0
 11
249.101411
 21
454.918353
 31
0.0
  0
ARC
  5
1F9
330
1F
100
AcDbEntity
  8
LC-002-100-D00-0
 62
     7
370
    50
100
AcDbCircle
 10
249.601411
 20
457.918353
 30
0.0
 40
0.5
100
AcDbArc
 50
90.0
 51
180.0
  0
LINE
  5
1FA
330
1F
100
AcDbEntity
  8
LC-002-100-D00-0
 62
     7
370
    50
100
AcDbLine
 10
250.252257
 20
458.418352
 30
0.0
 11
249.601411
 21
458.418353
 31
0.0
  0
LINE
  5
1FB
330
1F
100
AcDbEntity
  8
LC-002-100-D00-0
 62
     7
370
    50
100
AcDbLine
 10
250.252257
 20
460.418353
 30
0.0
 11
250.252257
 21
458.418352
 31
0.0
  0
ARC
  5
1FC
330
1F
100
AcDbEntity
  8
LC-002-100-D00-0
 62
     7
370
    50
100
AcDbCircle
 10
233.151411
 20
467.418353
 30
0.0
 40
1.000000000000227
100
AcDbArc
 50
0.0
 51
90.0
  0
ARC
  5
1FD
330
1F
100
AcDbEntity
  8
LC-002-100-D00-0
 62
     7
370
    50
100
AcDbCircle
 10
235.151411
 20
453.418353
 30
0.0
 40
1.000000000000227
100
AcDbArc
 50
180.0
 51
270.0
  0
LINE
  5
1FE
330
1F
100
AcDbEntity
  8
LC-002-100-D00-0
 62
     7
370
    50
100
AcDbLine
 10
234.151411
 20
467.418353
 30
0.0
 11
234.151411
 21
453.418353
 31
0.0
  0
LINE
  5
1FF
330
1F
100
AcDbEntity
  8
LC-002-100-D00-0
 62
     7
370
    50
100
AcDbLine
 10
238.701411
 20
454.918353
 30
0.0
 11
238.701411
 21
457.918353
 31
0.0
  0
LINE
  5
200
330
1F
100
AcDbEntity
  8
LC-002-100-D00-0
 62
     7
370
    50
100
AcDbLine
 10
240.001411
 20
471.418353
 30
0.0
 11
240.001405
 21
460.418353
 31
0.0
  0
LINE
  5
201
330
1F
100
AcDbEntity
  8
LC-002-100-D00-0
 62
     7
370
    50
100
AcDbLine
 10
240.001411
 20
471.418353
 30
0.0
 11
247.801411
 21
471.418353
 31
0.0
  0
LINE
  5
202
330
1F
100
AcDbEntity
  8
LC-002-100-D00-0
 62
     7
370
    50
100
AcDbLine
 10
237.550552
 20
454.418352
 30
0.0
 11
237.550552
 21
452.418353
 31
0.0
  0
LINE
  5
203
330
1F
100
AcDbEntity
  8
LC-002-100-D00-0
 62
     7
370
    50
100
AcDbLine
 10
237.550552
 20
460.418353
 30
0.0
 11
237.550552
 21
458.418352
 31
0.0
  0
ARC
  5
204
330
1F
100
AcDbEntity
  8
LC-002-100-D00-0
 62
     7
370
    50
100
AcDbCircle
 10
238.201411
 20
454.918353
 30
0.0
 40
0.5000000000002274
100
AcDbArc
 50
270.0
 51
0.0
  0
LINE
  5
205
330
1F
100
AcDbEntity
  8
LC-002-100-D00-0
 62
     7
370
    50
100
AcDbLine
 10
237.550552
 20
454.418352
 30
0.0
 11
238.201411
 21
454.418353
 31
0.0
  0
LINE
  5
206
330
1F
100
AcDbEntity
  8
LC-002-100-D00-0
 62
     7
370
    50
100
AcDbLine
 10
228.651399
 20
468.418353
 30
0.0
 11
228.651411
 21
464.418353
 31
0.0
  0
LINE
  5
207
330
1F
100
AcDbEntity
  8
LC-002-100-D00-0
 62
     7
370
    50
100
AcDbLine
 10
225.651408
 20
464.418352
 30
0.0
 11
225.651411
 21
470.418353
 31
0.0
  0
ARC
  5
208
330
1F
100
AcDbEntity
  8
LC-002-100-D00-0
 62
     7
370
    50
100
AcDbCircle
 10
226.651411
 20
470.418353
 30
0.0
 40
0.9999999999997726
100
AcDbArc
 50
90.0
 51
180.0
  0
LINE
  5
209
330
1F
100
AcDbEntity
  8
LC-002-100-D00-0
 62
     7
370
    50
100
AcDbLine
 10
238.201411
 20
458.418353
 30
0.0
 11
237.550552
 21
458.418352
 31
0.0
  0
ARC
  5
20A
330
1F
100
AcDbEntity
  8
LC-002-100-D00-0
 62
     7
370
    50
100
AcDbCircle
 10
238.201411
 20
457.918353
 30
0.0
 40
0.5000000000002274
100
AcDbArc
 50
0.0
 51
90.0
  0
LINE
  5
20B
330
1F
100
AcDbEntity
  8
LC-002-100-D00-0
 62
     7
370
    50
100
AcDbLine
 10
240.001405
 20
460.418353
 30
0.0
 11
237.550552
 21
460.418353
 31
0.0
  0
LINE
  5
20C
330
1F
100
AcDbEntity
  8
LC-002-100-D00-0
 62
     7
370
    50
100
AcDbLine
 10
237.550552
 20
452.418353
 30
0.0
 11
235.151411
 21
452.418353
 31
0.0
  0
LINE
  5
20D
330
1F
100
AcDbEntity
  8
LC-002-100-D00-0
 62
     7
370
    50
100
AcDbLine
 10
228.651399
 20
468.418353
 30
0.0
 11
233.151411
 21
468.418353
 31
0.0
  0
LINE
  5
20E
330
1F
100
AcDbEntity
  8
LC-002-100-D00-0
 62
     7
370
    50
100
AcDbLine
 10
226.651411
 20
471.418353
 30
0.0
 11
240.001411
 21
471.418353
 31
0.0
  0
LINE
  5
20F
330
1F
100
AcDbEntity
  8
LC-002-100-D00-0
 62
     7
370
    50
100
AcDbLine
 10
225.651408
 20
464.418352
 30
0.0
 11
228.651411
 21
464.418353
 31
0.0
  0
LINE
  5
210
330
1F
100
AcDbEntity
  8
LC-002-100-D00-0
 62
     7
370
    50
100
AcDbLine
 10
257.151411
 20
464.418353
 30
0.0
 11
259.151411
 21
464.418353
 31
0.0
  0
LINE
  5
211
330
1F
100
AcDbEntity
  8
LC-002-100-D00-0
 62
     7
370
    50
100
AcDbLine
 10
228.651411
 20
464.418353
 30
0.0
 11
230.651411
 21
464.418353
 31
0.0
  0
LINE
  5
212
330
1F
100
AcDbEntity
  8
LC-002-100-D00-0
 62
     7
370
    50
100
AcDbLine
 10
230.651411
 20
464.418353
 30
0.0
 11
234.151418
 21
464.418352
 31
0.0
  0
LINE
  5
213
330
1F
100
AcDbEntity
  8
LC-002-100-D00-0
 62
     7
370
    50
100
AcDbLine
 10
253.651405
 20
464.418352
 30
0.0
 11
257.151411
 21
464.418353
 31
0.0
  0
LINE
  5
214
330
1F
100
AcDbEntity
  8
LC-002-100-D00-0
 62
     7
370
    50
100
AcDbLine
 10
710.501413
 20
459.418352
 30
0.0
 11
709.501411
 21
460.418353
 31
0.0
  0
LINE
  5
215
330
1F
100
AcDbEntity
  8
LC-002-100-D00-0
 62
     7
370
    50
100
AcDbLine
 10
710.501413
 20
459.418352
 30
0.0
 11
710.501411
 21
453.418353
 31
0.0
  0
LINE
  5
216
330
1F
100
AcDbEntity
  8
LC-002-100-D00-0
 62
     7
370
    50
100
AcDbLine
 10
709.501411
 20
452.418353
 30
0.0
 11
710.501411
 21
453.418353
 31
0.0
  0
LINE
  5
217
330
1F
100
AcDbEntity
  8
LC-002-100-D00-0
 62
     7
370
    50
100
AcDbLine
 10
707.550565
 20
454.418352
 30
0.0
 11
707.550565
 21
452.418353
 31
0.0
  0
LINE
  5
218
330
1F
100
AcDbEntity
  8
LC-002-100-D00-0
 62
     7
370
    50
100
AcDbLine
 10
708.256703
 20
454.607563
 30
0.0
 11
707.550565
 21
454.418352
 31
0.0
  0
ARC
  5
219
330
1F
100
AcDbEntity
  8
LC-002-100-D00-0
 62
     7
370
    50
100
AcDbCircle
 10
708.101411
 20
455.187119
 30
0.0
 40
0.600000000000118
100
AcDbArc
 50
285.0
 51
0.0
  0
LINE
  5
21A
330
1F
100
AcDbEntity
  8
LC-002-100-D00-0
 62
     7
370
    50
100
AcDbLine
 10
708.701411
 20
457.649586
 30
0.0
 11
708.701411
 21
455.187119
 31
0.0
  0
ARC
  5
21B
330
1F
100
AcDbEntity
  8
LC-002-100-D00-0
 62
     7
370
    50
100
AcDbCircle
 10
708.101411
 20
457.649586
 30
0.0
 40
0.6000000000002501
100
AcDbArc
 50
0.0
 51
75.0
  0
LINE
  5
21C
330
1F
100
AcDbEntity
  8
LC-002-100-D00-0
 62
     7
370
    50
100
AcDbLine
 10
707.550565
 20
458.418352
 30
0.0
 11
708.256703
 21
458.229142
 31
0.0
  0
LINE
  5
21D
330
1F
100
AcDbEntity
  8
LC-002-100-D00-0
 62
     7
370
    50
100
AcDbLine
 10
707.550565
 20
460.418353
 30
0.0
 11
707.550565
 21
458.418352
 31
0.0
  0
LINE
  5
21E
330
1F
100
AcDbEntity
  8
LC-002-100-D00-0
 62
     7
370
    50
100
AcDbLine
 10
707.550565
 20
452.418353
 30
0.0
 11
709.501411
 21
452.418353
 31
0.0
  0
LINE
  5
21F
330
1F
100
AcDbEntity
  8
LC-002-100-D00-0
 62
     7
370
    50
100
AcDbLine
 10
707.550565
 20
460.418353
 30
0.0
 11
709.501411
 21
460.418353
 31
0.0
  0
LINE
  5
220
330
1F
100
AcDbEntity
  8
LC-002-100-D00-0
 62
     7
370
    50
100
AcDbLine
 10
719.101411
 20
455.187119
 30
0.0
 11
719.101411
 21
457.649586
 31
0.0
  0
ARC
  5
221
330
1F
100
AcDbEntity
  8
LC-002-100-D00-0
 62
     7
370
    50
100
AcDbCircle
 10
719.701411
 20
455.187119
 30
0.0
 40
0.5999999999999091
100
AcDbArc
 50
180.0
 51
255.0
  0
LINE
  5
222
330
1F
100
AcDbEntity
  8
LC-002-100-D00-0
 62
     7
370
    50
100
AcDbLine
 10
720.252271
 20
454.418352
 30
0.0
 11
719.54612
 21
454.607563
 31
0.0
  0
LINE
  5
223
330
1F
100
AcDbEntity
  8
LC-002-100-D00-0
 62
     7
370
    50
100
AcDbLine
 10
720.252271
 20
454.418352
 30
0.0
 11
720.252271
 21
452.418353
 31
0.0
  0
LINE
  5
224
330
1F
100
AcDbEntity
  8
LC-002-100-D00-0
 62
     7
370
    50
100
AcDbLine
 10
717.301411
 20
453.418353
 30
0.0
 11
718.301411
 21
452.418353
 31
0.0
  0
LINE
  5
225
330
1F
100
AcDbEntity
  8
LC-002-100-D00-0
 62
     7
370
    50
100
AcDbLine
 10
717.301411
 20
453.418353
 30
0.0
 11
717.301408
 21
459.418352
 31
0.0
  0
LINE
  5
226
330
1F
100
AcDbEntity
  8
LC-002-100-D00-0
 62
     7
370
    50
100
AcDbLine
 10
718.301411
 20
460.418353
 30
0.0
 11
717.301408
 21
459.418352
 31
0.0
  0
LINE
  5
227
330
1F
100
AcDbEntity
  8
LC-002-100-D00-0
 62
     7
370
    50
100
AcDbLine
 10
720.252271
 20
460.418353
 30
0.0
 11
720.252271
 21
458.418352
 31
0.0
  0
LINE
  5
228
330
1F
100
AcDbEntity
  8
LC-002-100-D00-0
 62
     7
370
    50
100
AcDbLine
 10
719.54612
 20
458.229142
 30
0.0
 11
720.252271
 21
458.418352
 31
0.0
  0
ARC
  5
229
330
1F
100
AcDbEntity
  8
LC-002-100-D00-0
 62
     7
370
    50
100
AcDbCircle
 10
719.701411
 20
457.649586
 30
0.0
 40
0.6000000000000886
100
AcDbArc
 50
105.0
 51
180.0
  0
LINE
  5
22A
330
1F
100
AcDbEntity
  8
LC-002-100-D00-0
 62
     7
370
    50
100
AcDbLine
 10
718.301411
 20
452.418353
 30
0.0
 11
720.252271
 21
452.418353
 31
0.0
  0
LINE
  5
22B
330
1F
100
AcDbEntity
  8
LC-002-100-D00-0
 62
     7
370
    50
100
AcDbLine
 10
718.301411
 20
460.418353
 30
0.0
 11
720.252271
 21
460.418353
 31
0.0
  0
LINE
  5
22C
330
1F
100
AcDbEntity
  8
LC-002-100-D00-0
 62
     7
370
    50
100
AcDbLine
 10
710.501411
 20
453.418353
 30
0.0
 11
710.659251
 21
453.418353
 31
0.0
  0
LINE
  5
22D
330
1F
100
AcDbEntity
  8
LC-002-100-D00-0
 62
     7
370
    50
100
AcDbLine
 10
717.143572
 20
453.418353
 30
0.0
 11
717.301411
 21
453.418353
 31
0.0
  0
LINE
  5
22E
330
1F
100
AcDbEntity
  8
LC-002-100-D00-0
 62
     7
370
    50
100
AcDbLine
 10
718.301411
 20
452.418353
 30
0.0
 11
717.765629
 21
452.418353
 31
0.0
  0
LINE
  5
22F
330
1F
100
AcDbEntity
  8
LC-002-100-D00-0
 62
     7
370
    50
100
AcDbLine
 10
710.037193
 20
452.418353
 30
0.0
 11
709.501411
 21
452.418353
 31
0.0
  0
LINE
  5
230
330
1F
100
AcDbEntity
  8
LC-002-100-D00-0
 62
     7
370
    50
100
AcDbLine
 10
720.252271
 20
460.418353
 30
0.0
 11
717.801417
 21
460.418353
 31
0.0
  0
LINE
  5
231
330
1F
100
AcDbEntity
  8
LC-002-100-D00-0
 62
     7
370
    50
100
AcDbLine
 10
717.801417
 20
460.418353
 30
0.0
 11
717.801411
 21
471.418353
 31
0.0
  0
LINE
  5
232
330
1F
100
AcDbEntity
  8
LC-002-100-D00-0
 62
     7
370
    50
100
AcDbLine
 10
717.801411
 20
471.418353
 30
0.0
 11
731.151411
 21
471.418353
 31
0.0
  0
ARC
  5
233
330
1F
100
AcDbEntity
  8
LC-002-100-D00-0
 62
     7
370
    50
100
AcDbCircle
 10
731.151411
 20
470.418353
 30
0.0
 40
1.0
100
AcDbArc
 50
0.0
 51
90.0
  0
LINE
  5
234
330
1F
100
AcDbEntity
  8
LC-002-100-D00-0
 62
     7
370
    50
100
AcDbLine
 10
732.151411
 20
470.418353
 30
0.0
 11
732.151414
 21
464.418352
 31
0.0
  0
LINE
  5
235
330
1F
100
AcDbEntity
  8
LC-002-100-D00-0
 62
     7
370
    50
100
AcDbLine
 10
729.151411
 20
464.418353
 30
0.0
 11
732.151414
 21
464.418352
 31
0.0
  0
LINE
  5
236
330
1F
100
AcDbEntity
  8
LC-002-100-D00-0
 62
     7
370
    50
100
AcDbLine
 10
729.151411
 20
464.418353
 30
0.0
 11
729.151423
 21
468.418353
 31
0.0
  0
LINE
  5
237
330
1F
100
AcDbEntity
  8
LC-002-100-D00-0
 62
     7
370
    50
100
AcDbLine
 10
724.651411
 20
468.418353
 30
0.0
 11
729.151423
 21
468.418353
 31
0.0
  0
ARC
  5
238
330
1F
100
AcDbEntity
  8
LC-002-100-D00-0
 62
     7
370
    50
100
AcDbCircle
 10
724.651411
 20
467.418353
 30
0.0
 40
1.000000000000227
100
AcDbArc
 50
90.0
 51
180.0
  0
LINE
  5
239
330
1F
100
AcDbEntity
  8
LC-002-100-D00-0
 62
     7
370
    50
100
AcDbLine
 10
723.651411
 20
453.418353
 30
0.0
 11
723.651411
 21
467.418353
 31
0.0
  0
ARC
  5
23A
330
1F
100
AcDbEntity
  8
LC-002-100-D00-0
 62
     7
370
    50
100
AcDbCircle
 10
722.651411
 20
453.418353
 30
0.0
 40
1.000000000000227
100
AcDbArc
 50
270.0
 51
0.0
  0
LINE
  5
23B
330
1F
100
AcDbEntity
  8
LC-002-100-D00-0
 62
     7
370
    50
100
AcDbLine
 10
722.651411
 20
452.418353
 30
0.0
 11
720.252271
 21
452.418353
 31
0.0
  0
LINE
  5
23C
330
1F
100
AcDbEntity
  8
LC-002-100-D00-0
 62
     7
370
    50
100
AcDbLine
 10
720.252271
 20
454.418352
 30
0.0
 11
720.252271
 21
452.418353
 31
0.0
  0
LINE
  5
23D
330
1F
100
AcDbEntity
  8
LC-002-100-D00-0
 62
     7
370
    50
100
AcDbLine
 10
719.601411
 20
454.418353
 30
0.0
 11
720.252271
 21
454.418352
 31
0.0
  0
ARC
  5
23E
330
1F
100
AcDbEntity
  8
LC-002-100-D00-0
 62
     7
370
    50
100
AcDbCircle
 10
719.601411
 20
454.918353
 30
0.0
 40
0.5
100
AcDbArc
 50
180.0
 51
270.0
  0
LINE
  5
23F
330
1F
100
AcDbEntity
  8
LC-002-100-D00-0
 62
     7
370
    50
100
AcDbLine
 10
719.101411
 20
457.918353
 30
0.0
 11
719.101411
 21
454.918353
 31
0.0
  0
ARC
  5
240
330
1F
100
AcDbEntity
  8
LC-002-100-D00-0
 62
     7
370
    50
100
AcDbCircle
 10
719.601411
 20
457.918353
 30
0.0
 40
0.5
100
AcDbArc
 50
90.0
 51
180.0
  0
LINE
  5
241
330
1F
100
AcDbEntity
  8
LC-002-100-D00-0
 62
     7
370
    50
100
AcDbLine
 10
720.252271
 20
458.418352
 30
0.0
 11
719.601411
 21
458.418353
 31
0.0
  0
LINE
  5
242
330
1F
100
AcDbEntity
  8
LC-002-100-D00-0
 62
     7
370
    50
100
AcDbLine
 10
720.252271
 20
460.418353
 30
0.0
 11
720.252271
 21
458.418352
 31
0.0
  0
ARC
  5
243
330
1F
100
AcDbEntity
  8
LC-002-100-D00-0
 62
     7
370
    50
100
AcDbCircle
 10
703.151411
 20
467.418353
 30
0.0
 40
1.000000000000227
100
AcDbArc
 50
0.0
 51
90.0
  0
ARC
  5
244
330
1F
100
AcDbEntity
  8
LC-002-100-D00-0
 62
     7
370
    50
100
AcDbCircle
 10
705.151411
 20
453.418353
 30
0.0
 40
1.000000000000227
100
AcDbArc
 50
180.0
 51
270.0
  0
LINE
  5
245
330
1F
100
AcDbEntity
  8
LC-002-100-D00-0
 62
     7
370
    50
100
AcDbLine
 10
704.151411
 20
467.418353
 30
0.0
 11
704.151411
 21
453.418353
 31
0.0
  0
LINE
  5
246
330
1F
100
AcDbEntity
  8
LC-002-100-D00-0
 62
     7
370
    50
100
AcDbLine
 10
708.701411
 20
454.918353
 30
0.0
 11
708.701411
 21
457.918353
 31
0.0
  0
LINE
  5
247
330
1F
100
AcDbEntity
  8
LC-002-100-D00-0
 62
     7
370
    50
100
AcDbLine
 10
710.001411
 20
471.418353
 30
0.0
 11
710.001404
 21
460.418353
 31
0.0
  0
LINE
  5
248
330
1F
100
AcDbEntity
  8
LC-002-100-D00-0
 62
     7
370
    50
100
AcDbLine
 10
710.001411
 20
471.418353
 30
0.0
 11
717.801411
 21
471.418353
 31
0.0
  0
LINE
  5
249
330
1F
100
AcDbEntity
  8
LC-002-100-D00-0
 62
     7
370
    50
100
AcDbLine
 10
707.550565
 20
460.418353
 30
0.0
 11
707.550565
 21
458.418352
 31
0.0
  0
LINE
  5
24A
330
1F
100
AcDbEntity
  8
LC-002-100-D00-0
 62
     7
370
    50
100
AcDbLine
 10
707.550565
 20
454.418352
 30
0.0
 11
707.550565
 21
452.418353
 31
0.0
  0
ARC
  5
24B
330
1F
100
AcDbEntity
  8
LC-002-100-D00-0
 62
     7
370
    50
100
AcDbCircle
 10
708.201411
 20
454.918353
 30
0.0
 40
0.4999999999997726
100
AcDbArc
 50
270.0
 51
0.0
  0
LINE
  5
24C
330
1F
100
AcDbEntity
  8
LC-002-100-D00-0
 62
     7
370
    50
100
AcDbLine
 10
707.550565
 20
454.418352
 30
0.0
 11
708.201411
 21
454.418353
 31
0.0
  0
LINE
  5
24D
330
1F
100
AcDbEntity
  8
LC-002-100-D00-0
 62
     7
370
    50
100
AcDbLine
 10
698.651413
 20
468.418353
 30
0.0
 11
698.651411
 21
464.418353
 31
0.0
  0
LINE
  5
24E
330
1F
100
AcDbEntity
  8
LC-002-100-D00-0
 62
     7
370
    50
100
AcDbLine
 10
695.651407
 20
464.418352
 30
0.0
 11
695.651411
 21
470.418353
 31
0.0
  0
ARC
  5
24F
330
1F
100
AcDbEntity
  8
LC-002-100-D00-0
 62
     7
370
    50
100
AcDbCircle
 10
696.651411
 20
470.418353
 30
0.0
 40
0.9999999999997726
100
AcDbArc
 50
90.0
 51
180.0
  0
LINE
  5
250
330
1F
100
AcDbEntity
  8
LC-002-100-D00-0
 62
     7
370
    50
100
AcDbLine
 10
708.201411
 20
458.418353
 30
0.0
 11
707.550565
 21
458.418352
 31
0.0
  0
ARC
  5
251
330
1F
100
AcDbEntity
  8
LC-002-100-D00-0
 62
     7
370
    50
100
AcDbCircle
 10
708.201411
 20
457.918353
 30
0.0
 40
0.5000000000002274
100
AcDbArc
 50
0.0
 51
90.0
  0
LINE
  5
252
330
1F
100
AcDbEntity
  8
LC-002-100-D00-0
 62
     7
370
    50
100
AcDbLine
 10
710.001404
 20
460.418353
 30
0.0
 11
707.550565
 21
460.418353
 31
0.0
  0
LINE
  5
253
330
1F
100
AcDbEntity
  8
LC-002-100-D00-0
 62
     7
370
    50
100
AcDbLine
 10
707.550565
 20
452.418353
 30
0.0
 11
705.151411
 21
452.418353
 31
0.0
  0
LINE
  5
254
330
1F
100
AcDbEntity
  8
LC-002-100-D00-0
 62
     7
370
    50
100
AcDbLine
 10
698.651413
 20
468.418353
 30
0.0
 11
703.151411
 21
468.418353
 31
0.0
  0
LINE
  5
255
330
1F
100
AcDbEntity
  8
LC-002-100-D00-0
 62
     7
370
    50
100
AcDbLine
 10
696.651411
 20
471.418353
 30
0.0
 11
710.001411
 21
471.418353
 31
0.0
  0
LINE
  5
256
330
1F
100
AcDbEntity
  8
LC-002-100-D00-0
 62
     7
370
    50
100
AcDbLine
 10
695.651407
 20
464.418352
 30
0.0
 11
698.651411
 21
464.418353
 31
0.0
  0
LINE
  5
257
330
1F
100
AcDbEntity
  8
LC-002-100-D00-0
 62
     7
370
    50
100
AcDbLine
 10
727.151411
 20
464.418353
 30
0.0
 11
729.151411
 21
464.418353
 31
0.0
  0
LINE
  5
258
330
1F
100
AcDbEntity
  8
LC-002-100-D00-0
 62
     7
370
    50
100
AcDbLine
 10
698.651411
 20
464.418353
 30
0.0
 11
700.651411
 21
464.418353
 31
0.0
  0
LINE
  5
259
330
1F
100
AcDbEntity
  8
LC-002-100-D00-0
 62
     7
370
    50
100
AcDbLine
 10
700.651411
 20
464.418353
 30
0.0
 11
704.151417
 21
464.418352
 31
0.0
  0
LINE
  5
25A
330
1F
100
AcDbEntity
  8
LC-002-100-D00-0
 62
     7
370
    50
100
AcDbLine
 10
723.651404
 20
464.418352
 30
0.0
 11
727.151411
 21
464.418353
 31
0.0
  0
LINE
  5
25B
330
1F
100
AcDbEntity
  8
LC-002-100-D00-0
 62
     7
370
    50
100
AcDbLine
 10
375.501412
 20
459.418352
 30
0.0
 11
374.50141
 21
460.418353
 31
0.0
  0
LINE
  5
25C
330
1F
100
AcDbEntity
  8
LC-002-100-D00-0
 62
     7
370
    50
100
AcDbLine
 10
375.501412
 20
459.418352
 30
0.0
 11
375.501411
 21
453.418353
 31
0.0
  0
LINE
  5
25D
330
1F
100
AcDbEntity
  8
LC-002-100-D00-0
 62
     7
370
    50
100
AcDbLine
 10
374.501411
 20
452.418353
 30
0.0
 11
375.501411
 21
453.418353
 31
0.0
  0
LINE
  5
25E
330
1F
100
AcDbEntity
  8
LC-002-100-D00-0
 62
     7
370
    50
100
AcDbLine
 10
372.550557
 20
454.418352
 30
0.0
 11
372.550557
 21
452.418353
 31
0.0
  0
LINE
  5
25F
330
1F
100
AcDbEntity
  8
LC-002-100-D00-0
 62
     7
370
    50
100
AcDbLine
 10
373.256703
 20
454.607563
 30
0.0
 11
372.550557
 21
454.418352
 31
0.0
  0
ARC
  5
260
330
1F
100
AcDbEntity
  8
LC-002-100-D00-0
 62
     7
370
    50
100
AcDbCircle
 10
373.101411
 20
455.187119
 30
0.0
 40
0.600000000000118
100
AcDbArc
 50
285.0
 51
0.0
  0
LINE
  5
261
330
1F
100
AcDbEntity
  8
LC-002-100-D00-0
 62
     7
370
    50
100
AcDbLine
 10
373.701411
 20
457.649586
 30
0.0
 11
373.701411
 21
455.187119
 31
0.0
  0
ARC
  5
262
330
1F
100
AcDbEntity
  8
LC-002-100-D00-0
 62
     7
370
    50
100
AcDbCircle
 10
373.101411
 20
457.649586
 30
0.0
 40
0.6000000000003638
100
AcDbArc
 50
0.0
 51
75.0
  0
LINE
  5
263
330
1F
100
AcDbEntity
  8
LC-002-100-D00-0
 62
     7
370
    50
100
AcDbLine
 10
372.550557
 20
458.418352
 30
0.0
 11
373.256703
 21
458.229142
 31
0.0
  0
LINE
  5
264
330
1F
100
AcDbEntity
  8
LC-002-100-D00-0
 62
     7
370
    50
100
AcDbLine
 10
372.550557
 20
460.418353
 30
0.0
 11
372.550557
 21
458.418352
 31
0.0
  0
LINE
  5
265
330
1F
100
AcDbEntity
  8
LC-002-100-D00-0
 62
     7
370
    50
100
AcDbLine
 10
372.550557
 20
452.418353
 30
0.0
 11
374.501411
 21
452.418353
 31
0.0
  0
LINE
  5
266
330
1F
100
AcDbEntity
  8
LC-002-100-D00-0
 62
     7
370
    50
100
AcDbLine
 10
372.550557
 20
460.418353
 30
0.0
 11
374.50141
 21
460.418353
 31
0.0
  0
LINE
  5
267
330
1F
100
AcDbEntity
  8
LC-002-100-D00-0
 62
     7
370
    50
100
AcDbLine
 10
384.101411
 20
455.187119
 30
0.0
 11
384.101411
 21
457.649586
 31
0.0
  0
ARC
  5
268
330
1F
100
AcDbEntity
  8
LC-002-100-D00-0
 62
     7
370
    50
100
AcDbCircle
 10
384.701411
 20
455.187119
 30
0.0
 40
0.6000000000000227
100
AcDbArc
 50
180.0
 51
255.0
  0
LINE
  5
269
330
1F
100
AcDbEntity
  8
LC-002-100-D00-0
 62
     7
370
    50
100
AcDbLine
 10
385.252262
 20
454.418352
 30
0.0
 11
384.54612
 21
454.607563
 31
0.0
  0
LINE
  5
26A
330
1F
100
AcDbEntity
  8
LC-002-100-D00-0
 62
     7
370
    50
100
AcDbLine
 10
385.252262
 20
454.418352
 30
0.0
 11
385.252262
 21
452.418353
 31
0.0
  0
LINE
  5
26B
330
1F
100
AcDbEntity
  8
LC-002-100-D00-0
 62
     7
370
    50
100
AcDbLine
 10
382.301411
 20
453.418353
 30
0.0
 11
383.301411
 21
452.418353
 31
0.0
  0
LINE
  5
26C
330
1F
100
AcDbEntity
  8
LC-002-100-D00-0
 62
     7
370
    50
100
AcDbLine
 10
382.301411
 20
453.418353
 30
0.0
 11
382.301408
 21
459.418352
 31
0.0
  0
LINE
  5
26D
330
1F
100
AcDbEntity
  8
LC-002-100-D00-0
 62
     7
370
    50
100
AcDbLine
 10
383.30141
 20
460.418353
 30
0.0
 11
382.301408
 21
459.418352
 31
0.0
  0
LINE
  5
26E
330
1F
100
AcDbEntity
  8
LC-002-100-D00-0
 62
     7
370
    50
100
AcDbLine
 10
385.252262
 20
460.418353
 30
0.0
 11
385.252262
 21
458.418352
 31
0.0
  0
LINE
  5
26F
330
1F
100
AcDbEntity
  8
LC-002-100-D00-0
 62
     7
370
    50
100
AcDbLine
 10
384.54612
 20
458.229142
 30
0.0
 11
385.252262
 21
458.418352
 31
0.0
  0
ARC
  5
270
330
1F
100
AcDbEntity
  8
LC-002-100-D00-0
 62
     7
370
    50
100
AcDbCircle
 10
384.701411
 20
457.649586
 30
0.0
 40
0.600000000000118
100
AcDbArc
 50
105.0
 51
180.0
  0
LINE
  5
271
330
1F
100
AcDbEntity
  8
LC-002-100-D00-0
 62
     7
370
    50
100
AcDbLine
 10
383.301411
 20
452.418353
 30
0.0
 11
385.252262
 21
452.418353
 31
0.0
  0
LINE
  5
272
330
1F
100
AcDbEntity
  8
LC-002-100-D00-0
 62
     7
370
    50
100
AcDbLine
 10
383.30141
 20
460.418353
 30
0.0
 11
385.252262
 21
460.418353
 31
0.0
  0
LINE
  5
273
330
1F
100
AcDbEntity
  8
LC-002-100-D00-0
 62
     7
370
    50
100
AcDbLine
 10
375.501411
 20
453.418353
 30
0.0
 11
375.659251
 21
453.418353
 31
0.0
  0
LINE
  5
274
330
1F
100
AcDbEntity
  8
LC-002-100-D00-0
 62
     7
370
    50
100
AcDbLine
 10
382.143572
 20
453.418353
 30
0.0
 11
382.301411
 21
453.418353
 31
0.0
  0
LINE
  5
275
330
1F
100
AcDbEntity
  8
LC-002-100-D00-0
 62
     7
370
    50
100
AcDbLine
 10
383.301411
 20
452.418353
 30
0.0
 11
382.765629
 21
452.418353
 31
0.0
  0
LINE
  5
276
330
1F
100
AcDbEntity
  8
LC-002-100-D00-0
 62
     7
370
    50
100
AcDbLine
 10
375.037193
 20
452.418353
 30
0.0
 11
374.501411
 21
452.418353
 31
0.0
  0
LINE
  5
277
330
1F
100
AcDbEntity
  8
LC-002-100-D00-0
 62
     7
370
    50
100
AcDbLine
 10
385.252262
 20
460.418353
 30
0.0
 11
382.801409
 21
460.418353
 31
0.0
  0
LINE
  5
278
330
1F
100
AcDbEntity
  8
LC-002-100-D00-0
 62
     7
370
    50
100
AcDbLine
 10
382.801409
 20
460.418353
 30
0.0
 11
382.801411
 21
471.418353
 31
0.0
  0
LINE
  5
279
330
1F
100
AcDbEntity
  8
LC-002-100-D00-0
 62
     7
370
    50
100
AcDbLine
 10
382.801411
 20
471.418353
 30
0.0
 11
396.151411
 21
471.418353
 31
0.0
  0
ARC
  5
27A
330
1F
100
AcDbEntity
  8
LC-002-100-D00-0
 62
     7
370
    50
100
AcDbCircle
 10
396.151411
 20
470.418353
 30
0.0
 40
1.0
100
AcDbArc
 50
0.0
 51
90.0
  0
LINE
  5
27B
330
1F
100
AcDbEntity
  8
LC-002-100-D00-0
 62
     7
370
    50
100
AcDbLine
 10
397.151411
 20
470.418353
 30
0.0
 11
397.151413
 21
464.418352
 31
0.0
  0
LINE
  5
27C
330
1F
100
AcDbEntity
  8
LC-002-100-D00-0
 62
     7
370
    50
100
AcDbLine
 10
394.151411
 20
464.418353
 30
0.0
 11
397.151413
 21
464.418352
 31
0.0
  0
LINE
  5
27D
330
1F
100
AcDbEntity
  8
LC-002-100-D00-0
 62
     7
370
    50
100
AcDbLine
 10
394.151411
 20
464.418353
 30
0.0
 11
394.151414
 21
468.418353
 31
0.0
  0
LINE
  5
27E
330
1F
100
AcDbEntity
  8
LC-002-100-D00-0
 62
     7
370
    50
100
AcDbLine
 10
389.651411
 20
468.418353
 30
0.0
 11
394.151414
 21
468.418353
 31
0.0
  0
ARC
  5
27F
330
1F
100
AcDbEntity
  8
LC-002-100-D00-0
 62
     7
370
    50
100
AcDbCircle
 10
389.651411
 20
467.418353
 30
0.0
 40
1.000000000000227
100
AcDbArc
 50
90.0
 51
180.0
  0
LINE
  5
280
330
1F
100
AcDbEntity
  8
LC-002-100-D00-0
 62
     7
370
    50
100
AcDbLine
 10
388.651411
 20
453.418353
 30
0.0
 11
388.651411
 21
467.418353
 31
0.0
  0
ARC
  5
281
330
1F
100
AcDbEntity
  8
LC-002-100-D00-0
 62
     7
370
    50
100
AcDbCircle
 10
387.651411
 20
453.418353
 30
0.0
 40
1.000000000000227
100
AcDbArc
 50
270.0
 51
0.0
  0
LINE
  5
282
330
1F
100
AcDbEntity
  8
LC-002-100-D00-0
 62
     7
370
    50
100
AcDbLine
 10
387.651411
 20
452.418353
 30
0.0
 11
385.252262
 21
452.418353
 31
0.0
  0
LINE
  5
283
330
1F
100
AcDbEntity
  8
LC-002-100-D00-0
 62
     7
370
    50
100
AcDbLine
 10
385.252262
 20
454.418352
 30
0.0
 11
385.252262
 21
452.418353
 31
0.0
  0
LINE
  5
284
330
1F
100
AcDbEntity
  8
LC-002-100-D00-0
 62
     7
370
    50
100
AcDbLine
 10
384.601411
 20
454.418353
 30
0.0
 11
385.252262
 21
454.418352
 31
0.0
  0
ARC
  5
285
330
1F
100
AcDbEntity
  8
LC-002-100-D00-0
 62
     7
370
    50
100
AcDbCircle
 10
384.601411
 20
454.918353
 30
0.0
 40
0.5
100
AcDbArc
 50
180.0
 51
270.0
  0
LINE
  5
286
330
1F
100
AcDbEntity
  8
LC-002-100-D00-0
 62
     7
370
    50
100
AcDbLine
 10
384.101411
 20
457.918353
 30
0.0
 11
384.101411
 21
454.918353
 31
0.0
  0
ARC
  5
287
330
1F
100
AcDbEntity
  8
LC-002-100-D00-0
 62
     7
370
    50
100
AcDbCircle
 10
384.601411
 20
457.918353
 30
0.0
 40
0.5
100
AcDbArc
 50
90.0
 51
180.0
  0
LINE
  5
288
330
1F
100
AcDbEntity
  8
LC-002-100-D00-0
 62
     7
370
    50
100
AcDbLine
 10
385.252262
 20
458.418352
 30
0.0
 11
384.601411
 21
458.418353
 31
0.0
  0
LINE
  5
289
330
1F
100
AcDbEntity
  8
LC-002-100-D00-0
 62
     7
370
    50
100
AcDbLine
 10
385.252262
 20
460.418353
 30
0.0
 11
385.252262
 21
458.418352
 31
0.0
  0
ARC
  5
28A
330
1F
100
AcDbEntity
  8
LC-002-100-D00-0
 62
     7
370
    50
100
AcDbCircle
 10
368.151411
 20
467.418353
 30
0.0
 40
1.000000000000227
100
AcDbArc
 50
0.0
 51
90.0
  0
ARC
  5
28B
330
1F
100
AcDbEntity
  8
LC-002-100-D00-0
 62
     7
370
    50
100
AcDbCircle
 10
370.151411
 20
453.418353
 30
0.0
 40
1.000000000000227
100
AcDbArc
 50
180.0
 51
270.0
  0
LINE
  5
28C
330
1F
100
AcDbEntity
  8
LC-002-100-D00-0
 62
     7
370
    50
100
AcDbLine
 10
369.151411
 20
467.418353
 30
0.0
 11
369.151411
 21
453.418353
 31
0.0
  0
LINE
  5
28D
330
1F
100
AcDbEntity
  8
LC-002-100-D00-0
 62
     7
370
    50
100
AcDbLine
 10
373.701411
 20
454.918353
 30
0.0
 11
373.701411
 21
457.918353
 31
0.0
  0
LINE
  5
28E
330
1F
100
AcDbEntity
  8
LC-002-100-D00-0
 62
     7
370
    50
100
AcDbLine
 10
375.001411
 20
471.418353
 30
0.0
 11
375.001411
 21
460.418353
 31
0.0
  0
LINE
  5
28F
330
1F
100
AcDbEntity
  8
LC-002-100-D00-0
 62
     7
370
    50
100
AcDbLine
 10
375.001411
 20
471.418353
 30
0.0
 11
382.801411
 21
471.418353
 31
0.0
  0
LINE
  5
290
330
1F
100
AcDbEntity
  8
LC-002-100-D00-0
 62
     7
370
    50
100
AcDbLine
 10
372.550557
 20
460.418353
 30
0.0
 11
372.550557
 21
458.418352
 31
0.0
  0
LINE
  5
291
330
1F
100
AcDbEntity
  8
LC-002-100-D00-0
 62
     7
370
    50
100
AcDbLine
 10
372.550557
 20
454.418352
 30
0.0
 11
372.550557
 21
452.418353
 31
0.0
  0
ARC
  5
292
330
1F
100
AcDbEntity
  8
LC-002-100-D00-0
 62
     7
370
    50
100
AcDbCircle
 10
373.201411
 20
454.918353
 30
0.0
 40
0.5000000000002274
100
AcDbArc
 50
270.0
 51
0.0
  0
LINE
  5
293
330
1F
100
AcDbEntity
  8
LC-002-100-D00-0
 62
     7
370
    50
100
AcDbLine
 10
372.550557
 20
454.418352
 30
0.0
 11
373.201411
 21
454.418353
 31
0.0
  0
LINE
  5
294
330
1F
100
AcDbEntity
  8
LC-002-100-D00-0
 62
     7
370
    50
100
AcDbLine
 10
363.651412
 20
468.418353
 30
0.0
 11
363.651411
 21
464.418353
 31
0.0
  0
LINE
  5
295
330
1F
100
AcDbEntity
  8
LC-002-100-D00-0
 62
     7
370
    50
100
AcDbLine
 10
360.651414
 20
464.418352
 30
0.0
 11
360.651411
 21
470.418353
 31
0.0
  0
ARC
  5
296
330
1F
100
AcDbEntity
  8
LC-002-100-D00-0
 62
     7
370
    50
100
AcDbCircle
 10
361.651411
 20
470.418353
 30
0.0
 40
0.9999999999997726
100
AcDbArc
 50
90.0
 51
180.0
  0
LINE
  5
297
330
1F
100
AcDbEntity
  8
LC-002-100-D00-0
 62
     7
370
    50
100
AcDbLine
 10
373.201411
 20
458.418353
 30
0.0
 11
372.550557
 21
458.418352
 31
0.0
  0
ARC
  5
298
330
1F
100
AcDbEntity
  8
LC-002-100-D00-0
 62
     7
370
    50
100
AcDbCircle
 10
373.201411
 20
457.918353
 30
0.0
 40
0.5000000000002274
100
AcDbArc
 50
0.0
 51
90.0
  0
LINE
  5
299
330
1F
100
AcDbEntity
  8
LC-002-100-D00-0
 62
     7
370
    50
100
AcDbLine
 10
375.001411
 20
460.418353
 30
0.0
 11
372.550557
 21
460.418353
 31
0.0
  0
LINE
  5
29A
330
1F
100
AcDbEntity
  8
LC-002-100-D00-0
 62
     7
370
    50
100
AcDbLine
 10
372.550557
 20
452.418353
 30
0.0
 11
370.151411
 21
452.418353
 31
0.0
  0
LINE
  5
29B
330
1F
100
AcDbEntity
  8
LC-002-100-D00-0
 62
     7
370
    50
100
AcDbLine
 10
363.651412
 20
468.418353
 30
0.0
 11
368.151411
 21
468.418353
 31
0.0
  0
LINE
  5
29C
330
1F
100
AcDbEntity
  8
LC-002-100-D00-0
 62
     7
370
    50
100
AcDbLine
 10
361.651411
 20
471.418353
 30
0.0
 11
375.001411
 21
471.418353
 31
0.0
  0
LINE
  5
29D
330
1F
100
AcDbEntity
  8
LC-002-100-D00-0
 62
     7
370
    50
100
AcDbLine
 10
360.651414
 20
464.418352
 30
0.0
 11
363.651411
 21
464.418353
 31
0.0
  0
LINE
  5
29E
330
1F
100
AcDbEntity
  8
LC-002-100-D00-0
 62
     7
370
    50
100
AcDbLine
 10
392.151411
 20
464.418353
 30
0.0
 11
394.151411
 21
464.418353
 31
0.0
  0
LINE
  5
29F
330
1F
100
AcDbEntity
  8
LC-002-100-D00-0
 62
     7
370
    50
100
AcDbLine
 10
363.651411
 20
464.418353
 30
0.0
 11
365.651411
 21
464.418353
 31
0.0
  0
LINE
  5
2A0
330
1F
100
AcDbEntity
  8
LC-002-100-D00-0
 62
     7
370
    50
100
AcDbLine
 10
365.651411
 20
464.418353
 30
0.0
 11
369.151409
 21
464.418352
 31
0.0
  0
LINE
  5
2A1
330
1F
100
AcDbEntity
  8
LC-002-100-D00-0
 62
     7
370
    50
100
AcDbLine
 10
388.651411
 20
464.418352
 30
0.0
 11
392.151411
 21
464.418353
 31
0.0
  0
LINE
  5
2A2
330
1F
100
AcDbEntity
  8
LC-002-100-D00-0
 62
     7
370
    50
100
AcDbLine
 10
575.501415
 20
459.418352
 30
0.0
 11
574.501413
 21
460.418353
 31
0.0
  0
LINE
  5
2A3
330
1F
100
AcDbEntity
  8
LC-002-100-D00-0
 62
     7
370
    50
100
AcDbLine
 10
575.501415
 20
459.418352
 30
0.0
 11
575.501411
 21
453.418353
 31
0.0
  0
LINE
  5
2A4
330
1F
100
AcDbEntity
  8
LC-002-100-D00-0
 62
     7
370
    50
100
AcDbLine
 10
574.501411
 20
452.418353
 30
0.0
 11
575.501411
 21
453.418353
 31
0.0
  0
LINE
  5
2A5
330
1F
100
AcDbEntity
  8
LC-002-100-D00-0
 62
     7
370
    50
100
AcDbLine
 10
572.55056
 20
454.418352
 30
0.0
 11
572.55056
 21
452.418353
 31
0.0
  0
LINE
  5
2A6
330
1F
100
AcDbEntity
  8
LC-002-100-D00-0
 62
     7
370
    50
100
AcDbLine
 10
573.256703
 20
454.607563
 30
0.0
 11
572.55056
 21
454.418352
 31
0.0
  0
ARC
  5
2A7
330
1F
100
AcDbEntity
  8
LC-002-100-D00-0
 62
     7
370
    50
100
AcDbCircle
 10
573.101411
 20
455.187119
 30
0.0
 40
0.6000000000003376
100
AcDbArc
 50
285.0
 51
0.0
  0
LINE
  5
2A8
330
1F
100
AcDbEntity
  8
LC-002-100-D00-0
 62
     7
370
    50
100
AcDbLine
 10
573.701411
 20
457.649586
 30
0.0
 11
573.701411
 21
455.187119
 31
0.0
  0
ARC
  5
2A9
330
1F
100
AcDbEntity
  8
LC-002-100-D00-0
 62
     7
370
    50
100
AcDbCircle
 10
573.101411
 20
457.649586
 30
0.0
 40
0.6000000000003638
100
AcDbArc
 50
0.0
 51
75.0
  0
LINE
  5
2AA
330
1F
100
AcDbEntity
  8
LC-002-100-D00-0
 62
     7
370
    50
100
AcDbLine
 10
572.55056
 20
458.418352
 30
0.0
 11
573.256703
 21
458.229142
 31
0.0
  0
LINE
  5
2AB
330
1F
100
AcDbEntity
  8
LC-002-100-D00-0
 62
     7
370
    50
100
AcDbLine
 10
572.55056
 20
460.418353
 30
0.0
 11
572.55056
 21
458.418352
 31
0.0
  0
LINE
  5
2AC
330
1F
100
AcDbEntity
  8
LC-002-100-D00-0
 62
     7
370
    50
100
AcDbLine
 10
572.55056
 20
452.418353
 30
0.0
 11
574.501411
 21
452.418353
 31
0.0
  0
LINE
  5
2AD
330
1F
100
AcDbEntity
  8
LC-002-100-D00-0
 62
     7
370
    50
100
AcDbLine
 10
572.55056
 20
460.418353
 30
0.0
 11
574.501413
 21
460.418353
 31
0.0
  0
LINE
  5
2AE
330
1F
100
AcDbEntity
  8
LC-002-100-D00-0
 62
     7
370
    50
100
AcDbLine
 10
584.101411
 20
455.187119
 30
0.0
 11
584.101411
 21
457.649586
 31
0.0
  0
ARC
  5
2AF
330
1F
100
AcDbEntity
  8
LC-002-100-D00-0
 62
     7
370
    50
100
AcDbCircle
 10
584.701411
 20
455.187119
 30
0.0
 40
0.6000000000000227
100
AcDbArc
 50
180.0
 51
255.0
  0
LINE
  5
2B0
330
1F
100
AcDbEntity
  8
LC-002-100-D00-0
 62
     7
370
    50
100
AcDbLine
 10
585.252265
 20
454.418352
 30
0.0
 11
584.54612
 21
454.607563
 31
0.0
  0
LINE
  5
2B1
330
1F
100
AcDbEntity
  8
LC-002-100-D00-0
 62
     7
370
    50
100
AcDbLine
 10
585.252265
 20
454.418352
 30
0.0
 11
585.252265
 21
452.418353
 31
0.0
  0
LINE
  5
2B2
330
1F
100
AcDbEntity
  8
LC-002-100-D00-0
 62
     7
370
    50
100
AcDbLine
 10
582.301411
 20
453.418353
 30
0.0
 11
583.301411
 21
452.418353
 31
0.0
  0
LINE
  5
2B3
330
1F
100
AcDbEntity
  8
LC-002-100-D00-0
 62
     7
370
    50
100
AcDbLine
 10
582.301411
 20
453.418353
 30
0.0
 11
582.301411
 21
459.418352
 31
0.0
  0
LINE
  5
2B4
330
1F
100
AcDbEntity
  8
LC-002-100-D00-0
 62
     7
370
    50
100
AcDbLine
 10
583.301413
 20
460.418353
 30
0.0
 11
582.301411
 21
459.418352
 31
0.0
  0
LINE
  5
2B5
330
1F
100
AcDbEntity
  8
LC-002-100-D00-0
 62
     7
370
    50
100
AcDbLine
 10
585.252265
 20
460.418353
 30
0.0
 11
585.252265
 21
458.418352
 31
0.0
  0
LINE
  5
2B6
330
1F
100
AcDbEntity
  8
LC-002-100-D00-0
 62
     7
370
    50
100
AcDbLine
 10
584.54612
 20
458.229142
 30
0.0
 11
585.252265
 21
458.418352
 31
0.0
  0
ARC
  5
2B7
330
1F
100
AcDbEntity
  8
LC-002-100-D00-0
 62
     7
370
    50
100
AcDbCircle
 10
584.701411
 20
457.649586
 30
0.0
 40
0.600000000000118
100
AcDbArc
 50
105.0
 51
180.0
  0
LINE
  5
2B8
330
1F
100
AcDbEntity
  8
LC-002-100-D00-0
 62
     7
370
    50
100
AcDbLine
 10
583.301411
 20
452.418353
 30
0.0
 11
585.252265
 21
452.418353
 31
0.0
  0
LINE
  5
2B9
330
1F
100
AcDbEntity
  8
LC-002-100-D00-0
 62
     7
370
    50
100
AcDbLine
 10
583.301413
 20
460.418353
 30
0.0
 11
585.252265
 21
460.418353
 31
0.0
  0
LINE
  5
2BA
330
1F
100
AcDbEntity
  8
LC-002-100-D00-0
 62
     7
370
    50
100
AcDbLine
 10
575.501411
 20
453.418353
 30
0.0
 11
575.659251
 21
453.418353
 31
0.0
  0
LINE
  5
2BB
330
1F
100
AcDbEntity
  8
LC-002-100-D00-0
 62
     7
370
    50
100
AcDbLine
 10
582.143572
 20
453.418353
 30
0.0
 11
582.301411
 21
453.418353
 31
0.0
  0
LINE
  5
2BC
330
1F
100
AcDbEntity
  8
LC-002-100-D00-0
 62
     7
370
    50
100
AcDbLine
 10
583.301411
 20
452.418353
 30
0.0
 11
582.765629
 21
452.418353
 31
0.0
  0
LINE
  5
2BD
330
1F
100
AcDbEntity
  8
LC-002-100-D00-0
 62
     7
370
    50
100
AcDbLine
 10
575.037193
 20
452.418353
 30
0.0
 11
574.501411
 21
452.418353
 31
0.0
  0
LINE
  5
2BE
330
1F
100
AcDbEntity
  8
LC-002-100-D00-0
 62
     7
370
    50
100
AcDbLine
 10
585.252265
 20
460.418353
 30
0.0
 11
582.801412
 21
460.418353
 31
0.0
  0
LINE
  5
2BF
330
1F
100
AcDbEntity
  8
LC-002-100-D00-0
 62
     7
370
    50
100
AcDbLine
 10
582.801412
 20
460.418353
 30
0.0
 11
582.801411
 21
471.418353
 31
0.0
  0
LINE
  5
2C0
330
1F
100
AcDbEntity
  8
LC-002-100-D00-0
 62
     7
370
    50
100
AcDbLine
 10
582.801411
 20
471.418353
 30
0.0
 11
596.151411
 21
471.418353
 31
0.0
  0
ARC
  5
2C1
330
1F
100
AcDbEntity
  8
LC-002-100-D00-0
 62
     7
370
    50
100
AcDbCircle
 10
596.151411
 20
470.418353
 30
0.0
 40
1.000000000000114
100
AcDbArc
 50
0.0
 51
90.0
  0
LINE
  5
2C2
330
1F
100
AcDbEntity
  8
LC-002-100-D00-0
 62
     7
370
    50
100
AcDbLine
 10
597.151411
 20
470.418353
 30
0.0
 11
597.151409
 21
464.418352
 31
0.0
  0
LINE
  5
2C3
330
1F
100
AcDbEntity
  8
LC-002-100-D00-0
 62
     7
370
    50
100
AcDbLine
 10
594.151411
 20
464.418353
 30
0.0
 11
597.151409
 21
464.418352
 31
0.0
  0
LINE
  5
2C4
330
1F
100
AcDbEntity
  8
LC-002-100-D00-0
 62
     7
370
    50
100
AcDbLine
 10
594.151411
 20
464.418353
 30
0.0
 11
594.15141
 21
468.418353
 31
0.0
  0
LINE
  5
2C5
330
1F
100
AcDbEntity
  8
LC-002-100-D00-0
 62
     7
370
    50
100
AcDbLine
 10
589.651411
 20
468.418353
 30
0.0
 11
594.15141
 21
468.418353
 31
0.0
  0
ARC
  5
2C6
330
1F
100
AcDbEntity
  8
LC-002-100-D00-0
 62
     7
370
    50
100
AcDbCircle
 10
589.651411
 20
467.418353
 30
0.0
 40
1.000000000000227
100
AcDbArc
 50
90.0
 51
180.0
  0
LINE
  5
2C7
330
1F
100
AcDbEntity
  8
LC-002-100-D00-0
 62
     7
370
    50
100
AcDbLine
 10
588.651411
 20
453.418353
 30
0.0
 11
588.651411
 21
467.418353
 31
0.0
  0
ARC
  5
2C8
330
1F
100
AcDbEntity
  8
LC-002-100-D00-0
 62
     7
370
    50
100
AcDbCircle
 10
587.651411
 20
453.418353
 30
0.0
 40
1.000000000000227
100
AcDbArc
 50
270.0
 51
0.0
  0
LINE
  5
2C9
330
1F
100
AcDbEntity
  8
LC-002-100-D00-0
 62
     7
370
    50
100
AcDbLine
 10
587.651411
 20
452.418353
 30
0.0
 11
585.252265
 21
452.418353
 31
0.0
  0
LINE
  5
2CA
330
1F
100
AcDbEntity
  8
LC-002-100-D00-0
 62
     7
370
    50
100
AcDbLine
 10
585.252265
 20
454.418352
 30
0.0
 11
585.252265
 21
452.418353
 31
0.0
  0
LINE
  5
2CB
330
1F
100
AcDbEntity
  8
LC-002-100-D00-0
 62
     7
370
    50
100
AcDbLine
 10
584.601411
 20
454.418353
 30
0.0
 11
585.252265
 21
454.418352
 31
0.0
  0
ARC
  5
2CC
330
1F
100
AcDbEntity
  8
LC-002-100-D00-0
 62
     7
370
    50
100
AcDbCircle
 10
584.601411
 20
454.918353
 30
0.0
 40
0.5000000000001137
100
AcDbArc
 50
180.0
 51
270.0
  0
LINE
  5
2CD
330
1F
100
AcDbEntity
  8
LC-002-100-D00-0
 62
     7
370
    50
100
AcDbLine
 10
584.101411
 20
457.918353
 30
0.0
 11
584.101411
 21
454.918353
 31
0.0
  0
ARC
  5
2CE
330
1F
100
AcDbEntity
  8
LC-002-100-D00-0
 62
     7
370
    50
100
AcDbCircle
 10
584.601411
 20
457.918353
 30
0.0
 40
0.5
100
AcDbArc
 50
90.0
 51
180.0
  0
LINE
  5
2CF
330
1F
100
AcDbEntity
  8
LC-002-100-D00-0
 62
     7
370
    50
100
AcDbLine
 10
585.252265
 20
458.418352
 30
0.0
 11
584.601411
 21
458.418353
 31
0.0
  0
LINE
  5
2D0
330
1F
100
AcDbEntity
  8
LC-002-100-D00-0
 62
     7
370
    50
100
AcDbLine
 10
585.252265
 20
460.418353
 30
0.0
 11
585.252265
 21
458.418352
 31
0.0
  0
ARC
  5
2D1
330
1F
100
AcDbEntity
  8
LC-002-100-D00-0
 62
     7
370
    50
100
AcDbCircle
 10
568.151411
 20
467.418353
 30
0.0
 40
1.000000000000227
100
AcDbArc
 50
0.0
 51
90.0
  0
LINE
  5
2D2
330
1F
100
AcDbEntity
  8
LC-002-100-D00-0
 62
     7
370
    50
100
AcDbLine
 10
569.151411
 20
467.418353
 30
0.0
 11
569.151411
 21
453.418353
 31
0.0
  0
ARC
  5
2D3
330
1F
100
AcDbEntity
  8
LC-002-100-D00-0
 62
     7
370
    50
100
AcDbCircle
 10
570.151411
 20
453.418353
 30
0.0
 40
1.000000000000227
100
AcDbArc
 50
180.0
 51
270.0
  0
LINE
  5
2D4
330
1F
100
AcDbEntity
  8
LC-002-100-D00-0
 62
     7
370
    50
100
AcDbLine
 10
573.701411
 20
454.918353
 30
0.0
 11
573.701411
 21
457.918353
 31
0.0
  0
LINE
  5
2D5
330
1F
100
AcDbEntity
  8
LC-002-100-D00-0
 62
     7
370
    50
100
AcDbLine
 10
575.001411
 20
471.418353
 30
0.0
 11
575.001414
 21
460.418353
 31
0.0
  0
LINE
  5
2D6
330
1F
100
AcDbEntity
  8
LC-002-100-D00-0
 62
     7
370
    50
100
AcDbLine
 10
575.001411
 20
471.418353
 30
0.0
 11
582.801411
 21
471.418353
 31
0.0
  0
LINE
  5
2D7
330
1F
100
AcDbEntity
  8
LC-002-100-D00-0
 62
     7
370
    50
100
AcDbLine
 10
572.55056
 20
460.418353
 30
0.0
 11
572.55056
 21
458.418352
 31
0.0
  0
LINE
  5
2D8
330
1F
100
AcDbEntity
  8
LC-002-100-D00-0
 62
     7
370
    50
100
AcDbLine
 10
572.55056
 20
454.418352
 30
0.0
 11
572.55056
 21
452.418353
 31
0.0
  0
ARC
  5
2D9
330
1F
100
AcDbEntity
  8
LC-002-100-D00-0
 62
     7
370
    50
100
AcDbCircle
 10
573.201411
 20
454.918353
 30
0.0
 40
0.5000000000002274
100
AcDbArc
 50
270.0
 51
0.0
  0
LINE
  5
2DA
330
1F
100
AcDbEntity
  8
LC-002-100-D00-0
 62
     7
370
    50
100
AcDbLine
 10
572.55056
 20
454.418352
 30
0.0
 11
573.201411
 21
454.418353
 31
0.0
  0
LINE
  5
2DB
330
1F
100
AcDbEntity
  8
LC-002-100-D00-0
 62
     7
370
    50
100
AcDbLine
 10
563.651408
 20
468.418353
 30
0.0
 11
563.651411
 21
464.418353
 31
0.0
  0
LINE
  5
2DC
330
1F
100
AcDbEntity
  8
LC-002-100-D00-0
 62
     7
370
    50
100
AcDbLine
 10
560.651409
 20
464.418352
 30
0.0
 11
560.651411
 21
470.418353
 31
0.0
  0
ARC
  5
2DD
330
1F
100
AcDbEntity
  8
LC-002-100-D00-0
 62
     7
370
    50
100
AcDbCircle
 10
561.651411
 20
470.418353
 30
0.0
 40
0.9999999999997726
100
AcDbArc
 50
90.0
 51
180.0
  0
LINE
  5
2DE
330
1F
100
AcDbEntity
  8
LC-002-100-D00-0
 62
     7
370
    50
100
AcDbLine
 10
573.201411
 20
458.418353
 30
0.0
 11
572.55056
 21
458.418352
 31
0.0
  0
ARC
  5
2DF
330
1F
100
AcDbEntity
  8
LC-002-100-D00-0
 62
     7
370
    50
100
AcDbCircle
 10
573.201411
 20
457.918353
 30
0.0
 40
0.5000000000002274
100
AcDbArc
 50
0.0
 51
90.0
  0
LINE
  5
2E0
330
1F
100
AcDbEntity
  8
LC-002-100-D00-0
 62
     7
370
    50
100
AcDbLine
 10
575.001414
 20
460.418353
 30
0.0
 11
572.55056
 21
460.418353
 31
0.0
  0
LINE
  5
2E1
330
1F
100
AcDbEntity
  8
LC-002-100-D00-0
 62
     7
370
    50
100
AcDbLine
 10
572.55056
 20
452.418353
 30
0.0
 11
570.151411
 21
452.418353
 31
0.0
  0
LINE
  5
2E2
330
1F
100
AcDbEntity
  8
LC-002-100-D00-0
 62
     7
370
    50
100
AcDbLine
 10
563.651408
 20
468.418353
 30
0.0
 11
568.151411
 21
468.418353
 31
0.0
  0
LINE
  5
2E3
330
1F
100
AcDbEntity
  8
LC-002-100-D00-0
 62
     7
370
    50
100
AcDbLine
 10
561.651411
 20
471.418353
 30
0.0
 11
575.001411
 21
471.418353
 31
0.0
  0
LINE
  5
2E4
330
1F
100
AcDbEntity
  8
LC-002-100-D00-0
 62
     7
370
    50
100
AcDbLine
 10
560.651409
 20
464.418352
 30
0.0
 11
563.651411
 21
464.418353
 31
0.0
  0
LINE
  5
2E5
330
1F
100
AcDbEntity
  8
LC-002-100-D00-0
 62
     7
370
    50
100
AcDbLine
 10
592.151411
 20
464.418353
 30
0.0
 11
594.151411
 21
464.418353
 31
0.0
  0
LINE
  5
2E6
330
1F
100
AcDbEntity
  8
LC-002-100-D00-0
 62
     7
370
    50
100
AcDbLine
 10
563.651411
 20
464.418353
 30
0.0
 11
565.651411
 21
464.418353
 31
0.0
  0
LINE
  5
2E7
330
1F
100
AcDbEntity
  8
LC-002-100-D00-0
 62
     7
370
    50
100
AcDbLine
 10
565.651411
 20
464.418353
 30
0.0
 11
569.151411
 21
464.418352
 31
0.0
  0
LINE
  5
2E8
330
1F
100
AcDbEntity
  8
LC-002-100-D00-0
 62
     7
370
    50
100
AcDbLine
 10
588.651414
 20
464.418352
 30
0.0
 11
592.151411
 21
464.418353
 31
0.0
  0
LINE
  5
2E9
330
1F
100
AcDbEntity
  8
LC-002-100-D00-0
 62
     7
370
    50
100
AcDbLine
 10
572.243749
 20
449.333167
 30
0.0
 11
554.410077
 21
444.554649
 31
0.0
  0
ARC
  5
2EA
330
1F
100
AcDbEntity
  8
LC-002-100-D00-0
 62
     7
370
    50
100
AcDbCircle
 10
553.374801
 20
448.418353
 30
0.0
 40
4.000000000000227
100
AcDbArc
 50
270.0
 51
285.0
  0
ARC
  5
2EB
330
1F
100
AcDbEntity
  8
LC-002-100-D00-0
 62
     7
370
    50
100
AcDbCircle
 10
553.374801
 20
448.418353
 30
0.0
 40
2.5
100
AcDbArc
 50
270.0
 51
285.0
  0
LINE
  5
2EC
330
1F
100
AcDbEntity
  8
LC-002-100-D00-0
 62
     7
370
    50
100
AcDbLine
 10
571.85552
 20
450.782056
 30
0.0
 11
554.021849
 21
446.003538
 31
0.0
  0
ARC
  5
2ED
330
1F
100
AcDbEntity
  8
LC-002-100-D00-0
 62
     7
370
    50
100
AcDbCircle
 10
572.890796
 20
446.918353
 30
0.0
 40
4.000000000000227
100
AcDbArc
 50
90.0
 51
105.0
  0
LINE
  5
2EE
330
1F
100
AcDbEntity
  8
LC-002-100-D00-0
 62
     7
370
    50
100
AcDbLine
 10
572.890796
 20
450.918353
 30
0.0
 11
574.401411
 21
450.918352
 31
0.0
  0
LINE
  5
2EF
330
1F
100
AcDbEntity
  8
LC-002-100-D00-0
 62
     7
370
    50
100
AcDbLine
 10
574.401411
 20
450.918352
 30
0.0
 11
574.401411
 21
452.318353
 31
0.0
  0
LINE
  5
2F0
330
1F
100
AcDbEntity
  8
LC-002-100-D00-0
 62
     7
370
    50
100
AcDbLine
 10
574.901411
 20
452.318353
 30
0.0
 11
574.401411
 21
452.318353
 31
0.0
  0
ARC
  5
2F1
330
1F
100
AcDbEntity
  8
LC-002-100-D00-0
 62
     7
370
    50
100
AcDbCircle
 10
573.901411
 20
453.818353
 30
0.0
 40
1.802775637732058
100
AcDbArc
 50
303.690068
 51
56.309932
  0
LINE
  5
2F2
330
1F
100
AcDbEntity
  8
LC-002-100-D00-0
 62
     7
370
    50
100
AcDbLine
 10
574.901412
 20
469.918353
 30
0.0
 11
574.901411
 21
455.318353
 31
0.0
  0
LINE
  5
2F3
330
1F
100
AcDbEntity
  8
LC-002-100-D00-0
 62
     7
370
    50
100
AcDbLine
 10
575.901414
 20
470.918353
 30
0.0
 11
574.901412
 21
469.918353
 31
0.0
  0
LINE
  5
2F4
330
1F
100
AcDbEntity
  8
LC-002-100-D00-0
 62
     7
370
    50
100
AcDbLine
 10
581.901411
 20
470.918353
 30
0.0
 11
575.901414
 21
470.918353
 31
0.0
  0
LINE
  5
2F5
330
1F
100
AcDbEntity
  8
LC-002-100-D00-0
 62
     7
370
    50
100
AcDbLine
 10
582.901413
 20
469.918353
 30
0.0
 11
581.901411
 21
470.918353
 31
0.0
  0
LINE
  5
2F6
330
1F
100
AcDbEntity
  8
LC-002-100-D00-0
 62
     7
370
    50
100
AcDbLine
 10
582.901411
 20
455.318353
 30
0.0
 11
582.901413
 21
469.918353
 31
0.0
  0
ARC
  5
2F7
330
1F
100
AcDbEntity
  8
LC-002-100-D00-0
 62
     7
370
    50
100
AcDbCircle
 10
583.901411
 20
453.818353
 30
0.0
 40
1.802775637732121
100
AcDbArc
 50
123.690068
 51
236.309932
  0
LINE
  5
2F8
330
1F
100
AcDbEntity
  8
LC-002-100-D00-0
 62
     7
370
    50
100
AcDbLine
 10
583.401414
 20
452.318353
 30
0.0
 11
582.901411
 21
452.318353
 31
0.0
  0
LINE
  5
2F9
330
1F
100
AcDbEntity
  8
LC-002-100-D00-0
 62
     7
370
    50
100
AcDbLine
 10
583.401414
 20
452.318353
 30
0.0
 11
583.401414
 21
450.918352
 31
0.0
  0
LINE
  5
2FA
330
1F
100
AcDbEntity
  8
LC-002-100-D00-0
 62
     7
370
    50
100
AcDbLine
 10
583.401414
 20
450.918352
 30
0.0
 11
709.401409
 21
450.918352
 31
0.0
  0
LINE
  5
2FB
330
1F
100
AcDbEntity
  8
LC-002-100-D00-0
 62
     7
370
    50
100
AcDbLine
 10
709.401409
 20
450.918352
 30
0.0
 11
709.401409
 21
452.318353
 31
0.0
  0
LINE
  5
2FC
330
1F
100
AcDbEntity
  8
LC-002-100-D00-0
 62
     7
370
    50
100
AcDbLine
 10
709.901411
 20
452.318353
 30
0.0
 11
709.401409
 21
452.318353
 31
0.0
  0
ARC
  5
2FD
330
1F
100
AcDbEntity
  8
LC-002-100-D00-0
 62
     7
370
    50
100
AcDbCircle
 10
708.901411
 20
453.818353
 30
0.0
 40
1.802775637732058
100
AcDbArc
 50
303.690068
 51
56.309932
  0
LINE
  5
2FE
330
1F
100
AcDbEntity
  8
LC-002-100-D00-0
 62
     7
370
    50
100
AcDbLine
 10
709.901417
 20
469.918353
 30
0.0
 11
709.901411
 21
455.318353
 31
0.0
  0
LINE
  5
2FF
330
1F
100
AcDbEntity
  8
LC-002-100-D00-0
 62
     7
370
    50
100
AcDbLine
 10
710.901404
 20
470.918353
 30
0.0
 11
709.901417
 21
469.918353
 31
0.0
  0
LINE
  5
300
330
1F
100
AcDbEntity
  8
LC-002-100-D00-0
 62
     7
370
    50
100
AcDbLine
 10
716.901417
 20
470.918353
 30
0.0
 11
710.901404
 21
470.918353
 31
0.0
  0
LINE
  5
301
330
1F
100
AcDbEntity
  8
LC-002-100-D00-0
 62
     7
370
    50
100
AcDbLine
 10
717.901404
 20
469.918353
 30
0.0
 11
716.901417
 21
470.918353
 31
0.0
  0
LINE
  5
302
330
1F
100
AcDbEntity
  8
LC-002-100-D00-0
 62
     7
370
    50
100
AcDbLine
 10
717.901411
 20
455.318353
 30
0.0
 11
717.901404
 21
469.918353
 31
0.0
  0
ARC
  5
303
330
1F
100
AcDbEntity
  8
LC-002-100-D00-0
 62
     7
370
    50
100
AcDbCircle
 10
718.901411
 20
453.818353
 30
0.0
 40
1.802775637732184
100
AcDbArc
 50
123.690068
 51
236.309932
  0
LINE
  5
304
330
1F
100
AcDbEntity
  8
LC-002-100-D00-0
 62
     7
370
    50
100
AcDbLine
 10
718.401412
 20
452.318353
 30
0.0
 11
717.901411
 21
452.318353
 31
0.0
  0
LINE
  5
305
330
1F
100
AcDbEntity
  8
LC-002-100-D00-0
 62
     7
370
    50
100
AcDbLine
 10
718.401412
 20
452.318353
 30
0.0
 11
718.401412
 21
450.918352
 31
0.0
  0
LINE
  5
306
330
1F
100
AcDbEntity
  8
LC-002-100-D00-0
 62
     7
370
    50
100
AcDbLine
 10
718.401412
 20
450.918352
 30
0.0
 11
844.401414
 21
450.918352
 31
0.0
  0
LINE
  5
307
330
1F
100
AcDbEntity
  8
LC-002-100-D00-0
 62
     7
370
    50
100
AcDbLine
 10
844.401414
 20
450.918352
 30
0.0
 11
844.401414
 21
452.318353
 31
0.0
  0
LINE
  5
308
330
1F
100
AcDbEntity
  8
LC-002-100-D00-0
 62
     7
370
    50
100
AcDbLine
 10
844.901411
 20
452.318353
 30
0.0
 11
844.401414
 21
452.318353
 31
0.0
  0
ARC
  5
309
330
1F
100
AcDbEntity
  8
LC-002-100-D00-0
 62
     7
370
    50
100
AcDbCircle
 10
843.901411
 20
453.818353
 30
0.0
 40
1.802775637732058
100
AcDbArc
 50
303.690068
 51
56.309932
  0
LINE
  5
30A
330
1F
100
AcDbEntity
  8
LC-002-100-D00-0
 62
     7
370
    50
100
AcDbLine
 10
844.901408
 20
469.918353
 30
0.0
 11
844.901411
 21
455.318353
 31
0.0
  0
LINE
  5
30B
330
1F
100
AcDbEntity
  8
LC-002-100-D00-0
 62
     7
370
    50
100
AcDbLine
 10
845.901425
 20
470.918353
 30
0.0
 11
844.901408
 21
469.918353
 31
0.0
  0
LINE
  5
30C
330
1F
100
AcDbEntity
  8
LC-002-100-D00-0
 62
     7
370
    50
100
AcDbLine
 10
851.901407
 20
470.918353
 30
0.0
 11
845.901425
 21
470.918353
 31
0.0
  0
LINE
  5
30D
330
1F
100
AcDbEntity
  8
LC-002-100-D00-0
 62
     7
370
    50
100
AcDbLine
 10
852.901424
 20
469.918353
 30
0.0
 11
851.901407
 21
470.918353
 31
0.0
  0
LINE
  5
30E
330
1F
100
AcDbEntity
  8
LC-002-100-D00-0
 62
     7
370
    50
100
AcDbLine
 10
852.901411
 20
455.318353
 30
0.0
 11
852.901424
 21
469.918353
 31
0.0
  0
ARC
  5
30F
330
1F
100
AcDbEntity
  8
LC-002-100-D00-0
 62
     7
370
    50
100
AcDbCircle
 10
853.901411
 20
453.818353
 30
0.0
 40
1.802775637732184
100
AcDbArc
 50
123.690068
 51
236.309932
  0
LINE
  5
310
330
1F
100
AcDbEntity
  8
LC-002-100-D00-0
 62
     7
370
    50
100
AcDbLine
 10
853.401418
 20
452.318353
 30
0.0
 11
852.901411
 21
452.318353
 31
0.0
  0
LINE
  5
311
330
1F
100
AcDbEntity
  8
LC-002-100-D00-0
 62
     7
370
    50
100
AcDbLine
 10
853.401418
 20
452.318353
 30
0.0
 11
853.401418
 21
450.918352
 31
0.0
  0
LINE
  5
312
330
1F
100
AcDbEntity
  8
LC-002-100-D00-0
 62
     7
370
    50
100
AcDbLine
 10
853.401418
 20
450.918352
 30
0.0
 11
870.901411
 21
450.918353
 31
0.0
  0
ARC
  5
313
330
1F
100
AcDbEntity
  8
LC-002-100-D00-0
 62
     7
370
    50
100
AcDbCircle
 10
870.901411
 20
458.918353
 30
0.0
 40
7.999999999999773
100
AcDbArc
 50
270.0
 51
0.0
  0
LINE
  5
314
330
1F
100
AcDbEntity
  8
LC-002-100-D00-0
 62
     7
370
    50
100
AcDbLine
 10
878.901411
 20
458.918353
 30
0.0
 11
878.901411
 21
468.418353
 31
0.0
  0
ARC
  5
315
330
1F
100
AcDbEntity
  8
LC-002-100-D00-0
 62
     7
370
    50
100
AcDbCircle
 10
881.901411
 20
468.418353
 30
0.0
 40
3.0
100
AcDbArc
 50
90.0
 51
180.0
  0
LINE
  5
316
330
1F
100
AcDbEntity
  8
LC-002-100-D00-0
 62
     7
370
    50
100
AcDbLine
 10
928.901411
 20
471.418353
 30
0.0
 11
881.901411
 21
471.418353
 31
0.0
  0
LINE
  5
317
330
1F
100
AcDbEntity
  8
LC-002-100-D00-0
 62
     7
370
    50
100
AcDbLine
 10
928.901399
 20
469.918353
 30
0.0
 11
928.901411
 21
471.418353
 31
0.0
  0
LINE
  5
318
330
1F
100
AcDbEntity
  8
LC-002-100-D00-0
 62
     7
370
    50
100
AcDbLine
 10
928.901399
 20
469.918353
 30
0.0
 11
881.901411
 21
469.918353
 31
0.0
  0
ARC
  5
319
330
1F
100
AcDbEntity
  8
LC-002-100-D00-0
 62
     7
370
    50
100
AcDbCircle
 10
881.901411
 20
468.418353
 30
0.0
 40
1.5
100
AcDbArc
 50
90.0
 51
180.0
  0
LINE
  5
31A
330
1F
100
AcDbEntity
  8
LC-002-100-D00-0
 62
     7
370
    50
100
AcDbLine
 10
880.401411
 20
458.918353
 30
0.0
 11
880.401411
 21
468.418353
 31
0.0
  0
ARC
  5
31B
330
1F
100
AcDbEntity
  8
LC-002-100-D00-0
 62
     7
370
    50
100
AcDbCircle
 10
870.901411
 20
458.918353
 30
0.0
 40
9.500000000000227
100
AcDbArc
 50
270.0
 51
0.0
  0
LINE
  5
31C
330
1F
100
AcDbEntity
  8
LC-002-100-D00-0
 62
     7
370
    50
100
AcDbLine
 10
572.890796
 20
449.418353
 30
0.0
 11
870.901411
 21
449.418353
 31
0.0
  0
ARC
  5
31D
330
1F
100
AcDbEntity
  8
LC-002-100-D00-0
 62
     7
370
    50
100
AcDbCircle
 10
572.890796
 20
446.918353
 30
0.0
 40
2.500000000000455
100
AcDbArc
 50
90.0
 51
105.0
  0
LINE
  5
31E
330
1F
100
AcDbEntity
  8
LC-002-100-D00-0
 62
     7
370
    50
100
AcDbLine
 10
113.401408
 20
452.318353
 30
0.0
 11
112.901411
 21
452.318353
 31
0.0
  0
LINE
  5
31F
330
1F
100
AcDbEntity
  8
LC-002-100-D00-0
 62
     7
370
    50
100
AcDbLine
 10
113.401408
 20
452.318353
 30
0.0
 11
113.401408
 21
450.918352
 31
0.0
  0
LINE
  5
320
330
1F
100
AcDbEntity
  8
LC-002-100-D00-0
 62
     7
370
    50
100
AcDbLine
 10
113.401408
 20
450.918352
 30
0.0
 11
239.40141
 21
450.918352
 31
0.0
  0
LINE
  5
321
330
1F
100
AcDbEntity
  8
LC-002-100-D00-0
 62
     7
370
    50
100
AcDbLine
 10
239.40141
 20
450.918352
 30
0.0
 11
239.40141
 21
452.318353
 31
0.0
  0
LINE
  5
322
330
1F
100
AcDbEntity
  8
LC-002-100-D00-0
 62
     7
370
    50
100
AcDbLine
 10
239.901411
 20
452.318353
 30
0.0
 11
239.40141
 21
452.318353
 31
0.0
  0
ARC
  5
323
330
1F
100
AcDbEntity
  8
LC-002-100-D00-0
 62
     7
370
    50
100
AcDbCircle
 10
238.901411
 20
453.818353
 30
0.0
 40
1.802775637732121
100
AcDbArc
 50
303.690068
 51
56.309932
  0
LINE
  5
324
330
1F
100
AcDbEntity
  8
LC-002-100-D00-0
 62
     7
370
    50
100
AcDbLine
 10
239.901419
 20
469.918353
 30
0.0
 11
239.901411
 21
455.318353
 31
0.0
  0
LINE
  5
325
330
1F
100
AcDbEntity
  8
LC-002-100-D00-0
 62
     7
370
    50
100
AcDbLine
 10
240.901406
 20
470.918353
 30
0.0
 11
239.901419
 21
469.918353
 31
0.0
  0
LINE
  5
326
330
1F
100
AcDbEntity
  8
LC-002-100-D00-0
 62
     7
370
    50
100
AcDbLine
 10
246.901418
 20
470.918353
 30
0.0
 11
240.901406
 21
470.918353
 31
0.0
  0
LINE
  5
327
330
1F
100
AcDbEntity
  8
LC-002-100-D00-0
 62
     7
370
    50
100
AcDbLine
 10
247.901405
 20
469.918353
 30
0.0
 11
246.901418
 21
470.918353
 31
0.0
  0
LINE
  5
328
330
1F
100
AcDbEntity
  8
LC-002-100-D00-0
 62
     7
370
    50
100
AcDbLine
 10
247.901411
 20
455.318353
 30
0.0
 11
247.901405
 21
469.918353
 31
0.0
  0
ARC
  5
329
330
1F
100
AcDbEntity
  8
LC-002-100-D00-0
 62
     7
370
    50
100
AcDbCircle
 10
248.901411
 20
453.818353
 30
0.0
 40
1.802775637732121
100
AcDbArc
 50
123.690068
 51
236.309932
  0
LINE
  5
32A
330
1F
100
AcDbEntity
  8
LC-002-100-D00-0
 62
     7
370
    50
100
AcDbLine
 10
248.401413
 20
452.318353
 30
0.0
 11
247.901411
 21
452.318353
 31
0.0
  0
LINE
  5
32B
330
1F
100
AcDbEntity
  8
LC-002-100-D00-0
 62
     7
370
    50
100
AcDbLine
 10
248.401413
 20
452.318353
 30
0.0
 11
248.401413
 21
450.918352
 31
0.0
  0
LINE
  5
32C
330
1F
100
AcDbEntity
  8
LC-002-100-D00-0
 62
     7
370
    50
100
AcDbLine
 10
248.401413
 20
450.918352
 30
0.0
 11
374.401408
 21
450.918352
 31
0.0
  0
LINE
  5
32D
330
1F
100
AcDbEntity
  8
LC-002-100-D00-0
 62
     7
370
    50
100
AcDbLine
 10
374.401408
 20
450.918352
 30
0.0
 11
374.401408
 21
452.318353
 31
0.0
  0
LINE
  5
32E
330
1F
100
AcDbEntity
  8
LC-002-100-D00-0
 62
     7
370
    50
100
AcDbLine
 10
374.901411
 20
452.318353
 30
0.0
 11
374.401408
 21
452.318353
 31
0.0
  0
ARC
  5
32F
330
1F
100
AcDbEntity
  8
LC-002-100-D00-0
 62
     7
370
    50
100
AcDbCircle
 10
373.901411
 20
453.818353
 30
0.0
 40
1.802775637732058
100
AcDbArc
 50
303.690068
 51
56.309932
  0
LINE
  5
330
330
1F
100
AcDbEntity
  8
LC-002-100-D00-0
 62
     7
370
    50
100
AcDbLine
 10
374.901409
 20
469.918353
 30
0.0
 11
374.901411
 21
455.318353
 31
0.0
  0
LINE
  5
331
330
1F
100
AcDbEntity
  8
LC-002-100-D00-0
 62
     7
370
    50
100
AcDbLine
 10
375.901411
 20
470.918353
 30
0.0
 11
374.901409
 21
469.918353
 31
0.0
  0
LINE
  5
332
330
1F
100
AcDbEntity
  8
LC-002-100-D00-0
 62
     7
370
    50
100
AcDbLine
 10
381.901408
 20
470.918353
 30
0.0
 11
375.901411
 21
470.918353
 31
0.0
  0
LINE
  5
333
330
1F
100
AcDbEntity
  8
LC-002-100-D00-0
 62
     7
370
    50
100
AcDbLine
 10
382.90141
 20
469.918353
 30
0.0
 11
381.901408
 21
470.918353
 31
0.0
  0
LINE
  5
334
330
1F
100
AcDbEntity
  8
LC-002-100-D00-0
 62
     7
370
    50
100
AcDbLine
 10
382.901411
 20
455.318353
 30
0.0
 11
382.90141
 21
469.918353
 31
0.0
  0
ARC
  5
335
330
1F
100
AcDbEntity
  8
LC-002-100-D00-0
 62
     7
370
    50
100
AcDbCircle
 10
383.901411
 20
453.818353
 30
0.0
 40
1.802775637732121
100
AcDbArc
 50
123.690068
 51
236.309932
  0
LINE
  5
336
330
1F
100
AcDbEntity
  8
LC-002-100-D00-0
 62
     7
370
    50
100
AcDbLine
 10
383.401411
 20
452.318353
 30
0.0
 11
382.901411
 21
452.318353
 31
0.0
  0
LINE
  5
337
330
1F
100
AcDbEntity
  8
LC-002-100-D00-0
 62
     7
370
    50
100
AcDbLine
 10
383.401411
 20
452.318353
 30
0.0
 11
383.401411
 21
450.918352
 31
0.0
  0
LINE
  5
338
330
1F
100
AcDbEntity
  8
LC-002-100-D00-0
 62
     7
370
    50
100
AcDbLine
 10
383.401411
 20
450.918352
 30
0.0
 11
384.912026
 21
450.918353
 31
0.0
  0
ARC
  5
339
330
1F
100
AcDbEntity
  8
LC-002-100-D00-0
 62
     7
370
    50
100
AcDbCircle
 10
384.912026
 20
446.918353
 30
0.0
 40
4.000000000000122
100
AcDbArc
 50
75.0
 51
90.0
  0
LINE
  5
33A
330
1F
100
AcDbEntity
  8
LC-002-100-D00-0
 62
     7
370
    50
100
AcDbLine
 10
403.780974
 20
446.003538
 30
0.0
 11
385.947302
 21
450.782056
 31
0.0
  0
ARC
  5
33B
330
1F
100
AcDbEntity
  8
LC-002-100-D00-0
 62
     7
370
    50
100
AcDbCircle
 10
404.428021
 20
448.418353
 30
0.0
 40
2.500000000000062
100
AcDbArc
 50
255.0
 51
270.0
  0
ARC
  5
33C
330
1F
100
AcDbEntity
  8
LC-002-100-D00-0
 62
     7
370
    50
100
AcDbCircle
 10
404.428021
 20
448.418353
 30
0.0
 40
4.000000000000341
100
AcDbArc
 50
255.0
 51
270.0
  0
LINE
  5
33D
330
1F
100
AcDbEntity
  8
LC-002-100-D00-0
 62
     7
370
    50
100
AcDbLine
 10
403.392745
 20
444.554649
 30
0.0
 11
385.559073
 21
449.333167
 31
0.0
  0
ARC
  5
33E
330
1F
100
AcDbEntity
  8
LC-002-100-D00-0
 62
     7
370
    50
100
AcDbCircle
 10
384.912026
 20
446.918353
 30
0.0
 40
2.50000000000053
100
AcDbArc
 50
75.0
 51
90.0
  0
LINE
  5
33F
330
1F
100
AcDbEntity
  8
LC-002-100-D00-0
 62
     7
370
    50
100
AcDbLine
 10
86.901411
 20
449.418353
 30
0.0
 11
384.912026
 21
449.418353
 31
0.0
  0
ARC
  5
340
330
1F
100
AcDbEntity
  8
LC-002-100-D00-0
 62
     7
370
    50
100
AcDbCircle
 10
86.901411
 20
458.918353
 30
0.0
 40
9.500000000000057
100
AcDbArc
 50
180.0
 51
270.0
  0
LINE
  5
341
330
1F
100
AcDbEntity
  8
LC-002-100-D00-0
 62
     7
370
    50
100
AcDbLine
 10
77.401411
 20
468.418353
 30
0.0
 11
77.401411
 21
458.918353
 31
0.0
  0
ARC
  5
342
330
1F
100
AcDbEntity
  8
LC-002-100-D00-0
 62
     7
370
    50
100
AcDbCircle
 10
75.901411
 20
468.418353
 30
0.0
 40
1.499999999999886
100
AcDbArc
 50
0.0
 51
90.0
  0
LINE
  5
343
330
1F
100
AcDbEntity
  8
LC-002-100-D00-0
 62
     7
370
    50
100
AcDbLine
 10
28.901411
 20
471.418353
 30
0.0
 11
28.901423
 21
469.918353
 31
0.0
  0
ARC
  5
344
330
1F
100
AcDbEntity
  8
LC-002-100-D00-0
 62
     7
370
    50
100
AcDbCircle
 10
75.901411
 20
468.418353
 30
0.0
 40
2.999999999999943
100
AcDbArc
 50
0.0
 51
90.0
  0
LINE
  5
345
330
1F
100
AcDbEntity
  8
LC-002-100-D00-0
 62
     7
370
    50
100
AcDbLine
 10
78.901411
 20
468.418353
 30
0.0
 11
78.901411
 21
458.918353
 31
0.0
  0
ARC
  5
346
330
1F
100
AcDbEntity
  8
LC-002-100-D00-0
 62
     7
370
    50
100
AcDbCircle
 10
86.901411
 20
458.918353
 30
0.0
 40
8.0
100
AcDbArc
 50
180.0
 51
270.0
  0
LINE
  5
347
330
1F
100
AcDbEntity
  8
LC-002-100-D00-0
 62
     7
370
    50
100
AcDbLine
 10
86.901411
 20
450.918353
 30
0.0
 11
104.401405
 21
450.918352
 31
0.0
  0
LINE
  5
348
330
1F
100
AcDbEntity
  8
LC-002-100-D00-0
 62
     7
370
    50
100
AcDbLine
 10
104.401405
 20
450.918352
 30
0.0
 11
104.401405
 21
452.318353
 31
0.0
  0
LINE
  5
349
330
1F
100
AcDbEntity
  8
LC-002-100-D00-0
 62
     7
370
    50
100
AcDbLine
 10
104.901411
 20
452.318353
 30
0.0
 11
104.401405
 21
452.318353
 31
0.0
  0
ARC
  5
34A
330
1F
100
AcDbEntity
  8
LC-002-100-D00-0
 62
     7
370
    50
100
AcDbCircle
 10
103.901411
 20
453.818353
 30
0.0
 40
1.802775637732089
100
AcDbArc
 50
303.690068
 51
56.309932
  0
LINE
  5
34B
330
1F
100
AcDbEntity
  8
LC-002-100-D00-0
 62
     7
370
    50
100
AcDbLine
 10
104.901398
 20
469.918353
 30
0.0
 11
104.901411
 21
455.318353
 31
0.0
  0
LINE
  5
34C
330
1F
100
AcDbEntity
  8
LC-002-100-D00-0
 62
     7
370
    50
100
AcDbLine
 10
105.901415
 20
470.918353
 30
0.0
 11
104.901398
 21
469.918353
 31
0.0
  0
LINE
  5
34D
330
1F
100
AcDbEntity
  8
LC-002-100-D00-0
 62
     7
370
    50
100
AcDbLine
 10
111.901398
 20
470.918353
 30
0.0
 11
105.901415
 21
470.918353
 31
0.0
  0
LINE
  5
34E
330
1F
100
AcDbEntity
  8
LC-002-100-D00-0
 62
     7
370
    50
100
AcDbLine
 10
112.901414
 20
469.918353
 30
0.0
 11
111.901398
 21
470.918353
 31
0.0
  0
LINE
  5
34F
330
1F
100
AcDbEntity
  8
LC-002-100-D00-0
 62
     7
370
    50
100
AcDbLine
 10
112.901411
 20
455.318353
 30
0.0
 11
112.901414
 21
469.918353
 31
0.0
  0
ARC
  5
350
330
1F
100
AcDbEntity
  8
LC-002-100-D00-0
 62
     7
370
    50
100
AcDbCircle
 10
113.901411
 20
453.818353
 30
0.0
 40
1.802775637732121
100
AcDbArc
 50
123.690068
 51
236.309932
  0
LINE
  5
351
330
1F
100
AcDbEntity
  8
LC-002-100-D00-0
 62
     7
370
    50
100
AcDbLine
 10
75.901411
 20
471.418353
 30
0.0
 11
28.901411
 21
471.418353
 31
0.0
  0
LINE
  5
352
330
1F
100
AcDbEntity
  8
LC-002-100-D00-0
 62
     7
370
    50
100
AcDbLine
 10
75.901411
 20
469.918353
 30
0.0
 11
28.901423
 21
469.918353
 31
0.0
  0
ELLIPSE
  5
353
330
1F
100
AcDbEntity
  8
LC-002-100-D00-0
 62
     7
370
    50
100
AcDbEllipse
 10
733.923228
 20
446.918353
 30
0.0
 11
0.0
 21
-2.500000000000284
 31
0.0
210
0.0
220
0.0
230
1.0
 40
0.027578
 41
6.283185307176288
 42
6.604935861574934
  0
ELLIPSE
  5
354
330
1F
100
AcDbEntity
  8
LC-002-100-D00-0
 62
     7
370
    50
100
AcDbEllipse
 10
223.879594
 20
446.918353
 30
0.0
 11
0.0
 21
-2.500000003814981
 31
0.0
210
0.0
220
0.0
230
1.0
 40
0.027578
 41
5.961434752782639
 42
6.283185307179586
  0
LINE
  5
355
330
1F
100
AcDbEntity
  8
LC-002-100-D00-0
 62
     7
370
    50
100
AcDbLine
 10
733.901406
 20
449.2897
 30
0.0
 11
733.901406
 21
444.624312
 31
0.0
  0
LINE
  5
356
330
1F
100
AcDbEntity
  8
LC-002-100-D00-0
 62
     7
370
    50
100
AcDbLine
 10
223.901416
 20
449.2897
 30
0.0
 11
223.901416
 21
444.624312
 31
0.0
  0
INSERT
  5
360
330
1F
100
AcDbEntity
  8
LC-002-100-D00-0
 62
     7
370
    50
100
AcDbBlockReference
  2
KLON17
 10
0.0
 20
0.0
 30
0.0
  0
INSERT
  5
36A
330
1F
100
AcDbEntity
  8
LC-002-100-D00-0
 62
     7
370
    50
100
AcDbBlockReference
  2
KLON18
 10
0.0
 20
0.0
 30
0.0
  0
LINE
  5
36B
330
1F
100
AcDbEntity
  8
LC-002-100-D00-0
 62
     7
370
    50
100
AcDbLine
 10
733.901406
 20
444.418352
 30
0.0
 11
733.901377
 21
444.623619
 31
0.0
  0
LINE
  5
36C
330
1F
100
AcDbEntity
  8
LC-002-100-D00-0
 62
     7
370
    50
100
AcDbLine
 10
733.901406
 20
444.418352
 30
0.0
 11
861.8091
 21
449.086517
 31
0.0
  0
LINE
  5
36D
330
1F
100
AcDbEntity
  8
LC-002-100-D00-0
 62
     7
370
    50
100
AcDbLine
 10
223.901416
 20
444.418352
 30
0.0
 11
223.901446
 21
444.623619
 31
0.0
  0
LINE
  5
36E
330
1F
100
AcDbEntity
  8
LC-002-100-D00-0
 62
     7
370
    50
100
AcDbLine
 10
223.901416
 20
444.418352
 30
0.0
 11
95.993723
 21
449.086517
 31
0.0
  0
LINE
  5
36F
330
1F
100
AcDbEntity
  8
LC-002-100-D00-0
 62
     7
370
    50
100
AcDbLine
 10
553.374801
 20
444.418353
 30
0.0
 11
555.475401
 21
444.418352
 31
0.0
  0
LINE
  5
370
330
1F
100
AcDbEntity
  8
LC-002-100-D00-0
 62
     7
370
    50
100
AcDbLine
 10
404.428021
 20
444.418353
 30
0.0
 11
402.327421
 21
444.418352
 31
0.0
  0
LINE
  5
371
330
1F
100
AcDbEntity
  8
LC-002-100-D00-0
 62
     7
370
    50
100
AcDbLine
 10
555.475401
 20
444.418352
 30
0.0
 11
733.901406
 21
444.418352
 31
0.0
  0
LINE
  5
372
330
1F
100
AcDbEntity
  8
LC-002-100-D00-0
 62
     7
370
    50
100
AcDbLine
 10
402.327421
 20
444.418352
 30
0.0
 11
223.901416
 21
444.418352
 31
0.0
  0
INSERT
  5
37F
330
1F
100
AcDbEntity
  8
LC-002-100-D00-0
 62
     7
370
    50
100
AcDbBlockReference
  2
KLON19
 10
0.0
 20
0.0
 30
0.0
  0
INSERT
  5
38C
330
1F
100
AcDbEntity
  8
LC-002-100-D00-0
 62
     7
370
    50
100
AcDbBlockReference
  2
KLON20
 10
0.0
 20
0.0
 30
0.0
  0
LINE
  5
38D
330
1F
100
AcDbEntity
  8
LC-002-100-D00-0
 62
     7
370
    50
100
AcDbLine
 10
876.401411
 20
471.418353
 30
0.0
 11
881.901411
 21
471.418353
 31
0.0
  0
LINE
  5
38E
330
1F
100
AcDbEntity
  8
LC-002-100-D00-0
 62
     7
370
    50
100
AcDbLine
 10
81.401411
 20
471.418353
 30
0.0
 11
75.901411
 21
471.418353
 31
0.0
  0
LINE
  5
38F
330
1F
100
AcDbEntity
  8
LC-002-100-D00-0
 62
     7
370
    50
100
AcDbLine
 10
876.401411
 20
471.418353
 30
0.0
 11
866.151411
 21
471.418353
 31
0.0
  0
LINE
  5
390
330
1F
100
AcDbEntity
  8
LC-002-100-D00-0
 62
     7
370
    50
100
AcDbLine
 10
831.651411
 20
471.418353
 30
0.0
 11
731.151411
 21
471.418353
 31
0.0
  0
LINE
  5
391
330
1F
100
AcDbEntity
  8
LC-002-100-D00-0
 62
     7
370
    50
100
AcDbLine
 10
696.651411
 20
471.418353
 30
0.0
 11
596.151411
 21
471.418353
 31
0.0
  0
LINE
  5
392
330
1F
100
AcDbEntity
  8
LC-002-100-D00-0
 62
     7
370
    50
100
AcDbLine
 10
561.651411
 20
471.418353
 30
0.0
 11
396.151411
 21
471.418353
 31
0.0
  0
LINE
  5
393
330
1F
100
AcDbEntity
  8
LC-002-100-D00-0
 62
     7
370
    50
100
AcDbLine
 10
361.651411
 20
471.418353
 30
0.0
 11
261.151411
 21
471.418353
 31
0.0
  0
LINE
  5
394
330
1F
100
AcDbEntity
  8
LC-002-100-D00-0
 62
     7
370
    50
100
AcDbLine
 10
226.651411
 20
471.418353
 30
0.0
 11
126.151411
 21
471.418353
 31
0.0
  0
LINE
  5
395
330
1F
100
AcDbEntity
  8
LC-002-100-D00-0
 62
     7
370
    50
100
AcDbLine
 10
91.651411
 20
471.418353
 30
0.0
 11
81.401411
 21
471.418353
 31
0.0
  0
LINE
  5
396
330
1F
100
AcDbEntity
  8
LC-002-100-D00-0
 62
     7
370
    50
100
AcDbLine
 10
28.901411
 20
471.418353
 30
0.0
 11
28.901411
 21
472.918353
 31
0.0
  0
LINE
  5
397
330
1F
100
AcDbEntity
  8
LC-002-100-D00-0
 62
     7
370
    50
100
AcDbLine
 10
928.901411
 20
472.918353
 30
0.0
 11
928.901411
 21
471.418353
 31
0.0
  0
ARC
  5
398
330
1F
100
AcDbEntity
  8
LC-002-100-D00-0
 62
     7
370
    50
100
AcDbCircle
 10
33.901411
 20
512.418353
 30
0.0
 40
5.0
100
AcDbArc
 50
90.0
 51
180.0
  0
LINE
  5
399
330
1F
100
AcDbEntity
  8
LC-002-100-D00-0
 62
     7
370
    50
100
AcDbLine
 10
33.901411
 20
517.418353
 30
0.0
 11
923.901411
 21
517.418353
 31
0.0
  0
ARC
  5
39A
330
1F
100
AcDbEntity
  8
LC-002-100-D00-0
 62
     7
370
    50
100
AcDbCircle
 10
923.901411
 20
512.418353
 30
0.0
 40
5.0
100
AcDbArc
 50
0.0
 51
90.0
  0
LINE
  5
39B
330
1F
100
AcDbEntity
  8
LC-002-100-D00-0
 62
     7
370
    50
100
AcDbLine
 10
28.901411
 20
512.418353
 30
0.0
 11
28.901411
 21
472.918353
 31
0.0
  0
LINE
  5
39C
330
1F
100
AcDbEntity
  8
LC-002-100-D00-0
 62
     7
370
    50
100
AcDbLine
 10
928.901411
 20
512.418353
 30
0.0
 11
928.901411
 21
472.918353
 31
0.0
  0
DIMENSION
  5
39D
330
1F
100
AcDbEntity
  8
LC-002-100-D00-0
 62
     7
370
    25
100
AcDbDimension
  2
*D24
 10
2.210366
 20
517.418353
 30
0.0
 11
-52.789634
 21
569.677005
 31
0.0
 70
   160
  1
46
 71
     5
 42
46.0
 53
90.0
  3
LC-DIM-L-0100-02-02
100
AcDbAlignedDimension
 13
28.901411
 23
471.418353
 33
0.0
 14
33.901411
 24
517.418353
 34
0.0
 50
90.0
100
AcDbRotatedDimension
  0
DIMENSION
  5
3AB
330
1F
100
AcDbEntity
  8
LC-002-100-D00-0
 62
     7
370
    25
100
AcDbDimension
  2
*D25
 10
928.901411
 20
616.167005
 30
0.0
 11
466.805354
 21
671.167005
 31
0.0
 70
   160
  1
900
 71
     5
 42
900.0
  3
LC-DIM-L-0100-02-02
100
AcDbAlignedDimension
 13
28.901411
 23
512.418353
 33
0.0
 14
928.901411
 24
512.418353
 34
0.0
100
AcDbRotatedDimension
  0
DIMENSION
  5
3B8
330
1F
100
AcDbEntity
  8
LC-002-100-D00-0
 62
     7
370
    25
100
AcDbDimension
  2
*D26
 10
878.901411
 20
543.31972
 30
0.0
 11
469.268608
 21
598.31972
 31
0.0
 70
   160
  1
800
 71
     5
 42
800.0
  3
LC-DIM-L-0100-02-02
100
AcDbAlignedDimension
 13
78.901411
 23
468.418353
 33
0.0
 14
878.901411
 24
468.418353
 34
0.0
100
AcDbRotatedDimension
  0
INSERT
  5
3DD
330
1F
100
AcDbEntity
  8
LC-002-100-D00-0
 62
     7
370
    25
100
AcDbBlockReference
  2
KLON21
 10
0.0
 20
0.0
 30
0.0
  0
INSERT
  5
3F7
330
1F
100
AcDbEntity
  8
LC-002-100-D00-0
 62
     7
370
    25
100
AcDbBlockReference
  2
KLON22
 10
0.0
 20
0.0
 30
0.0
  0
LINE
  5
3F8
330
1F
100
AcDbEntity
  8
LC-002-100-D00-0
 62
     7
370
    50
100
AcDbLine
 10
708.083141
 20
458.275647
 30
0.0
 11
709.863629
 21
460.056135
 31
0.0
  0
INSERT
  5
3FE
330
1F
100
AcDbEntity
  8
LC-002-100-D00-0
 62
     7
370
    25
100
AcDbBlockReference
  2
KLON23
 10
0.0
 20
0.0
 30
0.0
  0
LINE
  5
3FF
330
1F
100
AcDbEntity
  8
LC-002-100-D00-0
 62
     7
370
    25
100
AcDbLine
 10
717.801411
 20
467.993918
 30
0.0
 11
721.225845
 21
471.418353
 31
0.0
  0
LINE
  5
400
330
1F
100
AcDbEntity
  8
LC-002-100-D00-0
 62
     7
370
    50
100
AcDbLine
 10
372.550558
 20
459.502657
 30
0.0
 11
373.466254
 21
460.418353
 31
0.0
  0
INSERT
  5
407
330
1F
100
AcDbEntity
  8
LC-002-100-D00-0
 62
     7
370
    25
100
AcDbBlockReference
  2
KLON24
 10
0.0
 20
0.0
 30
0.0
  0
INSERT
  5
40D
330
1F
100
AcDbEntity
  8
LC-002-100-D00-0
 62
     7
370
    25
100
AcDbBlockReference
  2
KLON25
 10
0.0
 20
0.0
 30
0.0
  0
LINE
  5
40E
330
1F
100
AcDbEntity
  8
LC-002-100-D00-0
 62
     7
370
    50
100
AcDbLine
 10
102.550558
 20
458.910331
 30
0.0
 11
104.05858
 21
460.418353
 31
0.0
  0
INSERT
  5
415
330
1F
100
AcDbEntity
  8
LC-002-100-D00-0
 62
     7
370
    25
100
AcDbBlockReference
  2
KLON26
 10
0.0
 20
0.0
 30
0.0
  0
LINE
  5
416
330
1F
100
AcDbEntity
  8
LC-002-100-D00-0
 62
     7
370
    25
100
AcDbLine
 10
112.801411
 20
469.161184
 30
0.0
 11
115.058579
 21
471.418353
 31
0.0
  0
LINE
  5
417
330
1F
100
AcDbEntity
  8
LC-002-100-D00-0
 62
     7
370
    50
100
AcDbLine
 10
573.314231
 20
458.210574
 30
0.0
 11
575.01171
 21
459.908054
 31
0.0
  0
INSERT
  5
41D
330
1F
100
AcDbEntity
  8
LC-002-100-D00-0
 62
     7
370
    25
100
AcDbBlockReference
  2
KLON27
 10
0.0
 20
0.0
 30
0.0
  0
LINE
  5
41E
330
1F
100
AcDbEntity
  8
LC-002-100-D00-0
 62
     7
370
    25
100
AcDbLine
 10
582.801411
 20
467.697755
 30
0.0
 11
586.522008
 21
471.418353
 31
0.0
  0
LINE
  5
41F
330
1F
100
AcDbEntity
  8
LC-002-100-D00-0
 62
     7
370
    50
100
AcDbLine
 10
237.550558
 20
459.206494
 30
0.0
 11
238.762417
 21
460.418353
 31
0.0
  0
INSERT
  5
426
330
1F
100
AcDbEntity
  8
LC-002-100-D00-0
 62
     7
370
    25
100
AcDbBlockReference
  2
KLON28
 10
0.0
 20
0.0
 30
0.0
  0
LINE
  5
427
330
1F
100
AcDbEntity
  8
LC-002-100-D00-0
 62
     7
370
    25
100
AcDbLine
 10
247.801411
 20
469.457348
 30
0.0
 11
249.762416
 21
471.418353
 31
0.0
  0
LINE
  5
428
330
1F
100
AcDbEntity
  8
LC-002-100-D00-0
 62
     7
370
    50
100
AcDbLine
 10
842.849564
 20
458.338234
 30
0.0
 11
844.715547
 21
460.204217
 31
0.0
  0
INSERT
  5
42F
330
1F
100
AcDbEntity
  8
LC-002-100-D00-0
 62
     7
370
    25
100
AcDbBlockReference
  2
KLON29
 10
0.0
 20
0.0
 30
0.0
  0
LINE
  5
430
330
1F
100
AcDbEntity
  8
LC-002-100-D00-0
 62
     7
370
    25
100
AcDbLine
 10
852.801411
 20
468.290081
 30
0.0
 11
855.929682
 21
471.418353
 31
0.0
  0
LINE
  5
431
330
1F
100
AcDbEntity
  8
LC-002-100-D00-0
  6
DASHDOT
 62
     7
370
    25
100
AcDbLine
 10
848.901411
 20
443.418353
 30
0.0
 11
848.901411
 21
477.418353
 31
0.0
  0
LINE
  5
432
330
1F
100
AcDbEntity
  8
LC-002-100-D00-0
  6
DASHDOT
 62
     7
370
    25
100
AcDbLine
 10
713.901411
 20
443.418353
 30
0.0
 11
713.901411
 21
477.418353
 31
0.0
  0
LINE
  5
433
330
1F
100
AcDbEntity
  8
LC-002-100-D00-0
  6
DASHDOT
 62
     7
370
    25
100
AcDbLine
 10
578.901411
 20
443.418353
 30
0.0
 11
578.901411
 21
477.418353
 31
0.0
  0
LINE
  5
434
330
1F
100
AcDbEntity
  8
LC-002-100-D00-0
  6
DASHDOT
 62
     7
370
    25
100
AcDbLine
 10
378.901411
 20
443.418353
 30
0.0
 11
378.901411
 21
477.418353
 31
0.0
  0
LINE
  5
435
330
1F
100
AcDbEntity
  8
LC-002-100-D00-0
  6
DASHDOT
 62
     7
370
    25
100
AcDbLine
 10
243.901411
 20
443.418353
 30
0.0
 11
243.901411
 21
477.418353
 31
0.0
  0
LINE
  5
436
330
1F
100
AcDbEntity
  8
LC-002-100-D00-0
  6
DASHDOT
 62
     7
370
    25
100
AcDbLine
 10
108.901411
 20
443.418353
 30
0.0
 11
108.901411
 21
477.418353
 31
0.0
  0
INSERT
  5
43C
330
1F
100
AcDbEntity
  8
LC-002-100-D00-0
 62
     7
370
    50
100
AcDbBlockReference
  2
KLON30
 10
0.0
 20
0.0
 30
0.0
  0
ARC
  5
43D
330
1F
100
AcDbEntity
  8
LC-002-100-D00-0
 62
     7
370
    50
100
AcDbCircle
 10
509.401425
 20
27.324182
 30
0.0
 40
24.76305695180431
100
AcDbArc
 50
286.637155
 51
62.523751
  0
LINE
  5
43E
330
1F
100
AcDbEntity
  8
LC-002-100-D00-0
 62
     7
370
    50
100
AcDbLine
 10
510.538803
 20
2.587259
 30
0.0
 11
509.401425
 21
2.561125
 31
0.0
  0
LINE
  5
43F
330
1F
100
AcDbEntity
  8
LC-002-100-D00-0
 62
     7
370
    50
100
AcDbLine
 10
448.401425
 20
52.087239
 30
0.0
 11
509.401425
 21
52.087239
 31
0.0
  0
INSERT
  5
445
330
1F
100
AcDbEntity
  8
LC-002-100-D00-0
 62
     7
370
    50
100
AcDbBlockReference
  2
KLON31
 10
0.0
 20
0.0
 30
0.0
  0
ARC
  5
446
330
1F
100
AcDbEntity
  8
LC-002-100-D00-0
 62
     7
370
    50
100
AcDbCircle
 10
448.401425
 20
27.324182
 30
0.0
 40
24.76305695180422
100
AcDbArc
 50
109.469149
 51
245.19649
  0
LINE
  5
447
330
1F
100
AcDbEntity
  8
LC-002-100-D00-0
 62
     7
370
    50
100
AcDbLine
 10
446.805533
 20
52.035761
 30
0.0
 11
448.401425
 21
52.087239
 31
0.0
  0
LINE
  5
448
330
1F
100
AcDbEntity
  8
LC-002-100-D00-0
 62
     7
370
    50
100
AcDbLine
 10
509.401425
 20
2.561125
 30
0.0
 11
448.401425
 21
2.561125
 31
0.0
  0
INSERT
  5
458
330
1F
100
AcDbEntity
  8
LC-002-100-D00-0
 62
     7
370
    50
100
AcDbBlockReference
  2
POLY1
 10
0.0
 20
0.0
 30
0.0
  0
INSERT
  5
468
330
1F
100
AcDbEntity
  8
LC-002-100-D00-0
 62
     7
370
    50
100
AcDbBlockReference
  2
POLY2
 10
0.0
 20
0.0
 30
0.0
  0
INSERT
  5
478
330
1F
100
AcDbEntity
  8
LC-002-100-D00-0
 62
     7
370
    50
100
AcDbBlockReference
  2
POLY3
 10
0.0
 20
0.0
 30
0.0
  0
INSERT
  5
488
330
1F
100
AcDbEntity
  8
LC-002-100-D00-0
 62
     7
370
    50
100
AcDbBlockReference
  2
POLY4
 10
0.0
 20
0.0
 30
0.0
  0
LINE
  5
489
330
1F
100
AcDbEntity
  8
LC-002-100-D00-0
 62
     7
370
    50
100
AcDbLine
 10
448.401425
 20
52.124182
 30
0.0
 11
509.401425
 21
52.124182
 31
0.0
  0
LINE
  5
48A
330
1F
100
AcDbEntity
  8
LC-002-100-D00-0
 62
     7
370
    50
100
AcDbLine
 10
509.401425
 20
2.524181
 30
0.0
 11
448.401425
 21
2.524181
 31
0.0
  0
ARC
  5
48B
330
1F
100
AcDbEntity
  8
LC-002-100-D00-0
 62
     7
370
    50
100
AcDbCircle
 10
509.401425
 20
27.324182
 30
0.0
 40
24.7999999999944
100
AcDbArc
 50
300.592814
 51
59.407186
  0
ARC
  5
48C
330
1F
100
AcDbEntity
  8
LC-002-100-D00-0
 62
     7
370
    50
100
AcDbCircle
 10
448.401425
 20
27.324182
 30
0.0
 40
24.79999999999429
100
AcDbArc
 50
120.592814
 51
239.407186
  0
LINE
  5
48D
330
1F
100
AcDbEntity
  8
LC-002-100-D00-0
 62
     7
370
    50
100
AcDbLine
 10
524.146929
 20
46.864143
 30
0.0
 11
524.051342
 21
46.711548
 31
0.0
  0
LINE
  5
48E
330
1F
100
AcDbEntity
  8
LC-002-100-D00-0
 62
     7
370
    50
100
AcDbLine
 10
518.866419
 20
49.705064
 30
0.0
 11
518.950775
 21
49.864144
 31
0.0
  0
LINE
  5
48F
330
1F
100
AcDbEntity
  8
LC-002-100-D00-0
 62
     7
370
    50
100
AcDbLine
 10
438.852075
 20
49.864144
 30
0.0
 11
438.936431
 21
49.705064
 31
0.0
  0
LINE
  5
490
330
1F
100
AcDbEntity
  8
LC-002-100-D00-0
 62
     7
370
    50
100
AcDbLine
 10
433.751508
 20
46.711548
 30
0.0
 11
433.655921
 21
46.864143
 31
0.0
  0
LINE
  5
491
330
1F
100
AcDbEntity
  8
LC-002-100-D00-0
 62
     7
370
    50
100
AcDbLine
 10
433.655921
 20
7.78422
 30
0.0
 11
433.751508
 21
7.936815
 31
0.0
  0
LINE
  5
492
330
1F
100
AcDbEntity
  8
LC-002-100-D00-0
 62
     7
370
    50
100
AcDbLine
 10
438.936431
 20
4.943299
 30
0.0
 11
438.852075
 21
4.784219
 31
0.0
  0
INSERT
  5
4A2
330
1F
100
AcDbEntity
  8
LC-002-100-D00-0
 62
     7
370
    50
100
AcDbBlockReference
  2
POLY5
 10
0.0
 20
0.0
 30
0.0
  0
LINE
  5
4A3
330
1F
100
AcDbEntity
  8
LC-002-100-D00-0
 62
     7
370
    50
100
AcDbLine
 10
518.950775
 20
4.784219
 30
0.0
 11
518.866419
 21
4.943299
 31
0.0
  0
LINE
  5
4A4
330
1F
100
AcDbEntity
  8
LC-002-100-D00-0
 62
     7
370
    50
100
AcDbLine
 10
524.051342
 20
7.936815
 30
0.0
 11
524.146929
 21
7.78422
 31
0.0
  0
INSERT
  5
4B4
330
1F
100
AcDbEntity
  8
LC-002-100-D00-0
 62
     7
370
    50
100
AcDbBlockReference
  2
POLY6
 10
0.0
 20
0.0
 30
0.0
  0
LINE
  5
4B5
330
1F
100
AcDbEntity
  8
LC-002-100-D00-0
 62
     7
370
    50
100
AcDbLine
 10
518.866419
 20
49.705064
 30
0.0
 11
518.751937
 21
49.427754
 31
0.0
  0
LINE
  5
4B6
330
1F
100
AcDbEntity
  8
LC-002-100-D00-0
 62
     7
370
    50
100
AcDbLine
 10
523.868423
 20
46.473749
 30
0.0
 11
524.051342
 21
46.711548
 31
0.0
  0
LINE
  5
4B7
330
1F
100
AcDbEntity
  8
LC-002-100-D00-0
 62
     7
370
    50
100
AcDbLine
 10
433.751508
 20
46.711548
 30
0.0
 11
433.934424
 21
46.473749
 31
0.0
  0
LINE
  5
4B8
330
1F
100
AcDbEntity
  8
LC-002-100-D00-0
 62
     7
370
    50
100
AcDbLine
 10
439.050912
 20
49.427754
 30
0.0
 11
438.936431
 21
49.705064
 31
0.0
  0
LINE
  5
4B9
330
1F
100
AcDbEntity
  8
LC-002-100-D00-0
 62
     7
370
    50
100
AcDbLine
 10
438.936431
 20
4.943299
 30
0.0
 11
439.050912
 21
5.220609
 31
0.0
  0
LINE
  5
4BA
330
1F
100
AcDbEntity
  8
LC-002-100-D00-0
 62
     7
370
    50
100
AcDbLine
 10
433.934424
 20
8.174614
 30
0.0
 11
433.751508
 21
7.936815
 31
0.0
  0
LINE
  5
4BB
330
1F
100
AcDbEntity
  8
LC-002-100-D00-0
 62
     7
370
    50
100
AcDbLine
 10
518.751937
 20
5.220609
 30
0.0
 11
518.866419
 21
4.943299
 31
0.0
  0
LINE
  5
4BC
330
1F
100
AcDbEntity
  8
LC-002-100-D00-0
 62
     7
370
    50
100
AcDbLine
 10
524.051342
 20
7.936815
 30
0.0
 11
523.868423
 21
8.174614
 31
0.0
  0
ARC
  5
4BD
330
1F
100
AcDbEntity
  8
LC-002-100-D00-0
 62
     7
370
    50
100
AcDbCircle
 10
527.51047
 20
33.074182
 30
0.0
 40
1.000000000000185
100
AcDbArc
 50
17.615731
 51
90.0
  0
ARC
  5
4BE
330
1F
100
AcDbEntity
  8
LC-002-100-D00-0
 62
     7
370
    50
100
AcDbCircle
 10
509.401425
 20
27.324182
 30
0.0
 40
20.00000000000017
100
AcDbArc
 50
270.0
 51
17.615731
  0
ARC
  5
4BF
330
1F
100
AcDbEntity
  8
LC-002-100-D00-0
 62
     7
370
    50
100
AcDbCircle
 10
448.401425
 20
27.324182
 30
0.0
 40
20.00000000000007
100
AcDbArc
 50
162.384269
 51
270.0
  0
ARC
  5
4C0
330
1F
100
AcDbEntity
  8
LC-002-100-D00-0
 62
     7
370
    50
100
AcDbCircle
 10
430.29238
 20
33.074182
 30
0.0
 40
1.0
100
AcDbArc
 50
90.0
 51
162.384269
  0
LINE
  5
4C1
330
1F
100
AcDbEntity
  8
LC-002-100-D00-0
 62
     7
370
    50
100
AcDbLine
 10
430.292379
 20
34.074182
 30
0.0
 11
527.510471
 21
34.074182
 31
0.0
  0
LINE
  5
4C2
330
1F
100
AcDbEntity
  8
LC-002-100-D00-0
 62
     7
370
    50
100
AcDbLine
 10
509.401425
 20
7.324182
 30
0.0
 11
448.401425
 21
7.324182
 31
0.0
  0
ARC
  5
4C3
330
1F
100
AcDbEntity
  8
LC-002-100-D00-0
 62
     7
370
    50
100
AcDbCircle
 10
509.401425
 20
27.324182
 30
0.0
 40
18.50000000000021
100
AcDbArc
 50
21.399266
 51
90.0
  0
ARC
  5
4C4
330
1F
100
AcDbEntity
  8
LC-002-100-D00-0
 62
     7
370
    50
100
AcDbCircle
 10
448.401425
 20
27.324182
 30
0.0
 40
18.49999999999994
100
AcDbArc
 50
90.0
 51
158.600734
  0
LINE
  5
4C5
330
1F
100
AcDbEntity
  8
LC-002-100-D00-0
 62
     7
370
    50
100
AcDbLine
 10
509.401425
 20
51.324182
 30
0.0
 11
448.401425
 21
51.324182
 31
0.0
  0
ARC
  5
4C6
330
1F
100
AcDbEntity
  8
LC-002-100-D00-0
 62
     7
370
    50
100
AcDbCircle
 10
509.401425
 20
27.324182
 30
0.0
 40
24.0
100
AcDbArc
 50
270.0
 51
90.0
  0
LINE
  5
4C7
330
1F
100
AcDbEntity
  8
LC-002-100-D00-0
 62
     7
370
    50
100
AcDbLine
 10
448.401425
 20
3.324181
 30
0.0
 11
509.401425
 21
3.324181
 31
0.0
  0
ARC
  5
4C8
330
1F
100
AcDbEntity
  8
LC-002-100-D00-0
 62
     7
370
    50
100
AcDbCircle
 10
448.401425
 20
27.324182
 30
0.0
 40
24.0
100
AcDbArc
 50
90.0
 51
270.0
  0
LINE
  5
4C9
330
1F
100
AcDbEntity
  8
LC-002-100-D00-0
 62
     7
370
    50
100
AcDbLine
 10
509.401425
 20
45.824182
 30
0.0
 11
448.401425
 21
45.824182
 31
0.0
  0
LINE
  5
4CA
330
1F
100
AcDbEntity
  8
LC-002-100-D00-0
 62
     7
370
    50
100
AcDbLine
 10
424.285695
 20
21.699181
 30
0.0
 11
425.069913
 21
21.699181
 31
0.0
  0
LINE
  5
4CB
330
1F
100
AcDbEntity
  8
LC-002-100-D00-0
 62
     7
370
    50
100
AcDbLine
 10
532.732937
 20
21.699181
 30
0.0
 11
533.517152
 21
21.699181
 31
0.0
  0
LINE
  5
4CC
330
1F
100
AcDbEntity
  8
LC-002-100-D00-0
 62
     7
370
    50
100
AcDbLine
 10
424.841538
 20
19.699181
 30
0.0
 11
425.6449
 21
19.699181
 31
0.0
  0
LINE
  5
4CD
330
1F
100
AcDbEntity
  8
LC-002-100-D00-0
 62
     7
370
    50
100
AcDbLine
 10
532.15795
 20
19.699181
 30
0.0
 11
532.961312
 21
19.699181
 31
0.0
  0
LINE
  5
4CE
330
1F
100
AcDbEntity
  8
LC-002-100-D00-0
 62
     7
370
    50
100
AcDbLine
 10
-143.512644
 20
435.918353
 30
0.0
 11
-143.512644
 21
437.418353
 31
0.0
  0
LINE
  5
4CF
330
1F
100
AcDbEntity
  8
LC-002-100-D00-0
 62
     7
370
    50
100
AcDbLine
 10
-228.222681
 20
403.418352
 30
0.0
 11
-155.222681
 21
403.418352
 31
0.0
  0
LINE
  5
4D0
330
1F
100
AcDbEntity
  8
LC-002-100-D00-0
 62
     7
370
    50
100
AcDbLine
 10
-180.95473
 20
453.418353
 30
0.0
 11
-228.222681
 21
453.418353
 31
0.0
  0
LINE
  5
4D1
330
1F
100
AcDbEntity
  8
LC-002-100-D00-0
 62
     7
370
    50
100
AcDbLine
 10
-228.222681
 20
453.418353
 30
0.0
 11
-231.22268
 21
452.614504
 31
0.0
  0
LINE
  5
4D2
330
1F
100
AcDbEntity
  8
LC-002-100-D00-0
 62
     7
370
    50
100
AcDbLine
 10
-231.22268
 20
404.222201
 30
0.0
 11
-228.222681
 21
403.418352
 31
0.0
  0
LINE
  5
4D3
330
1F
100
AcDbEntity
  8
LC-002-100-D00-0
 62
     7
370
    50
100
AcDbLine
 10
-134.972681
 20
464.418353
 30
0.0
 11
-134.972681
 21
453.918352
 31
0.0
  0
LINE
  5
4D4
330
1F
100
AcDbEntity
  8
LC-002-100-D00-0
 62
     7
370
    50
100
AcDbLine
 10
-115.472681
 20
453.418353
 30
0.0
 11
-115.472681
 21
464.418353
 31
0.0
  0
ARC
  5
4D5
330
1F
100
AcDbEntity
  8
LC-002-100-D00-0
 62
     7
370
    50
100
AcDbCircle
 10
-116.472681
 20
453.418353
 30
0.0
 40
1.000000000000114
100
AcDbArc
 50
270.0
 51
0.0
  0
ARC
  5
4D6
330
1F
100
AcDbEntity
  8
LC-002-100-D00-0
 62
     7
370
    50
100
AcDbCircle
 10
-198.722681
 20
349.418353
 30
0.0
 40
0.5
100
AcDbArc
 50
90.0
 51
180.0
  0
ARC
  5
4D7
330
1F
100
AcDbEntity
  8
LC-002-100-D00-0
 62
     7
370
    50
100
AcDbCircle
 10
-180.722681
 20
349.418353
 30
0.0
 40
0.5
100
AcDbArc
 50
0.0
 51
90.0
  0
LINE
  5
4D8
330
1F
100
AcDbEntity
  8
LC-002-100-D00-0
 62
     7
370
    50
100
AcDbLine
 10
-199.222682
 20
349.418351
 30
0.0
 11
-199.222682
 21
341.91835
 31
0.0
  0
LINE
  5
4D9
330
1F
100
AcDbEntity
  8
LC-002-100-D00-0
 62
     7
370
    50
100
AcDbLine
 10
-180.222681
 20
341.91835
 30
0.0
 11
-180.222681
 21
349.418351
 31
0.0
  0
LINE
  5
4DA
330
1F
100
AcDbEntity
  8
LC-002-100-D00-0
 62
     7
370
    50
100
AcDbLine
 10
-199.722683
 20
403.418352
 30
0.0
 11
-199.722683
 21
364.918352
 31
0.0
  0
LINE
  5
4DB
330
1F
100
AcDbEntity
  8
LC-002-100-D00-0
 62
     7
370
    50
100
AcDbLine
 10
-179.72268
 20
364.918352
 30
0.0
 11
-179.72268
 21
403.418352
 31
0.0
  0
LINE
  5
4DC
330
1F
100
AcDbEntity
  8
LC-002-100-D00-0
 62
     7
370
    50
100
AcDbLine
 10
-199.722683
 20
361.418353
 30
0.0
 11
-199.722683
 21
350.918354
 31
0.0
  0
LINE
  5
4DD
330
1F
100
AcDbEntity
  8
LC-002-100-D00-0
 62
     7
370
    50
100
AcDbLine
 10
-179.72268
 20
350.918354
 30
0.0
 11
-179.72268
 21
361.418353
 31
0.0
  0
LINE
  5
4DE
330
1F
100
AcDbEntity
  8
LC-002-100-D00-0
 62
     7
370
    50
100
AcDbLine
 10
-199.722683
 20
350.918354
 30
0.0
 11
-198.722681
 21
349.918352
 31
0.0
  0
LINE
  5
4DF
330
1F
100
AcDbEntity
  8
LC-002-100-D00-0
 62
     7
370
    50
100
AcDbLine
 10
-180.722682
 20
349.918352
 30
0.0
 11
-179.72268
 21
350.918354
 31
0.0
  0
LINE
  5
4E0
330
1F
100
AcDbEntity
  8
LC-002-100-D00-0
 62
     7
370
    50
100
AcDbLine
 10
-197.622685
 20
364.918352
 30
0.0
 11
-197.622685
 21
361.418353
 31
0.0
  0
LINE
  5
4E1
330
1F
100
AcDbEntity
  8
LC-002-100-D00-0
 62
     7
370
    50
100
AcDbLine
 10
-181.822682
 20
361.418353
 30
0.0
 11
-181.822682
 21
364.918352
 31
0.0
  0
ARC
  5
4E2
330
1F
100
AcDbEntity
  8
LC-002-100-D00-0
 62
     7
370
    50
100
AcDbCircle
 10
-96.222681
 20
468.418353
 30
0.0
 40
3.0
100
AcDbArc
 50
90.0
 51
180.0
  0
LINE
  5
4E3
330
1F
100
AcDbEntity
  8
LC-002-100-D00-0
 62
     7
370
    50
100
AcDbLine
 10
-96.222682
 20
471.418352
 30
0.0
 11
-82.22268
 21
471.418352
 31
0.0
  0
ARC
  5
4E4
330
1F
100
AcDbEntity
  8
LC-002-100-D00-0
 62
     7
370
    50
100
AcDbCircle
 10
-82.222681
 20
472.918353
 30
0.0
 40
1.500000000000114
100
AcDbArc
 50
270.0
 51
0.0
  0
LINE
  5
4E5
330
1F
100
AcDbEntity
  8
LC-002-100-D00-0
 62
     7
370
    50
100
AcDbLine
 10
-80.722681
 20
472.918351
 30
0.0
 11
-80.722681
 21
517.418356
 31
0.0
  0
LINE
  5
4E6
330
1F
100
AcDbEntity
  8
LC-002-100-D00-0
 62
     7
370
    50
100
AcDbLine
 10
-80.722681
 20
517.418356
 30
0.0
 11
-79.222681
 21
517.418356
 31
0.0
  0
LINE
  5
4E7
330
1F
100
AcDbEntity
  8
LC-002-100-D00-0
 62
     7
370
    50
100
AcDbLine
 10
-79.222681
 20
517.418356
 30
0.0
 11
-79.222681
 21
472.418354
 31
0.0
  0
ARC
  5
4E8
330
1F
100
AcDbEntity
  8
LC-002-100-D00-0
 62
     7
370
    50
100
AcDbCircle
 10
-81.722681
 20
472.418353
 30
0.0
 40
2.5
100
AcDbArc
 50
270.0
 51
0.0
  0
LINE
  5
4E9
330
1F
100
AcDbEntity
  8
LC-002-100-D00-0
 62
     7
370
    50
100
AcDbLine
 10
-96.222682
 20
469.918353
 30
0.0
 11
-81.722683
 21
469.918353
 31
0.0
  0
ARC
  5
4EA
330
1F
100
AcDbEntity
  8
LC-002-100-D00-0
 62
     7
370
    50
100
AcDbCircle
 10
-96.222681
 20
468.418353
 30
0.0
 40
1.5
100
AcDbArc
 50
90.0
 51
180.0
  0
LINE
  5
4EB
330
1F
100
AcDbEntity
  8
LC-002-100-D00-0
 62
     7
370
    50
100
AcDbLine
 10
-97.722681
 20
468.418353
 30
0.0
 11
-97.722681
 21
448.418352
 31
0.0
  0
ARC
  5
4EC
330
1F
100
AcDbEntity
  8
LC-002-100-D00-0
 62
     7
370
    50
100
AcDbCircle
 10
-101.722681
 20
448.418353
 30
0.0
 40
4.000000000000073
100
AcDbArc
 50
319.464198
 51
360.0
  0
ARC
  5
4ED
330
1F
100
AcDbEntity
  8
LC-002-100-D00-0
 62
     7
370
    50
100
AcDbCircle
 10
-97.922681
 20
445.168737
 30
0.0
 40
0.9999999999999845
100
AcDbArc
 50
139.464198
 51
180.0
  0
LINE
  5
4EE
330
1F
100
AcDbEntity
  8
LC-002-100-D00-0
 62
     7
370
    50
100
AcDbLine
 10
-98.922681
 20
439.418352
 30
0.0
 11
-98.922681
 21
445.168737
 31
0.0
  0
LINE
  5
4EF
330
1F
100
AcDbEntity
  8
LC-002-100-D00-0
 62
     7
370
    50
100
AcDbLine
 10
-100.422681
 20
439.418352
 30
0.0
 11
-98.922681
 21
439.418352
 31
0.0
  0
LINE
  5
4F0
330
1F
100
AcDbEntity
  8
LC-002-100-D00-0
 62
     7
370
    50
100
AcDbLine
 10
-100.422681
 20
439.418352
 30
0.0
 11
-100.422681
 21
445.168737
 31
0.0
  0
ARC
  5
4F1
330
1F
100
AcDbEntity
  8
LC-002-100-D00-0
 62
     7
370
    50
100
AcDbCircle
 10
-97.922681
 20
445.168737
 30
0.0
 40
2.499999999999912
100
AcDbArc
 50
139.464198
 51
180.0
  0
ARC
  5
4F2
330
1F
100
AcDbEntity
  8
LC-002-100-D00-0
 62
     7
370
    50
100
AcDbCircle
 10
-101.722681
 20
448.418353
 30
0.0
 40
2.500000000000072
100
AcDbArc
 50
319.464198
 51
360.0
  0
LINE
  5
4F3
330
1F
100
AcDbEntity
  8
LC-002-100-D00-0
 62
     7
370
    50
100
AcDbLine
 10
-99.222681
 20
468.418353
 30
0.0
 11
-99.222681
 21
448.418352
 31
0.0
  0
LINE
  5
4F4
330
1F
100
AcDbEntity
  8
LC-002-100-D00-0
 62
     7
370
    50
100
AcDbLine
 10
-152.722681
 20
448.418352
 30
0.0
 11
-152.722681
 21
468.418353
 31
0.0
  0
ARC
  5
4F5
330
1F
100
AcDbEntity
  8
LC-002-100-D00-0
 62
     7
370
    50
100
AcDbCircle
 10
-154.222681
 20
468.418353
 30
0.0
 40
1.5
100
AcDbArc
 50
0.0
 51
90.0
  0
LINE
  5
4F6
330
1F
100
AcDbEntity
  8
LC-002-100-D00-0
 62
     7
370
    50
100
AcDbLine
 10
-202.722682
 20
469.918353
 30
0.0
 11
-154.22268
 21
469.918353
 31
0.0
  0
LINE
  5
4F7
330
1F
100
AcDbEntity
  8
LC-002-100-D00-0
 62
     7
370
    50
100
AcDbLine
 10
-202.722682
 20
469.918353
 30
0.0
 11
-202.722682
 21
471.418352
 31
0.0
  0
LINE
  5
4F8
330
1F
100
AcDbEntity
  8
LC-002-100-D00-0
 62
     7
370
    50
100
AcDbLine
 10
-202.722682
 20
471.418352
 30
0.0
 11
-154.22268
 21
471.418352
 31
0.0
  0
ARC
  5
4F9
330
1F
100
AcDbEntity
  8
LC-002-100-D00-0
 62
     7
370
    50
100
AcDbCircle
 10
-154.222681
 20
468.418353
 30
0.0
 40
3.0
100
AcDbArc
 50
0.0
 51
90.0
  0
LINE
  5
4FA
330
1F
100
AcDbEntity
  8
LC-002-100-D00-0
 62
     7
370
    50
100
AcDbLine
 10
-151.222682
 20
448.418352
 30
0.0
 11
-151.222682
 21
468.418353
 31
0.0
  0
ARC
  5
4FB
330
1F
100
AcDbEntity
  8
LC-002-100-D00-0
 62
     7
370
    50
100
AcDbCircle
 10
-148.722681
 20
448.418353
 30
0.0
 40
2.5
100
AcDbArc
 50
180.0
 51
220.535802
  0
ARC
  5
4FC
330
1F
100
AcDbEntity
  8
LC-002-100-D00-0
 62
     7
370
    50
100
AcDbCircle
 10
-152.522681
 20
445.168737
 30
0.0
 40
2.5
100
AcDbArc
 50
0.0
 51
40.535802
  0
LINE
  5
4FD
330
1F
100
AcDbEntity
  8
LC-002-100-D00-0
 62
     7
370
    50
100
AcDbLine
 10
-150.022682
 20
445.168737
 30
0.0
 11
-150.022682
 21
439.418352
 31
0.0
  0
LINE
  5
4FE
330
1F
100
AcDbEntity
  8
LC-002-100-D00-0
 62
     7
370
    50
100
AcDbLine
 10
-151.522681
 20
439.418352
 30
0.0
 11
-150.022682
 21
439.418352
 31
0.0
  0
LINE
  5
4FF
330
1F
100
AcDbEntity
  8
LC-002-100-D00-0
 62
     7
370
    50
100
AcDbLine
 10
-151.522681
 20
445.168737
 30
0.0
 11
-151.522681
 21
439.418352
 31
0.0
  0
ARC
  5
500
330
1F
100
AcDbEntity
  8
LC-002-100-D00-0
 62
     7
370
    50
100
AcDbCircle
 10
-152.522681
 20
445.168737
 30
0.0
 40
1.0
100
AcDbArc
 50
0.0
 51
40.535802
  0
ARC
  5
501
330
1F
100
AcDbEntity
  8
LC-002-100-D00-0
 62
     7
370
    50
100
AcDbCircle
 10
-148.722681
 20
448.418353
 30
0.0
 40
4.0
100
AcDbArc
 50
180.0
 51
220.535802
  0
LINE
  5
502
330
1F
100
AcDbEntity
  8
LC-002-100-D00-0
 62
     7
370
    50
100
AcDbLine
 10
-149.350485
 20
437.918352
 30
0.0
 11
-149.350485
 21
439.418352
 31
0.0
  0
LINE
  5
503
330
1F
100
AcDbEntity
  8
LC-002-100-D00-0
 62
     7
370
    50
100
AcDbLine
 10
-101.094878
 20
437.918352
 30
0.0
 11
-101.094878
 21
439.418352
 31
0.0
  0
LINE
  5
504
330
1F
100
AcDbEntity
  8
LC-002-100-D00-0
 62
     7
370
    50
100
AcDbLine
 10
-148.04239
 20
438.918352
 30
0.0
 11
-148.04239
 21
439.418352
 31
0.0
  0
LINE
  5
505
330
1F
100
AcDbEntity
  8
LC-002-100-D00-0
 62
     7
370
    50
100
AcDbLine
 10
-102.402972
 20
438.918352
 30
0.0
 11
-102.402972
 21
439.418352
 31
0.0
  0
LINE
  5
506
330
1F
100
AcDbEntity
  8
LC-002-100-D00-0
 62
     7
370
    50
100
AcDbLine
 10
-148.04239
 20
439.418352
 30
0.0
 11
-150.022682
 21
439.418352
 31
0.0
  0
LINE
  5
507
330
1F
100
AcDbEntity
  8
LC-002-100-D00-0
 62
     7
370
    50
100
AcDbLine
 10
-100.422681
 20
439.418352
 30
0.0
 11
-102.402972
 21
439.418352
 31
0.0
  0
INSERT
  5
517
330
1F
100
AcDbEntity
  8
LC-002-100-D00-0
 62
     7
370
    50
100
AcDbBlockReference
  2
POLY7
 10
0.0
 20
0.0
 30
0.0
  0
INSERT
  5
527
330
1F
100
AcDbEntity
  8
LC-002-100-D00-0
 62
     7
370
    50
100
AcDbBlockReference
  2
POLY8
 10
0.0
 20
0.0
 30
0.0
  0
LINE
  5
528
330
1F
100
AcDbEntity
  8
LC-002-100-D00-0
 62
     7
370
    50
100
AcDbLine
 10
-102.841798
 20
435.918353
 30
0.0
 11
-102.682719
 21
435.926413
 31
0.0
  0
LINE
  5
529
330
1F
100
AcDbEntity
  8
LC-002-100-D00-0
 62
     7
370
    50
100
AcDbLine
 10
-102.841798
 20
435.918353
 30
0.0
 11
-105.222682
 21
435.918353
 31
0.0
  0
LINE
  5
52A
330
1F
100
AcDbEntity
  8
LC-002-100-D00-0
 62
     7
370
    50
100
AcDbLine
 10
-144.322317
 20
435.918353
 30
0.0
 11
-147.603564
 21
435.918353
 31
0.0
  0
LINE
  5
52B
330
1F
100
AcDbEntity
  8
LC-002-100-D00-0
 62
     7
370
    50
100
AcDbLine
 10
-147.762643
 20
435.926413
 30
0.0
 11
-147.603564
 21
435.918353
 31
0.0
  0
INSERT
  5
53D
330
1F
100
AcDbEntity
  8
LC-002-100-D00-0
 62
     7
370
    50
100
AcDbBlockReference
  2
POLY9
 10
0.0
 20
0.0
 30
0.0
  0
INSERT
  5
54F
330
1F
100
AcDbEntity
  8
LC-002-100-D00-0
 62
     7
370
    50
100
AcDbBlockReference
  2
POLY10
 10
0.0
 20
0.0
 30
0.0
  0
LINE
  5
550
330
1F
100
AcDbEntity
  8
LC-002-100-D00-0
 62
     7
370
    50
100
AcDbLine
 10
-143.873759
 20
435.918353
 30
0.0
 11
-144.322317
 21
435.918353
 31
0.0
  0
LINE
  5
551
330
1F
100
AcDbEntity
  8
LC-002-100-D00-0
 62
     7
370
    50
100
AcDbLine
 10
-143.512644
 20
435.918353
 30
0.0
 11
-143.873759
 21
435.918353
 31
0.0
  0
LINE
  5
552
330
1F
100
AcDbEntity
  8
LC-002-100-D00-0
 62
     7
370
    50
100
AcDbLine
 10
-101.722682
 20
445.918353
 30
0.0
 11
-118.472681
 21
445.918353
 31
0.0
  0
LINE
  5
553
330
1F
100
AcDbEntity
  8
LC-002-100-D00-0
 62
     7
370
    50
100
AcDbLine
 10
-145.222681
 20
445.918353
 30
0.0
 11
-148.72268
 21
445.918353
 31
0.0
  0
ARC
  5
554
330
1F
100
AcDbEntity
  8
LC-002-100-D00-0
 62
     7
370
    50
100
AcDbCircle
 10
-104.573571
 20
448.418353
 30
0.0
 40
2.500000000000097
100
AcDbArc
 50
251.565051
 51
270.0
  0
ARC
  5
555
330
1F
100
AcDbEntity
  8
LC-002-100-D00-0
 62
     7
370
    50
100
AcDbCircle
 10
-145.871792
 20
448.418353
 30
0.0
 40
2.5
100
AcDbArc
 50
270.0
 51
285.048955
  0
LINE
  5
556
330
1F
100
AcDbEntity
  8
LC-002-100-D00-0
 62
     7
370
    50
100
AcDbLine
 10
-105.36414
 20
446.046644
 30
0.0
 11
-118.907203
 21
450.560999
 31
0.0
  0
ARC
  5
557
330
1F
100
AcDbEntity
  8
LC-002-100-D00-0
 62
     7
370
    50
100
AcDbCircle
 10
-148.722681
 20
453.418353
 30
0.0
 40
2.5
100
AcDbArc
 50
180.0
 51
270.0
  0
ARC
  5
558
330
1F
100
AcDbEntity
  8
LC-002-100-D00-0
 62
     7
370
    50
100
AcDbCircle
 10
-101.722681
 20
453.418353
 30
0.0
 40
2.5
100
AcDbArc
 50
270.0
 51
360.0
  0
INSERT
  5
564
330
1F
100
AcDbEntity
  8
LC-002-100-D00-0
 62
     7
370
    50
100
AcDbBlockReference
  2
POLY11
 10
0.0
 20
0.0
 30
0.0
  0
LINE
  5
565
330
1F
100
AcDbEntity
  8
LC-002-100-D00-0
 62
     7
370
    50
100
AcDbLine
 10
-144.621639
 20
450.918396
 30
0.0
 11
-148.72268
 21
450.918396
 31
0.0
  0
LINE
  5
566
330
1F
100
AcDbEntity
  8
LC-002-100-D00-0
 62
     7
370
    50
100
AcDbLine
 10
-101.737321
 20
450.918396
 30
0.0
 11
-112.928975
 21
450.918396
 31
0.0
  0
ARC
  5
567
330
1F
100
AcDbEntity
  8
LC-002-100-D00-0
 62
     7
370
    50
100
AcDbCircle
 10
-101.722681
 20
453.418353
 30
0.0
 40
2.50000000000069
100
AcDbArc
 50
269.664477
 51
270.0
  0
LINE
  5
568
330
1F
100
AcDbEntity
  8
LC-002-100-D00-0
 62
     7
370
    50
100
AcDbLine
 10
-113.071514
 20
450.918353
 30
0.0
 11
-119.073702
 21
450.918353
 31
0.0
  0
LINE
  5
569
330
1F
100
AcDbEntity
  8
LC-002-100-D00-0
 62
     7
370
    50
100
AcDbLine
 10
-176.722681
 20
467.918352
 30
0.0
 11
-202.722682
 21
467.918352
 31
0.0
  0
LINE
  5
56A
330
1F
100
AcDbEntity
  8
LC-002-100-D00-0
 62
     7
370
    50
100
AcDbLine
 10
-176.722681
 20
467.918352
 30
0.0
 11
-176.722681
 21
469.918353
 31
0.0
  0
LINE
  5
56B
330
1F
100
AcDbEntity
  8
LC-002-100-D00-0
 62
     7
370
    50
100
AcDbLine
 10
-202.722682
 20
467.918352
 30
0.0
 11
-202.722682
 21
469.918353
 31
0.0
  0
LINE
  5
56C
330
1F
100
AcDbEntity
  8
LC-002-100-D00-0
 62
     7
370
    50
100
AcDbLine
 10
-176.722681
 20
467.918352
 30
0.0
 11
-176.722681
 21
465.918352
 31
0.0
  0
LINE
  5
56D
330
1F
100
AcDbEntity
  8
LC-002-100-D00-0
 62
     7
370
    50
100
AcDbLine
 10
-202.722682
 20
465.918352
 30
0.0
 11
-202.722682
 21
467.918352
 31
0.0
  0
LINE
  5
56E
330
1F
100
AcDbEntity
  8
LC-002-100-D00-0
 62
     7
370
    50
100
AcDbLine
 10
-176.722681
 20
449.088226
 30
0.0
 11
-176.722681
 21
465.918352
 31
0.0
  0
LINE
  5
56F
330
1F
100
AcDbEntity
  8
LC-002-100-D00-0
 62
     7
370
    50
100
AcDbLine
 10
-202.722682
 20
453.418353
 30
0.0
 11
-202.722682
 21
465.918352
 31
0.0
  0
LINE
  5
570
330
1F
100
AcDbEntity
  8
LC-002-100-D00-0
 62
     7
370
    50
100
AcDbLine
 10
-96.222682
 20
471.418352
 30
0.0
 11
-101.722682
 21
471.418352
 31
0.0
  0
LINE
  5
571
330
1F
100
AcDbEntity
  8
LC-002-100-D00-0
 62
     7
370
    50
100
AcDbLine
 10
-148.72268
 20
471.418352
 30
0.0
 11
-154.22268
 21
471.418352
 31
0.0
  0
LINE
  5
572
330
1F
100
AcDbEntity
  8
LC-002-100-D00-0
 62
     7
370
    50
100
AcDbLine
 10
-101.722682
 20
471.418352
 30
0.0
 11
-107.972682
 21
471.418352
 31
0.0
  0
LINE
  5
573
330
1F
100
AcDbEntity
  8
LC-002-100-D00-0
 62
     7
370
    50
100
AcDbLine
 10
-142.472681
 20
471.418352
 30
0.0
 11
-148.72268
 21
471.418352
 31
0.0
  0
LINE
  5
574
330
1F
100
AcDbEntity
  8
LC-002-100-D00-0
 62
     7
370
    50
100
AcDbLine
 10
-146.922682
 20
442.418353
 30
0.0
 11
-149.222681
 21
442.418353
 31
0.0
  0
LINE
  5
575
330
1F
100
AcDbEntity
  8
LC-002-100-D00-0
 62
     7
370
    50
100
AcDbLine
 10
-149.222681
 20
442.418353
 30
0.0
 11
-149.222681
 21
443.918352
 31
0.0
  0
LINE
  5
576
330
1F
100
AcDbEntity
  8
LC-002-100-D00-0
 62
     7
370
    50
100
AcDbLine
 10
-145.222681
 20
443.918352
 30
0.0
 11
-149.222681
 21
443.918352
 31
0.0
  0
LINE
  5
577
330
1F
100
AcDbEntity
  8
LC-002-100-D00-0
 62
     7
370
    50
100
AcDbLine
 10
-145.222681
 20
448.418352
 30
0.0
 11
-145.222681
 21
443.918352
 31
0.0
  0
ARC
  5
578
330
1F
100
AcDbEntity
  8
LC-002-100-D00-0
 62
     7
370
    50
100
AcDbCircle
 10
-139.722681
 20
448.418353
 30
0.0
 40
5.5
100
AcDbArc
 50
90.0
 51
180.0
  0
LINE
  5
579
330
1F
100
AcDbEntity
  8
LC-002-100-D00-0
 62
     7
370
    50
100
AcDbLine
 10
-139.722681
 20
453.918352
 30
0.0
 11
-123.972681
 21
453.918352
 31
0.0
  0
ARC
  5
57A
330
1F
100
AcDbEntity
  8
LC-002-100-D00-0
 62
     7
370
    50
100
AcDbCircle
 10
-123.972681
 20
448.418353
 30
0.0
 40
5.5
100
AcDbArc
 50
0.0
 51
90.0
  0
LINE
  5
57B
330
1F
100
AcDbEntity
  8
LC-002-100-D00-0
 62
     7
370
    50
100
AcDbLine
 10
-118.472681
 20
448.418352
 30
0.0
 11
-118.472681
 21
413.418353
 31
0.0
  0
LINE
  5
57C
330
1F
100
AcDbEntity
  8
LC-002-100-D00-0
 62
     7
370
    50
100
AcDbLine
 10
-118.472681
 20
413.418353
 30
0.0
 11
-119.972681
 21
413.418353
 31
0.0
  0
LINE
  5
57D
330
1F
100
AcDbEntity
  8
LC-002-100-D00-0
 62
     7
370
    50
100
AcDbLine
 10
-119.972681
 20
448.418352
 30
0.0
 11
-119.972681
 21
413.418353
 31
0.0
  0
ARC
  5
57E
330
1F
100
AcDbEntity
  8
LC-002-100-D00-0
 62
     7
370
    50
100
AcDbCircle
 10
-123.972681
 20
448.418353
 30
0.0
 40
4.000000000000114
100
AcDbArc
 50
0.0
 51
90.0
  0
LINE
  5
57F
330
1F
100
AcDbEntity
  8
LC-002-100-D00-0
 62
     7
370
    50
100
AcDbLine
 10
-139.722681
 20
452.418353
 30
0.0
 11
-123.972681
 21
452.418353
 31
0.0
  0
ARC
  5
580
330
1F
100
AcDbEntity
  8
LC-002-100-D00-0
 62
     7
370
    50
100
AcDbCircle
 10
-139.722681
 20
448.418353
 30
0.0
 40
4.0
100
AcDbArc
 50
90.0
 51
180.0
  0
LINE
  5
581
330
1F
100
AcDbEntity
  8
LC-002-100-D00-0
 62
     7
370
    50
100
AcDbLine
 10
-143.722682
 20
448.418352
 30
0.0
 11
-143.722682
 21
437.418353
 31
0.0
  0
LINE
  5
582
330
1F
100
AcDbEntity
  8
LC-002-100-D00-0
 62
     7
370
    50
100
AcDbLine
 10
-143.722682
 20
437.418353
 30
0.0
 11
-149.222681
 21
437.418353
 31
0.0
  0
LINE
  5
583
330
1F
100
AcDbEntity
  8
LC-002-100-D00-0
 62
     7
370
    50
100
AcDbLine
 10
-149.222681
 20
438.918352
 30
0.0
 11
-149.222681
 21
437.418353
 31
0.0
  0
LINE
  5
584
330
1F
100
AcDbEntity
  8
LC-002-100-D00-0
 62
     7
370
    50
100
AcDbLine
 10
-146.922682
 20
438.918352
 30
0.0
 11
-149.222681
 21
438.918352
 31
0.0
  0
LINE
  5
585
330
1F
100
AcDbEntity
  8
LC-002-100-D00-0
 62
     7
370
    50
100
AcDbLine
 10
-146.922682
 20
442.418353
 30
0.0
 11
-146.922682
 21
438.918352
 31
0.0
  0
LINE
  5
586
330
1F
100
AcDbEntity
  8
LC-002-100-D00-0
 62
     7
370
    50
100
AcDbLine
 10
-101.222681
 20
437.418353
 30
0.0
 11
-101.222681
 21
438.918352
 31
0.0
  0
LINE
  5
587
330
1F
100
AcDbEntity
  8
LC-002-100-D00-0
 62
     7
370
    50
100
AcDbLine
 10
-101.222681
 20
437.418353
 30
0.0
 11
-105.222682
 21
437.418353
 31
0.0
  0
LINE
  5
588
330
1F
100
AcDbEntity
  8
LC-002-100-D00-0
 62
     7
370
    50
100
AcDbLine
 10
-105.222682
 20
413.418353
 30
0.0
 11
-105.222682
 21
437.418353
 31
0.0
  0
LINE
  5
589
330
1F
100
AcDbEntity
  8
LC-002-100-D00-0
 62
     7
370
    50
100
AcDbLine
 10
-105.222682
 20
413.418353
 30
0.0
 11
-106.722681
 21
413.418353
 31
0.0
  0
LINE
  5
58A
330
1F
100
AcDbEntity
  8
LC-002-100-D00-0
 62
     7
370
    50
100
AcDbLine
 10
-106.722681
 20
413.418353
 30
0.0
 11
-106.722681
 21
442.918352
 31
0.0
  0
ARC
  5
58B
330
1F
100
AcDbEntity
  8
LC-002-100-D00-0
 62
     7
370
    50
100
AcDbCircle
 10
-105.722681
 20
442.918353
 30
0.0
 40
0.9999999999998863
100
AcDbArc
 50
90.0
 51
180.0
  0
LINE
  5
58C
330
1F
100
AcDbEntity
  8
LC-002-100-D00-0
 62
     7
370
    50
100
AcDbLine
 10
-101.222681
 20
443.918352
 30
0.0
 11
-105.722681
 21
443.918352
 31
0.0
  0
LINE
  5
58D
330
1F
100
AcDbEntity
  8
LC-002-100-D00-0
 62
     7
370
    50
100
AcDbLine
 10
-101.222681
 20
443.918352
 30
0.0
 11
-101.222681
 21
442.418353
 31
0.0
  0
LINE
  5
58E
330
1F
100
AcDbEntity
  8
LC-002-100-D00-0
 62
     7
370
    50
100
AcDbLine
 10
-101.222681
 20
442.418353
 30
0.0
 11
-103.522681
 21
442.418353
 31
0.0
  0
LINE
  5
58F
330
1F
100
AcDbEntity
  8
LC-002-100-D00-0
 62
     7
370
    50
100
AcDbLine
 10
-103.522681
 20
438.918352
 30
0.0
 11
-103.522681
 21
442.418353
 31
0.0
  0
LINE
  5
590
330
1F
100
AcDbEntity
  8
LC-002-100-D00-0
 62
     7
370
    50
100
AcDbLine
 10
-101.222681
 20
438.918352
 30
0.0
 11
-103.522681
 21
438.918352
 31
0.0
  0
LINE
  5
591
330
1F
100
AcDbEntity
  8
LC-002-100-D00-0
 62
     7
370
    50
100
AcDbLine
 10
-118.491344
 20
443.918352
 30
0.0
 11
-105.722681
 21
443.918352
 31
0.0
  0
LINE
  5
592
330
1F
100
AcDbEntity
  8
LC-002-100-D00-0
 62
     7
370
    50
100
AcDbLine
 10
-143.722682
 20
437.418353
 30
0.0
 11
-132.847681
 21
437.418353
 31
0.0
  0
LINE
  5
593
330
1F
100
AcDbEntity
  8
LC-002-100-D00-0
 62
     7
370
    50
100
AcDbLine
 10
-130.847682
 20
437.418353
 30
0.0
 11
-120.729824
 21
437.418353
 31
0.0
  0
LINE
  5
594
330
1F
100
AcDbEntity
  8
LC-002-100-D00-0
 62
     7
370
    50
100
AcDbLine
 10
-118.472681
 20
413.418353
 30
0.0
 11
-106.722681
 21
413.418353
 31
0.0
  0
LINE
  5
595
330
1F
100
AcDbEntity
  8
LC-002-100-D00-0
 62
     7
370
    50
100
AcDbLine
 10
-119.972681
 20
437.418353
 30
0.0
 11
-120.729824
 21
437.418353
 31
0.0
  0
ARC
  5
596
330
1F
100
AcDbEntity
  8
LC-002-100-D00-0
 62
     7
370
    50
100
AcDbCircle
 10
-100.159624
 20
440.961906
 30
0.0
 40
0.3000000000000115
100
AcDbArc
 50
131.633539
 51
282.528808
  0
LINE
  5
597
330
1F
100
AcDbEntity
  8
LC-002-100-D00-0
 62
     7
370
    50
100
AcDbLine
 10
-100.358933
 20
441.186129
 30
0.0
 11
-97.006846
 21
444.165762
 31
0.0
  0
ARC
  5
598
330
1F
100
AcDbEntity
  8
LC-002-100-D00-0
 62
     7
370
    50
100
AcDbCircle
 10
-96.342482
 20
443.418353
 30
0.0
 40
1.0
100
AcDbArc
 50
90.0
 51
131.633539
  0
LINE
  5
599
330
1F
100
AcDbEntity
  8
LC-002-100-D00-0
 62
     7
370
    50
100
AcDbLine
 10
-96.342482
 20
444.418353
 30
0.0
 11
-93.722681
 21
444.418353
 31
0.0
  0
LINE
  5
59A
330
1F
100
AcDbEntity
  8
LC-002-100-D00-0
 62
     7
370
    50
100
AcDbLine
 10
-93.722681
 20
444.418353
 30
0.0
 11
-93.722681
 21
440.418353
 31
0.0
  0
LINE
  5
59B
330
1F
100
AcDbEntity
  8
LC-002-100-D00-0
 62
     7
370
    50
100
AcDbLine
 10
-96.722681
 20
440.418353
 30
0.0
 11
-93.722681
 21
440.418353
 31
0.0
  0
LINE
  5
59C
330
1F
100
AcDbEntity
  8
LC-002-100-D00-0
 62
     7
370
    50
100
AcDbLine
 10
-96.722681
 20
440.418353
 30
0.0
 11
-96.722681
 21
441.044367
 31
0.0
  0
ARC
  5
59D
330
1F
100
AcDbEntity
  8
LC-002-100-D00-0
 62
     7
370
    50
100
AcDbCircle
 10
-97.022681
 20
441.044368
 30
0.0
 40
0.2999999999999545
100
AcDbArc
 50
0.0
 51
102.528808
  0
LINE
  5
59E
330
1F
100
AcDbEntity
  8
LC-002-100-D00-0
 62
     7
370
    50
100
AcDbLine
 10
-97.08776
 20
441.337223
 30
0.0
 11
-100.094546
 21
440.66905
 31
0.0
  0
LINE
  5
59F
330
1F
100
AcDbEntity
  8
LC-002-100-D00-0
 62
     7
370
    50
100
AcDbLine
 10
-153.722681
 20
441.044367
 30
0.0
 11
-153.722681
 21
440.418353
 31
0.0
  0
LINE
  5
5A0
330
1F
100
AcDbEntity
  8
LC-002-100-D00-0
 62
     7
370
    50
100
AcDbLine
 10
-156.722682
 20
440.418353
 30
0.0
 11
-156.722682
 21
444.418353
 31
0.0
  0
ARC
  5
5A1
330
1F
100
AcDbEntity
  8
LC-002-100-D00-0
 62
     7
370
    50
100
AcDbCircle
 10
-154.102881
 20
443.418353
 30
0.0
 40
0.9999999999999849
100
AcDbArc
 50
48.366461
 51
90.0
  0
LINE
  5
5A2
330
1F
100
AcDbEntity
  8
LC-002-100-D00-0
 62
     7
370
    50
100
AcDbLine
 10
-150.086429
 20
441.186129
 30
0.0
 11
-153.438516
 21
444.165762
 31
0.0
  0
ARC
  5
5A3
330
1F
100
AcDbEntity
  8
LC-002-100-D00-0
 62
     7
370
    50
100
AcDbCircle
 10
-150.285738
 20
440.961906
 30
0.0
 40
0.3000000000001464
100
AcDbArc
 50
257.471192
 51
48.366461
  0
LINE
  5
5A4
330
1F
100
AcDbEntity
  8
LC-002-100-D00-0
 62
     7
370
    50
100
AcDbLine
 10
-153.357603
 20
441.337223
 30
0.0
 11
-150.350817
 21
440.66905
 31
0.0
  0
ARC
  5
5A5
330
1F
100
AcDbEntity
  8
LC-002-100-D00-0
 62
     7
370
    50
100
AcDbCircle
 10
-153.422681
 20
441.044368
 30
0.0
 40
0.3000000000001464
100
AcDbArc
 50
77.471192
 51
180.0
  0
LINE
  5
5A6
330
1F
100
AcDbEntity
  8
LC-002-100-D00-0
 62
     7
370
    50
100
AcDbLine
 10
-156.722682
 20
440.418353
 30
0.0
 11
-153.722681
 21
440.418353
 31
0.0
  0
LINE
  5
5A7
330
1F
100
AcDbEntity
  8
LC-002-100-D00-0
 62
     7
370
    50
100
AcDbLine
 10
-156.722682
 20
444.418353
 30
0.0
 11
-154.102881
 21
444.418353
 31
0.0
  0
LINE
  5
5A8
330
1F
100
AcDbEntity
  8
LC-002-100-D00-0
 62
     7
370
    50
100
AcDbLine
 10
-97.22268
 20
440.418353
 30
0.0
 11
-98.922681
 21
440.418353
 31
0.0
  0
LINE
  5
5A9
330
1F
100
AcDbEntity
  8
LC-002-100-D00-0
 62
     7
370
    50
100
AcDbLine
 10
-151.522681
 20
440.418353
 30
0.0
 11
-153.222682
 21
440.418353
 31
0.0
  0
LINE
  5
5AA
330
1F
100
AcDbEntity
  8
LC-002-100-D00-0
 62
     7
370
    50
100
AcDbLine
 10
-97.22268
 20
437.418353
 30
0.0
 11
-97.22268
 21
440.418353
 31
0.0
  0
LINE
  5
5AB
330
1F
100
AcDbEntity
  8
LC-002-100-D00-0
 62
     7
370
    50
100
AcDbLine
 10
-97.22268
 20
440.418353
 30
0.0
 11
-94.222682
 21
440.418353
 31
0.0
  0
LINE
  5
5AC
330
1F
100
AcDbEntity
  8
LC-002-100-D00-0
 62
     7
370
    50
100
AcDbLine
 10
-94.222682
 20
444.418353
 30
0.0
 11
-94.222682
 21
440.418353
 31
0.0
  0
LINE
  5
5AD
330
1F
100
AcDbEntity
  8
LC-002-100-D00-0
 62
     7
370
    50
100
AcDbLine
 10
-94.222682
 20
444.418353
 30
0.0
 11
-89.222683
 21
444.418353
 31
0.0
  0
ARC
  5
5AE
330
1F
100
AcDbEntity
  8
LC-002-100-D00-0
 62
     7
370
    50
100
AcDbCircle
 10
-89.222681
 20
445.418353
 30
0.0
 40
1.0
100
AcDbArc
 50
270.0
 51
0.0
  0
LINE
  5
5AF
330
1F
100
AcDbEntity
  8
LC-002-100-D00-0
 62
     7
370
    50
100
AcDbLine
 10
-88.222681
 20
469.918353
 30
0.0
 11
-88.222681
 21
445.418353
 31
0.0
  0
LINE
  5
5B0
330
1F
100
AcDbEntity
  8
LC-002-100-D00-0
 62
     7
370
    50
100
AcDbLine
 10
-85.222682
 20
469.918353
 30
0.0
 11
-88.222681
 21
469.918353
 31
0.0
  0
LINE
  5
5B1
330
1F
100
AcDbEntity
  8
LC-002-100-D00-0
 62
     7
370
    50
100
AcDbLine
 10
-85.222682
 20
469.918353
 30
0.0
 11
-85.222682
 21
439.918352
 31
0.0
  0
LINE
  5
5B2
330
1F
100
AcDbEntity
  8
LC-002-100-D00-0
 62
     7
370
    50
100
AcDbLine
 10
-85.222682
 20
439.918352
 30
0.0
 11
-88.222681
 21
439.918352
 31
0.0
  0
LINE
  5
5B3
330
1F
100
AcDbEntity
  8
LC-002-100-D00-0
 62
     7
370
    50
100
AcDbLine
 10
-88.222681
 20
439.918352
 30
0.0
 11
-88.222681
 21
441.418353
 31
0.0
  0
LINE
  5
5B4
330
1F
100
AcDbEntity
  8
LC-002-100-D00-0
 62
     7
370
    50
100
AcDbLine
 10
-88.222681
 20
441.418353
 30
0.0
 11
-91.222679
 21
441.418353
 31
0.0
  0
LINE
  5
5B5
330
1F
100
AcDbEntity
  8
LC-002-100-D00-0
 62
     7
370
    50
100
AcDbLine
 10
-91.222679
 20
437.418353
 30
0.0
 11
-91.222679
 21
441.418353
 31
0.0
  0
LINE
  5
5B6
330
1F
100
AcDbEntity
  8
LC-002-100-D00-0
 62
     7
370
    50
100
AcDbLine
 10
-91.222679
 20
437.418353
 30
0.0
 11
-97.22268
 21
437.418353
 31
0.0
  0
LINE
  5
5B7
330
1F
100
AcDbEntity
  8
LC-002-100-D00-0
 62
     7
370
    50
100
AcDbLine
 10
-162.222682
 20
441.418353
 30
0.0
 11
-162.222682
 21
439.918352
 31
0.0
  0
LINE
  5
5B8
330
1F
100
AcDbEntity
  8
LC-002-100-D00-0
 62
     7
370
    50
100
AcDbLine
 10
-162.222682
 20
439.918352
 30
0.0
 11
-165.22268
 21
439.918352
 31
0.0
  0
LINE
  5
5B9
330
1F
100
AcDbEntity
  8
LC-002-100-D00-0
 62
     7
370
    50
100
AcDbLine
 10
-165.22268
 20
439.918352
 30
0.0
 11
-165.22268
 21
469.918353
 31
0.0
  0
LINE
  5
5BA
330
1F
100
AcDbEntity
  8
LC-002-100-D00-0
 62
     7
370
    50
100
AcDbLine
 10
-162.222682
 20
469.918353
 30
0.0
 11
-165.22268
 21
469.918353
 31
0.0
  0
LINE
  5
5BB
330
1F
100
AcDbEntity
  8
LC-002-100-D00-0
 62
     7
370
    50
100
AcDbLine
 10
-162.222682
 20
445.418353
 30
0.0
 11
-162.222682
 21
469.918353
 31
0.0
  0
ARC
  5
5BC
330
1F
100
AcDbEntity
  8
LC-002-100-D00-0
 62
     7
370
    50
100
AcDbCircle
 10
-161.222681
 20
445.418353
 30
0.0
 40
1.0
100
AcDbArc
 50
180.0
 51
270.0
  0
LINE
  5
5BD
330
1F
100
AcDbEntity
  8
LC-002-100-D00-0
 62
     7
370
    50
100
AcDbLine
 10
-161.22268
 20
444.418353
 30
0.0
 11
-156.222681
 21
444.418353
 31
0.0
  0
LINE
  5
5BE
330
1F
100
AcDbEntity
  8
LC-002-100-D00-0
 62
     7
370
    50
100
AcDbLine
 10
-156.222681
 20
440.418353
 30
0.0
 11
-156.222681
 21
444.418353
 31
0.0
  0
LINE
  5
5BF
330
1F
100
AcDbEntity
  8
LC-002-100-D00-0
 62
     7
370
    50
100
AcDbLine
 10
-156.222681
 20
440.418353
 30
0.0
 11
-153.222682
 21
440.418353
 31
0.0
  0
LINE
  5
5C0
330
1F
100
AcDbEntity
  8
LC-002-100-D00-0
 62
     7
370
    50
100
AcDbLine
 10
-153.222682
 20
440.418353
 30
0.0
 11
-153.222682
 21
437.418353
 31
0.0
  0
LINE
  5
5C1
330
1F
100
AcDbEntity
  8
LC-002-100-D00-0
 62
     7
370
    50
100
AcDbLine
 10
-153.222682
 20
437.418353
 30
0.0
 11
-159.222683
 21
437.418353
 31
0.0
  0
LINE
  5
5C2
330
1F
100
AcDbEntity
  8
LC-002-100-D00-0
 62
     7
370
    50
100
AcDbLine
 10
-159.222683
 20
441.418353
 30
0.0
 11
-159.222683
 21
437.418353
 31
0.0
  0
LINE
  5
5C3
330
1F
100
AcDbEntity
  8
LC-002-100-D00-0
 62
     7
370
    50
100
AcDbLine
 10
-159.222683
 20
441.418353
 30
0.0
 11
-162.222682
 21
441.418353
 31
0.0
  0
LINE
  5
5C4
330
1F
100
AcDbEntity
  8
LC-002-100-D00-0
 62
     7
370
    50
100
AcDbLine
 10
-90.754597
 20
439.918352
 30
0.0
 11
-88.222681
 21
439.918352
 31
0.0
  0
LINE
  5
5C5
330
1F
100
AcDbEntity
  8
LC-002-100-D00-0
 62
     7
370
    50
100
AcDbLine
 10
-98.41417
 20
437.418353
 30
0.0
 11
-97.22268
 21
437.418353
 31
0.0
  0
LINE
  5
5C6
330
1F
100
AcDbEntity
  8
LC-002-100-D00-0
 62
     7
370
    50
100
AcDbLine
 10
-153.222682
 20
437.418353
 30
0.0
 11
-152.031193
 21
437.418353
 31
0.0
  0
LINE
  5
5C7
330
1F
100
AcDbEntity
  8
LC-002-100-D00-0
 62
     7
370
    50
100
AcDbLine
 10
-162.222682
 20
439.918352
 30
0.0
 11
-159.690766
 21
439.918352
 31
0.0
  0
LINE
  5
5C8
330
1F
100
AcDbEntity
  8
LC-002-100-D00-0
 62
     7
370
    50
100
AcDbLine
 10
-152.031193
 20
437.418353
 30
0.0
 11
-149.396151
 21
437.418353
 31
0.0
  0
LINE
  5
5C9
330
1F
100
AcDbEntity
  8
LC-002-100-D00-0
 62
     7
370
    50
100
AcDbLine
 10
-101.150682
 20
437.418353
 30
0.0
 11
-98.41417
 21
437.418353
 31
0.0
  0
INSERT
  5
5D7
330
1F
100
AcDbEntity
  8
LC-002-100-D00-0
 62
     7
370
    50
100
AcDbBlockReference
  2
POLY12
 10
0.0
 20
0.0
 30
0.0
  0
LINE
  5
5D8
330
1F
100
AcDbEntity
  8
LC-002-100-D00-0
 62
     7
370
    50
100
AcDbLine
 10
-159.690766
 20
439.918352
 30
0.0
 11
-159.222683
 21
439.918352
 31
0.0
  0
LINE
  5
5D9
330
1F
100
AcDbEntity
  8
LC-002-100-D00-0
 62
     7
370
    50
100
AcDbLine
 10
-91.222679
 20
439.918352
 30
0.0
 11
-90.754597
 21
439.918352
 31
0.0
  0
LINE
  5
5DA
330
1F
100
AcDbEntity
  8
LC-002-100-D00-0
 62
     7
370
    50
100
AcDbLine
 10
-231.22268
 20
406.474232
 30
0.0
 11
-156.105401
 21
406.474232
 31
0.0
  0
ARC
  5
5DB
330
1F
100
AcDbEntity
  8
LC-002-100-D00-0
 62
     7
370
    50
100
AcDbCircle
 10
-155.222681
 20
413.418353
 30
0.0
 40
7.00000000000002
100
AcDbArc
 50
262.755545
 51
270.0
  0
LINE
  5
5DC
330
1F
100
AcDbEntity
  8
LC-002-100-D00-0
 62
     7
370
    50
100
AcDbLine
 10
-155.222681
 20
406.418353
 30
0.0
 11
-134.371486
 21
406.418353
 31
0.0
  0
ARC
  5
5DD
330
1F
100
AcDbEntity
  8
LC-002-100-D00-0
 62
     7
370
    50
100
AcDbCircle
 10
-134.371486
 20
407.418353
 30
0.0
 40
1.0
100
AcDbArc
 50
270.0
 51
359.0
  0
LINE
  5
5DE
330
1F
100
AcDbEntity
  8
LC-002-100-D00-0
 62
     7
370
    50
100
AcDbLine
 10
-133.371638
 20
407.4009
 30
0.0
 11
-132.847681
 21
437.418353
 31
0.0
  0
LINE
  5
5DF
330
1F
100
AcDbEntity
  8
LC-002-100-D00-0
 62
     7
370
    50
100
AcDbLine
 10
-132.847681
 20
437.418353
 30
0.0
 11
-130.847682
 21
437.418353
 31
0.0
  0
LINE
  5
5E0
330
1F
100
AcDbEntity
  8
LC-002-100-D00-0
 62
     7
370
    50
100
AcDbLine
 10
-130.847682
 20
437.418353
 30
0.0
 11
-130.323725
 21
407.4009
 31
0.0
  0
ARC
  5
5E1
330
1F
100
AcDbEntity
  8
LC-002-100-D00-0
 62
     7
370
    50
100
AcDbCircle
 10
-129.323877
 20
407.418353
 30
0.0
 40
1.000000000000014
100
AcDbArc
 50
181.0
 51
270.0
  0
LINE
  5
5E2
330
1F
100
AcDbEntity
  8
LC-002-100-D00-0
 62
     7
370
    50
100
AcDbLine
 10
-129.323877
 20
406.418353
 30
0.0
 11
-95.222682
 21
406.418353
 31
0.0
  0
ARC
  5
5E3
330
1F
100
AcDbEntity
  8
LC-002-100-D00-0
 62
     7
370
    50
100
AcDbCircle
 10
-95.222681
 20
413.418353
 30
0.0
 40
7.0
100
AcDbArc
 50
270.0
 51
0.0
  0
LINE
  5
5E4
330
1F
100
AcDbEntity
  8
LC-002-100-D00-0
 62
     7
370
    50
100
AcDbLine
 10
-88.222681
 20
413.418353
 30
0.0
 11
-88.222681
 21
441.418353
 31
0.0
  0
LINE
  5
5E5
330
1F
100
AcDbEntity
  8
LC-002-100-D00-0
 62
     7
370
    50
100
AcDbLine
 10
-88.222681
 20
441.418353
 30
0.0
 11
-85.222682
 21
441.418353
 31
0.0
  0
LINE
  5
5E6
330
1F
100
AcDbEntity
  8
LC-002-100-D00-0
 62
     7
370
    50
100
AcDbLine
 10
-85.222682
 20
413.418353
 30
0.0
 11
-85.222682
 21
441.418353
 31
0.0
  0
ARC
  5
5E7
330
1F
100
AcDbEntity
  8
LC-002-100-D00-0
 62
     7
370
    50
100
AcDbCircle
 10
-95.222681
 20
413.418353
 30
0.0
 40
10.0
100
AcDbArc
 50
270.0
 51
0.0
  0
LINE
  5
5E8
330
1F
100
AcDbEntity
  8
LC-002-100-D00-0
 62
     7
370
    50
100
AcDbLine
 10
-155.222681
 20
403.418352
 30
0.0
 11
-95.222682
 21
403.418352
 31
0.0
  0
ARC
  5
5E9
330
1F
100
AcDbEntity
  8
LC-002-100-D00-0
 62
     7
370
    50
100
AcDbCircle
 10
-155.222681
 20
413.418353
 30
0.0
 40
10.0000000000001
100
AcDbArc
 50
264.316413
 51
270.0
  0
LINE
  5
5EA
330
1F
100
AcDbEntity
  8
LC-002-100-D00-0
 62
     7
370
    50
100
AcDbLine
 10
-228.222681
 20
403.467513
 30
0.0
 11
-156.213029
 21
403.467513
 31
0.0
  0
INSERT
  5
5F0
330
1F
100
AcDbEntity
  8
LC-002-100-D00-0
 62
     7
370
    50
100
AcDbBlockReference
  2
KLON32
 10
0.0
 20
0.0
 30
0.0
  0
LINE
  5
5F1
330
1F
100
AcDbEntity
  8
LC-002-100-D00-0
 62
     7
370
    50
100
AcDbLine
 10
-231.22268
 20
404.272997
 30
0.0
 11
-231.22268
 21
406.474232
 31
0.0
  0
LINE
  5
5F2
330
1F
100
AcDbEntity
  8
LC-002-100-D00-0
 62
     7
370
    50
100
AcDbLine
 10
-228.222681
 20
403.467513
 30
0.0
 11
-228.222681
 21
403.418352
 31
0.0
  0
LINE
  5
5F3
330
1F
100
AcDbEntity
  8
LC-002-100-D00-0
 62
     7
370
    50
100
AcDbLine
 10
-228.222681
 20
453.418353
 30
0.0
 11
-228.222681
 21
453.369192
 31
0.0
  0
LINE
  5
5F4
330
1F
100
AcDbEntity
  8
LC-002-100-D00-0
 62
     7
370
    50
100
AcDbLine
 10
-180.929756
 20
453.369192
 30
0.0
 11
-228.222681
 21
453.369192
 31
0.0
  0
LINE
  5
5F5
330
1F
100
AcDbEntity
  8
LC-002-100-D00-0
 62
     7
370
    50
100
AcDbLine
 10
-162.222682
 20
436.918353
 30
0.0
 11
-162.222682
 21
413.418353
 31
0.0
  0
INSERT
  5
609
330
1F
100
AcDbEntity
  8
LC-002-100-D00-0
 62
     7
370
    50
100
AcDbBlockReference
  2
POLY13
 10
0.0
 20
0.0
 30
0.0
  0
LINE
  5
60A
330
1F
100
AcDbEntity
  8
LC-002-100-D00-0
 62
     7
370
    50
100
AcDbLine
 10
-231.22268
 20
450.362473
 30
0.0
 11
-231.22268
 21
406.474232
 31
0.0
  0
LINE
  5
60B
330
1F
100
AcDbEntity
  8
LC-002-100-D00-0
 62
     7
370
    50
100
AcDbLine
 10
-180.922469
 20
450.362473
 30
0.0
 11
-231.22268
 21
450.362473
 31
0.0
  0
INSERT
  5
611
330
1F
100
AcDbEntity
  8
LC-002-100-D00-0
 62
     7
370
    50
100
AcDbBlockReference
  2
KLON33
 10
0.0
 20
0.0
 30
0.0
  0
LINE
  5
612
330
1F
100
AcDbEntity
  8
LC-002-100-D00-0
 62
     7
370
    50
100
AcDbLine
 10
-231.22268
 20
452.563708
 30
0.0
 11
-231.22268
 21
452.614504
 31
0.0
  0
LINE
  5
613
330
1F
100
AcDbEntity
  8
LC-002-100-D00-0
 62
     7
370
    50
100
AcDbLine
 10
-231.22268
 20
404.222201
 30
0.0
 11
-231.22268
 21
404.272997
 31
0.0
  0
LINE
  5
614
330
1F
100
AcDbEntity
  8
LC-002-100-D00-0
 62
     7
370
    50
100
AcDbLine
 10
-165.22268
 20
439.918352
 30
0.0
 11
-169.6964
 21
439.918352
 31
0.0
  0
LINE
  5
615
330
1F
100
AcDbEntity
  8
LC-002-100-D00-0
 62
     7
370
    50
100
AcDbLine
 10
-165.22268
 20
441.418353
 30
0.0
 11
-165.22268
 21
439.918352
 31
0.0
  0
LINE
  5
616
330
1F
100
AcDbEntity
  8
LC-002-100-D00-0
 62
     7
370
    50
100
AcDbLine
 10
-162.222682
 20
441.418353
 30
0.0
 11
-162.222682
 21
436.918353
 31
0.0
  0
LINE
  5
617
330
1F
100
AcDbEntity
  8
LC-002-100-D00-0
 62
     7
370
    50
100
AcDbLine
 10
-162.222682
 20
436.918353
 30
0.0
 11
-169.6964
 21
436.918353
 31
0.0
  0
ARC
  5
618
330
1F
100
AcDbEntity
  8
LC-002-100-D00-0
 62
     7
370
    50
100
AcDbCircle
 10
-169.696402
 20
442.918353
 30
0.0
 40
5.99999999999992
100
AcDbArc
 50
210.0
 51
270.0
  0
LINE
  5
619
330
1F
100
AcDbEntity
  8
LC-002-100-D00-0
 62
     7
370
    50
100
AcDbLine
 10
-174.892554
 20
439.918352
 30
0.0
 11
-180.922469
 21
450.362473
 31
0.0
  0
INSERT
  5
627
330
1F
100
AcDbEntity
  8
LC-002-100-D00-0
 62
     7
370
    50
100
AcDbBlockReference
  2
POLY14
 10
0.0
 20
0.0
 30
0.0
  0
LINE
  5
628
330
1F
100
AcDbEntity
  8
LC-002-100-D00-0
 62
     7
370
    50
100
AcDbLine
 10
-172.294477
 20
441.418353
 30
0.0
 11
-178.324392
 21
451.862472
 31
0.0
  0
ARC
  5
629
330
1F
100
AcDbEntity
  8
LC-002-100-D00-0
 62
     7
370
    50
100
AcDbCircle
 10
-169.696402
 20
442.918353
 30
0.0
 40
2.99999999999996
100
AcDbArc
 50
210.0
 51
270.0
  0
LINE
  5
62A
330
1F
100
AcDbEntity
  8
LC-002-100-D00-0
 62
     7
370
    50
100
AcDbLine
 10
-231.22268
 20
450.362473
 30
0.0
 11
-231.22268
 21
452.563708
 31
0.0
  0
LINE
  5
62B
330
1F
100
AcDbEntity
  8
LC-002-100-D00-0
 62
     7
370
    50
100
AcDbLine
 10
-165.22268
 20
441.418353
 30
0.0
 11
-162.222682
 21
441.418353
 31
0.0
  0
ARC
  5
62C
330
1F
100
AcDbEntity
  8
LC-002-100-D00-0
 62
     7
370
    50
100
AcDbCircle
 10
-180.954732
 20
450.418353
 30
0.0
 40
2.999999999999903
100
AcDbArc
 50
30.0
 51
90.0
  0
LINE
  5
62D
330
1F
100
AcDbEntity
  8
LC-002-100-D00-0
 62
     7
370
    50
100
AcDbLine
 10
-111.972681
 20
471.418352
 30
0.0
 11
-107.972682
 21
471.418352
 31
0.0
  0
ARC
  5
62E
330
1F
100
AcDbEntity
  8
LC-002-100-D00-0
 62
     7
370
    50
100
AcDbCircle
 10
-107.972681
 20
470.418353
 30
0.0
 40
1.000000000000114
100
AcDbArc
 50
0.0
 51
90.0
  0
LINE
  5
62F
330
1F
100
AcDbEntity
  8
LC-002-100-D00-0
 62
     7
370
    50
100
AcDbLine
 10
-106.972682
 20
464.418353
 30
0.0
 11
-111.972681
 21
464.418353
 31
0.0
  0
LINE
  5
630
330
1F
100
AcDbEntity
  8
LC-002-100-D00-0
 62
     7
370
    50
100
AcDbLine
 10
-106.972682
 20
470.418354
 30
0.0
 11
-106.972682
 21
464.418353
 31
0.0
  0
LINE
  5
631
330
1F
100
AcDbEntity
  8
LC-002-100-D00-0
 62
     7
370
    50
100
AcDbLine
 10
-138.472681
 20
471.418352
 30
0.0
 11
-111.972681
 21
471.418352
 31
0.0
  0
LINE
  5
632
330
1F
100
AcDbEntity
  8
LC-002-100-D00-0
 62
     7
370
    50
100
AcDbLine
 10
-111.972681
 20
464.418353
 30
0.0
 11
-138.472681
 21
464.418353
 31
0.0
  0
LINE
  5
633
330
1F
100
AcDbEntity
  8
LC-002-100-D00-0
 62
     7
370
    50
100
AcDbLine
 10
-142.472681
 20
471.418352
 30
0.0
 11
-138.472681
 21
471.418352
 31
0.0
  0
ARC
  5
634
330
1F
100
AcDbEntity
  8
LC-002-100-D00-0
 62
     7
370
    50
100
AcDbCircle
 10
-142.472681
 20
470.418353
 30
0.0
 40
1.0
100
AcDbArc
 50
90.0
 51
180.0
  0
LINE
  5
635
330
1F
100
AcDbEntity
  8
LC-002-100-D00-0
 62
     7
370
    50
100
AcDbLine
 10
-143.472681
 20
464.418353
 30
0.0
 11
-143.472681
 21
470.418354
 31
0.0
  0
LINE
  5
636
330
1F
100
AcDbEntity
  8
LC-002-100-D00-0
 62
     7
370
    50
100
AcDbLine
 10
-138.472681
 20
464.418353
 30
0.0
 11
-143.472681
 21
464.418353
 31
0.0
  0
LINE
  5
637
330
1F
100
AcDbEntity
  8
LC-002-100-D00-0
 62
     7
370
    50
100
AcDbLine
 10
-116.472681
 20
452.418353
 30
0.0
 11
-120.197764
 21
452.418353
 31
0.0
  0
INSERT
  5
659
330
1F
100
AcDbEntity
  8
LC-002-100-D00-0
 62
     7
370
    50
100
AcDbBlockReference
  2
POLY15
 10
0.0
 20
0.0
 30
0.0
  0
LINE
  5
65A
330
1F
100
AcDbEntity
  8
LC-002-100-D00-0
 62
     7
370
    50
100
AcDbLine
 10
-187.784961
 20
341.91835
 30
0.0
 11
-199.222682
 21
341.91835
 31
0.0
  0
LINE
  5
65B
330
1F
100
AcDbEntity
  8
LC-002-100-D00-0
 62
     7
370
    50
100
AcDbLine
 10
-180.222681
 20
341.91835
 30
0.0
 11
-187.784961
 21
341.91835
 31
0.0
  0
LINE
  5
65C
330
1F
100
AcDbEntity
  8
LC-002-100-D00-0
 62
     7
370
    50
100
AcDbLine
 10
-199.722683
 20
364.918352
 30
0.0
 11
-179.72268
 21
364.918352
 31
0.0
  0
LINE
  5
65D
330
1F
100
AcDbEntity
  8
LC-002-100-D00-0
 62
     7
370
    50
100
AcDbLine
 10
-199.722683
 20
361.418353
 30
0.0
 11
-179.72268
 21
361.418353
 31
0.0
  0
LINE
  5
65E
330
1F
100
AcDbEntity
  8
LC-002-100-D00-0
 62
     7
370
    50
100
AcDbLine
 10
-187.682977
 20
350.918354
 30
0.0
 11
-179.72268
 21
350.918354
 31
0.0
  0
LINE
  5
65F
330
1F
100
AcDbEntity
  8
LC-002-100-D00-0
 62
     7
370
    50
100
AcDbLine
 10
-199.722683
 20
350.918354
 30
0.0
 11
-187.682977
 21
350.918354
 31
0.0
  0
LINE
  5
660
330
1F
100
AcDbEntity
  8
LC-002-100-D00-0
 62
     7
370
    50
100
AcDbLine
 10
-187.886944
 20
349.918352
 30
0.0
 11
-198.722681
 21
349.918352
 31
0.0
  0
LINE
  5
661
330
1F
100
AcDbEntity
  8
LC-002-100-D00-0
 62
     7
370
    50
100
AcDbLine
 10
-180.722682
 20
349.918352
 30
0.0
 11
-187.886944
 21
349.918352
 31
0.0
  0
INSERT
  5
669
330
1F
100
AcDbEntity
  8
LC-002-100-D00-0
 62
     7
370
    25
100
AcDbBlockReference
  2
KLON34
 10
0.0
 20
0.0
 30
0.0
  0
INSERT
  5
676
330
1F
100
AcDbEntity
  8
LC-002-100-D00-0
 62
     7
370
    25
100
AcDbBlockReference
  2
KLON35
 10
0.0
 20
0.0
 30
0.0
  0
INSERT
  5
67C
330
1F
100
AcDbEntity
  8
LC-002-100-D00-0
 62
     7
370
    25
100
AcDbBlockReference
  2
KLON36
 10
0.0
 20
0.0
 30
0.0
  0
INSERT
  5
682
330
1F
100
AcDbEntity
  8
LC-002-100-D00-0
 62
     7
370
    25
100
AcDbBlockReference
  2
KLON37
 10
0.0
 20
0.0
 30
0.0
  0
LINE
  5
683
330
1F
100
AcDbEntity
  8
LC-002-100-D00-0
 62
     7
370
    25
100
AcDbLine
 10
-152.279666
 20
441.097683
 30
0.0
 11
-151.20073
 21
442.176618
 31
0.0
  0
INSERT
  5
68B
330
1F
100
AcDbEntity
  8
LC-002-100-D00-0
 62
     7
370
    25
100
AcDbBlockReference
  2
KLON38
 10
0.0
 20
0.0
 30
0.0
  0
INSERT
  5
691
330
1F
100
AcDbEntity
  8
LC-002-100-D00-0
 62
     7
370
    25
100
AcDbBlockReference
  2
KLON39
 10
0.0
 20
0.0
 30
0.0
  0
INSERT
  5
698
330
1F
100
AcDbEntity
  8
LC-002-100-D00-0
 62
     7
370
    25
100
AcDbBlockReference
  2
KLON40
 10
0.0
 20
0.0
 30
0.0
  0
INSERT
  5
6A0
330
1F
100
AcDbEntity
  8
LC-002-100-D00-0
 62
     7
370
    25
100
AcDbBlockReference
  2
KLON41
 10
0.0
 20
0.0
 30
0.0
  0
DIMENSION
  5
6A1
330
1F
100
AcDbEntity
  8
LC-002-100-D00-0
 62
     7
370
    25
100
AcDbDimension
  2
*D63
 10
-43.046994
 20
437.418353
 30
0.0
 11
-98.046994
 21
300.892005
 31
0.0
 70
   160
  1
24
 71
     5
 42
24.0
 53
90.0
  3
LC-DIM-L-0100-02-02
100
AcDbAlignedDimension
 13
-105.222681
 23
413.418353
 33
0.0
 14
-120.729824
 24
437.418353
 34
0.0
 50
90.0
100
AcDbRotatedDimension
  0
DIMENSION
  5
6AF
330
1F
100
AcDbEntity
  8
LC-002-100-D00-0
 62
     7
370
    25
100
AcDbDimension
  2
*D64
 10
-295.955769
 20
403.467513
 30
0.0
 11
-350.955769
 21
510.277005
 31
0.0
 70
   160
  1
DN50
 71
     5
 42
49.90168
 53
90.0
  3
LC-DIM-L-0100-02-02
100
AcDbAlignedDimension
 13
-228.222681
 23
453.369192
 33
0.0
 14
-228.222681
 24
403.467513
 34
0.0
 50
90.0
100
AcDbRotatedDimension
  0
DIMENSION
  5
6BE
330
1F
100
AcDbEntity
  8
LC-002-100-D00-0
 62
     7
370
    25
100
AcDbDimension
  2
*D65
 10
-405.105872
 20
341.918353
 30
0.0
 11
-460.105872
 21
427.117005
 31
0.0
 70
   160
  1
68-129,5
 71
     5
 42
129.5
 53
90.0
  3
LC-DIM-L-0100-01-02
100
AcDbAlignedDimension
 13
-202.722681
 23
471.418353
 33
0.0
 14
-199.222681
 24
341.918353
 34
0.0
 50
90.0
100
AcDbRotatedDimension
  0
LINE
  5
6CB
330
1F
100
AcDbEntity
  8
LC-002-100-D00-0
  6
DASHDOT
 62
     7
370
    25
100
AcDbLine
 10
-241.222681
 20
428.418353
 30
0.0
 11
-158.513936
 21
428.418353
 31
0.0
  0
LINE
  5
6CC
330
1F
100
AcDbEntity
  8
LC-002-100-D00-0
  6
DASHDOT
 62
     7
370
    25
100
AcDbLine
 10
-125.222681
 20
471.418352
 30
0.0
 11
-125.222681
 21
403.418352
 31
0.0
  0
LINE
  5
6CD
330
1F
100
AcDbEntity
  8
LC-002-100-D00-0
  6
DASHDOT
 62
     7
370
    25
100
AcDbLine
 10
-189.827797
 20
341.91835
 30
0.0
 11
-189.827797
 21
403.418352
 31
0.0
  0
DIMENSION
  5
6CF
330
1F
100
AcDbEntity
  8
LC-003-003-----0
 62
     7
370
    25
100
AcDbDimension
  2
*D66
 10
-125.222681
 20
208.822005
 30
0.0
 11
-200.116654
 21
263.822005
 31
0.0
 70
   160
 71
     5
 42
105.999999
  3
LC-DIM-L-0100-02-02
100
AcDbAlignedDimension
 13
-231.22268
 23
406.474232
 33
0.0
 14
-125.222681
 24
406.418353
 34
0.0
100
AcDbRotatedDimension
  0
DIMENSION
  5
6DE
330
1F
100
AcDbEntity
  8
LC-003-003-----0
 62
     7
370
    25
100
AcDbDimension
  2
*D67
 10
-85.222682
 20
101.902005
 30
0.0
 11
-165.508085
 21
156.902005
 31
0.0
 70
   160
 71
     5
 42
145.999998
  3
LC-DIM-L-0100-02-02
100
AcDbAlignedDimension
 13
-231.22268
 23
406.474232
 33
0.0
 14
-85.222682
 24
418.352105
 34
0.0
100
AcDbRotatedDimension
  0
LINE
  5
6EB
102
{ACAD_REACTORS
330
793
102
}
330
1F
100
AcDbEntity
  8
LC-002-100-D00-0
 62
     7
370
    50
100
AcDbLine
 10
528.344028
 20
413.418353
 30
0.0
 11
528.344028
 21
437.418353
 31
0.0
  0
LINE
  5
6EC
102
{ACAD_REACTORS
330
793
102
}
330
1F
100
AcDbEntity
  8
LC-002-100-D00-0
 62
     7
370
    50
100
AcDbLine
 10
429.458794
 20
437.418353
 30
0.0
 11
429.458794
 21
413.418353
 31
0.0
  0
ARC
  5
6ED
102
{ACAD_REACTORS
330
793
102
}
330
1F
100
AcDbEntity
  8
LC-002-100-D00-0
 62
     7
370
    50
100
AcDbCircle
 10
553.374801
 20
448.418353
 30
0.0
 40
4.000000000000114
100
AcDbArc
 50
270.0
 51
285.0
  0
LINE
  5
6EE
102
{ACAD_REACTORS
330
793
102
}
330
1F
100
AcDbEntity
  8
LC-002-100-D00-0
 62
     7
370
    50
100
AcDbLine
 10
553.374798
 20
444.418353
 30
0.0
 11
536.701412
 21
444.418353
 31
0.0
  0
ARC
  5
6EF
102
{ACAD_REACTORS
330
793
102
}
330
1F
100
AcDbEntity
  8
LC-002-100-D00-0
 62
     7
370
    50
100
AcDbCircle
 10
536.701411
 20
443.418353
 30
0.0
 40
1.0
100
AcDbArc
 50
90.0
 51
180.0
  0
LINE
  5
6F0
102
{ACAD_REACTORS
330
793
102
}
330
1F
100
AcDbEntity
  8
LC-002-100-D00-0
 62
     7
370
    50
100
AcDbLine
 10
535.70141
 20
443.418353
 30
0.0
 11
535.70141
 21
439.418352
 31
0.0
  0
LINE
  5
6F1
102
{ACAD_REACTORS
330
793
102
}
330
1F
100
AcDbEntity
  8
LC-002-100-D00-0
 62
     7
370
    50
100
AcDbLine
 10
535.70141
 20
439.418352
 30
0.0
 11
534.20141
 21
439.418352
 31
0.0
  0
LINE
  5
6F2
102
{ACAD_REACTORS
330
793
102
}
330
1F
100
AcDbEntity
  8
LC-002-100-D00-0
 62
     7
370
    50
100
AcDbLine
 10
534.20141
 20
443.418353
 30
0.0
 11
534.20141
 21
439.418352
 31
0.0
  0
ARC
  5
6F3
102
{ACAD_REACTORS
330
793
102
}
330
1F
100
AcDbEntity
  8
LC-002-100-D00-0
 62
     7
370
    50
100
AcDbCircle
 10
536.701411
 20
443.418353
 30
0.0
 40
2.5
100
AcDbArc
 50
90.0
 51
180.0
  0
LINE
  5
6F4
102
{ACAD_REACTORS
330
793
102
}
330
1F
100
AcDbEntity
  8
LC-002-100-D00-0
 62
     7
370
    50
100
AcDbLine
 10
553.374798
 20
445.918353
 30
0.0
 11
536.701412
 21
445.918353
 31
0.0
  0
ARC
  5
6F5
102
{ACAD_REACTORS
330
793
102
}
330
1F
100
AcDbEntity
  8
LC-002-100-D00-0
 62
     7
370
    50
100
AcDbCircle
 10
553.374801
 20
448.418353
 30
0.0
 40
2.500000000000227
100
AcDbArc
 50
270.0
 51
285.0
  0
ARC
  5
6F6
102
{ACAD_REACTORS
330
793
102
}
330
1F
100
AcDbEntity
  8
LC-002-100-D00-0
 62
     7
370
    50
100
AcDbCircle
 10
404.428021
 20
448.418353
 30
0.0
 40
2.500000000000062
100
AcDbArc
 50
255.0
 51
270.0
  0
LINE
  5
6F7
102
{ACAD_REACTORS
330
793
102
}
330
1F
100
AcDbEntity
  8
LC-002-100-D00-0
 62
     7
370
    50
100
AcDbLine
 10
409.824201
 20
445.918353
 30
0.0
 11
404.428021
 21
445.918353
 31
0.0
  0
LINE
  5
6F8
102
{ACAD_REACTORS
330
793
102
}
330
1F
100
AcDbEntity
  8
LC-002-100-D00-0
 62
     7
370
    50
100
AcDbLine
 10
421.101411
 20
445.918353
 30
0.0
 11
409.824201
 21
445.918353
 31
0.0
  0
ARC
  5
6F9
102
{ACAD_REACTORS
330
793
102
}
330
1F
100
AcDbEntity
  8
LC-002-100-D00-0
 62
     7
370
    50
100
AcDbCircle
 10
421.101411
 20
443.418353
 30
0.0
 40
2.5
100
AcDbArc
 50
0.0
 51
90.0
  0
LINE
  5
6FA
102
{ACAD_REACTORS
330
793
102
}
330
1F
100
AcDbEntity
  8
LC-002-100-D00-0
 62
     7
370
    50
100
AcDbLine
 10
423.601412
 20
439.418352
 30
0.0
 11
423.601412
 21
443.418353
 31
0.0
  0
LINE
  5
6FB
102
{ACAD_REACTORS
330
793
102
}
330
1F
100
AcDbEntity
  8
LC-002-100-D00-0
 62
     7
370
    50
100
AcDbLine
 10
423.601412
 20
439.418352
 30
0.0
 11
422.101413
 21
439.418352
 31
0.0
  0
LINE
  5
6FC
102
{ACAD_REACTORS
330
793
102
}
330
1F
100
AcDbEntity
  8
LC-002-100-D00-0
 62
     7
370
    50
100
AcDbLine
 10
422.101413
 20
439.418352
 30
0.0
 11
422.101413
 21
443.418353
 31
0.0
  0
ARC
  5
6FD
102
{ACAD_REACTORS
330
793
102
}
330
1F
100
AcDbEntity
  8
LC-002-100-D00-0
 62
     7
370
    50
100
AcDbCircle
 10
421.101411
 20
443.418353
 30
0.0
 40
1.0
100
AcDbArc
 50
0.0
 51
90.0
  0
LINE
  5
6FE
102
{ACAD_REACTORS
330
793
102
}
330
1F
100
AcDbEntity
  8
LC-002-100-D00-0
 62
     7
370
    50
100
AcDbLine
 10
421.101411
 20
444.418353
 30
0.0
 11
404.428021
 21
444.418353
 31
0.0
  0
ARC
  5
6FF
102
{ACAD_REACTORS
330
793
102
}
330
1F
100
AcDbEntity
  8
LC-002-100-D00-0
 62
     7
370
    50
100
AcDbCircle
 10
404.428021
 20
448.418353
 30
0.0
 40
4.000000000000122
100
AcDbArc
 50
255.0
 51
270.0
  0
LINE
  5
700
102
{ACAD_REACTORS
330
793
102
}
330
1F
100
AcDbEntity
  8
LC-002-100-D00-0
 62
     7
370
    50
100
AcDbLine
 10
426.401411
 20
439.418352
 30
0.0
 11
423.601412
 21
439.418352
 31
0.0
  0
LINE
  5
701
102
{ACAD_REACTORS
330
793
102
}
330
1F
100
AcDbEntity
  8
LC-002-100-D00-0
 62
     7
370
    50
100
AcDbLine
 10
534.20141
 20
439.418352
 30
0.0
 11
531.401411
 21
439.418352
 31
0.0
  0
LINE
  5
702
102
{ACAD_REACTORS
330
793
102
}
330
1F
100
AcDbEntity
  8
LC-002-100-D00-0
 62
     7
370
    50
100
AcDbLine
 10
529.401411
 20
445.918353
 30
0.0
 11
536.701412
 21
445.918353
 31
0.0
  0
LINE
  5
703
102
{ACAD_REACTORS
330
793
102
}
330
1F
100
AcDbEntity
  8
LC-002-100-D00-0
 62
     7
370
    50
100
AcDbLine
 10
428.401411
 20
445.918353
 30
0.0
 11
421.101411
 21
445.918353
 31
0.0
  0
LINE
  5
704
102
{ACAD_REACTORS
330
793
102
}
330
1F
100
AcDbEntity
  8
LC-002-100-D00-0
 62
     7
370
    50
100
AcDbLine
 10
527.901412
 20
448.418352
 30
0.0
 11
527.901412
 21
437.418353
 31
0.0
  0
LINE
  5
705
102
{ACAD_REACTORS
330
793
102
}
330
1F
100
AcDbEntity
  8
LC-002-100-D00-0
 62
     7
370
    50
100
AcDbLine
 10
429.901411
 20
437.418353
 30
0.0
 11
429.901411
 21
448.418352
 31
0.0
  0
LINE
  5
706
102
{ACAD_REACTORS
330
793
102
}
330
1F
100
AcDbEntity
  8
LC-002-100-D00-0
 62
     7
370
    50
100
AcDbLine
 10
533.401412
 20
438.918352
 30
0.0
 11
533.401412
 21
437.418353
 31
0.0
  0
LINE
  5
707
102
{ACAD_REACTORS
330
793
102
}
330
1F
100
AcDbEntity
  8
LC-002-100-D00-0
 62
     7
370
    50
100
AcDbLine
 10
424.401411
 20
437.418353
 30
0.0
 11
424.401411
 21
438.918352
 31
0.0
  0
LINE
  5
708
102
{ACAD_REACTORS
330
793
102
}
330
1F
100
AcDbEntity
  8
LC-002-100-D00-0
 62
     7
370
    50
100
AcDbLine
 10
424.401411
 20
437.418353
 30
0.0
 11
429.901411
 21
437.418353
 31
0.0
  0
LINE
  5
709
102
{ACAD_REACTORS
330
793
102
}
330
1F
100
AcDbEntity
  8
LC-002-100-D00-0
 62
     7
370
    50
100
AcDbLine
 10
424.401411
 20
438.918352
 30
0.0
 11
426.401411
 21
438.918352
 31
0.0
  0
LINE
  5
70A
102
{ACAD_REACTORS
330
793
102
}
330
1F
100
AcDbEntity
  8
LC-002-100-D00-0
 62
     7
370
    50
100
AcDbLine
 10
426.401411
 20
438.918352
 30
0.0
 11
426.401411
 21
442.418353
 31
0.0
  0
LINE
  5
70B
102
{ACAD_REACTORS
330
793
102
}
330
1F
100
AcDbEntity
  8
LC-002-100-D00-0
 62
     7
370
    50
100
AcDbLine
 10
424.401411
 20
442.418353
 30
0.0
 11
426.401411
 21
442.418353
 31
0.0
  0
LINE
  5
70C
102
{ACAD_REACTORS
330
793
102
}
330
1F
100
AcDbEntity
  8
LC-002-100-D00-0
 62
     7
370
    50
100
AcDbLine
 10
424.401411
 20
443.918352
 30
0.0
 11
424.401411
 21
442.418353
 31
0.0
  0
LINE
  5
70D
102
{ACAD_REACTORS
330
793
102
}
330
1F
100
AcDbEntity
  8
LC-002-100-D00-0
 62
     7
370
    50
100
AcDbLine
 10
424.401411
 20
443.918352
 30
0.0
 11
428.401411
 21
443.918352
 31
0.0
  0
LINE
  5
70E
102
{ACAD_REACTORS
330
793
102
}
330
1F
100
AcDbEntity
  8
LC-002-100-D00-0
 62
     7
370
    50
100
AcDbLine
 10
428.401411
 20
443.918352
 30
0.0
 11
428.401411
 21
448.418352
 31
0.0
  0
ARC
  5
70F
102
{ACAD_REACTORS
330
793
102
}
330
1F
100
AcDbEntity
  8
LC-002-100-D00-0
 62
     7
370
    50
100
AcDbCircle
 10
433.901411
 20
448.418353
 30
0.0
 40
5.499999999999886
100
AcDbArc
 50
90.0
 51
180.0
  0
LINE
  5
710
102
{ACAD_REACTORS
330
793
102
}
330
1F
100
AcDbEntity
  8
LC-002-100-D00-0
 62
     7
370
    50
100
AcDbLine
 10
523.901411
 20
453.918352
 30
0.0
 11
433.901411
 21
453.918352
 31
0.0
  0
ARC
  5
711
102
{ACAD_REACTORS
330
793
102
}
330
1F
100
AcDbEntity
  8
LC-002-100-D00-0
 62
     7
370
    50
100
AcDbCircle
 10
523.901411
 20
448.418353
 30
0.0
 40
5.5
100
AcDbArc
 50
0.0
 51
90.0
  0
LINE
  5
712
102
{ACAD_REACTORS
330
793
102
}
330
1F
100
AcDbEntity
  8
LC-002-100-D00-0
 62
     7
370
    50
100
AcDbLine
 10
529.401411
 20
448.418352
 30
0.0
 11
529.401411
 21
443.918352
 31
0.0
  0
LINE
  5
713
102
{ACAD_REACTORS
330
793
102
}
330
1F
100
AcDbEntity
  8
LC-002-100-D00-0
 62
     7
370
    50
100
AcDbLine
 10
529.401411
 20
443.918352
 30
0.0
 11
533.401412
 21
443.918352
 31
0.0
  0
LINE
  5
714
102
{ACAD_REACTORS
330
793
102
}
330
1F
100
AcDbEntity
  8
LC-002-100-D00-0
 62
     7
370
    50
100
AcDbLine
 10
533.401412
 20
442.418353
 30
0.0
 11
533.401412
 21
443.918352
 31
0.0
  0
LINE
  5
715
102
{ACAD_REACTORS
330
793
102
}
330
1F
100
AcDbEntity
  8
LC-002-100-D00-0
 62
     7
370
    50
100
AcDbLine
 10
531.401411
 20
442.418353
 30
0.0
 11
533.401412
 21
442.418353
 31
0.0
  0
LINE
  5
716
102
{ACAD_REACTORS
330
793
102
}
330
1F
100
AcDbEntity
  8
LC-002-100-D00-0
 62
     7
370
    50
100
AcDbLine
 10
531.401411
 20
442.418353
 30
0.0
 11
531.401411
 21
438.918352
 31
0.0
  0
LINE
  5
717
102
{ACAD_REACTORS
330
793
102
}
330
1F
100
AcDbEntity
  8
LC-002-100-D00-0
 62
     7
370
    50
100
AcDbLine
 10
531.401411
 20
438.918352
 30
0.0
 11
533.401412
 21
438.918352
 31
0.0
  0
LINE
  5
718
102
{ACAD_REACTORS
330
793
102
}
330
1F
100
AcDbEntity
  8
LC-002-100-D00-0
 62
     7
370
    50
100
AcDbLine
 10
527.901412
 20
437.418353
 30
0.0
 11
533.401412
 21
437.418353
 31
0.0
  0
ARC
  5
719
102
{ACAD_REACTORS
330
793
102
}
330
1F
100
AcDbEntity
  8
LC-002-100-D00-0
 62
     7
370
    50
100
AcDbCircle
 10
523.901411
 20
448.418353
 30
0.0
 40
4.000000000000227
100
AcDbArc
 50
0.0
 51
90.0
  0
LINE
  5
71A
102
{ACAD_REACTORS
330
793
102
}
330
1F
100
AcDbEntity
  8
LC-002-100-D00-0
 62
     7
370
    50
100
AcDbLine
 10
523.901411
 20
452.418353
 30
0.0
 11
433.901411
 21
452.418353
 31
0.0
  0
ARC
  5
71B
102
{ACAD_REACTORS
330
793
102
}
330
1F
100
AcDbEntity
  8
LC-002-100-D00-0
 62
     7
370
    50
100
AcDbCircle
 10
433.901411
 20
448.418353
 30
0.0
 40
4.0
100
AcDbArc
 50
90.0
 51
180.0
  0
LINE
  5
71C
102
{ACAD_REACTORS
330
793
102
}
330
1F
100
AcDbEntity
  8
LC-002-100-D00-0
 62
     7
370
    50
100
AcDbLine
 10
528.344028
 20
413.418353
 30
0.0
 11
527.344026
 21
413.418353
 31
0.0
  0
LINE
  5
71D
102
{ACAD_REACTORS
330
793
102
}
330
1F
100
AcDbEntity
  8
LC-002-100-D00-0
 62
     7
370
    50
100
AcDbLine
 10
430.458796
 20
413.418353
 30
0.0
 11
527.344026
 21
413.418353
 31
0.0
  0
LINE
  5
71E
102
{ACAD_REACTORS
330
793
102
}
330
1F
100
AcDbEntity
  8
LC-002-100-D00-0
 62
     7
370
    50
100
AcDbLine
 10
430.458796
 20
413.418353
 30
0.0
 11
429.458794
 21
413.418353
 31
0.0
  0
LINE
  5
71F
102
{ACAD_REACTORS
330
793
102
}
330
1F
100
AcDbEntity
  8
LC-002-100-D00-0
 62
     7
370
    50
100
AcDbLine
 10
537.90141
 20
440.418353
 30
0.0
 11
535.70141
 21
440.418353
 31
0.0
  0
LINE
  5
720
102
{ACAD_REACTORS
330
793
102
}
330
1F
100
AcDbEntity
  8
LC-002-100-D00-0
 62
     7
370
    50
100
AcDbLine
 10
537.90141
 20
441.044367
 30
0.0
 11
537.90141
 21
440.418353
 31
0.0
  0
LINE
  5
721
102
{ACAD_REACTORS
330
793
102
}
330
1F
100
AcDbEntity
  8
LC-002-100-D00-0
 62
     7
370
    50
100
AcDbLine
 10
413.901412
 20
440.418353
 30
0.0
 11
413.901412
 21
444.418353
 31
0.0
  0
LINE
  5
722
102
{ACAD_REACTORS
330
793
102
}
330
1F
100
AcDbEntity
  8
LC-002-100-D00-0
 62
     7
370
    50
100
AcDbLine
 10
419.521213
 20
444.418353
 30
0.0
 11
413.901412
 21
444.418353
 31
0.0
  0
ARC
  5
723
102
{ACAD_REACTORS
330
793
102
}
330
1F
100
AcDbEntity
  8
LC-002-100-D00-0
 62
     7
370
    50
100
AcDbCircle
 10
419.521212
 20
443.418353
 30
0.0
 40
0.9999999999999849
100
AcDbArc
 50
48.366461
 51
90.0
  0
LINE
  5
724
102
{ACAD_REACTORS
330
793
102
}
330
1F
100
AcDbEntity
  8
LC-002-100-D00-0
 62
     7
370
    50
100
AcDbLine
 10
423.537665
 20
441.186129
 30
0.0
 11
420.185574
 21
444.165762
 31
0.0
  0
ARC
  5
725
102
{ACAD_REACTORS
330
793
102
}
330
1F
100
AcDbEntity
  8
LC-002-100-D00-0
 62
     7
370
    50
100
AcDbCircle
 10
423.338354
 20
440.961906
 30
0.0
 40
0.3000000000001588
100
AcDbArc
 50
257.471192
 51
48.366461
  0
LINE
  5
726
102
{ACAD_REACTORS
330
793
102
}
330
1F
100
AcDbEntity
  8
LC-002-100-D00-0
 62
     7
370
    50
100
AcDbLine
 10
420.266491
 20
441.337223
 30
0.0
 11
423.273274
 21
440.66905
 31
0.0
  0
ARC
  5
727
102
{ACAD_REACTORS
330
793
102
}
330
1F
100
AcDbEntity
  8
LC-002-100-D00-0
 62
     7
370
    50
100
AcDbCircle
 10
420.201411
 20
441.044368
 30
0.0
 40
0.2999999999999368
100
AcDbArc
 50
77.471192
 51
180.0
  0
LINE
  5
728
102
{ACAD_REACTORS
330
793
102
}
330
1F
100
AcDbEntity
  8
LC-002-100-D00-0
 62
     7
370
    50
100
AcDbLine
 10
419.901413
 20
440.418353
 30
0.0
 11
419.901413
 21
441.044367
 31
0.0
  0
LINE
  5
729
102
{ACAD_REACTORS
330
793
102
}
330
1F
100
AcDbEntity
  8
LC-002-100-D00-0
 62
     7
370
    50
100
AcDbLine
 10
419.901413
 20
440.418353
 30
0.0
 11
413.901412
 21
440.418353
 31
0.0
  0
LINE
  5
72A
102
{ACAD_REACTORS
330
793
102
}
330
1F
100
AcDbEntity
  8
LC-002-100-D00-0
 62
     7
370
    50
100
AcDbLine
 10
543.901414
 20
444.418353
 30
0.0
 11
543.901414
 21
440.418353
 31
0.0
  0
LINE
  5
72B
102
{ACAD_REACTORS
330
793
102
}
330
1F
100
AcDbEntity
  8
LC-002-100-D00-0
 62
     7
370
    50
100
AcDbLine
 10
422.101413
 20
440.418353
 30
0.0
 11
419.901413
 21
440.418353
 31
0.0
  0
LINE
  5
72C
102
{ACAD_REACTORS
330
793
102
}
330
1F
100
AcDbEntity
  8
LC-002-100-D00-0
 62
     7
370
    50
100
AcDbLine
 10
534.529549
 20
440.66905
 30
0.0
 11
537.536331
 21
441.337223
 31
0.0
  0
ARC
  5
72D
102
{ACAD_REACTORS
330
793
102
}
330
1F
100
AcDbEntity
  8
LC-002-100-D00-0
 62
     7
370
    50
100
AcDbCircle
 10
534.464468
 20
440.961906
 30
0.0
 40
0.300000000000087
100
AcDbArc
 50
131.633539
 51
282.528808
  0
LINE
  5
72E
102
{ACAD_REACTORS
330
793
102
}
330
1F
100
AcDbEntity
  8
LC-002-100-D00-0
 62
     7
370
    50
100
AcDbLine
 10
537.617248
 20
444.165762
 30
0.0
 11
534.265158
 21
441.186129
 31
0.0
  0
ARC
  5
72F
102
{ACAD_REACTORS
330
793
102
}
330
1F
100
AcDbEntity
  8
LC-002-100-D00-0
 62
     7
370
    50
100
AcDbCircle
 10
538.28161
 20
443.418353
 30
0.0
 40
0.9999999999998863
100
AcDbArc
 50
90.0
 51
131.633539
  0
ARC
  5
730
102
{ACAD_REACTORS
330
793
102
}
330
1F
100
AcDbEntity
  8
LC-002-100-D00-0
 62
     7
370
    50
100
AcDbCircle
 10
537.601411
 20
441.044368
 30
0.0
 40
0.3000000000001819
100
AcDbArc
 50
0.0
 51
102.528808
  0
LINE
  5
731
102
{ACAD_REACTORS
330
793
102
}
330
1F
100
AcDbEntity
  8
LC-002-100-D00-0
 62
     7
370
    50
100
AcDbLine
 10
543.901414
 20
444.418353
 30
0.0
 11
538.281609
 21
444.418353
 31
0.0
  0
LINE
  5
732
102
{ACAD_REACTORS
330
793
102
}
330
1F
100
AcDbEntity
  8
LC-002-100-D00-0
 62
     7
370
    50
100
AcDbLine
 10
543.901414
 20
440.418353
 30
0.0
 11
537.90141
 21
440.418353
 31
0.0
  0
LINE
  5
733
102
{ACAD_REACTORS
330
793
102
}
330
1F
100
AcDbEntity
  8
LC-002-100-D00-0
 62
     7
370
    50
100
AcDbLine
 10
546.401412
 20
441.418353
 30
0.0
 11
546.401412
 21
437.418353
 31
0.0
  0
LINE
  5
734
102
{ACAD_REACTORS
330
793
102
}
330
1F
100
AcDbEntity
  8
LC-002-100-D00-0
 62
     7
370
    50
100
AcDbLine
 10
540.401411
 20
440.418353
 30
0.0
 11
540.401411
 21
437.418353
 31
0.0
  0
LINE
  5
735
102
{ACAD_REACTORS
330
793
102
}
330
1F
100
AcDbEntity
  8
LC-002-100-D00-0
 62
     7
370
    50
100
AcDbLine
 10
533.401412
 20
437.418353
 30
0.0
 11
540.401411
 21
437.418353
 31
0.0
  0
LINE
  5
736
102
{ACAD_REACTORS
330
793
102
}
330
1F
100
AcDbEntity
  8
LC-002-100-D00-0
 62
     7
370
    50
100
AcDbLine
 10
417.401411
 20
440.418353
 30
0.0
 11
414.401413
 21
440.418353
 31
0.0
  0
LINE
  5
737
102
{ACAD_REACTORS
330
793
102
}
330
1F
100
AcDbEntity
  8
LC-002-100-D00-0
 62
     7
370
    50
100
AcDbLine
 10
417.401411
 20
437.418353
 30
0.0
 11
417.401411
 21
440.418353
 31
0.0
  0
LINE
  5
738
102
{ACAD_REACTORS
330
793
102
}
330
1F
100
AcDbEntity
  8
LC-002-100-D00-0
 62
     7
370
    50
100
AcDbLine
 10
411.401414
 20
437.418353
 30
0.0
 11
411.401414
 21
441.418353
 31
0.0
  0
LINE
  5
739
102
{ACAD_REACTORS
330
793
102
}
330
1F
100
AcDbEntity
  8
LC-002-100-D00-0
 62
     7
370
    50
100
AcDbLine
 10
408.401408
 20
439.918352
 30
0.0
 11
408.401408
 21
441.418353
 31
0.0
  0
LINE
  5
73A
102
{ACAD_REACTORS
330
793
102
}
330
1F
100
AcDbEntity
  8
LC-002-100-D00-0
 62
     7
370
    50
100
AcDbLine
 10
405.401409
 20
439.918352
 30
0.0
 11
405.401409
 21
444.418353
 31
0.0
  0
LINE
  5
73B
102
{ACAD_REACTORS
330
793
102
}
330
1F
100
AcDbEntity
  8
LC-002-100-D00-0
 62
     7
370
    50
100
AcDbLine
 10
414.401413
 20
444.418353
 30
0.0
 11
405.401409
 21
444.418353
 31
0.0
  0
LINE
  5
73C
102
{ACAD_REACTORS
330
793
102
}
330
1F
100
AcDbEntity
  8
LC-002-100-D00-0
 62
     7
370
    50
100
AcDbLine
 10
414.401413
 20
444.418353
 30
0.0
 11
414.401413
 21
440.418353
 31
0.0
  0
LINE
  5
73D
102
{ACAD_REACTORS
330
793
102
}
330
1F
100
AcDbEntity
  8
LC-002-100-D00-0
 62
     7
370
    50
100
AcDbLine
 10
405.401409
 20
439.918352
 30
0.0
 11
408.401408
 21
439.918352
 31
0.0
  0
LINE
  5
73E
102
{ACAD_REACTORS
330
793
102
}
330
1F
100
AcDbEntity
  8
LC-002-100-D00-0
 62
     7
370
    50
100
AcDbLine
 10
411.401414
 20
437.418353
 30
0.0
 11
417.401411
 21
437.418353
 31
0.0
  0
LINE
  5
73F
102
{ACAD_REACTORS
330
793
102
}
330
1F
100
AcDbEntity
  8
LC-002-100-D00-0
 62
     7
370
    50
100
AcDbLine
 10
408.401408
 20
441.418353
 30
0.0
 11
411.401414
 21
441.418353
 31
0.0
  0
LINE
  5
740
102
{ACAD_REACTORS
330
793
102
}
330
1F
100
AcDbEntity
  8
LC-002-100-D00-0
 62
     7
370
    50
100
AcDbLine
 10
552.401409
 20
444.418353
 30
0.0
 11
543.401413
 21
444.418353
 31
0.0
  0
LINE
  5
741
102
{ACAD_REACTORS
330
793
102
}
330
1F
100
AcDbEntity
  8
LC-002-100-D00-0
 62
     7
370
    50
100
AcDbLine
 10
552.401409
 20
444.418353
 30
0.0
 11
552.401409
 21
439.918352
 31
0.0
  0
LINE
  5
742
102
{ACAD_REACTORS
330
793
102
}
330
1F
100
AcDbEntity
  8
LC-002-100-D00-0
 62
     7
370
    50
100
AcDbLine
 10
549.401411
 20
441.418353
 30
0.0
 11
549.401411
 21
439.918352
 31
0.0
  0
LINE
  5
743
102
{ACAD_REACTORS
330
793
102
}
330
1F
100
AcDbEntity
  8
LC-002-100-D00-0
 62
     7
370
    50
100
AcDbLine
 10
543.401413
 20
440.418353
 30
0.0
 11
540.401411
 21
440.418353
 31
0.0
  0
LINE
  5
744
102
{ACAD_REACTORS
330
793
102
}
330
1F
100
AcDbEntity
  8
LC-002-100-D00-0
 62
     7
370
    50
100
AcDbLine
 10
543.401413
 20
440.418353
 30
0.0
 11
543.401413
 21
444.418353
 31
0.0
  0
LINE
  5
745
102
{ACAD_REACTORS
330
793
102
}
330
1F
100
AcDbEntity
  8
LC-002-100-D00-0
 62
     7
370
    50
100
AcDbLine
 10
549.401411
 20
439.918352
 30
0.0
 11
552.401409
 21
439.918352
 31
0.0
  0
LINE
  5
746
102
{ACAD_REACTORS
330
793
102
}
330
1F
100
AcDbEntity
  8
LC-002-100-D00-0
 62
     7
370
    50
100
AcDbLine
 10
540.401411
 20
437.418353
 30
0.0
 11
546.401412
 21
437.418353
 31
0.0
  0
LINE
  5
747
102
{ACAD_REACTORS
330
793
102
}
330
1F
100
AcDbEntity
  8
LC-002-100-D00-0
 62
     7
370
    50
100
AcDbLine
 10
546.401412
 20
441.418353
 30
0.0
 11
549.401411
 21
441.418353
 31
0.0
  0
LINE
  5
748
102
{ACAD_REACTORS
330
793
102
}
330
1F
100
AcDbEntity
  8
LC-002-100-D00-0
 62
     7
370
    50
100
AcDbLine
 10
417.401411
 20
437.418353
 30
0.0
 11
424.401411
 21
437.418353
 31
0.0
  0
LINE
  5
749
102
{ACAD_REACTORS
330
793
102
}
330
1F
100
AcDbEntity
  8
LC-002-100-D00-0
 62
     7
370
    50
100
AcDbLine
 10
546.401412
 20
439.918352
 30
0.0
 11
549.401411
 21
439.918352
 31
0.0
  0
LINE
  5
74A
102
{ACAD_REACTORS
330
793
102
}
330
1F
100
AcDbEntity
  8
LC-002-100-D00-0
 62
     7
370
    50
100
AcDbLine
 10
408.401408
 20
439.918352
 30
0.0
 11
411.401414
 21
439.918352
 31
0.0
  0
ARC
  5
74B
102
{ACAD_REACTORS
330
793
102
}
330
1F
100
AcDbEntity
  8
LC-002-100-D00-0
 62
     7
370
    50
100
AcDbCircle
 10
542.401411
 20
413.418353
 30
0.0
 40
7.0
100
AcDbArc
 50
270.0
 51
0.0
  0
LINE
  5
74C
102
{ACAD_REACTORS
330
793
102
}
330
1F
100
AcDbEntity
  8
LC-002-100-D00-0
 62
     7
370
    50
100
AcDbLine
 10
549.401411
 20
441.418353
 30
0.0
 11
549.401411
 21
413.418353
 31
0.0
  0
LINE
  5
74D
102
{ACAD_REACTORS
330
793
102
}
330
1F
100
AcDbEntity
  8
LC-002-100-D00-0
 62
     7
370
    50
100
AcDbLine
 10
408.401408
 20
413.418353
 30
0.0
 11
408.401408
 21
441.418353
 31
0.0
  0
ARC
  5
74E
102
{ACAD_REACTORS
330
793
102
}
330
1F
100
AcDbEntity
  8
LC-002-100-D00-0
 62
     7
370
    50
100
AcDbCircle
 10
415.401411
 20
413.418353
 30
0.0
 40
7.0
100
AcDbArc
 50
180.0
 51
270.0
  0
LINE
  5
74F
102
{ACAD_REACTORS
330
793
102
}
330
1F
100
AcDbEntity
  8
LC-002-100-D00-0
 62
     7
370
    50
100
AcDbLine
 10
542.401411
 20
406.418353
 30
0.0
 11
415.401415
 21
406.418353
 31
0.0
  0
LINE
  5
750
102
{ACAD_REACTORS
330
793
102
}
330
1F
100
AcDbEntity
  8
LC-002-100-D00-0
 62
     7
370
    50
100
AcDbLine
 10
552.401409
 20
441.418353
 30
0.0
 11
552.401409
 21
413.418353
 31
0.0
  0
ARC
  5
751
102
{ACAD_REACTORS
330
793
102
}
330
1F
100
AcDbEntity
  8
LC-002-100-D00-0
 62
     7
370
    50
100
AcDbCircle
 10
542.401411
 20
413.418353
 30
0.0
 40
10.0
100
AcDbArc
 50
270.0
 51
0.0
  0
LINE
  5
752
102
{ACAD_REACTORS
330
793
102
}
330
1F
100
AcDbEntity
  8
LC-002-100-D00-0
 62
     7
370
    50
100
AcDbLine
 10
542.401411
 20
403.418352
 30
0.0
 11
415.401415
 21
403.418352
 31
0.0
  0
ARC
  5
753
102
{ACAD_REACTORS
330
793
102
}
330
1F
100
AcDbEntity
  8
LC-002-100-D00-0
 62
     7
370
    50
100
AcDbCircle
 10
415.401411
 20
413.418353
 30
0.0
 40
10.0
100
AcDbArc
 50
180.0
 51
270.0
  0
LINE
  5
754
102
{ACAD_REACTORS
330
793
102
}
330
1F
100
AcDbEntity
  8
LC-002-100-D00-0
 62
     7
370
    50
100
AcDbLine
 10
405.401409
 20
413.418353
 30
0.0
 11
405.401409
 21
441.418353
 31
0.0
  0
LINE
  5
755
102
{ACAD_REACTORS
330
793
102
}
330
1F
100
AcDbEntity
  8
LC-002-100-D00-0
 62
     7
370
    50
100
AcDbLine
 10
408.401408
 20
441.418353
 30
0.0
 11
405.401409
 21
441.418353
 31
0.0
  0
LINE
  5
756
102
{ACAD_REACTORS
330
793
102
}
330
1F
100
AcDbEntity
  8
LC-002-100-D00-0
 62
     7
370
    50
100
AcDbLine
 10
552.401409
 20
441.418353
 30
0.0
 11
549.401411
 21
441.418353
 31
0.0
  0
INSERT
  5
763
102
{ACAD_REACTORS
330
793
102
}
330
1F
100
AcDbEntity
  8
LC-002-100-D00-0
 62
     7
370
    25
100
AcDbBlockReference
  2
KLON42
 10
0.0
 20
0.0
 30
0.0
  0
LINE
  5
764
102
{ACAD_REACTORS
330
793
102
}
330
1F
100
AcDbEntity
  8
LC-002-100-D00-0
 62
     7
370
    25
100
AcDbLine
 10
536.557788
 20
441.11977
 30
0.0
 11
539.856371
 21
444.418353
 31
0.0
  0
INSERT
  5
770
102
{ACAD_REACTORS
330
793
102
}
330
1F
100
AcDbEntity
  8
LC-002-100-D00-0
 62
     7
370
    25
100
AcDbBlockReference
  2
KLON43
 10
0.0
 20
0.0
 30
0.0
  0
DIMENSION
  5
771
102
{ACAD_REACTORS
330
793
102
}
330
1F
100
AcDbEntity
  8
LC-002-100-D00-0
 62
     7
370
    25
100
AcDbDimension
  2
*D70
 10
552.401411
 20
305.347005
 30
0.0
 11
476.081545
 21
360.347005
 31
0.0
 70
   160
  1
147
 71
     5
 42
147.0
  3
LC-DIM-L-0100-02-02
100
AcDbAlignedDimension
 13
405.401411
 23
413.418353
 33
0.0
 14
552.401411
 24
413.418353
 34
0.0
100
AcDbRotatedDimension
  0
LINE
  5
77E
102
{ACAD_REACTORS
330
793
102
}
330
1F
100
AcDbEntity
  8
LC-002-100-D00-0
  6
DASHDOT
 62
     7
370
    25
100
AcDbLine
 10
480.468444
 20
471.418352
 30
0.0
 11
480.468444
 21
403.418352
 31
0.0
  0
DIMENSION
  5
77F
330
1F
100
AcDbEntity
  8
LC-002-100-D00-0
 62
     7
370
    25
100
AcDbDimension
  2
*D71
 10
1021.83206
 20
403.418353
 30
0.0
 11
966.83206
 21
499.882005
 31
0.0
 70
   160
  1
68
 71
     5
 42
68.0
 53
90.0
  3
LC-DIM-L-0100-02-02
100
AcDbAlignedDimension
 13
928.901411
 23
471.418353
 33
0.0
 14
692.401411
 24
403.418353
 34
0.0
 50
90.0
100
AcDbRotatedDimension
  0
LINE
  5
78D
330
1F
100
AcDbEntity
  8
LC-002-100-D00-0
 62
     7
370
    50
100
AcDbLine
 10
505.468457
 20
-75.675819
 30
0.0
 11
505.468457
 21
-50.175819
 31
0.0
  0
LINE
  5
78E
330
1F
100
AcDbEntity
  8
LC-002-100-D00-0
 62
     7
370
    50
100
AcDbLine
 10
455.468456
 20
-50.175819
 30
0.0
 11
455.468456
 21
-75.675819
 31
0.0
  0
LINE
  5
78F
330
1F
100
AcDbEntity
  8
LC-002-100-D00-0
 62
     7
370
    50
100
AcDbLine
 10
455.468456
 20
-75.675819
 30
0.0
 11
456.272305
 21
-78.675817
 31
0.0
  0
LINE
  5
790
330
1F
100
AcDbEntity
  8
LC-002-100-D00-0
 62
     7
370
    50
100
AcDbLine
 10
504.664608
 20
-78.675817
 30
0.0
 11
505.468457
 21
-75.675819
 31
0.0
  0
LINE
  5
791
330
1F
100
AcDbEntity
  8
LC-002-100-D00-0
 62
     7
370
    50
100
AcDbLine
 10
455.468456
 20
-75.675819
 30
0.0
 11
505.468457
 21
-75.675819
 31
0.0
  0
LINE
  5
792
330
1F
100
AcDbEntity
  8
LC-002-100-D00-0
 62
     7
370
    50
100
AcDbLine
 10
504.664608
 20
-78.675817
 30
0.0
 11
456.272305
 21
-78.675817
 31
0.0
  0
ENDSEC
  0
SECTION
  2
OBJECTS
  0
DICTIONARY
  5
C
330
0
100
AcDbDictionary
281
     1
  3
ACAD_GROUP
350
D
  3
ACAD_LAYOUT
350
1A
  3
ACAD_MLINESTYLE
350
17
  3
ACAD_PLOTSETTINGS
350
19
  3
ACAD_PLOTSTYLENAME
350
E
  0
DICTIONARY
  5
D
102
{ACAD_REACTORS
330
C
102
}
330
C
100
AcDbDictionary
281
     1
  3
LCGROUP1686
350
793
  0
DICTIONARY
  5
1A
102
{ACAD_REACTORS
330
C
102
}
330
C
100
AcDbDictionary
281
     1
  3
Layout1
350
1E
  3
Layout2
350
26
  3
Model
350
22
  0
DICTIONARY
  5
17
102
{ACAD_REACTORS
330
C
102
}
330
C
100
AcDbDictionary
281
     1
  3
Standard
350
18
  0
DICTIONARY
  5
19
102
{ACAD_REACTORS
330
C
102
}
330
C
100
AcDbDictionary
281
     1
  0
ACDBDICTIONARYWDFLT
  5
E
102
{ACAD_REACTORS
330
C
102
}
330
C
100
AcDbDictionary
281
     1
  3
Normal
350
F
100
AcDbDictionaryWithDefault
340
F
  0
GROUP
  5
793
102
{ACAD_REACTORS
330
D
102
}
330
D
100
AcDbGroup
300
Gehäuse
 70
     1
 71
     1
340
6EB
340
6EC
340
6ED
340
6EE
340
6EF
340
6F0
340
6F1
340
6F2
340
6F3
340
6F4
340
6F5
340
6F6
340
6F7
340
6F8
340
6F9
340
6FA
340
6FB
340
6FC
340
6FD
340
6FE
340
6FF
340
700
340
701
340
702
340
703
340
704
340
705
340
706
340
707
340
708
340
709
340
70A
340
70B
340
70C
340
70D
340
70E
340
70F
340
710
340
711
340
712
340
713
340
714
340
715
340
716
340
717
340
718
340
719
340
71A
340
71B
340
71C
340
71D
340
71E
340
71F
340
720
340
721
340
722
340
723
340
724
340
725
340
726
340
727
340
728
340
729
340
72A
340
72B
340
72C
340
72D
340
72E
340
72F
340
730
340
731
340
732
340
733
340
734
340
735
340
736
340
737
340
738
340
739
340
73A
340
73B
340
73C
340
73D
340
73E
340
73F
340
740
340
741
340
742
340
743
340
744
340
745
340
746
340
747
340
748
340
749
340
74A
340
74B
340
74C
340
74D
340
74E
340
74F
340
750
340
751
340
752
340
753
340
754
340
755
340
756
340
763
340
764
340
770
340
771
340
77E
  0
LAYOUT
  5
1E
102
{ACAD_REACTORS
330
1A
102
}
330
1A
100
AcDbPlotSettings
  1

  2

  4

  6

 40
0.0
 41
0.0
 42
0.0
 43
0.0
 44
0.0
 45
0.0
 46
0.0
 47
0.0
 48
0.0
 49
0.0
140
0.0
141
0.0
142
1.0
143
1.0
 70
   688
 72
     0
 73
     0
 74
     5
  7

 75
    16
147
1.0
148
0.0
149
0.0
100
AcDbLayout
  1
Layout1
 70
     1
 71
     1
 10
-840.138218
 20
-613.867995
 11
1259.861782
 21
871.132005
 12
0.0
 22
0.0
 32
0.0
 14
-840.138218
 24
-613.867995
 34
0.0
 15
1259.861782
 25
871.132005
 35
0.0
146
0.0
 13
0.0
 23
0.0
 33
0.0
 16
1.0
 26
0.0
 36
0.0
 17
0.0
 27
1.0
 37
0.0
 76
     0
330
1B
  0
LAYOUT
  5
26
102
{ACAD_REACTORS
330
1A
102
}
330
1A
100
AcDbPlotSettings
  1

  2

  4

  6

 40
0.0
 41
0.0
 42
0.0
 43
0.0
 44
0.0
 45
0.0
 46
0.0
 47
0.0
 48
0.0
 49
0.0
140
0.0
141
0.0
142
1.0
143
1.0
 70
   688
 72
     0
 73
     0
 74
     5
  7

 75
    16
147
1.0
148
0.0
149
0.0
100
AcDbLayout
  1
Layout2
 70
     1
 71
     2
 10
0.0
 20
0.0
 11
0.0
 21
0.0
 12
0.0
 22
0.0
 32
0.0
 14
0.0
 24
0.0
 34
0.0
 15
0.0
 25
0.0
 35
0.0
146
0.0
 13
0.0
 23
0.0
 33
0.0
 16
1.0
 26
0.0
 36
0.0
 17
0.0
 27
1.0
 37
0.0
 76
     0
330
23
  0
LAYOUT
  5
22
102
{ACAD_REACTORS
330
1A
102
}
330
1A
100
AcDbPlotSettings
  1

  2

  4

  6

 40
0.0
 41
0.0
 42
0.0
 43
0.0
 44
0.0
 45
0.0
 46
0.0
 47
0.0
 48
0.0
 49
0.0
140
0.0
141
0.0
142
1.0
143
1.0
 70
  1776
 72
     0
 73
     0
 74
     0
  7

 75
     0
147
1.0
148
0.0
149
0.0
100
AcDbLayout
  1
Model
 70
     1
 71
     0
 10
-840.138218
 20
-613.867995
 11
1259.861782
 21
871.132005
 12
0.0
 22
0.0
 32
0.0
 14
-840.138218
 24
-613.867995
 34
0.0
 15
1259.861782
 25
871.132005
 35
0.0
146
0.0
 13
0.0
 23
0.0
 33
0.0
 16
1.0
 26
0.0
 36
0.0
 17
0.0
 27
1.0
 37
0.0
 76
     0
330
1F
  0
MLINESTYLE
  5
18
102
{ACAD_REACTORS
330
17
102
}
330
17
100
AcDbMlineStyle
  2
Standard
 70
     0
  3

 62
   256
 51
90.0
 52
90.0
 71
     2
 49
0.5
 62
   256
  6
BYLAYER
 49
-0.5
 62
   256
  6
BYLAYER
  0
ACDBPLACEHOLDER
  5
F
102
{ACAD_REACTORS
330
E
102
}
330
E
  0
ENDSEC
  0
EOF
