  0
SECTION
  2
HEADER
  9
$ACADVER
  1
AC1015
  9
$ACADMAINTVER
 70
     6
  9
$DWGCODEPAGE
  3
ANSI_1252
  9
$INSBASE
 10
0.0
 20
0.0
 30
0.0
  9
$EXTMIN
 10
-859.788487
 20
-614.549374
 30
0.0
  9
$EXTMAX
 10
1240.211513
 20
870.450626
 30
0.0
  9
$LIMMIN
 10
-859.788487
 20
-614.549374
  9
$LIMMAX
 10
1240.211513
 20
870.450626
  9
$ORTHOMODE
 70
     0
  9
$REGENMODE
 70
     1
  9
$FILLMODE
 70
     1
  9
$QTEXTMODE
 70
     0
  9
$MIRRTEXT
 70
     1
  9
$LTSCALE
 40
5.0
  9
$ATTMODE
 70
     1
  9
$TEXTSIZE
 40
2.5
  9
$TRACEWID
 40
1.0
  9
$TEXTSTYLE
  7
Standard
  9
$CLAYER
  8
0
  9
$CELTYPE
  6
ByLayer
  9
$CECOLOR
 62
     7
  9
$CELTSCALE
 40
1.0
  9
$DISPSILH
 70
     0
  9
$DIMSCALE
 40
5.0
  9
$DIMASZ
 40
3.5
  9
$DIMEXO
 40
0.625
  9
$DIMDLI
 40
3.75
  9
$DIMRND
 40
0.0
  9
$DIMDLE
 40
0.0
  9
$DIMEXE
 40
1.25
  9
$DIMTP
 40
0.0
  9
$DIMTM
 40
0.0
  9
$DIMTXT
 40
3.5
  9
$DIMCEN
 40
2.5
  9
$DIMTSZ
 40
0.0
  9
$DIMTOL
 70
     0
  9
$DIMLIM
 70
     0
  9
$DIMTIH
 70
     0
  9
$DIMTOH
 70
     0
  9
$DIMSE1
 70
     0
  9
$DIMSE2
 70
     0
  9
$DIMTAD
 70
     1
  9
$DIMZIN
 70
     8
  9
$DIMBLK
  1

  9
$DIMASO
 70
     1
  9
$DIMSHO
 70
     1
  9
$DIMPOST
  1

  9
$DIMAPOST
  1

  9
$DIMALT
 70
     0
  9
$DIMALTD
 70
     3
  9
$DIMALTF
 40
0.03937
  9
$DIMLFAC
 40
1.0
  9
$DIMTOFL
 70
     1
  9
$DIMTVP
 40
0.0
  9
$DIMTIX
 70
     0
  9
$DIMSOXD
 70
     0
  9
$DIMSAH
 70
     0
  9
$DIMBLK1
  1

  9
$DIMBLK2
  1

  9
$DIMSTYLE
  2
ISO-25
  9
$DIMCLRD
 70
     0
  9
$DIMCLRE
 70
     0
  9
$DIMCLRT
 70
     0
  9
$DIMTFAC
 40
1.0
  9
$DIMGAP
 40
0.625
  9
$DIMJUST
 70
     0
  9
$DIMSD1
 70
     0
  9
$DIMSD2
 70
     0
  9
$DIMTOLJ
 70
     0
  9
$DIMTZIN
 70
     8
  9
$DIMALTZ
 70
     0
  9
$DIMALTTZ
 70
     0
  9
$DIMUPT
 70
     0
  9
$DIMDEC
 70
     2
  9
$DIMTDEC
 70
     2
  9
$DIMALTU
 70
     2
  9
$DIMALTTD
 70
     3
  9
$DIMTXSTY
  7
Standard
  9
$DIMAUNIT
 70
     0
  9
$DIMADEC
 70
     0
  9
$DIMALTRND
 40
0.0
  9
$DIMAZIN
 70
     0
  9
$DIMDSEP
 70
    44
  9
$DIMATFIT
 70
     3
  9
$DIMFRAC
 70
     0
  9
$DIMLDRBLK
  1

  9
$DIMLUNIT
 70
     2
  9
$DIMLWD
 70
    -2
  9
$DIMLWE
 70
    -2
  9
$DIMTMOVE
 70
     0
  9
$LUNITS
 70
     2
  9
$LUPREC
 70
     4
  9
$SKETCHINC
 40
1.0
  9
$FILLETRAD
 40
10.0
  9
$AUNITS
 70
     0
  9
$AUPREC
 70
     0
  9
$MENU
  1
.
  9
$ELEVATION
 40
0.0
  9
$PELEVATION
 40
0.0
  9
$THICKNESS
 40
0.0
  9
$LIMCHECK
 70
     0
  9
$CHAMFERA
 40
10.0
  9
$CHAMFERB
 40
10.0
  9
$CHAMFERC
 40
20.0
  9
$CHAMFERD
 40
0.0
  9
$SKPOLY
 70
     0
  9
$TDCREATE
 40
2455421.484475405
  9
$TDUCREATE
 40
2455421.401142072
  9
$TDUPDATE
 40
2455421.484475417
  9
$TDUUPDATE
 40
2455421.401142083
  9
$TDINDWG
 40
0.0000000116
  9
$TDUSRTIMER
 40
0.0000000116
  9
$USRTIMER
 70
     1
  9
$ANGBASE
 50
0.0
  9
$ANGDIR
 70
     0
  9
$PDMODE
 70
     0
  9
$PDSIZE
 40
0.0
  9
$PLINEWID
 40
0.0
  9
$SPLFRAME
 70
     0
  9
$SPLINETYPE
 70
     6
  9
$SPLINESEGS
 70
     8
  9
$HANDSEED
  5
7A4
  9
$SURFTAB1
 70
     6
  9
$SURFTAB2
 70
     6
  9
$SURFTYPE
 70
     6
  9
$SURFU
 70
     6
  9
$SURFV
 70
     6
  9
$UCSBASE
  2

  9
$UCSNAME
  2

  9
$UCSORG
 10
0.0
 20
0.0
 30
0.0
  9
$UCSXDIR
 10
1.0
 20
0.0
 30
0.0
  9
$UCSYDIR
 10
0.0
 20
1.0
 30
0.0
  9
$UCSORTHOREF
  2

  9
$UCSORTHOVIEW
 70
     0
  9
$UCSORGTOP
 10
0.0
 20
0.0
 30
0.0
  9
$UCSORGBOTTOM
 10
0.0
 20
0.0
 30
0.0
  9
$UCSORGLEFT
 10
0.0
 20
0.0
 30
0.0
  9
$UCSORGRIGHT
 10
0.0
 20
0.0
 30
0.0
  9
$UCSORGFRONT
 10
0.0
 20
0.0
 30
0.0
  9
$UCSORGBACK
 10
0.0
 20
0.0
 30
0.0
  9
$PUCSBASE
  2

  9
$PUCSNAME
  2

  9
$PUCSORG
 10
0.0
 20
0.0
 30
0.0
  9
$PUCSXDIR
 10
1.0
 20
0.0
 30
0.0
  9
$PUCSYDIR
 10
0.0
 20
1.0
 30
0.0
  9
$PUCSORTHOREF
  2

  9
$PUCSORTHOVIEW
 70
     0
  9
$PUCSORGTOP
 10
0.0
 20
0.0
 30
0.0
  9
$PUCSORGBOTTOM
 10
0.0
 20
0.0
 30
0.0
  9
$PUCSORGLEFT
 10
0.0
 20
0.0
 30
0.0
  9
$PUCSORGRIGHT
 10
0.0
 20
0.0
 30
0.0
  9
$PUCSORGFRONT
 10
0.0
 20
0.0
 30
0.0
  9
$PUCSORGBACK
 10
0.0
 20
0.0
 30
0.0
  9
$USERI1
 70
     0
  9
$USERI2
 70
     0
  9
$USERI3
 70
     0
  9
$USERI4
 70
     0
  9
$USERI5
 70
     0
  9
$USERR1
 40
0.0
  9
$USERR2
 40
0.0
  9
$USERR3
 40
0.0
  9
$USERR4
 40
0.0
  9
$USERR5
 40
0.0
  9
$WORLDVIEW
 70
     1
  9
$SHADEDGE
 70
     3
  9
$SHADEDIF
 70
    70
  9
$TILEMODE
 70
     1
  9
$MAXACTVP
 70
    64
  9
$PINSBASE
 10
0.0
 20
0.0
 30
0.0
  9
$PLIMCHECK
 70
     0
  9
$PEXTMIN
 10
-859.788487
 20
-614.549374
 30
0.0
  9
$PEXTMAX
 10
1240.211513
 20
870.450626
 30
0.0
  9
$PLIMMIN
 10
-859.788487
 20
-614.549374
  9
$PLIMMAX
 10
1240.211513
 20
870.450626
  9
$UNITMODE
 70
     0
  9
$VISRETAIN
 70
     1
  9
$PLINEGEN
 70
     0
  9
$PSLTSCALE
 70
     1
  9
$TREEDEPTH
 70
  3020
  9
$CMLSTYLE
  2
Standard
  9
$CMLJUST
 70
     0
  9
$CMLSCALE
 40
20.0
  9
$PROXYGRAPHICS
 70
     1
  9
$MEASUREMENT
 70
     1
  9
$CELWEIGHT
370
    -1
  9
$ENDCAPS
280
     0
  9
$JOINSTYLE
280
     0
  9
$LWDISPLAY
290
     0
  9
$INSUNITS
 70
     4
  9
$HYPERLINKBASE
  1

  9
$STYLESHEET
  1

  9
$XEDIT
290
     1
  9
$CEPSNTYPE
380
     0
  9
$PSTYLEMODE
290
     1
  9
$FINGERPRINTGUID
  2
{FAEB1C30-E019-11D5-929B-00C0DF256EC4}
  9
$VERSIONGUID
  2
{FAEB1C32-E019-11D5-929B-00C0DF256EC4}
  9
$EXTNAMES
290
     1
  9
$PSVPSCALE
 40
0.0
  9
$OLESTARTUP
290
     0
  0
ENDSEC
  0
SECTION
  2
CLASSES
  0
CLASS
  1
ACDBDICTIONARYWDFLT
  2
AcDbDictionaryWithDefault
  3
ObjectDBX Classes
 90
        0
280
     0
281
     0
  0
CLASS
  1
ACDBPLACEHOLDER
  2
AcDbPlaceHolder
  3
ObjectDBX Classes
 90
        0
280
     0
281
     0
  0
CLASS
  1
LAYOUT
  2
AcDbLayout
  3
ObjectDBX Classes
 90
        0
280
     0
281
     0
  0
ENDSEC
  0
SECTION
  2
TABLES
  0
TABLE
  2
VPORT
  5
8
330
0
100
AcDbSymbolTable
 70
     2
  0
VPORT
  5
29
330
8
100
AcDbSymbolTableRecord
100
AcDbViewportTableRecord
  2
*ACTIVE
 70
     0
 10
0.0
 20
0.0
 11
1.0
 21
1.0
 12
190.211513
 22
127.950626
 13
0.0
 23
0.0
 14
1.0
 24
1.0
 15
0.0
 25
0.0
 16
0.0
 26
0.0
 36
1.0
 17
0.0
 27
0.0
 37
0.0
 40
1485.0
 41
1.414141
 42
50.0
 43
0.0
 44
0.0
 50
0.0
 51
0.0
 71
    16
 72
   100
 73
     1
 74
     0
 75
     0
 76
     0
 77
     0
 78
     0
281
     0
 65
     0
110
0.0
120
0.0
130
0.0
111
1.0
121
0.0
131
0.0
112
0.0
122
1.0
132
0.0
 79
     0
146
0.0
  0
ENDTAB
  0
TABLE
  2
LTYPE
  5
5
330
0
100
AcDbSymbolTable
 70
     3
  0
LTYPE
  5
14
330
5
100
AcDbSymbolTableRecord
100
AcDbLinetypeTableRecord
  2
ByBlock
 70
     0
  3

 72
    65
 73
     0
 40
0.0
  0
LTYPE
  5
15
330
5
100
AcDbSymbolTableRecord
100
AcDbLinetypeTableRecord
  2
ByLayer
 70
     0
  3

 72
    65
 73
     0
 40
0.0
  0
LTYPE
  5
16
330
5
100
AcDbSymbolTableRecord
100
AcDbLinetypeTableRecord
  2
Continuous
 70
     0
  3
Solid line
 72
    65
 73
     0
 40
0.0
  0
LTYPE
  5
2A
330
5
100
AcDbSymbolTableRecord
100
AcDbLinetypeTableRecord
  2
DASHED
 70
     0
  3
__ __ __ __ __
 72
    65
 73
     2
 40
6.25
 49
5.0
 74
     4
 75
     0
340
0
 46
1.0
 50
0.0
 44
0.0
 45
0.0
 49
-1.25
 74
     4
 75
     0
340
0
 46
1.0
 50
0.0
 44
0.0
 45
0.0
  0
LTYPE
  5
E6
330
5
100
AcDbSymbolTableRecord
100
AcDbLinetypeTableRecord
  2
DASHDOT
 70
     0
  3
__ . __ . __ . __ . __
 72
    65
 73
     4
 40
7.5
 49
5.0
 74
     4
 75
     0
340
0
 46
1.0
 50
0.0
 44
0.0
 45
0.0
 49
-1.25
 74
     4
 75
     0
340
0
 46
1.0
 50
0.0
 44
0.0
 45
0.0
 49
0.0
 74
     4
 75
     0
340
0
 46
1.0
 50
0.0
 44
0.0
 45
0.0
 49
-1.25
 74
     4
 75
     0
340
0
 46
1.0
 50
0.0
 44
0.0
 45
0.0
  0
ENDTAB
  0
TABLE
  2
LAYER
  5
2
330
0
100
AcDbSymbolTable
 70
     7
  0
LAYER
  5
10
330
2
100
AcDbSymbolTableRecord
100
AcDbLayerTableRecord
  2
0
 70
     0
 62
     7
  6
Continuous
370
    -3
390
F
  0
LAYER
  5
2B
330
2
100
AcDbSymbolTableRecord
100
AcDbLayerTableRecord
  2
LC-INFO-1-5-mm-A3-0
 70
     1
 62
     7
  6
ByBlock
370
    -3
390
F
  0
LAYER
  5
2C
330
2
100
AcDbSymbolTableRecord
100
AcDbLayerTableRecord
  2
LC-CUT-HIDDEN
 70
     0
 62
     7
  6
DASHED
370
    -3
390
F
  0
LAYER
  5
2D
330
2
100
AcDbSymbolTableRecord
100
AcDbLayerTableRecord
  2
LC-VIEWPORT
 70
     0
 62
     7
  6
ByBlock
370
    -3
390
F
  0
LAYER
  5
2E
330
2
100
AcDbSymbolTableRecord
100
AcDbLayerTableRecord
  2
LC-3D-HIDDEN
 70
     0
 62
     9
  6
DASHED
370
    -3
390
F
  0
LAYER
  5
30
330
2
100
AcDbSymbolTableRecord
100
AcDbLayerTableRecord
  2
LC-001-100-D00-0
 70
     0
 62
     1
  6
ByBlock
370
    -3
390
F
  0
LAYER
  5
D7
330
2
100
AcDbSymbolTableRecord
100
AcDbLayerTableRecord
  2
Defpoints
 70
     0
 62
     7
  6
Continuous
290
     0
370
    -3
390
F
  0
ENDTAB
  0
TABLE
  2
STYLE
  5
3
330
0
100
AcDbSymbolTable
 70
     3
  0
STYLE
  5
11
330
3
100
AcDbSymbolTableRecord
100
AcDbTextStyleTableRecord
  2
Standard
 70
     0
 40
0.0
 41
1.0
 50
0.0
 71
     0
 42
2.5
  3
txt
  4

  0
STYLE
  5
2F
330
3
100
AcDbSymbolTableRecord
100
AcDbTextStyleTableRecord
  2
LCTX15-400-0-0-Arial
 70
     0
 40
0.0
 41
0.8
 50
0.0
 71
     0
 42
3.5
  3

  4

1001
ACAD
1000
Arial
1071
 16777218
  0
STYLE
  5
D4
330
3
100
AcDbSymbolTableRecord
100
AcDbTextStyleTableRecord
  2
LCTX15-400-0-0pDIN-Schrift
 70
     0
 40
2.5
 41
0.8
 50
15.0
 71
     0
 42
3.5
  3
STANDARD
  4

  0
ENDTAB
  0
TABLE
  2
VIEW
  5
6
330
0
100
AcDbSymbolTable
 70
     0
  0
ENDTAB
  0
TABLE
  2
UCS
  5
7
330
0
100
AcDbSymbolTable
 70
     0
  0
ENDTAB
  0
TABLE
  2
APPID
  5
9
330
0
100
AcDbSymbolTable
 70
     1
  0
APPID
  5
12
330
9
100
AcDbSymbolTableRecord
100
AcDbRegAppTableRecord
  2
ACAD
 70
     0
  0
ENDTAB
  0
TABLE
  2
DIMSTYLE
  5
A
330
0
100
AcDbSymbolTable
 70
     2
100
AcDbDimStyleTable
  0
DIMSTYLE
105
27
330
A
100
AcDbSymbolTableRecord
100
AcDbDimStyleTableRecord
  2
ISO-25
 70
     0
 41
2.5
 42
0.625
 43
3.75
 44
1.25
 73
     0
 74
     0
 77
     1
 78
     8
140
2.5
141
2.5
143
0.03937
147
0.625
171
     3
172
     1
271
     2
272
     2
274
     3
278
    44
283
     0
284
     8
340
11
  0
DIMSTYLE
105
D5
102
{ACAD_REACTORS
330
D6
330
224
330
232
330
240
330
68B
330
699
330
6A6
330
6B3
330
6C1
330
6CE
330
6DC
330
6EB
102
}
330
A
100
AcDbSymbolTableRecord
100
AcDbDimStyleTableRecord
  2
LC-DIM-L-0100-02-02
 70
     0
 40
5.0
 41
10.0
 42
0.0
 43
7.5
 44
1.8
 73
     0
 74
     0
 77
     1
 78
     8
 79
     2
140
10.0
141
0.0
146
0.71
147
1.5
176
     2
177
     2
178
     2
179
     2
271
     2
278
    44
289
     1
340
D4
  0
ENDTAB
  0
TABLE
  2
BLOCK_RECORD
  5
1
330
0
100
AcDbSymbolTable
 70
    49
  0
BLOCK_RECORD
  5
1F
330
1
100
AcDbSymbolTableRecord
100
AcDbBlockTableRecord
  2
*Model_Space
340
22
  0
BLOCK_RECORD
  5
1B
330
1
100
AcDbSymbolTableRecord
100
AcDbBlockTableRecord
  2
*Paper_Space
340
1E
  0
BLOCK_RECORD
  5
23
330
1
100
AcDbSymbolTableRecord
100
AcDbBlockTableRecord
  2
*Paper_Space0
340
26
  0
BLOCK_RECORD
  5
D8
330
1
100
AcDbSymbolTableRecord
100
AcDbBlockTableRecord
  2
*D1
340
0
  0
BLOCK_RECORD
  5
158
330
1
100
AcDbSymbolTableRecord
100
AcDbBlockTableRecord
  2
KLON1
340
0
102
{BLKREFS
331
15D
102
}
  0
BLOCK_RECORD
  5
15F
330
1
100
AcDbSymbolTableRecord
100
AcDbBlockTableRecord
  2
KLON2
340
0
102
{BLKREFS
331
165
102
}
  0
BLOCK_RECORD
  5
168
330
1
100
AcDbSymbolTableRecord
100
AcDbBlockTableRecord
  2
KLON3
340
0
102
{BLKREFS
331
16D
102
}
  0
BLOCK_RECORD
  5
16E
330
1
100
AcDbSymbolTableRecord
100
AcDbBlockTableRecord
  2
KLON4
340
0
102
{BLKREFS
331
173
102
}
  0
BLOCK_RECORD
  5
176
330
1
100
AcDbSymbolTableRecord
100
AcDbBlockTableRecord
  2
KLON5
340
0
102
{BLKREFS
331
17C
102
}
  0
BLOCK_RECORD
  5
17E
330
1
100
AcDbSymbolTableRecord
100
AcDbBlockTableRecord
  2
KLON6
340
0
102
{BLKREFS
331
183
102
}
  0
BLOCK_RECORD
  5
191
330
1
100
AcDbSymbolTableRecord
100
AcDbBlockTableRecord
  2
KLON7
340
0
102
{BLKREFS
331
196
102
}
  0
BLOCK_RECORD
  5
197
330
1
100
AcDbSymbolTableRecord
100
AcDbBlockTableRecord
  2
KLON8
340
0
102
{BLKREFS
331
19C
102
}
  0
BLOCK_RECORD
  5
19E
330
1
100
AcDbSymbolTableRecord
100
AcDbBlockTableRecord
  2
KLON9
340
0
102
{BLKREFS
331
1A4
102
}
  0
BLOCK_RECORD
  5
1A5
330
1
100
AcDbSymbolTableRecord
100
AcDbBlockTableRecord
  2
KLON10
340
0
102
{BLKREFS
331
1AA
102
}
  0
BLOCK_RECORD
  5
1AB
330
1
100
AcDbSymbolTableRecord
100
AcDbBlockTableRecord
  2
KLON11
340
0
102
{BLKREFS
331
1B1
102
}
  0
BLOCK_RECORD
  5
1B2
330
1
100
AcDbSymbolTableRecord
100
AcDbBlockTableRecord
  2
KLON12
340
0
102
{BLKREFS
331
1B8
102
}
  0
BLOCK_RECORD
  5
1B9
330
1
100
AcDbSymbolTableRecord
100
AcDbBlockTableRecord
  2
KLON13
340
0
102
{BLKREFS
331
1BF
102
}
  0
BLOCK_RECORD
  5
1C0
330
1
100
AcDbSymbolTableRecord
100
AcDbBlockTableRecord
  2
KLON14
340
0
102
{BLKREFS
331
1C5
102
}
  0
BLOCK_RECORD
  5
225
330
1
100
AcDbSymbolTableRecord
100
AcDbBlockTableRecord
  2
*D16
340
0
  0
BLOCK_RECORD
  5
233
330
1
100
AcDbSymbolTableRecord
100
AcDbBlockTableRecord
  2
*D17
340
0
  0
BLOCK_RECORD
  5
241
330
1
100
AcDbSymbolTableRecord
100
AcDbBlockTableRecord
  2
*D18
340
0
  0
BLOCK_RECORD
  5
4BC
330
1
100
AcDbSymbolTableRecord
100
AcDbBlockTableRecord
  2
KLON15
340
0
102
{BLKREFS
331
4CC
102
}
  0
BLOCK_RECORD
  5
4CD
330
1
100
AcDbSymbolTableRecord
100
AcDbBlockTableRecord
  2
KLON16
340
0
102
{BLKREFS
331
4E0
102
}
  0
BLOCK_RECORD
  5
4E4
330
1
100
AcDbSymbolTableRecord
100
AcDbBlockTableRecord
  2
KLON17
340
0
102
{BLKREFS
331
4E9
102
}
  0
BLOCK_RECORD
  5
62A
330
1
100
AcDbSymbolTableRecord
100
AcDbBlockTableRecord
  2
KLON18
340
0
102
{BLKREFS
331
633
102
}
  0
BLOCK_RECORD
  5
634
330
1
100
AcDbSymbolTableRecord
100
AcDbBlockTableRecord
  2
KLON19
340
0
102
{BLKREFS
331
63D
102
}
  0
BLOCK_RECORD
  5
656
330
1
100
AcDbSymbolTableRecord
100
AcDbBlockTableRecord
  2
KLON20
340
0
102
{BLKREFS
331
65E
102
}
  0
BLOCK_RECORD
  5
65F
330
1
100
AcDbSymbolTableRecord
100
AcDbBlockTableRecord
  2
KLON21
340
0
102
{BLKREFS
331
66B
102
}
  0
BLOCK_RECORD
  5
66C
330
1
100
AcDbSymbolTableRecord
100
AcDbBlockTableRecord
  2
KLON22
340
0
102
{BLKREFS
331
678
102
}
  0
BLOCK_RECORD
  5
68C
330
1
100
AcDbSymbolTableRecord
100
AcDbBlockTableRecord
  2
*D27
340
0
  0
BLOCK_RECORD
  5
69A
330
1
100
AcDbSymbolTableRecord
100
AcDbBlockTableRecord
  2
*D28
340
0
  0
BLOCK_RECORD
  5
6A7
330
1
100
AcDbSymbolTableRecord
100
AcDbBlockTableRecord
  2
*D29
340
0
  0
BLOCK_RECORD
  5
6B4
330
1
100
AcDbSymbolTableRecord
100
AcDbBlockTableRecord
  2
*D30
340
0
  0
BLOCK_RECORD
  5
6C2
330
1
100
AcDbSymbolTableRecord
100
AcDbBlockTableRecord
  2
*D31
340
0
  0
BLOCK_RECORD
  5
6CF
330
1
100
AcDbSymbolTableRecord
100
AcDbBlockTableRecord
  2
*D32
340
0
  0
BLOCK_RECORD
  5
6DD
330
1
100
AcDbSymbolTableRecord
100
AcDbBlockTableRecord
  2
*D33
340
0
  0
BLOCK_RECORD
  5
6EC
330
1
100
AcDbSymbolTableRecord
100
AcDbBlockTableRecord
  2
*D34
340
0
  0
BLOCK_RECORD
  5
6FA
330
1
100
AcDbSymbolTableRecord
100
AcDbBlockTableRecord
  2
KLON23
340
0
102
{BLKREFS
331
714
102
}
  0
BLOCK_RECORD
  5
715
330
1
100
AcDbSymbolTableRecord
100
AcDbBlockTableRecord
  2
KLON24
340
0
102
{BLKREFS
331
730
102
}
  0
BLOCK_RECORD
  5
731
330
1
100
AcDbSymbolTableRecord
100
AcDbBlockTableRecord
  2
KLON25
340
0
102
{BLKREFS
331
737
102
}
  0
BLOCK_RECORD
  5
738
330
1
100
AcDbSymbolTableRecord
100
AcDbBlockTableRecord
  2
KLON26
340
0
102
{BLKREFS
331
73E
102
}
  0
BLOCK_RECORD
  5
73F
330
1
100
AcDbSymbolTableRecord
100
AcDbBlockTableRecord
  2
KLON27
340
0
102
{BLKREFS
331
745
102
}
  0
BLOCK_RECORD
  5
746
330
1
100
AcDbSymbolTableRecord
100
AcDbBlockTableRecord
  2
KLON28
340
0
102
{BLKREFS
331
74B
102
}
  0
BLOCK_RECORD
  5
74C
330
1
100
AcDbSymbolTableRecord
100
AcDbBlockTableRecord
  2
KLON29
340
0
102
{BLKREFS
331
757
102
}
  0
BLOCK_RECORD
  5
758
330
1
100
AcDbSymbolTableRecord
100
AcDbBlockTableRecord
  2
KLON30
340
0
102
{BLKREFS
331
764
102
}
  0
BLOCK_RECORD
  5
765
330
1
100
AcDbSymbolTableRecord
100
AcDbBlockTableRecord
  2
KLON31
340
0
102
{BLKREFS
331
76A
102
}
  0
BLOCK_RECORD
  5
76C
330
1
100
AcDbSymbolTableRecord
100
AcDbBlockTableRecord
  2
KLON32
340
0
102
{BLKREFS
331
771
102
}
  0
BLOCK_RECORD
  5
77A
330
1
100
AcDbSymbolTableRecord
100
AcDbBlockTableRecord
  2
KLON33
340
0
102
{BLKREFS
331
77F
102
}
  0
BLOCK_RECORD
  5
783
330
1
100
AcDbSymbolTableRecord
100
AcDbBlockTableRecord
  2
KLON34
340
0
102
{BLKREFS
331
788
102
}
  0
BLOCK_RECORD
  5
78B
330
1
100
AcDbSymbolTableRecord
100
AcDbBlockTableRecord
  2
KLON35
340
0
102
{BLKREFS
331
790
102
}
  0
BLOCK_RECORD
  5
792
330
1
100
AcDbSymbolTableRecord
100
AcDbBlockTableRecord
  2
KLON36
340
0
102
{BLKREFS
331
797
102
}
  0
ENDTAB
  0
ENDSEC
  0
SECTION
  2
BLOCKS
  0
BLOCK
  5
20
330
1F
100
AcDbEntity
  8
0
100
AcDbBlockBegin
  2
*Model_Space
 70
     0
 71
     0
 10
0.0
 20
0.0
 30
0.0
  3
*Model_Space
  1

  0
ENDBLK
  5
21
330
1F
100
AcDbEntity
  8
0
100
AcDbBlockEnd
  0
BLOCK
  5
1C
330
1B
100
AcDbEntity
 67
     1
  8
0
100
AcDbBlockBegin
  2
*Paper_Space
 70
     0
 71
     0
 10
0.0
 20
0.0
 30
0.0
  3
*Paper_Space
  1

  0
ENDBLK
  5
1D
330
1B
100
AcDbEntity
 67
     1
  8
0
100
AcDbBlockEnd
  0
BLOCK
  5
24
330
23
100
AcDbEntity
  8
0
100
AcDbBlockBegin
  2
*Paper_Space0
 70
     0
 71
     0
 10
0.0
 20
0.0
 30
0.0
  3
*Paper_Space0
  1

  0
ENDBLK
  5
25
330
23
100
AcDbEntity
  8
0
100
AcDbBlockEnd
  0
BLOCK
  5
E4
330
D8
100
AcDbEntity
  8
0
100
AcDbBlockBegin
  2
*D1
 70
     1
 71
     0
 10
0.0
 20
0.0
 30
0.0
  3
*D1
  1

  0
LINE
  5
D9
330
D8
100
AcDbEntity
  8
LC-001-100-D00-0
 62
     2
370
    -2
100
AcDbLine
 10
886.636642
 20
461.15014
 30
0.0
 11
886.636642
 21
379.709042
 31
0.0
  0
LINE
  5
DA
330
D8
100
AcDbEntity
  8
LC-001-100-D00-0
 62
     2
370
    -2
100
AcDbLine
 10
967.636642
 20
461.15014
 30
0.0
 11
967.636642
 21
379.709042
 31
0.0
  0
LINE
  5
DB
330
D8
100
AcDbEntity
  8
LC-001-100-D00-0
 62
     2
370
    -2
100
AcDbLine
 10
836.636642
 20
388.709042
 30
0.0
 11
786.636642
 21
388.709042
 31
0.0
  0
LINE
  5
DC
330
D8
100
AcDbEntity
  8
LC-001-100-D00-0
 62
     2
370
    -2
100
AcDbLine
 10
1017.636642
 20
388.709042
 30
0.0
 11
1067.636642
 21
388.709042
 31
0.0
  0
LINE
  5
DD
330
D8
100
AcDbEntity
  8
LC-001-100-D00-0
 62
     2
370
    -2
100
AcDbLine
 10
886.636642
 20
388.709042
 30
0.0
 11
967.636642
 21
388.709042
 31
0.0
  0
SOLID
  5
DE
330
D8
100
AcDbEntity
  8
LC-001-100-D00-0
 62
     2
100
AcDbTrace
 10
836.636642
 20
380.375708
 30
0.0
 11
836.636642
 21
397.042375
 31
0.0
 12
886.636642
 22
388.709042
 32
0.0
 13
886.636642
 23
388.709042
 33
0.0
  0
SOLID
  5
DF
330
D8
100
AcDbEntity
  8
LC-001-100-D00-0
 62
     2
100
AcDbTrace
 10
1017.636642
 20
397.042375
 30
0.0
 11
1017.636642
 21
380.375708
 31
0.0
 12
967.636642
 22
388.709042
 32
0.0
 13
967.636642
 23
388.709042
 33
0.0
  0
MTEXT
  5
E0
330
D8
100
AcDbEntity
  8
LC-001-100-D00-0
 62
     2
100
AcDbMText
 10
927.183401
 20
443.709042
 30
0.0
 40
50.0
 41
0.0
 71
     5
 72
     1
  1
\A1;81
  7
LCTX15-400-0-0pDIN-Schrift
 73
     1
 44
1.0
  0
POINT
  5
E1
330
D8
100
AcDbEntity
  8
Defpoints
 62
     0
100
AcDbPoint
 10
886.636642
 20
461.15014
 30
0.0
  0
POINT
  5
E2
330
D8
100
AcDbEntity
  8
Defpoints
 62
     0
100
AcDbPoint
 10
967.636642
 20
461.15014
 30
0.0
  0
POINT
  5
E3
330
D8
100
AcDbEntity
  8
Defpoints
 62
     0
100
AcDbPoint
 10
967.636642
 20
388.709042
 30
0.0
  0
ENDBLK
  5
E5
330
D8
100
AcDbEntity
  8
0
100
AcDbBlockEnd
  0
BLOCK
  5
159
330
158
100
AcDbEntity
  8
0
100
AcDbBlockBegin
  2
KLON1
 70
     0
 71
     0
 10
0.0
 20
0.0
 30
0.0
  3
KLON1
  1

  4
KLON1
  0
LINE
  5
15B
330
158
100
AcDbEntity
  8
LC-001-100-D00-0
 62
     7
370
    15
100
AcDbLine
 10
399.171125
 20
122.305626
 30
0.0
 11
399.178516
 21
122.267453
 31
0.0
  0
LINE
  5
15C
330
158
100
AcDbEntity
  8
LC-001-100-D00-0
 62
     7
370
    15
100
AcDbLine
 10
399.178516
 20
122.267453
 30
0.0
 11
399.197292
 21
122.234969
 31
0.0
  0
ENDBLK
  5
15A
330
158
100
AcDbEntity
  8
0
100
AcDbBlockEnd
  0
BLOCK
  5
160
330
15F
100
AcDbEntity
  8
0
100
AcDbBlockBegin
  2
KLON2
 70
     0
 71
     0
 10
0.0
 20
0.0
 30
0.0
  3
KLON2
  1

  4
KLON2
  0
LINE
  5
162
330
15F
100
AcDbEntity
  8
LC-001-100-D00-0
 62
     7
370
    15
100
AcDbLine
 10
399.197292
 20
133.650431
 30
0.0
 11
399.195086
 21
133.636145
 31
0.0
  0
LINE
  5
163
330
15F
100
AcDbEntity
  8
LC-001-100-D00-0
 62
     7
370
    15
100
AcDbLine
 10
399.195086
 20
133.636145
 30
0.0
 11
399.183762
 21
133.563837
 31
0.0
  0
LINE
  5
164
330
15F
100
AcDbEntity
  8
LC-001-100-D00-0
 62
     7
370
    15
100
AcDbLine
 10
399.183762
 20
133.563837
 30
0.0
 11
399.171125
 21
133.482957
 31
0.0
  0
ENDBLK
  5
161
330
15F
100
AcDbEntity
  8
0
100
AcDbBlockEnd
  0
BLOCK
  5
169
330
168
100
AcDbEntity
  8
0
100
AcDbBlockBegin
  2
KLON3
 70
     0
 71
     0
 10
0.0
 20
0.0
 30
0.0
  3
KLON3
  1

  4
KLON3
  0
LINE
  5
16B
330
168
100
AcDbEntity
  8
LC-001-100-D00-0
 62
     7
370
    15
100
AcDbLine
 10
399.171125
 20
169.290986
 30
0.0
 11
399.181675
 21
169.296896
 31
0.0
  0
LINE
  5
16C
330
168
100
AcDbEntity
  8
LC-001-100-D00-0
 62
     7
370
    15
100
AcDbLine
 10
399.181675
 20
169.296896
 30
0.0
 11
399.197292
 21
169.305625
 31
0.0
  0
ENDBLK
  5
16A
330
168
100
AcDbEntity
  8
0
100
AcDbBlockEnd
  0
BLOCK
  5
16F
330
16E
100
AcDbEntity
  8
0
100
AcDbBlockBegin
  2
KLON4
 70
     0
 71
     0
 10
0.0
 20
0.0
 30
0.0
  3
KLON4
  1

  4
KLON4
  0
LINE
  5
171
330
16E
100
AcDbEntity
  8
LC-001-100-D00-0
 62
     7
370
    15
100
AcDbLine
 10
-684.776533
 20
169.290986
 30
0.0
 11
-684.787083
 21
169.296896
 31
0.0
  0
LINE
  5
172
330
16E
100
AcDbEntity
  8
LC-001-100-D00-0
 62
     7
370
    15
100
AcDbLine
 10
-684.787083
 20
169.296896
 30
0.0
 11
-684.8027
 21
169.305625
 31
0.0
  0
ENDBLK
  5
170
330
16E
100
AcDbEntity
  8
0
100
AcDbBlockEnd
  0
BLOCK
  5
177
330
176
100
AcDbEntity
  8
0
100
AcDbBlockBegin
  2
KLON5
 70
     0
 71
     0
 10
0.0
 20
0.0
 30
0.0
  3
KLON5
  1

  4
KLON5
  0
LINE
  5
179
330
176
100
AcDbEntity
  8
LC-001-100-D00-0
 62
     7
370
    15
100
AcDbLine
 10
-684.8027
 20
133.650431
 30
0.0
 11
-684.800494
 21
133.636145
 31
0.0
  0
LINE
  5
17A
330
176
100
AcDbEntity
  8
LC-001-100-D00-0
 62
     7
370
    15
100
AcDbLine
 10
-684.800494
 20
133.636145
 30
0.0
 11
-684.789169
 21
133.563837
 31
0.0
  0
LINE
  5
17B
330
176
100
AcDbEntity
  8
LC-001-100-D00-0
 62
     7
370
    15
100
AcDbLine
 10
-684.789169
 20
133.563837
 30
0.0
 11
-684.776533
 21
133.482957
 31
0.0
  0
ENDBLK
  5
178
330
176
100
AcDbEntity
  8
0
100
AcDbBlockEnd
  0
BLOCK
  5
17F
330
17E
100
AcDbEntity
  8
0
100
AcDbBlockBegin
  2
KLON6
 70
     0
 71
     0
 10
0.0
 20
0.0
 30
0.0
  3
KLON6
  1

  4
KLON6
  0
LINE
  5
181
330
17E
100
AcDbEntity
  8
LC-001-100-D00-0
 62
     7
370
    15
100
AcDbLine
 10
-684.776533
 20
122.305626
 30
0.0
 11
-684.783924
 21
122.267453
 31
0.0
  0
LINE
  5
182
330
17E
100
AcDbEntity
  8
LC-001-100-D00-0
 62
     7
370
    15
100
AcDbLine
 10
-684.783924
 20
122.267453
 30
0.0
 11
-684.8027
 21
122.234969
 31
0.0
  0
ENDBLK
  5
180
330
17E
100
AcDbEntity
  8
0
100
AcDbBlockEnd
  0
BLOCK
  5
192
330
191
100
AcDbEntity
  8
0
100
AcDbBlockBegin
  2
KLON7
 70
     0
 71
     0
 10
0.0
 20
0.0
 30
0.0
  3
KLON7
  1

  4
KLON7
  0
LINE
  5
194
330
191
100
AcDbEntity
  8
LC-001-100-D00-0
 62
     7
370
    15
100
AcDbLine
 10
399.142575
 20
133.472217
 30
0.0
 11
399.158728
 21
133.478301
 31
0.0
  0
LINE
  5
195
330
191
100
AcDbEntity
  8
LC-001-100-D00-0
 62
     7
370
    15
100
AcDbLine
 10
399.158728
 20
133.478301
 30
0.0
 11
399.171125
 21
133.482957
 31
0.0
  0
ENDBLK
  5
193
330
191
100
AcDbEntity
  8
0
100
AcDbBlockEnd
  0
BLOCK
  5
198
330
197
100
AcDbEntity
  8
0
100
AcDbBlockBegin
  2
KLON8
 70
     0
 71
     0
 10
0.0
 20
0.0
 30
0.0
  3
KLON8
  1

  4
KLON8
  0
LINE
  5
19A
330
197
100
AcDbEntity
  8
LC-001-100-D00-0
 62
     7
370
    15
100
AcDbLine
 10
-684.747983
 20
133.472217
 30
0.0
 11
-684.764135
 21
133.478301
 31
0.0
  0
LINE
  5
19B
330
197
100
AcDbEntity
  8
LC-001-100-D00-0
 62
     7
370
    15
100
AcDbLine
 10
-684.764135
 20
133.478301
 30
0.0
 11
-684.776533
 21
133.482957
 31
0.0
  0
ENDBLK
  5
199
330
197
100
AcDbEntity
  8
0
100
AcDbBlockEnd
  0
BLOCK
  5
19F
330
19E
100
AcDbEntity
  8
0
100
AcDbBlockBegin
  2
KLON9
 70
     0
 71
     0
 10
0.0
 20
0.0
 30
0.0
  3
KLON9
  1

  4
KLON9
  0
LINE
  5
1A1
330
19E
100
AcDbEntity
  8
LC-001-100-D00-0
 62
     7
370
    15
100
AcDbLine
 10
262.184244
 20
139.946408
 30
0.0
 11
262.195628
 21
140.359883
 31
0.0
  0
LINE
  5
1A2
330
19E
100
AcDbEntity
  8
LC-001-100-D00-0
 62
     7
370
    15
100
AcDbLine
 10
262.195628
 20
140.359883
 30
0.0
 11
262.207311
 21
140.783141
 31
0.0
  0
LINE
  5
1A3
330
19E
100
AcDbEntity
  8
LC-001-100-D00-0
 62
     7
370
    15
100
AcDbLine
 10
262.207311
 20
140.783141
 30
0.0
 11
262.219113
 21
141.21132
 31
0.0
  0
ENDBLK
  5
1A0
330
19E
100
AcDbEntity
  8
0
100
AcDbBlockEnd
  0
BLOCK
  5
1A6
330
1A5
100
AcDbEntity
  8
0
100
AcDbBlockBegin
  2
KLON10
 70
     0
 71
     0
 10
0.0
 20
0.0
 30
0.0
  3
KLON10
  1

  4
KLON10
  0
LINE
  5
1A8
330
1A5
100
AcDbEntity
  8
LC-001-100-D00-0
 62
     7
370
    15
100
AcDbLine
 10
399.142575
 20
158.139035
 30
0.0
 11
399.158728
 21
158.13295
 31
0.0
  0
LINE
  5
1A9
330
1A5
100
AcDbEntity
  8
LC-001-100-D00-0
 62
     7
370
    15
100
AcDbLine
 10
399.158728
 20
158.13295
 30
0.0
 11
399.171125
 21
158.128294
 31
0.0
  0
ENDBLK
  5
1A7
330
1A5
100
AcDbEntity
  8
0
100
AcDbBlockEnd
  0
BLOCK
  5
1AC
330
1AB
100
AcDbEntity
  8
0
100
AcDbBlockBegin
  2
KLON11
 70
     0
 71
     0
 10
0.0
 20
0.0
 30
0.0
  3
KLON11
  1

  4
KLON11
  0
LINE
  5
1AE
330
1AB
100
AcDbEntity
  8
LC-001-100-D00-0
 62
     7
370
    15
100
AcDbLine
 10
262.219113
 20
150.399932
 30
0.0
 11
262.207311
 21
150.82811
 31
0.0
  0
LINE
  5
1AF
330
1AB
100
AcDbEntity
  8
LC-001-100-D00-0
 62
     7
370
    15
100
AcDbLine
 10
262.207311
 20
150.82811
 30
0.0
 11
262.195628
 21
151.251369
 31
0.0
  0
LINE
  5
1B0
330
1AB
100
AcDbEntity
  8
LC-001-100-D00-0
 62
     7
370
    15
100
AcDbLine
 10
262.195628
 20
151.251369
 30
0.0
 11
262.184244
 21
151.664843
 31
0.0
  0
ENDBLK
  5
1AD
330
1AB
100
AcDbEntity
  8
0
100
AcDbBlockEnd
  0
BLOCK
  5
1B3
330
1B2
100
AcDbEntity
  8
0
100
AcDbBlockBegin
  2
KLON12
 70
     0
 71
     0
 10
0.0
 20
0.0
 30
0.0
  3
KLON12
  1

  4
KLON12
  0
LINE
  5
1B5
330
1B2
100
AcDbEntity
  8
LC-001-100-D00-0
 62
     7
370
    15
100
AcDbLine
 10
-547.789652
 20
139.946408
 30
0.0
 11
-547.801036
 21
140.359883
 31
0.0
  0
LINE
  5
1B6
330
1B2
100
AcDbEntity
  8
LC-001-100-D00-0
 62
     7
370
    15
100
AcDbLine
 10
-547.801036
 20
140.359883
 30
0.0
 11
-547.812719
 21
140.783141
 31
0.0
  0
LINE
  5
1B7
330
1B2
100
AcDbEntity
  8
LC-001-100-D00-0
 62
     7
370
    15
100
AcDbLine
 10
-547.812719
 20
140.783141
 30
0.0
 11
-547.82452
 21
141.21132
 31
0.0
  0
ENDBLK
  5
1B4
330
1B2
100
AcDbEntity
  8
0
100
AcDbBlockEnd
  0
BLOCK
  5
1BA
330
1B9
100
AcDbEntity
  8
0
100
AcDbBlockBegin
  2
KLON13
 70
     0
 71
     0
 10
0.0
 20
0.0
 30
0.0
  3
KLON13
  1

  4
KLON13
  0
LINE
  5
1BC
330
1B9
100
AcDbEntity
  8
LC-001-100-D00-0
 62
     7
370
    15
100
AcDbLine
 10
-547.82452
 20
150.399932
 30
0.0
 11
-547.812719
 21
150.82811
 31
0.0
  0
LINE
  5
1BD
330
1B9
100
AcDbEntity
  8
LC-001-100-D00-0
 62
     7
370
    15
100
AcDbLine
 10
-547.812719
 20
150.82811
 30
0.0
 11
-547.801036
 21
151.251369
 31
0.0
  0
LINE
  5
1BE
330
1B9
100
AcDbEntity
  8
LC-001-100-D00-0
 62
     7
370
    15
100
AcDbLine
 10
-547.801036
 20
151.251369
 30
0.0
 11
-547.789652
 21
151.664843
 31
0.0
  0
ENDBLK
  5
1BB
330
1B9
100
AcDbEntity
  8
0
100
AcDbBlockEnd
  0
BLOCK
  5
1C1
330
1C0
100
AcDbEntity
  8
0
100
AcDbBlockBegin
  2
KLON14
 70
     0
 71
     0
 10
0.0
 20
0.0
 30
0.0
  3
KLON14
  1

  4
KLON14
  0
LINE
  5
1C3
330
1C0
100
AcDbEntity
  8
LC-001-100-D00-0
 62
     7
370
    15
100
AcDbLine
 10
-684.747983
 20
158.139035
 30
0.0
 11
-684.764135
 21
158.13295
 31
0.0
  0
LINE
  5
1C4
330
1C0
100
AcDbEntity
  8
LC-001-100-D00-0
 62
     7
370
    15
100
AcDbLine
 10
-684.764135
 20
158.13295
 30
0.0
 11
-684.776533
 21
158.128294
 31
0.0
  0
ENDBLK
  5
1C2
330
1C0
100
AcDbEntity
  8
0
100
AcDbBlockEnd
  0
BLOCK
  5
230
330
225
100
AcDbEntity
  8
0
100
AcDbBlockBegin
  2
*D16
 70
     1
 71
     0
 10
0.0
 20
0.0
 30
0.0
  3
*D16
  1

  0
LINE
  5
226
330
225
100
AcDbEntity
  8
LC-001-100-D00-0
 62
     2
370
    -2
100
AcDbLine
 10
452.197296
 20
191.805626
 30
0.0
 11
562.665982
 21
191.805626
 31
0.0
  0
LINE
  5
227
330
225
100
AcDbEntity
  8
LC-001-100-D00-0
 62
     2
370
    -2
100
AcDbLine
 10
452.197296
 20
190.305626
 30
0.0
 11
562.665982
 21
190.305626
 31
0.0
  0
LINE
  5
228
330
225
100
AcDbEntity
  8
LC-001-100-D00-0
 62
     2
370
    -2
100
AcDbLine
 10
553.665982
 20
241.805626
 30
0.0
 11
553.665982
 21
291.805626
 31
0.0
  0
LINE
  5
229
330
225
100
AcDbEntity
  8
LC-001-100-D00-0
 62
     2
370
    -2
100
AcDbLine
 10
553.665982
 20
140.305626
 30
0.0
 11
553.665982
 21
112.555943
 31
0.0
  0
SOLID
  5
22A
330
225
100
AcDbEntity
  8
LC-001-100-D00-0
 62
     2
100
AcDbTrace
 10
545.332649
 20
241.805626
 30
0.0
 11
561.999316
 21
241.805626
 31
0.0
 12
553.665982
 22
191.805626
 32
0.0
 13
553.665982
 23
191.805626
 33
0.0
  0
SOLID
  5
22B
330
225
100
AcDbEntity
  8
LC-001-100-D00-0
 62
     2
100
AcDbTrace
 10
561.999316
 20
140.305626
 30
0.0
 11
545.332649
 21
140.305626
 31
0.0
 12
553.665982
 22
190.305626
 32
0.0
 13
553.665982
 23
190.305626
 33
0.0
  0
MTEXT
  5
22C
330
225
100
AcDbEntity
  8
LC-001-100-D00-0
 62
     2
100
AcDbMText
 10
498.665982
 20
159.135626
 30
0.0
 40
50.0
 41
0.0
 71
     5
 72
     1
  1
\A1;1,5
  7
LCTX15-400-0-0pDIN-Schrift
 11
6.123031769111886E-17
 21
1.0
 31
0.0
 73
     1
 44
1.0
  0
POINT
  5
22D
330
225
100
AcDbEntity
  8
Defpoints
 62
     0
100
AcDbPoint
 10
452.197296
 20
191.805626
 30
0.0
  0
POINT
  5
22E
330
225
100
AcDbEntity
  8
Defpoints
 62
     0
100
AcDbPoint
 10
452.197296
 20
190.305626
 30
0.0
  0
POINT
  5
22F
330
225
100
AcDbEntity
  8
Defpoints
 62
     0
100
AcDbPoint
 10
553.665982
 20
190.305626
 30
0.0
  0
ENDBLK
  5
231
330
225
100
AcDbEntity
  8
0
100
AcDbBlockEnd
  0
BLOCK
  5
23E
330
233
100
AcDbEntity
  8
0
100
AcDbBlockBegin
  2
*D17
 70
     1
 71
     0
 10
0.0
 20
0.0
 30
0.0
  3
*D17
  1

  0
LINE
  5
234
330
233
100
AcDbEntity
  8
LC-001-100-D00-0
 62
     2
370
    -2
100
AcDbLine
 10
452.197296
 20
190.305626
 30
0.0
 11
651.313414
 21
190.305626
 31
0.0
  0
LINE
  5
235
330
233
100
AcDbEntity
  8
LC-001-100-D00-0
 62
     2
370
    -2
100
AcDbLine
 10
404.697296
 20
171.805626
 30
0.0
 11
651.313414
 21
171.805626
 31
0.0
  0
LINE
  5
236
330
233
100
AcDbEntity
  8
LC-001-100-D00-0
 62
     2
370
    -2
100
AcDbLine
 10
642.313414
 20
240.305626
 30
0.0
 11
642.313414
 21
290.305626
 31
0.0
  0
LINE
  5
237
330
233
100
AcDbEntity
  8
LC-001-100-D00-0
 62
     2
370
    -2
100
AcDbLine
 10
642.313414
 20
121.805626
 30
0.0
 11
642.313414
 21
41.533324
 31
0.0
  0
SOLID
  5
238
330
233
100
AcDbEntity
  8
LC-001-100-D00-0
 62
     2
100
AcDbTrace
 10
633.98008
 20
240.305626
 30
0.0
 11
650.646747
 21
240.305626
 31
0.0
 12
642.313414
 22
190.305626
 32
0.0
 13
642.313414
 23
190.305626
 33
0.0
  0
SOLID
  5
239
330
233
100
AcDbEntity
  8
LC-001-100-D00-0
 62
     2
100
AcDbTrace
 10
650.646747
 20
121.805626
 30
0.0
 11
633.98008
 21
121.805626
 31
0.0
 12
642.313414
 22
171.805626
 32
0.0
 13
642.313414
 23
171.805626
 33
0.0
  0
MTEXT
  5
23A
330
233
100
AcDbEntity
  8
LC-001-100-D00-0
 62
     2
100
AcDbMText
 10
587.313414
 20
107.160626
 30
0.0
 40
50.0
 41
0.0
 71
     5
 72
     1
  1
\A1;18,5
  7
LCTX15-400-0-0pDIN-Schrift
 11
6.123031769111886E-17
 21
1.0
 31
0.0
 73
     1
 44
1.0
  0
POINT
  5
23B
330
233
100
AcDbEntity
  8
Defpoints
 62
     0
100
AcDbPoint
 10
452.197296
 20
190.305626
 30
0.0
  0
POINT
  5
23C
330
233
100
AcDbEntity
  8
Defpoints
 62
     0
100
AcDbPoint
 10
404.697296
 20
171.805626
 30
0.0
  0
POINT
  5
23D
330
233
100
AcDbEntity
  8
Defpoints
 62
     0
100
AcDbPoint
 10
642.313414
 20
171.805626
 30
0.0
  0
ENDBLK
  5
23F
330
233
100
AcDbEntity
  8
0
100
AcDbBlockEnd
  0
BLOCK
  5
24B
330
241
100
AcDbEntity
  8
0
100
AcDbBlockBegin
  2
*D18
 70
     1
 71
     0
 10
0.0
 20
0.0
 30
0.0
  3
*D18
  1

  0
LINE
  5
242
330
241
100
AcDbEntity
  8
LC-001-100-D00-0
 62
     2
370
    -2
100
AcDbLine
 10
452.197296
 20
191.805626
 30
0.0
 11
739.960845
 21
191.805626
 31
0.0
  0
LINE
  5
243
330
241
100
AcDbEntity
  8
LC-001-100-D00-0
 62
     2
370
    -2
100
AcDbLine
 10
452.197296
 20
68.305626
 30
0.0
 11
739.960845
 21
68.305626
 31
0.0
  0
LINE
  5
244
330
241
100
AcDbEntity
  8
LC-001-100-D00-0
 62
     2
370
    -2
100
AcDbLine
 10
730.960845
 20
141.805626
 30
0.0
 11
730.960845
 21
118.305626
 31
0.0
  0
SOLID
  5
245
330
241
100
AcDbEntity
  8
LC-001-100-D00-0
 62
     2
100
AcDbTrace
 10
739.294179
 20
141.805626
 30
0.0
 11
722.627512
 21
141.805626
 31
0.0
 12
730.960845
 22
191.805626
 32
0.0
 13
730.960845
 23
191.805626
 33
0.0
  0
SOLID
  5
246
330
241
100
AcDbEntity
  8
LC-001-100-D00-0
 62
     2
100
AcDbTrace
 10
722.627512
 20
118.305626
 30
0.0
 11
739.294179
 21
118.305626
 31
0.0
 12
730.960845
 22
68.305626
 32
0.0
 13
730.960845
 23
68.305626
 33
0.0
  0
MTEXT
  5
247
330
241
100
AcDbEntity
  8
LC-001-100-D00-0
 62
     2
100
AcDbMText
 10
675.960845
 20
105.675626
 30
0.0
 40
50.0
 41
0.0
 71
     5
 72
     1
  1
\A1;123,5
  7
LCTX15-400-0-0pDIN-Schrift
 11
6.123031769111886E-17
 21
1.0
 31
0.0
 73
     1
 44
1.0
  0
POINT
  5
248
330
241
100
AcDbEntity
  8
Defpoints
 62
     0
100
AcDbPoint
 10
452.197296
 20
191.805626
 30
0.0
  0
POINT
  5
249
330
241
100
AcDbEntity
  8
Defpoints
 62
     0
100
AcDbPoint
 10
452.197296
 20
68.305626
 30
0.0
  0
POINT
  5
24A
330
241
100
AcDbEntity
  8
Defpoints
 62
     0
100
AcDbPoint
 10
730.960845
 20
68.305626
 30
0.0
  0
ENDBLK
  5
24C
330
241
100
AcDbEntity
  8
0
100
AcDbBlockEnd
  0
BLOCK
  5
4BD
330
4BC
100
AcDbEntity
  8
0
100
AcDbBlockBegin
  2
KLON15
 70
     0
 71
     0
 10
0.0
 20
0.0
 30
0.0
  3
KLON15
  1

  4
KLON15
  0
LINE
  5
4BF
330
4BC
100
AcDbEntity
  8
LC-001-100-D00-0
 62
     7
370
    15
100
AcDbLine
 10
-68.802679
 20
451.650141
 30
0.0
 11
-68.805406
 21
451.650171
 31
0.0
  0
LINE
  5
4C0
330
4BC
100
AcDbEntity
  8
LC-001-100-D00-0
 62
     7
370
    15
100
AcDbLine
 10
-68.805406
 20
451.650171
 30
0.0
 11
-68.809988
 21
451.650364
 31
0.0
  0
LINE
  5
4C1
330
4BC
100
AcDbEntity
  8
LC-001-100-D00-0
 62
     7
370
    15
100
AcDbLine
 10
-68.809988
 20
451.650364
 30
0.0
 11
-68.818862
 21
451.651199
 31
0.0
  0
LINE
  5
4C2
330
4BC
100
AcDbEntity
  8
LC-001-100-D00-0
 62
     7
370
    15
100
AcDbLine
 10
-68.818862
 20
451.651199
 30
0.0
 11
-68.821142
 21
451.651504
 31
0.0
  0
LINE
  5
4C3
330
4BC
100
AcDbEntity
  8
LC-001-100-D00-0
 62
     7
370
    15
100
AcDbLine
 10
-68.821142
 20
451.651504
 30
0.0
 11
-68.821715
 21
451.651586
 31
0.0
  0
LINE
  5
4C4
330
4BC
100
AcDbEntity
  8
LC-001-100-D00-0
 62
     7
370
    15
100
AcDbLine
 10
-68.821715
 20
451.651586
 30
0.0
 11
-68.821857
 21
451.651609
 31
0.0
  0
LINE
  5
4C5
330
4BC
100
AcDbEntity
  8
LC-001-100-D00-0
 62
     7
370
    15
100
AcDbLine
 10
-68.821857
 20
451.651609
 30
0.0
 11
-68.941036
 21
451.700879
 31
0.0
  0
LINE
  5
4C6
330
4BC
100
AcDbEntity
  8
LC-001-100-D00-0
 62
     7
370
    15
100
AcDbLine
 10
-68.941036
 20
451.700879
 30
0.0
 11
-69.781641
 21
452.513775
 31
0.0
  0
LINE
  5
4C7
330
4BC
100
AcDbEntity
  8
LC-001-100-D00-0
 62
     7
370
    15
100
AcDbLine
 10
-69.781641
 20
452.513775
 30
0.0
 11
-70.87032
 21
453.839106
 31
0.0
  0
LINE
  5
4C8
330
4BC
100
AcDbEntity
  8
LC-001-100-D00-0
 62
     7
370
    15
100
AcDbLine
 10
-70.87032
 20
453.839106
 30
0.0
 11
-72.296182
 21
455.74226
 31
0.0
  0
LINE
  5
4C9
330
4BC
100
AcDbEntity
  8
LC-001-100-D00-0
 62
     7
370
    15
100
AcDbLine
 10
-72.296182
 20
455.74226
 30
0.0
 11
-74.348526
 21
458.707919
 31
0.0
  0
LINE
  5
4CA
330
4BC
100
AcDbEntity
  8
LC-001-100-D00-0
 62
     7
370
    15
100
AcDbLine
 10
-74.348526
 20
458.707919
 30
0.0
 11
-76.719197
 21
462.349249
 31
0.0
  0
LINE
  5
4CB
330
4BC
100
AcDbEntity
  8
LC-001-100-D00-0
 62
     7
370
    15
100
AcDbLine
 10
-76.719197
 20
462.349249
 30
0.0
 11
-76.827387
 21
462.515635
 31
0.0
  0
ENDBLK
  5
4BE
330
4BC
100
AcDbEntity
  8
0
100
AcDbBlockEnd
  0
BLOCK
  5
4CE
330
4CD
100
AcDbEntity
  8
0
100
AcDbBlockBegin
  2
KLON16
 70
     0
 71
     0
 10
0.0
 20
0.0
 30
0.0
  3
KLON16
  1

  4
KLON16
  0
LINE
  5
4D0
330
4CD
100
AcDbEntity
  8
LC-001-100-D00-0
 62
     7
370
    15
100
AcDbLine
 10
-76.827387
 20
462.515635
 30
0.0
 11
-77.568995
 21
464.894181
 31
0.0
  0
LINE
  5
4D1
330
4CD
100
AcDbEntity
  8
LC-001-100-D00-0
 62
     7
370
    15
100
AcDbLine
 10
-77.568995
 20
464.894181
 30
0.0
 11
-78.203732
 21
467.474608
 31
0.0
  0
LINE
  5
4D2
330
4CD
100
AcDbEntity
  8
LC-001-100-D00-0
 62
     7
370
    15
100
AcDbLine
 10
-78.203732
 20
467.474608
 30
0.0
 11
-78.722941
 21
470.606791
 31
0.0
  0
LINE
  5
4D3
330
4CD
100
AcDbEntity
  8
LC-001-100-D00-0
 62
     7
370
    15
100
AcDbLine
 10
-78.722941
 20
470.606791
 30
0.0
 11
-78.95978
 21
473.943667
 31
0.0
  0
LINE
  5
4D4
330
4CD
100
AcDbEntity
  8
LC-001-100-D00-0
 62
     7
370
    15
100
AcDbLine
 10
-78.95978
 20
473.943667
 30
0.0
 11
-78.868861
 21
477.213437
 31
0.0
  0
LINE
  5
4D5
330
4CD
100
AcDbEntity
  8
LC-001-100-D00-0
 62
     7
370
    15
100
AcDbLine
 10
-78.868861
 20
477.213437
 30
0.0
 11
-78.457045
 21
480.504813
 31
0.0
  0
LINE
  5
4D6
330
4CD
100
AcDbEntity
  8
LC-001-100-D00-0
 62
     7
370
    15
100
AcDbLine
 10
-78.457045
 20
480.504813
 30
0.0
 11
-77.813151
 21
483.497603
 31
0.0
  0
LINE
  5
4D7
330
4CD
100
AcDbEntity
  8
LC-001-100-D00-0
 62
     7
370
    15
100
AcDbLine
 10
-77.813151
 20
483.497603
 30
0.0
 11
-76.974521
 21
486.347528
 31
0.0
  0
LINE
  5
4D8
330
4CD
100
AcDbEntity
  8
LC-001-100-D00-0
 62
     7
370
    15
100
AcDbLine
 10
-76.974521
 20
486.347528
 30
0.0
 11
-75.90686
 21
489.258556
 31
0.0
  0
LINE
  5
4D9
330
4CD
100
AcDbEntity
  8
LC-001-100-D00-0
 62
     7
370
    15
100
AcDbLine
 10
-75.90686
 20
489.258556
 30
0.0
 11
-74.782984
 21
491.868658
 31
0.0
  0
LINE
  5
4DA
330
4CD
100
AcDbEntity
  8
LC-001-100-D00-0
 62
     7
370
    15
100
AcDbLine
 10
-74.782984
 20
491.868658
 30
0.0
 11
-73.634567
 21
494.245371
 31
0.0
  0
LINE
  5
4DB
330
4CD
100
AcDbEntity
  8
LC-001-100-D00-0
 62
     7
370
    15
100
AcDbLine
 10
-73.634567
 20
494.245371
 30
0.0
 11
-72.66275
 21
496.099481
 31
0.0
  0
LINE
  5
4DC
330
4CD
100
AcDbEntity
  8
LC-001-100-D00-0
 62
     7
370
    15
100
AcDbLine
 10
-72.66275
 20
496.099481
 30
0.0
 11
-72.120512
 21
497.085752
 31
0.0
  0
LINE
  5
4DD
330
4CD
100
AcDbEntity
  8
LC-001-100-D00-0
 62
     7
370
    15
100
AcDbLine
 10
-72.120512
 20
497.085752
 30
0.0
 11
-71.833814
 21
497.595279
 31
0.0
  0
LINE
  5
4DE
330
4CD
100
AcDbEntity
  8
LC-001-100-D00-0
 62
     7
370
    15
100
AcDbLine
 10
-71.833814
 20
497.595279
 30
0.0
 11
-71.802953
 21
497.649657
 31
0.0
  0
LINE
  5
4DF
330
4CD
100
AcDbEntity
  8
LC-001-100-D00-0
 62
     7
370
    15
100
AcDbLine
 10
-71.802953
 20
497.649657
 30
0.0
 11
-71.802678
 21
497.650141
 31
0.0
  0
ENDBLK
  5
4CF
330
4CD
100
AcDbEntity
  8
0
100
AcDbBlockEnd
  0
BLOCK
  5
4E5
330
4E4
100
AcDbEntity
  8
0
100
AcDbBlockBegin
  2
KLON17
 70
     0
 71
     0
 10
0.0
 20
0.0
 30
0.0
  3
KLON17
  1

  4
KLON17
  0
LINE
  5
4E7
330
4E4
100
AcDbEntity
  8
LC-001-100-D00-0
 62
     7
370
    15
100
AcDbLine
 10
-77.485228
 20
461.150138
 30
0.0
 11
-77.478448
 21
461.16442
 31
0.0
  0
LINE
  5
4E8
330
4E4
100
AcDbEntity
  8
LC-001-100-D00-0
 62
     7
370
    15
100
AcDbLine
 10
-77.478448
 20
461.16442
 30
0.0
 11
-76.827387
 21
462.515635
 31
0.0
  0
ENDBLK
  5
4E6
330
4E4
100
AcDbEntity
  8
0
100
AcDbBlockEnd
  0
BLOCK
  5
62B
330
62A
100
AcDbEntity
  8
0
100
AcDbBlockBegin
  2
KLON18
 70
     0
 71
     0
 10
0.0
 20
0.0
 30
0.0
  3
KLON18
  1

  4
KLON18
  0
LINE
  5
62D
330
62A
100
AcDbEntity
  8
LC-001-100-D00-0
 62
     7
370
    15
100
AcDbLine
 10
390.104985
 20
509.818304
 30
0.0
 11
392.661309
 21
509.9116
 31
0.0
  0
LINE
  5
62E
330
62A
100
AcDbEntity
  8
LC-001-100-D00-0
 62
     7
370
    15
100
AcDbLine
 10
392.661309
 20
509.9116
 30
0.0
 11
394.807136
 21
509.989914
 31
0.0
  0
LINE
  5
62F
330
62A
100
AcDbEntity
  8
LC-001-100-D00-0
 62
     7
370
    15
100
AcDbLine
 10
394.807136
 20
509.989914
 30
0.0
 11
396.53722
 21
510.053057
 31
0.0
  0
LINE
  5
630
330
62A
100
AcDbEntity
  8
LC-001-100-D00-0
 62
     7
370
    15
100
AcDbLine
 10
396.53722
 20
510.053057
 30
0.0
 11
397.847568
 21
510.100879
 31
0.0
  0
LINE
  5
631
330
62A
100
AcDbEntity
  8
LC-001-100-D00-0
 62
     7
370
    15
100
AcDbLine
 10
397.847568
 20
510.100879
 30
0.0
 11
398.734962
 21
510.133266
 31
0.0
  0
LINE
  5
632
330
62A
100
AcDbEntity
  8
LC-001-100-D00-0
 62
     7
370
    15
100
AcDbLine
 10
398.734962
 20
510.133266
 30
0.0
 11
399.197316
 21
510.15014
 31
0.0
  0
ENDBLK
  5
62C
330
62A
100
AcDbEntity
  8
0
100
AcDbBlockEnd
  0
BLOCK
  5
635
330
634
100
AcDbEntity
  8
0
100
AcDbBlockBegin
  2
KLON19
 70
     0
 71
     0
 10
0.0
 20
0.0
 30
0.0
  3
KLON19
  1

  4
KLON19
  0
LINE
  5
637
330
634
100
AcDbEntity
  8
LC-001-100-D00-0
 62
     7
370
    15
100
AcDbLine
 10
-675.710345
 20
509.818304
 30
0.0
 11
-678.266669
 21
509.9116
 31
0.0
  0
LINE
  5
638
330
634
100
AcDbEntity
  8
LC-001-100-D00-0
 62
     7
370
    15
100
AcDbLine
 10
-678.266669
 20
509.9116
 30
0.0
 11
-680.412496
 21
509.989914
 31
0.0
  0
LINE
  5
639
330
634
100
AcDbEntity
  8
LC-001-100-D00-0
 62
     7
370
    15
100
AcDbLine
 10
-680.412496
 20
509.989914
 30
0.0
 11
-682.14258
 21
510.053057
 31
0.0
  0
LINE
  5
63A
330
634
100
AcDbEntity
  8
LC-001-100-D00-0
 62
     7
370
    15
100
AcDbLine
 10
-682.14258
 20
510.053057
 30
0.0
 11
-683.452929
 21
510.100879
 31
0.0
  0
LINE
  5
63B
330
634
100
AcDbEntity
  8
LC-001-100-D00-0
 62
     7
370
    15
100
AcDbLine
 10
-683.452929
 20
510.100879
 30
0.0
 11
-684.340323
 21
510.133266
 31
0.0
  0
LINE
  5
63C
330
634
100
AcDbEntity
  8
LC-001-100-D00-0
 62
     7
370
    15
100
AcDbLine
 10
-684.340323
 20
510.133266
 30
0.0
 11
-684.802676
 21
510.15014
 31
0.0
  0
ENDBLK
  5
636
330
634
100
AcDbEntity
  8
0
100
AcDbBlockEnd
  0
BLOCK
  5
657
330
656
100
AcDbEntity
  8
0
100
AcDbBlockBegin
  2
KLON20
 70
     0
 71
     0
 10
0.0
 20
0.0
 30
0.0
  3
KLON20
  1

  4
KLON20
  0
LINE
  5
659
330
656
100
AcDbEntity
  8
LC-001-100-D00-0
 62
     7
370
    15
100
AcDbLine
 10
-188.922296
 20
498.150138
 30
0.0
 11
-188.908765
 21
497.991433
 31
0.0
  0
LINE
  5
65A
330
656
100
AcDbEntity
  8
LC-001-100-D00-0
 62
     7
370
    15
100
AcDbLine
 10
-188.908765
 20
497.991433
 30
0.0
 11
-188.746842
 21
497.407014
 31
0.0
  0
LINE
  5
65B
330
656
100
AcDbEntity
  8
LC-001-100-D00-0
 62
     7
370
    15
100
AcDbLine
 10
-188.746842
 20
497.407014
 30
0.0
 11
-188.496975
 21
496.960709
 31
0.0
  0
LINE
  5
65C
330
656
100
AcDbEntity
  8
LC-001-100-D00-0
 62
     7
370
    15
100
AcDbLine
 10
-188.496975
 20
496.960709
 30
0.0
 11
-188.185675
 21
496.701958
 31
0.0
  0
LINE
  5
65D
330
656
100
AcDbEntity
  8
LC-001-100-D00-0
 62
     7
370
    15
100
AcDbLine
 10
-188.185675
 20
496.701958
 30
0.0
 11
-188.048182
 21
496.6582
 31
0.0
  0
ENDBLK
  5
658
330
656
100
AcDbEntity
  8
0
100
AcDbBlockEnd
  0
BLOCK
  5
660
330
65F
100
AcDbEntity
  8
0
100
AcDbBlockBegin
  2
KLON21
 70
     0
 71
     0
 10
0.0
 20
0.0
 30
0.0
  3
KLON21
  1

  4
KLON21
  0
LINE
  5
662
330
65F
100
AcDbEntity
  8
LC-001-100-D00-0
 62
     7
370
    15
100
AcDbLine
 10
399.169957
 20
511.650139
 30
0.0
 11
399.169242
 21
511.688121
 31
0.0
  0
LINE
  5
663
330
65F
100
AcDbEntity
  8
LC-001-100-D00-0
 62
     7
370
    15
100
AcDbLine
 10
399.169242
 20
511.688121
 30
0.0
 11
399.167215
 21
511.800908
 31
0.0
  0
LINE
  5
664
330
65F
100
AcDbEntity
  8
LC-001-100-D00-0
 62
     7
370
    15
100
AcDbLine
 10
399.167215
 20
511.800908
 30
0.0
 11
399.163818
 21
511.985077
 31
0.0
  0
LINE
  5
665
330
65F
100
AcDbEntity
  8
LC-001-100-D00-0
 62
     7
370
    15
100
AcDbLine
 10
399.163818
 20
511.985077
 30
0.0
 11
399.159288
 21
512.235029
 31
0.0
  0
LINE
  5
666
330
65F
100
AcDbEntity
  8
LC-001-100-D00-0
 62
     7
370
    15
100
AcDbLine
 10
399.159288
 20
512.235029
 30
0.0
 11
399.153685
 21
512.543172
 31
0.0
  0
LINE
  5
667
330
65F
100
AcDbEntity
  8
LC-001-100-D00-0
 62
     7
370
    15
100
AcDbLine
 10
399.153685
 20
512.543172
 30
0.0
 11
399.147129
 21
512.90014
 31
0.0
  0
LINE
  5
668
330
65F
100
AcDbEntity
  8
LC-001-100-D00-0
 62
     7
370
    15
100
AcDbLine
 10
399.147129
 20
512.90014
 30
0.0
 11
399.139976
 21
513.29509
 31
0.0
  0
LINE
  5
669
330
65F
100
AcDbEntity
  8
LC-001-100-D00-0
 62
     7
370
    15
100
AcDbLine
 10
399.139976
 20
513.29509
 30
0.0
 11
399.132287
 21
513.71602
 31
0.0
  0
LINE
  5
66A
330
65F
100
AcDbEntity
  8
LC-001-100-D00-0
 62
     7
370
    15
100
AcDbLine
 10
399.132287
 20
513.71602
 30
0.0
 11
399.12436
 21
514.150141
 31
0.0
  0
ENDBLK
  5
661
330
65F
100
AcDbEntity
  8
0
100
AcDbBlockEnd
  0
BLOCK
  5
66D
330
66C
100
AcDbEntity
  8
0
100
AcDbBlockBegin
  2
KLON22
 70
     0
 71
     0
 10
0.0
 20
0.0
 30
0.0
  3
KLON22
  1

  4
KLON22
  0
LINE
  5
66F
330
66C
100
AcDbEntity
  8
LC-001-100-D00-0
 62
     7
370
    15
100
AcDbLine
 10
-684.775317
 20
511.650139
 30
0.0
 11
-684.774602
 21
511.688121
 31
0.0
  0
LINE
  5
670
330
66C
100
AcDbEntity
  8
LC-001-100-D00-0
 62
     7
370
    15
100
AcDbLine
 10
-684.774602
 20
511.688121
 30
0.0
 11
-684.772575
 21
511.800908
 31
0.0
  0
LINE
  5
671
330
66C
100
AcDbEntity
  8
LC-001-100-D00-0
 62
     7
370
    15
100
AcDbLine
 10
-684.772575
 20
511.800908
 30
0.0
 11
-684.769178
 21
511.985077
 31
0.0
  0
LINE
  5
672
330
66C
100
AcDbEntity
  8
LC-001-100-D00-0
 62
     7
370
    15
100
AcDbLine
 10
-684.769178
 20
511.985077
 30
0.0
 11
-684.764648
 21
512.235029
 31
0.0
  0
LINE
  5
673
330
66C
100
AcDbEntity
  8
LC-001-100-D00-0
 62
     7
370
    15
100
AcDbLine
 10
-684.764648
 20
512.235029
 30
0.0
 11
-684.759045
 21
512.543172
 31
0.0
  0
LINE
  5
674
330
66C
100
AcDbEntity
  8
LC-001-100-D00-0
 62
     7
370
    15
100
AcDbLine
 10
-684.759045
 20
512.543172
 30
0.0
 11
-684.752489
 21
512.90014
 31
0.0
  0
LINE
  5
675
330
66C
100
AcDbEntity
  8
LC-001-100-D00-0
 62
     7
370
    15
100
AcDbLine
 10
-684.752489
 20
512.90014
 30
0.0
 11
-684.745336
 21
513.29509
 31
0.0
  0
LINE
  5
676
330
66C
100
AcDbEntity
  8
LC-001-100-D00-0
 62
     7
370
    15
100
AcDbLine
 10
-684.745336
 20
513.29509
 30
0.0
 11
-684.737647
 21
513.71602
 31
0.0
  0
LINE
  5
677
330
66C
100
AcDbEntity
  8
LC-001-100-D00-0
 62
     7
370
    15
100
AcDbLine
 10
-684.737647
 20
513.71602
 30
0.0
 11
-684.72972
 21
514.150141
 31
0.0
  0
ENDBLK
  5
66E
330
66C
100
AcDbEntity
  8
0
100
AcDbBlockEnd
  0
BLOCK
  5
697
330
68C
100
AcDbEntity
  8
0
100
AcDbBlockBegin
  2
*D27
 70
     1
 71
     0
 10
0.0
 20
0.0
 30
0.0
  3
*D27
  1

  0
LINE
  5
68D
330
68C
100
AcDbEntity
  8
LC-001-100-D00-0
 62
     2
370
    -2
100
AcDbLine
 10
-737.80268
 20
578.15014
 30
0.0
 11
-776.180748
 21
578.15014
 31
0.0
  0
LINE
  5
68E
330
68C
100
AcDbEntity
  8
LC-001-100-D00-0
 62
     2
370
    -2
100
AcDbLine
 10
-742.80268
 20
532.15014
 30
0.0
 11
-776.180748
 21
532.15014
 31
0.0
  0
LINE
  5
68F
330
68C
100
AcDbEntity
  8
LC-001-100-D00-0
 62
     2
370
    -2
100
AcDbLine
 10
-767.180748
 20
628.15014
 30
0.0
 11
-767.180748
 21
678.15014
 31
0.0
  0
LINE
  5
690
330
68C
100
AcDbEntity
  8
LC-001-100-D00-0
 62
     2
370
    -2
100
AcDbLine
 10
-767.180748
 20
482.15014
 30
0.0
 11
-767.180748
 21
378.058196
 31
0.0
  0
SOLID
  5
691
330
68C
100
AcDbEntity
  8
LC-001-100-D00-0
 62
     2
100
AcDbTrace
 10
-775.514081
 20
628.15014
 30
0.0
 11
-758.847414
 21
628.15014
 31
0.0
 12
-767.180748
 22
578.15014
 32
0.0
 13
-767.180748
 23
578.15014
 33
0.0
  0
SOLID
  5
692
330
68C
100
AcDbEntity
  8
LC-001-100-D00-0
 62
     2
100
AcDbTrace
 10
-758.847414
 20
482.15014
 30
0.0
 11
-775.514081
 21
482.15014
 31
0.0
 12
-767.180748
 22
532.15014
 32
0.0
 13
-767.180748
 23
532.15014
 33
0.0
  0
MTEXT
  5
693
330
68C
100
AcDbEntity
  8
LC-001-100-D00-0
 62
     2
100
AcDbMText
 10
-822.180748
 20
420.495626
 30
0.0
 40
50.0
 41
0.0
 71
     5
 72
     1
  1
\A1;46
  7
LCTX15-400-0-0pDIN-Schrift
 11
6.123031769111886E-17
 21
1.0
 31
0.0
 73
     1
 44
1.0
  0
POINT
  5
694
330
68C
100
AcDbEntity
  8
Defpoints
 62
     0
100
AcDbPoint
 10
-737.80268
 20
578.15014
 30
0.0
  0
POINT
  5
695
330
68C
100
AcDbEntity
  8
Defpoints
 62
     0
100
AcDbPoint
 10
-742.80268
 20
532.15014
 30
0.0
  0
POINT
  5
696
330
68C
100
AcDbEntity
  8
Defpoints
 62
     0
100
AcDbPoint
 10
-767.180748
 20
532.15014
 30
0.0
  0
ENDBLK
  5
698
330
68C
100
AcDbEntity
  8
0
100
AcDbBlockEnd
  0
BLOCK
  5
6A4
330
69A
100
AcDbEntity
  8
0
100
AcDbBlockBegin
  2
*D28
 70
     1
 71
     0
 10
0.0
 20
0.0
 30
0.0
  3
*D28
  1

  0
LINE
  5
69B
330
69A
100
AcDbEntity
  8
LC-001-100-D00-0
 62
     2
370
    -2
100
AcDbLine
 10
-742.80268
 20
573.15014
 30
0.0
 11
-742.80268
 21
696.795626
 31
0.0
  0
LINE
  5
69C
330
69A
100
AcDbEntity
  8
LC-001-100-D00-0
 62
     2
370
    -2
100
AcDbLine
 10
457.19732
 20
573.15014
 30
0.0
 11
457.19732
 21
696.795626
 31
0.0
  0
LINE
  5
69D
330
69A
100
AcDbEntity
  8
LC-001-100-D00-0
 62
     2
370
    -2
100
AcDbLine
 10
-692.80268
 20
687.795626
 30
0.0
 11
407.19732
 21
687.795626
 31
0.0
  0
SOLID
  5
69E
330
69A
100
AcDbEntity
  8
LC-001-100-D00-0
 62
     2
100
AcDbTrace
 10
-692.80268
 20
696.128959
 30
0.0
 11
-692.80268
 21
679.462292
 31
0.0
 12
-742.80268
 22
687.795626
 32
0.0
 13
-742.80268
 23
687.795626
 33
0.0
  0
SOLID
  5
69F
330
69A
100
AcDbEntity
  8
LC-001-100-D00-0
 62
     2
100
AcDbTrace
 10
407.19732
 20
679.462292
 30
0.0
 11
407.19732
 21
696.128959
 31
0.0
 12
457.19732
 22
687.795626
 32
0.0
 13
457.19732
 23
687.795626
 33
0.0
  0
MTEXT
  5
6A0
330
69A
100
AcDbEntity
  8
LC-001-100-D00-0
 62
     2
100
AcDbMText
 10
-144.432541
 20
742.795626
 30
0.0
 40
50.0
 41
0.0
 71
     5
 72
     1
  1
\A1;1200
  7
LCTX15-400-0-0pDIN-Schrift
 73
     1
 44
1.0
  0
POINT
  5
6A1
330
69A
100
AcDbEntity
  8
Defpoints
 62
     0
100
AcDbPoint
 10
-742.80268
 20
573.15014
 30
0.0
  0
POINT
  5
6A2
330
69A
100
AcDbEntity
  8
Defpoints
 62
     0
100
AcDbPoint
 10
457.19732
 20
573.15014
 30
0.0
  0
POINT
  5
6A3
330
69A
100
AcDbEntity
  8
Defpoints
 62
     0
100
AcDbPoint
 10
457.19732
 20
687.795626
 30
0.0
  0
ENDBLK
  5
6A5
330
69A
100
AcDbEntity
  8
0
100
AcDbBlockEnd
  0
BLOCK
  5
6B1
330
6A7
100
AcDbEntity
  8
0
100
AcDbBlockBegin
  2
*D29
 70
     1
 71
     0
 10
0.0
 20
0.0
 30
0.0
  3
*D29
  1

  0
LINE
  5
6A8
330
6A7
100
AcDbEntity
  8
LC-001-100-D00-0
 62
     2
370
    -2
100
AcDbLine
 10
-692.80268
 20
529.15014
 30
0.0
 11
-692.80268
 21
613.728291
 31
0.0
  0
LINE
  5
6A9
330
6A7
100
AcDbEntity
  8
LC-001-100-D00-0
 62
     2
370
    -2
100
AcDbLine
 10
407.19732
 20
529.15014
 30
0.0
 11
407.19732
 21
613.728291
 31
0.0
  0
LINE
  5
6AA
330
6A7
100
AcDbEntity
  8
LC-001-100-D00-0
 62
     2
370
    -2
100
AcDbLine
 10
-642.80268
 20
604.728291
 30
0.0
 11
357.19732
 21
604.728291
 31
0.0
  0
SOLID
  5
6AB
330
6A7
100
AcDbEntity
  8
LC-001-100-D00-0
 62
     2
100
AcDbTrace
 10
-642.80268
 20
613.061624
 30
0.0
 11
-642.80268
 21
596.394957
 31
0.0
 12
-692.80268
 22
604.728291
 32
0.0
 13
-692.80268
 23
604.728291
 33
0.0
  0
SOLID
  5
6AC
330
6A7
100
AcDbEntity
  8
LC-001-100-D00-0
 62
     2
100
AcDbTrace
 10
357.19732
 20
596.394957
 30
0.0
 11
357.19732
 21
613.061624
 31
0.0
 12
407.19732
 22
604.728291
 32
0.0
 13
407.19732
 23
604.728291
 33
0.0
  0
MTEXT
  5
6AD
330
6A7
100
AcDbEntity
  8
LC-001-100-D00-0
 62
     2
100
AcDbMText
 10
-147.447653
 20
659.728291
 30
0.0
 40
50.0
 41
0.0
 71
     5
 72
     1
  1
\A1;1100
  7
LCTX15-400-0-0pDIN-Schrift
 73
     1
 44
1.0
  0
POINT
  5
6AE
330
6A7
100
AcDbEntity
  8
Defpoints
 62
     0
100
AcDbPoint
 10
-692.80268
 20
529.15014
 30
0.0
  0
POINT
  5
6AF
330
6A7
100
AcDbEntity
  8
Defpoints
 62
     0
100
AcDbPoint
 10
407.19732
 20
529.15014
 30
0.0
  0
POINT
  5
6B0
330
6A7
100
AcDbEntity
  8
Defpoints
 62
     0
100
AcDbPoint
 10
407.19732
 20
604.728291
 30
0.0
  0
ENDBLK
  5
6B2
330
6A7
100
AcDbEntity
  8
0
100
AcDbBlockEnd
  0
BLOCK
  5
6BF
330
6B4
100
AcDbEntity
  8
0
100
AcDbBlockBegin
  2
*D30
 70
     1
 71
     0
 10
0.0
 20
0.0
 30
0.0
  3
*D30
  1

  0
LINE
  5
6B5
330
6B4
100
AcDbEntity
  8
LC-001-100-D00-0
 62
     2
370
    -2
100
AcDbLine
 10
-171.80268
 20
460.65014
 30
0.0
 11
-286.403688
 21
460.65014
 31
0.0
  0
LINE
  5
6B6
330
6B4
100
AcDbEntity
  8
LC-001-100-D00-0
 62
     2
370
    -2
100
AcDbLine
 10
-175.755114
 20
490.65014
 30
0.0
 11
-286.403688
 21
490.65014
 31
0.0
  0
LINE
  5
6B7
330
6B4
100
AcDbEntity
  8
LC-001-100-D00-0
 62
     2
370
    -2
100
AcDbLine
 10
-277.403688
 20
540.65014
 30
0.0
 11
-277.403688
 21
590.65014
 31
0.0
  0
LINE
  5
6B8
330
6B4
100
AcDbEntity
  8
LC-001-100-D00-0
 62
     2
370
    -2
100
AcDbLine
 10
-277.403688
 20
410.65014
 30
0.0
 11
-277.403688
 21
347.720221
 31
0.0
  0
SOLID
  5
6B9
330
6B4
100
AcDbEntity
  8
LC-001-100-D00-0
 62
     2
100
AcDbTrace
 10
-269.070355
 20
410.65014
 30
0.0
 11
-285.737022
 21
410.65014
 31
0.0
 12
-277.403688
 22
460.65014
 32
0.0
 13
-277.403688
 23
460.65014
 33
0.0
  0
SOLID
  5
6BA
330
6B4
100
AcDbEntity
  8
LC-001-100-D00-0
 62
     2
100
AcDbTrace
 10
-285.737022
 20
540.65014
 30
0.0
 11
-269.070355
 21
540.65014
 31
0.0
 12
-277.403688
 22
490.65014
 32
0.0
 13
-277.403688
 23
490.65014
 33
0.0
  0
MTEXT
  5
6BB
330
6B4
100
AcDbEntity
  8
LC-001-100-D00-0
 62
     2
100
AcDbMText
 10
-332.403688
 20
390.795626
 30
0.0
 40
50.0
 41
0.0
 71
     5
 72
     1
  1
\A1;30
  7
LCTX15-400-0-0pDIN-Schrift
 11
6.123031769111886E-17
 21
1.0
 31
0.0
 73
     1
 44
1.0
  0
POINT
  5
6BC
330
6B4
100
AcDbEntity
  8
Defpoints
 62
     0
100
AcDbPoint
 10
-171.80268
 20
460.65014
 30
0.0
  0
POINT
  5
6BD
330
6B4
100
AcDbEntity
  8
Defpoints
 62
     0
100
AcDbPoint
 10
-175.755114
 20
490.65014
 30
0.0
  0
POINT
  5
6BE
330
6B4
100
AcDbEntity
  8
Defpoints
 62
     0
100
AcDbPoint
 10
-277.403688
 20
490.65014
 30
0.0
  0
ENDBLK
  5
6C0
330
6B4
100
AcDbEntity
  8
0
100
AcDbBlockEnd
  0
BLOCK
  5
6CC
330
6C2
100
AcDbEntity
  8
0
100
AcDbBlockBegin
  2
*D31
 70
     1
 71
     0
 10
0.0
 20
0.0
 30
0.0
  3
*D31
  1

  0
LINE
  5
6C3
330
6C2
100
AcDbEntity
  8
LC-001-100-D00-0
 62
     2
370
    -2
100
AcDbLine
 10
-216.80268
 20
461.15014
 30
0.0
 11
-216.80268
 21
347.640626
 31
0.0
  0
LINE
  5
6C4
330
6C2
100
AcDbEntity
  8
LC-001-100-D00-0
 62
     2
370
    -2
100
AcDbLine
 10
66.697117
 20
450.587962
 30
0.0
 11
66.697117
 21
347.640626
 31
0.0
  0
LINE
  5
6C5
330
6C2
100
AcDbEntity
  8
LC-001-100-D00-0
 62
     2
370
    -2
100
AcDbLine
 10
-166.80268
 20
356.640626
 30
0.0
 11
16.697117
 21
356.640626
 31
0.0
  0
SOLID
  5
6C6
330
6C2
100
AcDbEntity
  8
LC-001-100-D00-0
 62
     2
100
AcDbTrace
 10
-166.80268
 20
364.973959
 30
0.0
 11
-166.80268
 21
348.307292
 31
0.0
 12
-216.80268
 22
356.640626
 32
0.0
 13
-216.80268
 23
356.640626
 33
0.0
  0
SOLID
  5
6C7
330
6C2
100
AcDbEntity
  8
LC-001-100-D00-0
 62
     2
100
AcDbTrace
 10
16.697117
 20
348.307292
 30
0.0
 11
16.697117
 21
364.973959
 31
0.0
 12
66.697117
 22
356.640626
 32
0.0
 13
66.697117
 23
356.640626
 33
0.0
  0
MTEXT
  5
6C8
330
6C2
100
AcDbEntity
  8
LC-001-100-D00-0
 62
     2
100
AcDbMText
 10
-93.460268
 20
411.640626
 30
0.0
 40
50.0
 41
0.0
 71
     5
 72
     1
  1
\A1;284
  7
LCTX15-400-0-0pDIN-Schrift
 73
     1
 44
1.0
  0
POINT
  5
6C9
330
6C2
100
AcDbEntity
  8
Defpoints
 62
     0
100
AcDbPoint
 10
-216.80268
 20
461.15014
 30
0.0
  0
POINT
  5
6CA
330
6C2
100
AcDbEntity
  8
Defpoints
 62
     0
100
AcDbPoint
 10
66.697117
 20
450.587962
 30
0.0
  0
POINT
  5
6CB
330
6C2
100
AcDbEntity
  8
Defpoints
 62
     0
100
AcDbPoint
 10
66.697117
 20
356.640626
 30
0.0
  0
ENDBLK
  5
6CD
330
6C2
100
AcDbEntity
  8
0
100
AcDbBlockEnd
  0
BLOCK
  5
6DA
330
6CF
100
AcDbEntity
  8
0
100
AcDbBlockBegin
  2
*D32
 70
     1
 71
     0
 10
0.0
 20
0.0
 30
0.0
  3
*D32
  1

  0
LINE
  5
6D0
330
6CF
100
AcDbEntity
  8
LC-001-100-D00-0
 62
     2
370
    -2
100
AcDbLine
 10
63.197117
 20
499.65014
 30
0.0
 11
582.611654
 21
499.65014
 31
0.0
  0
LINE
  5
6D1
330
6CF
100
AcDbEntity
  8
LC-001-100-D00-0
 62
     2
370
    -2
100
AcDbLine
 10
63.197117
 20
449.65014
 30
0.0
 11
582.611654
 21
449.65014
 31
0.0
  0
LINE
  5
6D2
330
6CF
100
AcDbEntity
  8
LC-001-100-D00-0
 62
     2
370
    -2
100
AcDbLine
 10
573.611654
 20
399.65014
 30
0.0
 11
573.611654
 21
349.65014
 31
0.0
  0
LINE
  5
6D3
330
6CF
100
AcDbEntity
  8
LC-001-100-D00-0
 62
     2
370
    -2
100
AcDbLine
 10
573.611654
 20
549.65014
 30
0.0
 11
573.611654
 21
644.436978
 31
0.0
  0
SOLID
  5
6D4
330
6CF
100
AcDbEntity
  8
LC-001-100-D00-0
 62
     2
100
AcDbTrace
 10
565.278321
 20
549.65014
 30
0.0
 11
581.944988
 21
549.65014
 31
0.0
 12
573.611654
 22
499.65014
 32
0.0
 13
573.611654
 23
499.65014
 33
0.0
  0
SOLID
  5
6D5
330
6CF
100
AcDbEntity
  8
LC-001-100-D00-0
 62
     2
100
AcDbTrace
 10
581.944988
 20
399.65014
 30
0.0
 11
565.278321
 21
399.65014
 31
0.0
 12
573.611654
 22
449.65014
 32
0.0
 13
573.611654
 23
449.65014
 33
0.0
  0
MTEXT
  5
6D6
330
6CF
100
AcDbEntity
  8
LC-001-100-D00-0
 62
     2
100
AcDbMText
 10
518.611654
 20
560.085626
 30
0.0
 40
50.0
 41
0.0
 71
     5
 72
     1
  1
\A1;DN50
  7
LCTX15-400-0-0pDIN-Schrift
 11
6.123031769111886E-17
 21
1.0
 31
0.0
 73
     1
 44
1.0
  0
POINT
  5
6D7
330
6CF
100
AcDbEntity
  8
Defpoints
 62
     0
100
AcDbPoint
 10
63.197117
 20
499.65014
 30
0.0
  0
POINT
  5
6D8
330
6CF
100
AcDbEntity
  8
Defpoints
 62
     0
100
AcDbPoint
 10
63.197117
 20
449.65014
 30
0.0
  0
POINT
  5
6D9
330
6CF
100
AcDbEntity
  8
Defpoints
 62
     0
100
AcDbPoint
 10
573.611654
 20
449.65014
 30
0.0
  0
ENDBLK
  5
6DB
330
6CF
100
AcDbEntity
  8
0
100
AcDbBlockEnd
  0
BLOCK
  5
6E9
330
6DD
100
AcDbEntity
  8
0
100
AcDbBlockBegin
  2
*D33
 70
     1
 71
     0
 10
0.0
 20
0.0
 30
0.0
  3
*D33
  1

  0
LINE
  5
6DE
330
6DD
100
AcDbEntity
  8
LC-001-100-D00-0
 62
     2
370
    -2
100
AcDbLine
 10
457.19732
 20
532.15014
 30
0.0
 11
677.907643
 21
532.15014
 31
0.0
  0
LINE
  5
6DF
330
6DD
100
AcDbEntity
  8
LC-001-100-D00-0
 62
     2
370
    -2
100
AcDbLine
 10
75.197117
 20
474.65014
 30
0.0
 11
677.907643
 21
474.65014
 31
0.0
  0
LINE
  5
6E0
330
6DD
100
AcDbEntity
  8
LC-001-100-D00-0
 62
     2
370
    -2
100
AcDbLine
 10
668.907643
 20
582.15014
 30
0.0
 11
668.907643
 21
632.15014
 31
0.0
  0
LINE
  5
6E1
330
6DD
100
AcDbEntity
  8
LC-001-100-D00-0
 62
     2
370
    -2
100
AcDbLine
 10
668.907643
 20
424.65014
 30
0.0
 11
668.907643
 21
374.65014
 31
0.0
  0
LINE
  5
6E2
330
6DD
100
AcDbEntity
  8
LC-001-100-D00-0
 62
     2
370
    -2
100
AcDbLine
 10
668.907643
 20
532.15014
 30
0.0
 11
668.907643
 21
474.65014
 31
0.0
  0
SOLID
  5
6E3
330
6DD
100
AcDbEntity
  8
LC-001-100-D00-0
 62
     2
100
AcDbTrace
 10
660.57431
 20
582.15014
 30
0.0
 11
677.240977
 21
582.15014
 31
0.0
 12
668.907643
 22
532.15014
 32
0.0
 13
668.907643
 23
532.15014
 33
0.0
  0
SOLID
  5
6E4
330
6DD
100
AcDbEntity
  8
LC-001-100-D00-0
 62
     2
100
AcDbTrace
 10
677.240977
 20
424.65014
 30
0.0
 11
660.57431
 21
424.65014
 31
0.0
 12
668.907643
 22
474.65014
 32
0.0
 13
668.907643
 23
474.65014
 33
0.0
  0
MTEXT
  5
6E5
330
6DD
100
AcDbEntity
  8
LC-001-100-D00-0
 62
     2
100
AcDbMText
 10
613.907643
 20
506.625626
 30
0.0
 40
50.0
 41
0.0
 71
     5
 72
     1
  1
\A1;57,5
  7
LCTX15-400-0-0pDIN-Schrift
 11
6.123031769111886E-17
 21
1.0
 31
0.0
 73
     1
 44
1.0
  0
POINT
  5
6E6
330
6DD
100
AcDbEntity
  8
Defpoints
 62
     0
100
AcDbPoint
 10
457.19732
 20
532.15014
 30
0.0
  0
POINT
  5
6E7
330
6DD
100
AcDbEntity
  8
Defpoints
 62
     0
100
AcDbPoint
 10
75.197117
 20
474.65014
 30
0.0
  0
POINT
  5
6E8
330
6DD
100
AcDbEntity
  8
Defpoints
 62
     0
100
AcDbPoint
 10
668.907643
 20
474.65014
 30
0.0
  0
ENDBLK
  5
6EA
330
6DD
100
AcDbEntity
  8
0
100
AcDbBlockEnd
  0
BLOCK
  5
6F8
330
6EC
100
AcDbEntity
  8
0
100
AcDbBlockBegin
  2
*D34
 70
     1
 71
     0
 10
0.0
 20
0.0
 30
0.0
  3
*D34
  1

  0
LINE
  5
6ED
330
6EC
100
AcDbEntity
  8
LC-001-100-D00-0
 62
     2
370
    -2
100
AcDbLine
 10
457.19732
 20
532.15014
 30
0.0
 11
766.555075
 21
532.15014
 31
0.0
  0
LINE
  5
6EE
330
6EC
100
AcDbEntity
  8
LC-001-100-D00-0
 62
     2
370
    -2
100
AcDbLine
 10
-88.7848
 20
442.15014
 30
0.0
 11
766.555075
 21
442.15014
 31
0.0
  0
LINE
  5
6EF
330
6EC
100
AcDbEntity
  8
LC-001-100-D00-0
 62
     2
370
    -2
100
AcDbLine
 10
757.555075
 20
582.15014
 30
0.0
 11
757.555075
 21
632.15014
 31
0.0
  0
LINE
  5
6F0
330
6EC
100
AcDbEntity
  8
LC-001-100-D00-0
 62
     2
370
    -2
100
AcDbLine
 10
757.555075
 20
392.15014
 30
0.0
 11
757.555075
 21
342.15014
 31
0.0
  0
LINE
  5
6F1
330
6EC
100
AcDbEntity
  8
LC-001-100-D00-0
 62
     2
370
    -2
100
AcDbLine
 10
757.555075
 20
532.15014
 30
0.0
 11
757.555075
 21
442.15014
 31
0.0
  0
SOLID
  5
6F2
330
6EC
100
AcDbEntity
  8
LC-001-100-D00-0
 62
     2
100
AcDbTrace
 10
749.221741
 20
582.15014
 30
0.0
 11
765.888408
 21
582.15014
 31
0.0
 12
757.555075
 22
532.15014
 32
0.0
 13
757.555075
 23
532.15014
 33
0.0
  0
SOLID
  5
6F3
330
6EC
100
AcDbEntity
  8
LC-001-100-D00-0
 62
     2
100
AcDbTrace
 10
765.888408
 20
392.15014
 30
0.0
 11
749.221741
 21
392.15014
 31
0.0
 12
757.555075
 22
442.15014
 32
0.0
 13
757.555075
 23
442.15014
 33
0.0
  0
MTEXT
  5
6F4
330
6EC
100
AcDbEntity
  8
LC-001-100-D00-0
 62
     2
100
AcDbMText
 10
702.555075
 20
470.985626
 30
0.0
 40
50.0
 41
0.0
 71
     5
 72
     1
  1
\A1;90
  7
LCTX15-400-0-0pDIN-Schrift
 11
6.123031769111886E-17
 21
1.0
 31
0.0
 73
     1
 44
1.0
  0
POINT
  5
6F5
330
6EC
100
AcDbEntity
  8
Defpoints
 62
     0
100
AcDbPoint
 10
457.19732
 20
532.15014
 30
0.0
  0
POINT
  5
6F6
330
6EC
100
AcDbEntity
  8
Defpoints
 62
     0
100
AcDbPoint
 10
-88.7848
 20
442.15014
 30
0.0
  0
POINT
  5
6F7
330
6EC
100
AcDbEntity
  8
Defpoints
 62
     0
100
AcDbPoint
 10
757.555075
 20
442.15014
 30
0.0
  0
ENDBLK
  5
6F9
330
6EC
100
AcDbEntity
  8
0
100
AcDbBlockEnd
  0
BLOCK
  5
6FB
330
6FA
100
AcDbEntity
  8
0
100
AcDbBlockBegin
  2
KLON23
 70
     0
 71
     0
 10
0.0
 20
0.0
 30
0.0
  3
KLON23
  1

  4
KLON23
  0
LINE
  5
6FD
330
6FA
100
AcDbEntity
  8
LC-001-100-D00-0
 62
     7
370
    25
100
AcDbLine
 10
435.596499
 20
530.65014
 30
0.0
 11
437.096499
 21
532.15014
 31
0.0
  0
LINE
  5
6FE
330
6FA
100
AcDbEntity
  8
LC-001-100-D00-0
 62
     7
370
    25
100
AcDbLine
 10
388.155733
 20
510.15014
 30
0.0
 11
389.655733
 21
511.65014
 31
0.0
  0
LINE
  5
6FF
330
6FA
100
AcDbEntity
  8
LC-001-100-D00-0
 62
     7
370
    25
100
AcDbLine
 10
407.197612
 20
529.19202
 30
0.0
 11
410.155439
 21
532.149848
 31
0.0
  0
LINE
  5
700
330
6FA
100
AcDbEntity
  8
LC-001-100-D00-0
 62
     7
370
    25
100
AcDbLine
 10
361.214966
 20
510.15014
 30
0.0
 11
362.714966
 21
511.65014
 31
0.0
  0
LINE
  5
701
330
6FA
100
AcDbEntity
  8
LC-001-100-D00-0
 62
     7
370
    25
100
AcDbLine
 10
373.19732
 20
522.132495
 30
0.0
 11
381.19732
 21
530.132496
 31
0.0
  0
LINE
  5
702
330
6FA
100
AcDbEntity
  8
LC-001-100-D00-0
 62
     7
370
    25
100
AcDbLine
 10
334.274199
 20
510.15014
 30
0.0
 11
335.774198
 21
511.65014
 31
0.0
  0
LINE
  5
703
330
6FA
100
AcDbEntity
  8
LC-001-100-D00-0
 62
     7
370
    25
100
AcDbLine
 10
307.333431
 20
510.15014
 30
0.0
 11
308.833431
 21
511.65014
 31
0.0
  0
LINE
  5
704
330
6FA
100
AcDbEntity
  8
LC-001-100-D00-0
 62
     7
370
    25
100
AcDbLine
 10
280.392664
 20
510.15014
 30
0.0
 11
281.892664
 21
511.65014
 31
0.0
  0
LINE
  5
705
330
6FA
100
AcDbEntity
  8
LC-001-100-D00-0
 62
     7
370
    25
100
AcDbLine
 10
253.451896
 20
510.15014
 30
0.0
 11
254.951896
 21
511.65014
 31
0.0
  0
LINE
  5
706
330
6FA
100
AcDbEntity
  8
LC-001-100-D00-0
 62
     7
370
    25
100
AcDbLine
 10
226.511129
 20
510.15014
 30
0.0
 11
228.011129
 21
511.65014
 31
0.0
  0
LINE
  5
707
330
6FA
100
AcDbEntity
  8
LC-001-100-D00-0
 62
     7
370
    25
100
AcDbLine
 10
199.570362
 20
510.15014
 30
0.0
 11
201.070362
 21
511.65014
 31
0.0
  0
LINE
  5
708
330
6FA
100
AcDbEntity
  8
LC-001-100-D00-0
 62
     7
370
    25
100
AcDbLine
 10
216.530653
 20
527.110433
 30
0.0
 11
221.07036
 21
531.65014
 31
0.0
  0
LINE
  5
709
330
6FA
100
AcDbEntity
  8
LC-001-100-D00-0
 62
     7
370
    25
100
AcDbLine
 10
172.629594
 20
510.15014
 30
0.0
 11
174.129594
 21
511.65014
 31
0.0
  0
LINE
  5
70A
330
6FA
100
AcDbEntity
  8
LC-001-100-D00-0
 62
     7
370
    25
100
AcDbLine
 10
145.688827
 20
510.15014
 30
0.0
 11
147.188827
 21
511.65014
 31
0.0
  0
LINE
  5
70B
330
6FA
100
AcDbEntity
  8
LC-001-100-D00-0
 62
     7
370
    25
100
AcDbLine
 10
118.748059
 20
510.15014
 30
0.0
 11
120.248059
 21
511.65014
 31
0.0
  0
LINE
  5
70C
330
6FA
100
AcDbEntity
  8
LC-001-100-D00-0
 62
     7
370
    25
100
AcDbLine
 10
91.807292
 20
510.15014
 30
0.0
 11
93.307292
 21
511.65014
 31
0.0
  0
LINE
  5
70D
330
6FA
100
AcDbEntity
  8
LC-001-100-D00-0
 62
     7
370
    25
100
AcDbLine
 10
109.863987
 20
528.206836
 30
0.0
 11
113.307291
 21
531.65014
 31
0.0
  0
LINE
  5
70E
330
6FA
100
AcDbEntity
  8
LC-001-100-D00-0
 62
     7
370
    25
100
AcDbLine
 10
64.866525
 20
510.15014
 30
0.0
 11
66.366525
 21
511.65014
 31
0.0
  0
LINE
  5
70F
330
6FA
100
AcDbEntity
  8
LC-001-100-D00-0
 62
     7
370
    25
100
AcDbLine
 10
37.925757
 20
510.15014
 30
0.0
 11
39.425757
 21
511.65014
 31
0.0
  0
LINE
  5
710
330
6FA
100
AcDbEntity
  8
LC-001-100-D00-0
 62
     7
370
    25
100
AcDbLine
 10
10.98499
 20
510.15014
 30
0.0
 11
12.48499
 21
511.65014
 31
0.0
  0
LINE
  5
711
330
6FA
100
AcDbEntity
  8
LC-001-100-D00-0
 62
     7
370
    25
100
AcDbLine
 10
-15.955777
 20
510.15014
 30
0.0
 11
-14.455778
 21
511.65014
 31
0.0
  0
LINE
  5
712
330
6FA
100
AcDbEntity
  8
LC-001-100-D00-0
 62
     7
370
    25
100
AcDbLine
 10
-42.896545
 20
510.15014
 30
0.0
 11
-39.376249
 21
513.670436
 31
0.0
  0
LINE
  5
713
330
6FA
100
AcDbEntity
  8
LC-001-100-D00-0
 62
     7
370
    25
100
AcDbLine
 10
-74.837312
 20
505.15014
 30
0.0
 11
-73.337312
 21
506.65014
 31
0.0
  0
ENDBLK
  5
6FC
330
6FA
100
AcDbEntity
  8
0
100
AcDbBlockEnd
  0
BLOCK
  5
716
330
715
100
AcDbEntity
  8
0
100
AcDbBlockBegin
  2
KLON24
 70
     0
 71
     0
 10
0.0
 20
0.0
 30
0.0
  3
KLON24
  1

  4
KLON24
  0
LINE
  5
718
330
715
100
AcDbEntity
  8
LC-001-100-D00-0
 62
     7
370
    25
100
AcDbLine
 10
-209.541149
 20
505.15014
 30
0.0
 11
-208.041149
 21
506.65014
 31
0.0
  0
LINE
  5
719
330
715
100
AcDbEntity
  8
LC-001-100-D00-0
 62
     7
370
    25
100
AcDbLine
 10
-232.534529
 20
509.097527
 30
0.0
 11
-231.309784
 21
510.322272
 31
0.0
  0
LINE
  5
71A
330
715
100
AcDbEntity
  8
LC-001-100-D00-0
 62
     7
370
    25
100
AcDbLine
 10
-258.422684
 20
510.15014
 30
0.0
 11
-256.922684
 21
511.65014
 31
0.0
  0
LINE
  5
71B
330
715
100
AcDbEntity
  8
LC-001-100-D00-0
 62
     7
370
    25
100
AcDbLine
 10
-246.80268
 20
521.770145
 30
0.0
 11
-238.80268
 21
529.770145
 31
0.0
  0
LINE
  5
71C
330
715
100
AcDbEntity
  8
LC-001-100-D00-0
 62
     7
370
    25
100
AcDbLine
 10
-285.363451
 20
510.15014
 30
0.0
 11
-283.863451
 21
511.65014
 31
0.0
  0
LINE
  5
71D
330
715
100
AcDbEntity
  8
LC-001-100-D00-0
 62
     7
370
    25
100
AcDbLine
 10
-312.304219
 20
510.15014
 30
0.0
 11
-310.804219
 21
511.65014
 31
0.0
  0
LINE
  5
71E
330
715
100
AcDbEntity
  8
LC-001-100-D00-0
 62
     7
370
    25
100
AcDbLine
 10
-339.244986
 20
510.15014
 30
0.0
 11
-337.744986
 21
511.65014
 31
0.0
  0
LINE
  5
71F
330
715
100
AcDbEntity
  8
LC-001-100-D00-0
 62
     7
370
    25
100
AcDbLine
 10
-366.185753
 20
510.15014
 30
0.0
 11
-364.685753
 21
511.65014
 31
0.0
  0
LINE
  5
720
330
715
100
AcDbEntity
  8
LC-001-100-D00-0
 62
     7
370
    25
100
AcDbLine
 10
-393.126521
 20
510.15014
 30
0.0
 11
-391.626521
 21
511.65014
 31
0.0
  0
LINE
  5
721
330
715
100
AcDbEntity
  8
LC-001-100-D00-0
 62
     7
370
    25
100
AcDbLine
 10
-420.067288
 20
510.15014
 30
0.0
 11
-418.567288
 21
511.65014
 31
0.0
  0
LINE
  5
722
330
715
100
AcDbEntity
  8
LC-001-100-D00-0
 62
     7
370
    25
100
AcDbLine
 10
-403.469347
 20
526.748083
 30
0.0
 11
-398.56729
 21
531.65014
 31
0.0
  0
LINE
  5
723
330
715
100
AcDbEntity
  8
LC-001-100-D00-0
 62
     7
370
    25
100
AcDbLine
 10
-447.008055
 20
510.15014
 30
0.0
 11
-445.508056
 21
511.65014
 31
0.0
  0
LINE
  5
724
330
715
100
AcDbEntity
  8
LC-001-100-D00-0
 62
     7
370
    25
100
AcDbLine
 10
-473.948823
 20
510.15014
 30
0.0
 11
-472.448823
 21
511.65014
 31
0.0
  0
LINE
  5
725
330
715
100
AcDbEntity
  8
LC-001-100-D00-0
 62
     7
370
    25
100
AcDbLine
 10
-500.88959
 20
510.15014
 30
0.0
 11
-499.38959
 21
511.65014
 31
0.0
  0
LINE
  5
726
330
715
100
AcDbEntity
  8
LC-001-100-D00-0
 62
     7
370
    25
100
AcDbLine
 10
-527.830358
 20
510.15014
 30
0.0
 11
-526.330358
 21
511.65014
 31
0.0
  0
LINE
  5
727
330
715
100
AcDbEntity
  8
LC-001-100-D00-0
 62
     7
370
    25
100
AcDbLine
 10
-510.136013
 20
527.844485
 30
0.0
 11
-506.330359
 21
531.65014
 31
0.0
  0
LINE
  5
728
330
715
100
AcDbEntity
  8
LC-001-100-D00-0
 62
     7
370
    25
100
AcDbLine
 10
-554.771125
 20
510.15014
 30
0.0
 11
-553.271125
 21
511.65014
 31
0.0
  0
LINE
  5
729
330
715
100
AcDbEntity
  8
LC-001-100-D00-0
 62
     7
370
    25
100
AcDbLine
 10
-581.711892
 20
510.15014
 30
0.0
 11
-580.211892
 21
511.65014
 31
0.0
  0
LINE
  5
72A
330
715
100
AcDbEntity
  8
LC-001-100-D00-0
 62
     7
370
    25
100
AcDbLine
 10
-608.65266
 20
510.15014
 30
0.0
 11
-607.15266
 21
511.65014
 31
0.0
  0
LINE
  5
72B
330
715
100
AcDbEntity
  8
LC-001-100-D00-0
 62
     7
370
    25
100
AcDbLine
 10
-635.593427
 20
510.15014
 30
0.0
 11
-634.093427
 21
511.65014
 31
0.0
  0
LINE
  5
72C
330
715
100
AcDbEntity
  8
LC-001-100-D00-0
 62
     7
370
    25
100
AcDbLine
 10
-662.534194
 20
510.15014
 30
0.0
 11
-659.23237
 21
513.451965
 31
0.0
  0
LINE
  5
72D
330
715
100
AcDbEntity
  8
LC-001-100-D00-0
 62
     7
370
    25
100
AcDbLine
 10
-688.657655
 20
510.967447
 30
0.0
 11
-687.504804
 21
512.120298
 31
0.0
  0
LINE
  5
72E
330
715
100
AcDbEntity
  8
LC-001-100-D00-0
 62
     7
370
    25
100
AcDbLine
 10
-695.915731
 20
530.65014
 30
0.0
 11
-694.647187
 21
531.918684
 31
0.0
  0
LINE
  5
72F
330
715
100
AcDbEntity
  8
LC-001-100-D00-0
 62
     7
370
    25
100
AcDbLine
 10
-722.856498
 20
530.65014
 30
0.0
 11
-721.356498
 21
532.15014
 31
0.0
  0
ENDBLK
  5
717
330
715
100
AcDbEntity
  8
0
100
AcDbBlockEnd
  0
BLOCK
  5
732
330
731
100
AcDbEntity
  8
0
100
AcDbBlockBegin
  2
KLON25
 70
     0
 71
     0
 10
0.0
 20
0.0
 30
0.0
  3
KLON25
  1

  4
KLON25
  0
LINE
  5
734
330
731
100
AcDbEntity
  8
LC-001-100-D00-0
 62
     7
370
    25
100
AcDbLine
 10
-115.30268
 20
464.684769
 30
0.0
 11
-113.80268
 21
466.184769
 31
0.0
  0
LINE
  5
735
330
731
100
AcDbEntity
  8
LC-001-100-D00-0
 62
     7
370
    25
100
AcDbLine
 10
-115.30268
 20
491.625538
 30
0.0
 11
-113.102809
 21
493.82541
 31
0.0
  0
LINE
  5
736
330
731
100
AcDbEntity
  8
LC-001-100-D00-0
 62
     7
370
    25
100
AcDbLine
 10
-107.47795
 20
499.450268
 30
0.0
 11
-100.778079
 21
506.15014
 31
0.0
  0
ENDBLK
  5
733
330
731
100
AcDbEntity
  8
0
100
AcDbBlockEnd
  0
BLOCK
  5
739
330
738
100
AcDbEntity
  8
0
100
AcDbBlockBegin
  2
KLON26
 70
     0
 71
     0
 10
0.0
 20
0.0
 30
0.0
  3
KLON26
  1

  4
KLON26
  0
LINE
  5
73B
330
738
100
AcDbEntity
  8
LC-001-100-D00-0
 62
     7
370
    25
100
AcDbLine
 10
-171.80268
 20
462.066303
 30
0.0
 11
-170.30268
 21
463.566303
 31
0.0
  0
LINE
  5
73C
330
738
100
AcDbEntity
  8
LC-001-100-D00-0
 62
     7
370
    25
100
AcDbLine
 10
-171.80268
 20
489.007073
 30
0.0
 11
-170.30268
 21
490.507073
 31
0.0
  0
LINE
  5
73D
330
738
100
AcDbEntity
  8
LC-001-100-D00-0
 62
     7
370
    25
100
AcDbLine
 10
-187.600381
 20
500.15014
 30
0.0
 11
-181.600381
 21
506.15014
 31
0.0
  0
ENDBLK
  5
73A
330
738
100
AcDbEntity
  8
0
100
AcDbBlockEnd
  0
BLOCK
  5
740
330
73F
100
AcDbEntity
  8
0
100
AcDbBlockBegin
  2
KLON27
 70
     0
 71
     0
 10
0.0
 20
0.0
 30
0.0
  3
KLON27
  1

  4
KLON27
  0
LINE
  5
742
330
73F
100
AcDbEntity
  8
LC-001-100-D00-0
 62
     7
370
    25
100
AcDbLine
 10
-48.302883
 20
504.743801
 30
0.0
 11
-46.396544
 21
506.65014
 31
0.0
  0
LINE
  5
743
330
73F
100
AcDbEntity
  8
LC-001-100-D00-0
 62
     7
370
    25
100
AcDbLine
 10
-25.599913
 20
500.506003
 30
0.0
 11
-23.764917
 21
502.340999
 31
0.0
  0
LINE
  5
744
330
73F
100
AcDbEntity
  8
LC-001-100-D00-0
 62
     7
370
    25
100
AcDbLine
 10
-1.765031
 20
497.40014
 30
0.0
 11
0.484969
 21
499.65014
 31
0.0
  0
ENDBLK
  5
741
330
73F
100
AcDbEntity
  8
0
100
AcDbBlockEnd
  0
BLOCK
  5
747
330
746
100
AcDbEntity
  8
0
100
AcDbBlockBegin
  2
KLON28
 70
     0
 71
     0
 10
0.0
 20
0.0
 30
0.0
  3
KLON28
  1

  4
KLON28
  0
LINE
  5
749
330
746
100
AcDbEntity
  8
LC-001-100-D00-0
 62
     7
370
    25
100
AcDbLine
 10
31.307297
 20
449.65014
 30
0.0
 11
33.557296
 21
451.90014
 31
0.0
  0
LINE
  5
74A
330
746
100
AcDbEntity
  8
LC-001-100-D00-0
 62
     7
370
    25
100
AcDbLine
 10
58.248065
 20
449.65014
 30
0.0
 11
60.498064
 21
451.90014
 31
0.0
  0
ENDBLK
  5
748
330
746
100
AcDbEntity
  8
0
100
AcDbBlockEnd
  0
BLOCK
  5
74D
330
74C
100
AcDbEntity
  8
0
100
AcDbBlockBegin
  2
KLON29
 70
     0
 71
     0
 10
0.0
 20
0.0
 30
0.0
  3
KLON29
  1

  4
KLON29
  0
LINE
  5
74F
330
74C
100
AcDbEntity
  8
LC-001-100-D00-0
 62
     7
370
    25
100
AcDbLine
 10
-108.39654
 20
444.65014
 30
0.0
 11
-106.89654
 21
446.15014
 31
0.0
  0
LINE
  5
750
330
74C
100
AcDbEntity
  8
LC-001-100-D00-0
 62
     7
370
    25
100
AcDbLine
 10
-103.30268
 20
449.744
 30
0.0
 11
-101.80268
 21
451.244
 31
0.0
  0
LINE
  5
751
330
74C
100
AcDbEntity
  8
LC-001-100-D00-0
 62
     7
370
    25
100
AcDbLine
 10
-135.337307
 20
444.65014
 30
0.0
 11
-133.837307
 21
446.15014
 31
0.0
  0
LINE
  5
752
330
74C
100
AcDbEntity
  8
LC-001-100-D00-0
 62
     7
370
    25
100
AcDbLine
 10
-103.30268
 20
476.68477
 30
0.0
 11
-101.80268
 21
478.18477
 31
0.0
  0
LINE
  5
753
330
74C
100
AcDbEntity
  8
LC-001-100-D00-0
 62
     7
370
    25
100
AcDbLine
 10
-162.278075
 20
444.65014
 30
0.0
 11
-160.778075
 21
446.15014
 31
0.0
  0
LINE
  5
754
330
74C
100
AcDbEntity
  8
LC-001-100-D00-0
 62
     7
370
    25
100
AcDbLine
 10
-183.80268
 20
450.066302
 30
0.0
 11
-182.30268
 21
451.566303
 31
0.0
  0
LINE
  5
755
330
74C
100
AcDbEntity
  8
LC-001-100-D00-0
 62
     7
370
    25
100
AcDbLine
 10
-183.80268
 20
477.007072
 30
0.0
 11
-182.30268
 21
478.507072
 31
0.0
  0
LINE
  5
756
330
74C
100
AcDbEntity
  8
LC-001-100-D00-0
 62
     7
370
    25
100
AcDbLine
 10
-191.465762
 20
496.284759
 30
0.0
 11
-190.035189
 21
497.715332
 31
0.0
  0
ENDBLK
  5
74E
330
74C
100
AcDbEntity
  8
0
100
AcDbBlockEnd
  0
BLOCK
  5
759
330
758
100
AcDbEntity
  8
0
100
AcDbBlockBegin
  2
KLON30
 70
     0
 71
     0
 10
0.0
 20
0.0
 30
0.0
  3
KLON30
  1

  4
KLON30
  0
LINE
  5
75B
330
758
100
AcDbEntity
  8
LC-001-100-D00-0
 62
     7
370
    25
100
AcDbLine
 10
-51.711903
 20
447.453243
 30
0.0
 11
-47.515006
 21
451.65014
 31
0.0
  0
LINE
  5
75C
330
758
100
AcDbEntity
  8
LC-001-100-D00-0
 62
     7
370
    25
100
AcDbLine
 10
-77.455773
 20
448.65014
 30
0.0
 11
-74.455773
 21
451.65014
 31
0.0
  0
LINE
  5
75D
330
758
100
AcDbEntity
  8
LC-001-100-D00-0
 62
     7
370
    25
100
AcDbLine
 10
-110.89654
 20
442.15014
 30
0.0
 11
-107.89654
 21
445.15014
 31
0.0
  0
LINE
  5
75E
330
758
100
AcDbEntity
  8
LC-001-100-D00-0
 62
     7
370
    25
100
AcDbLine
 10
-137.837307
 20
442.15014
 30
0.0
 11
-134.837307
 21
445.15014
 31
0.0
  0
LINE
  5
75F
330
758
100
AcDbEntity
  8
LC-001-100-D00-0
 62
     7
370
    25
100
AcDbLine
 10
-164.778075
 20
442.15014
 30
0.0
 11
-161.778075
 21
445.15014
 31
0.0
  0
LINE
  5
760
330
758
100
AcDbEntity
  8
LC-001-100-D00-0
 62
     7
370
    25
100
AcDbLine
 10
-191.718842
 20
442.15014
 30
0.0
 11
-188.718842
 21
445.15014
 31
0.0
  0
LINE
  5
761
330
758
100
AcDbEntity
  8
LC-001-100-D00-0
 62
     7
370
    25
100
AcDbLine
 10
-210.509655
 20
450.300095
 30
0.0
 11
-208.284753
 21
452.524997
 31
0.0
  0
LINE
  5
762
330
758
100
AcDbEntity
  8
LC-001-100-D00-0
 62
     7
370
    25
100
AcDbLine
 10
-216.80268
 20
470.947839
 30
0.0
 11
-213.80268
 21
473.947839
 31
0.0
  0
LINE
  5
763
330
758
100
AcDbEntity
  8
LC-001-100-D00-0
 62
     7
370
    25
100
AcDbLine
 10
-216.80268
 20
497.888608
 30
0.0
 11
-213.80268
 21
500.888608
 31
0.0
  0
ENDBLK
  5
75A
330
758
100
AcDbEntity
  8
0
100
AcDbBlockEnd
  0
BLOCK
  5
766
330
765
100
AcDbEntity
  8
0
100
AcDbBlockBegin
  2
KLON31
 70
     0
 71
     0
 10
0.0
 20
0.0
 30
0.0
  3
KLON31
  1

  4
KLON31
  0
LINE
  5
768
330
765
100
AcDbEntity
  8
LC-001-100-D00-0
 62
     7
370
    25
100
AcDbLine
 10
-27.925143
 20
498.180774
 30
0.0
 11
-25.525967
 21
500.57995
 31
0.0
  0
LINE
  5
769
330
765
100
AcDbEntity
  8
LC-001-100-D00-0
 62
     7
370
    25
100
AcDbLine
 10
-55.396544
 20
497.65014
 30
0.0
 11
-48.302883
 21
504.743801
 31
0.0
  0
ENDBLK
  5
767
330
765
100
AcDbEntity
  8
0
100
AcDbBlockEnd
  0
BLOCK
  5
76D
330
76C
100
AcDbEntity
  8
0
100
AcDbBlockBegin
  2
KLON32
 70
     0
 71
     0
 10
0.0
 20
0.0
 30
0.0
  3
KLON32
  1

  4
KLON32
  0
LINE
  5
76F
330
76C
100
AcDbEntity
  8
LC-001-100-D00-0
 62
     7
370
    25
100
AcDbLine
 10
-80.80268
 20
499.184771
 30
0.0
 11
-78.837311
 21
501.15014
 31
0.0
  0
LINE
  5
770
330
76C
100
AcDbEntity
  8
LC-001-100-D00-0
 62
     7
370
    25
100
AcDbLine
 10
-77.80268
 20
502.184772
 30
0.0
 11
-74.837312
 21
505.15014
 31
0.0
  0
ENDBLK
  5
76E
330
76C
100
AcDbEntity
  8
0
100
AcDbBlockEnd
  0
BLOCK
  5
77B
330
77A
100
AcDbEntity
  8
0
100
AcDbBlockBegin
  2
KLON33
 70
     0
 71
     0
 10
0.0
 20
0.0
 30
0.0
  3
KLON33
  1

  4
KLON33
  0
LINE
  5
77D
330
77A
100
AcDbEntity
  8
LC-001-100-D00-0
 62
     7
370
    25
100
AcDbLine
 10
-252.55268
 20
516.020144
 30
0.0
 11
-249.153533
 21
519.419291
 31
0.0
  0
LINE
  5
77E
330
77A
100
AcDbEntity
  8
LC-001-100-D00-0
 62
     7
370
    25
100
AcDbLine
 10
-247.422685
 20
521.15014
 30
0.0
 11
-246.70268
 21
521.870145
 31
0.0
  0
ENDBLK
  5
77C
330
77A
100
AcDbEntity
  8
0
100
AcDbBlockEnd
  0
BLOCK
  5
784
330
783
100
AcDbEntity
  8
0
100
AcDbBlockBegin
  2
KLON34
 70
     0
 71
     0
 10
0.0
 20
0.0
 30
0.0
  3
KLON34
  1

  4
KLON34
  0
LINE
  5
786
330
783
100
AcDbEntity
  8
LC-001-100-D00-0
 62
     7
370
    25
100
AcDbLine
 10
-657.420329
 20
515.264006
 30
0.0
 11
-653.05268
 21
519.631655
 31
0.0
  0
LINE
  5
787
330
783
100
AcDbEntity
  8
LC-001-100-D00-0
 62
     7
370
    25
100
AcDbLine
 10
-647.534196
 20
525.15014
 30
0.0
 11
-644.55268
 21
528.131656
 31
0.0
  0
ENDBLK
  5
785
330
783
100
AcDbEntity
  8
0
100
AcDbBlockEnd
  0
BLOCK
  5
78C
330
78B
100
AcDbEntity
  8
0
100
AcDbBlockBegin
  2
KLON35
 70
     0
 71
     0
 10
0.0
 20
0.0
 30
0.0
  3
KLON35
  1

  4
KLON35
  0
LINE
  5
78E
330
78B
100
AcDbEntity
  8
LC-001-100-D00-0
 62
     7
370
    25
100
AcDbLine
 10
-37.571188
 20
515.475497
 30
0.0
 11
-33.05268
 21
519.994005
 31
0.0
  0
LINE
  5
78F
330
78B
100
AcDbEntity
  8
LC-001-100-D00-0
 62
     7
370
    25
100
AcDbLine
 10
-27.55268
 20
525.494006
 30
0.0
 11
-24.55268
 21
528.494006
 31
0.0
  0
ENDBLK
  5
78D
330
78B
100
AcDbEntity
  8
0
100
AcDbBlockEnd
  0
BLOCK
  5
793
330
792
100
AcDbEntity
  8
0
100
AcDbBlockBegin
  2
KLON36
 70
     0
 71
     0
 10
0.0
 20
0.0
 30
0.0
  3
KLON36
  1

  4
KLON36
  0
LINE
  5
795
330
792
100
AcDbEntity
  8
LC-001-100-D00-0
 62
     7
370
    25
100
AcDbLine
 10
367.44732
 20
516.382495
 30
0.0
 11
370.846467
 21
519.781642
 31
0.0
  0
LINE
  5
796
330
792
100
AcDbEntity
  8
LC-001-100-D00-0
 62
     7
370
    25
100
AcDbLine
 10
372.214965
 20
521.15014
 30
0.0
 11
373.29732
 21
522.232495
 31
0.0
  0
ENDBLK
  5
794
330
792
100
AcDbEntity
  8
0
100
AcDbBlockEnd
  0
ENDSEC
  0
SECTION
  2
ENTITIES
  0
ARC
  5
31
330
1F
100
AcDbEntity
  8
LC-001-100-D00-0
 62
     7
370
    50
100
AcDbCircle
 10
982.636642
 20
405.15014
 30
0.0
 40
0.5000000000001137
100
AcDbArc
 50
90.0
 51
180.0
  0
ARC
  5
32
330
1F
100
AcDbEntity
  8
LC-001-100-D00-0
 62
     7
370
    50
100
AcDbCircle
 10
1000.636642
 20
405.15014
 30
0.0
 40
0.4999999999997726
100
AcDbArc
 50
0.0
 51
90.0
  0
LINE
  5
33
330
1F
100
AcDbEntity
  8
LC-001-100-D00-0
 62
     7
370
    50
100
AcDbLine
 10
982.136642
 20
405.15014
 30
0.0
 11
982.136642
 21
397.65014
 31
0.0
  0
LINE
  5
34
330
1F
100
AcDbEntity
  8
LC-001-100-D00-0
 62
     7
370
    50
100
AcDbLine
 10
1001.136642
 20
397.65014
 30
0.0
 11
1001.136642
 21
405.15014
 31
0.0
  0
LINE
  5
35
330
1F
100
AcDbEntity
  8
LC-001-100-D00-0
 62
     7
370
    50
100
AcDbLine
 10
981.636641
 20
474.650139
 30
0.0
 11
981.636642
 21
420.65014
 31
0.0
  0
LINE
  5
36
330
1F
100
AcDbEntity
  8
LC-001-100-D00-0
 62
     7
370
    50
100
AcDbLine
 10
1001.636642
 20
420.65014
 30
0.0
 11
1001.636644
 21
474.650139
 31
0.0
  0
LINE
  5
37
330
1F
100
AcDbEntity
  8
LC-001-100-D00-0
 62
     7
370
    50
100
AcDbLine
 10
981.636642
 20
417.15014
 30
0.0
 11
981.636642
 21
406.65014
 31
0.0
  0
LINE
  5
38
330
1F
100
AcDbEntity
  8
LC-001-100-D00-0
 62
     7
370
    50
100
AcDbLine
 10
1001.636642
 20
406.65014
 30
0.0
 11
1001.636642
 21
417.15014
 31
0.0
  0
LINE
  5
39
330
1F
100
AcDbEntity
  8
LC-001-100-D00-0
 62
     7
370
    50
100
AcDbLine
 10
981.636642
 20
406.65014
 30
0.0
 11
982.636642
 21
405.65014
 31
0.0
  0
LINE
  5
3A
330
1F
100
AcDbEntity
  8
LC-001-100-D00-0
 62
     7
370
    50
100
AcDbLine
 10
1000.636642
 20
405.65014
 30
0.0
 11
1001.636642
 21
406.65014
 31
0.0
  0
LINE
  5
3B
330
1F
100
AcDbEntity
  8
LC-001-100-D00-0
 62
     7
370
    50
100
AcDbLine
 10
983.736643
 20
420.650138
 30
0.0
 11
983.736643
 21
417.150138
 31
0.0
  0
LINE
  5
3C
330
1F
100
AcDbEntity
  8
LC-001-100-D00-0
 62
     7
370
    50
100
AcDbLine
 10
999.536646
 20
417.150138
 30
0.0
 11
999.536646
 21
420.650138
 31
0.0
  0
ARC
  5
3D
330
1F
100
AcDbEntity
  8
LC-001-100-D00-0
 62
     7
370
    50
100
AcDbCircle
 10
896.536642
 20
506.25014
 30
0.0
 40
0.5999999999999091
100
AcDbArc
 50
270.0
 51
0.0
  0
ARC
  5
3E
330
1F
100
AcDbEntity
  8
LC-001-100-D00-0
 62
     7
370
    50
100
AcDbCircle
 10
887.736642
 20
506.25014
 30
0.0
 40
0.6000000000004775
100
AcDbArc
 50
180.0
 51
270.0
  0
LINE
  5
3F
330
1F
100
AcDbEntity
  8
LC-001-100-D00-0
 62
     7
370
    50
100
AcDbLine
 10
897.136642
 20
506.25014
 30
0.0
 11
897.136643
 21
509.650139
 31
0.0
  0
LINE
  5
40
330
1F
100
AcDbEntity
  8
LC-001-100-D00-0
 62
     7
370
    50
100
AcDbLine
 10
887.136643
 20
509.650139
 30
0.0
 11
887.136642
 21
506.25014
 31
0.0
  0
LINE
  5
41
330
1F
100
AcDbEntity
  8
LC-001-100-D00-0
 62
     7
370
    50
100
AcDbLine
 10
895.13664
 20
514.65014
 30
0.0
 11
895.13664
 21
515.65014
 31
0.0
  0
LINE
  5
42
330
1F
100
AcDbEntity
  8
LC-001-100-D00-0
 62
     7
370
    50
100
AcDbLine
 10
889.136643
 20
515.65014
 30
0.0
 11
889.136643
 21
514.65014
 31
0.0
  0
LINE
  5
43
330
1F
100
AcDbEntity
  8
LC-001-100-D00-0
 62
     7
370
    50
100
AcDbLine
 10
967.136642
 20
506.25014
 30
0.0
 11
967.136641
 21
509.650139
 31
0.0
  0
LINE
  5
44
330
1F
100
AcDbEntity
  8
LC-001-100-D00-0
 62
     7
370
    50
100
AcDbLine
 10
957.136641
 20
509.650139
 30
0.0
 11
957.136642
 21
506.25014
 31
0.0
  0
ARC
  5
45
330
1F
100
AcDbEntity
  8
LC-001-100-D00-0
 62
     7
370
    50
100
AcDbCircle
 10
966.536642
 20
506.25014
 30
0.0
 40
0.5999999999999091
100
AcDbArc
 50
270.0
 51
0.0
  0
ARC
  5
46
330
1F
100
AcDbEntity
  8
LC-001-100-D00-0
 62
     7
370
    50
100
AcDbCircle
 10
957.736642
 20
506.25014
 30
0.0
 40
0.6000000000000227
100
AcDbArc
 50
180.0
 51
270.0
  0
LINE
  5
47
330
1F
100
AcDbEntity
  8
LC-001-100-D00-0
 62
     7
370
    50
100
AcDbLine
 10
965.136641
 20
514.65014
 30
0.0
 11
965.136641
 21
515.65014
 31
0.0
  0
LINE
  5
48
330
1F
100
AcDbEntity
  8
LC-001-100-D00-0
 62
     7
370
    50
100
AcDbLine
 10
959.136643
 20
515.65014
 30
0.0
 11
959.136643
 21
514.65014
 31
0.0
  0
LINE
  5
49
330
1F
100
AcDbEntity
  8
LC-001-100-D00-0
 62
     7
370
    50
100
AcDbLine
 10
897.636642
 20
509.65014
 30
0.0
 11
897.636642
 21
511.650139
 31
0.0
  0
LINE
  5
4A
330
1F
100
AcDbEntity
  8
LC-001-100-D00-0
 62
     7
370
    50
100
AcDbLine
 10
886.636642
 20
511.65014
 30
0.0
 11
886.636642
 21
509.65014
 31
0.0
  0
LINE
  5
4B
330
1F
100
AcDbEntity
  8
LC-001-100-D00-0
 62
     7
370
    50
100
AcDbLine
 10
967.636642
 20
509.65014
 30
0.0
 11
967.636642
 21
511.65014
 31
0.0
  0
LINE
  5
4C
330
1F
100
AcDbEntity
  8
LC-001-100-D00-0
 62
     7
370
    50
100
AcDbLine
 10
956.636642
 20
511.650139
 30
0.0
 11
956.636642
 21
509.65014
 31
0.0
  0
LINE
  5
4D
330
1F
100
AcDbEntity
  8
LC-001-100-D00-0
 62
     7
370
    50
100
AcDbLine
 10
887.63664
 20
530.65014
 30
0.0
 11
887.636642
 21
529.25014
 31
0.0
  0
LINE
  5
4E
330
1F
100
AcDbEntity
  8
LC-001-100-D00-0
 62
     7
370
    50
100
AcDbLine
 10
896.636642
 20
529.25014
 30
0.0
 11
896.636642
 21
530.65014
 31
0.0
  0
LINE
  5
4F
330
1F
100
AcDbEntity
  8
LC-001-100-D00-0
 62
     7
370
    50
100
AcDbLine
 10
957.636642
 20
530.65014
 30
0.0
 11
957.636642
 21
529.25014
 31
0.0
  0
LINE
  5
50
330
1F
100
AcDbEntity
  8
LC-001-100-D00-0
 62
     7
370
    50
100
AcDbLine
 10
966.636642
 20
529.25014
 30
0.0
 11
966.636644
 21
530.65014
 31
0.0
  0
LINE
  5
51
330
1F
100
AcDbEntity
  8
LC-001-100-D00-0
 62
     7
370
    50
100
AcDbLine
 10
958.136641
 20
529.25014
 30
0.0
 11
958.136642
 21
515.65014
 31
0.0
  0
LINE
  5
52
330
1F
100
AcDbEntity
  8
LC-001-100-D00-0
 62
     7
370
    50
100
AcDbLine
 10
966.136642
 20
515.65014
 30
0.0
 11
966.136643
 21
529.25014
 31
0.0
  0
LINE
  5
53
330
1F
100
AcDbEntity
  8
LC-001-100-D00-0
 62
     7
370
    50
100
AcDbLine
 10
888.136641
 20
529.25014
 30
0.0
 11
888.136642
 21
515.65014
 31
0.0
  0
LINE
  5
54
330
1F
100
AcDbEntity
  8
LC-001-100-D00-0
 62
     7
370
    50
100
AcDbLine
 10
896.136642
 20
515.65014
 30
0.0
 11
896.136642
 21
529.25014
 31
0.0
  0
LINE
  5
55
330
1F
100
AcDbEntity
  8
LC-001-100-D00-0
 62
     7
370
    50
100
AcDbLine
 10
982.794718
 20
405.650144
 30
0.0
 11
1000.504536
 21
405.650144
 31
0.0
  0
LINE
  5
56
330
1F
100
AcDbEntity
  8
LC-001-100-D00-0
 62
     7
370
    50
100
AcDbLine
 10
993.574362
 20
397.65014
 30
0.0
 11
982.136642
 21
397.65014
 31
0.0
  0
LINE
  5
57
330
1F
100
AcDbEntity
  8
LC-001-100-D00-0
 62
     7
370
    50
100
AcDbLine
 10
1001.136642
 20
397.65014
 30
0.0
 11
993.574362
 21
397.65014
 31
0.0
  0
LINE
  5
58
330
1F
100
AcDbEntity
  8
LC-001-100-D00-0
 62
     7
370
    50
100
AcDbLine
 10
997.636642
 20
501.65014
 30
0.0
 11
985.636642
 21
501.65014
 31
0.0
  0
LINE
  5
59
330
1F
100
AcDbEntity
  8
LC-001-100-D00-0
 62
     7
370
    50
100
AcDbLine
 10
997.636642
 20
499.65014
 30
0.0
 11
985.636642
 21
499.65014
 31
0.0
  0
LINE
  5
5A
330
1F
100
AcDbEntity
  8
LC-001-100-D00-0
 62
     7
370
    50
100
AcDbLine
 10
979.636642
 20
499.65014
 30
0.0
 11
979.63664
 21
501.55014
 31
0.0
  0
LINE
  5
5B
330
1F
100
AcDbEntity
  8
LC-001-100-D00-0
 62
     7
370
    50
100
AcDbLine
 10
982.021783
 20
501.65014
 30
0.0
 11
985.636642
 21
501.65014
 31
0.0
  0
LINE
  5
5C
330
1F
100
AcDbEntity
  8
LC-001-100-D00-0
 62
     7
370
    50
100
AcDbLine
 10
985.636642
 20
499.65014
 30
0.0
 11
979.636642
 21
499.65014
 31
0.0
  0
LINE
  5
5D
330
1F
100
AcDbEntity
  8
LC-001-100-D00-0
 62
     7
370
    50
100
AcDbLine
 10
1003.636641
 20
501.55014
 30
0.0
 11
1003.636642
 21
499.65014
 31
0.0
  0
LINE
  5
5E
330
1F
100
AcDbEntity
  8
LC-001-100-D00-0
 62
     7
370
    50
100
AcDbLine
 10
997.636642
 20
501.65014
 30
0.0
 11
1001.251501
 21
501.65014
 31
0.0
  0
LINE
  5
5F
330
1F
100
AcDbEntity
  8
LC-001-100-D00-0
 62
     7
370
    50
100
AcDbLine
 10
1003.636642
 20
499.65014
 30
0.0
 11
997.636642
 21
499.65014
 31
0.0
  0
LINE
  5
60
330
1F
100
AcDbEntity
  8
LC-001-100-D00-0
 62
     7
370
    50
100
AcDbLine
 10
995.136642
 20
474.65014
 30
0.0
 11
988.136642
 21
474.65014
 31
0.0
  0
LINE
  5
61
330
1F
100
AcDbEntity
  8
LC-001-100-D00-0
 62
     7
370
    50
100
AcDbLine
 10
1000.136642
 20
474.65014
 30
0.0
 11
995.136642
 21
474.65014
 31
0.0
  0
LINE
  5
62
330
1F
100
AcDbEntity
  8
LC-001-100-D00-0
 62
     7
370
    50
100
AcDbLine
 10
988.136642
 20
474.65014
 30
0.0
 11
983.136642
 21
474.65014
 31
0.0
  0
LINE
  5
63
330
1F
100
AcDbEntity
  8
LC-001-100-D00-0
 62
     7
370
    50
100
AcDbLine
 10
979.636642
 20
474.65014
 30
0.0
 11
979.636642
 21
499.65014
 31
0.0
  0
LINE
  5
64
330
1F
100
AcDbEntity
  8
LC-001-100-D00-0
 62
     7
370
    50
100
AcDbLine
 10
983.136642
 20
474.65014
 30
0.0
 11
979.636642
 21
474.65014
 31
0.0
  0
LINE
  5
65
330
1F
100
AcDbEntity
  8
LC-001-100-D00-0
 62
     7
370
    50
100
AcDbLine
 10
1003.636642
 20
499.65014
 30
0.0
 11
1003.636642
 21
474.65014
 31
0.0
  0
LINE
  5
66
330
1F
100
AcDbEntity
  8
LC-001-100-D00-0
 62
     7
370
    50
100
AcDbLine
 10
1003.636642
 20
474.65014
 30
0.0
 11
1000.136642
 21
474.65014
 31
0.0
  0
LINE
  5
67
330
1F
100
AcDbEntity
  8
LC-001-100-D00-0
 62
     7
370
    50
100
AcDbLine
 10
981.636642
 20
420.65014
 30
0.0
 11
1001.636642
 21
420.65014
 31
0.0
  0
LINE
  5
68
330
1F
100
AcDbEntity
  8
LC-001-100-D00-0
 62
     7
370
    50
100
AcDbLine
 10
993.676347
 20
406.65014
 30
0.0
 11
1001.636642
 21
406.65014
 31
0.0
  0
LINE
  5
69
330
1F
100
AcDbEntity
  8
LC-001-100-D00-0
 62
     7
370
    50
100
AcDbLine
 10
981.636642
 20
406.65014
 30
0.0
 11
993.676347
 21
406.65014
 31
0.0
  0
LINE
  5
6A
330
1F
100
AcDbEntity
  8
LC-001-100-D00-0
 62
     7
370
    50
100
AcDbLine
 10
981.636642
 20
417.15014
 30
0.0
 11
1001.636642
 21
417.15014
 31
0.0
  0
LINE
  5
6B
330
1F
100
AcDbEntity
  8
LC-001-100-D00-0
 62
     7
370
    50
100
AcDbLine
 10
993.472376
 20
405.65014
 30
0.0
 11
982.636642
 21
405.65014
 31
0.0
  0
LINE
  5
6C
330
1F
100
AcDbEntity
  8
LC-001-100-D00-0
 62
     7
370
    50
100
AcDbLine
 10
1000.636642
 20
405.65014
 30
0.0
 11
993.472376
 21
405.65014
 31
0.0
  0
LINE
  5
6D
330
1F
100
AcDbEntity
  8
LC-001-100-D00-0
 62
     7
370
    50
100
AcDbLine
 10
892.136642
 20
505.65014
 30
0.0
 11
887.736642
 21
505.65014
 31
0.0
  0
LINE
  5
6E
330
1F
100
AcDbEntity
  8
LC-001-100-D00-0
 62
     7
370
    50
100
AcDbLine
 10
896.536642
 20
505.65014
 30
0.0
 11
892.136642
 21
505.65014
 31
0.0
  0
LINE
  5
6F
330
1F
100
AcDbEntity
  8
LC-001-100-D00-0
 62
     7
370
    50
100
AcDbLine
 10
962.136642
 20
505.65014
 30
0.0
 11
957.736642
 21
505.65014
 31
0.0
  0
LINE
  5
70
330
1F
100
AcDbEntity
  8
LC-001-100-D00-0
 62
     7
370
    50
100
AcDbLine
 10
966.536642
 20
505.65014
 30
0.0
 11
962.136642
 21
505.65014
 31
0.0
  0
LINE
  5
71
330
1F
100
AcDbEntity
  8
LC-001-100-D00-0
 62
     7
370
    50
100
AcDbLine
 10
891.636642
 20
511.65014
 30
0.0
 11
886.636642
 21
511.65014
 31
0.0
  0
LINE
  5
72
330
1F
100
AcDbEntity
  8
LC-001-100-D00-0
 62
     7
370
    50
100
AcDbLine
 10
886.636642
 20
511.65014
 30
0.0
 11
886.636642
 21
514.65014
 31
0.0
  0
LINE
  5
73
330
1F
100
AcDbEntity
  8
LC-001-100-D00-0
 62
     7
370
    50
100
AcDbLine
 10
886.636642
 20
514.65014
 30
0.0
 11
891.636642
 21
514.65014
 31
0.0
  0
LINE
  5
74
330
1F
100
AcDbEntity
  8
LC-001-100-D00-0
 62
     7
370
    50
100
AcDbLine
 10
954.636642
 20
514.65014
 30
0.0
 11
962.636642
 21
514.65014
 31
0.0
  0
LINE
  5
75
330
1F
100
AcDbEntity
  8
LC-001-100-D00-0
 62
     7
370
    50
100
AcDbLine
 10
954.636642
 20
511.650139
 30
0.0
 11
962.636642
 21
511.65014
 31
0.0
  0
LINE
  5
76
330
1F
100
AcDbEntity
  8
LC-001-100-D00-0
 62
     7
370
    50
100
AcDbLine
 10
967.636642
 20
514.65014
 30
0.0
 11
967.636642
 21
511.65014
 31
0.0
  0
LINE
  5
77
330
1F
100
AcDbEntity
  8
LC-001-100-D00-0
 62
     7
370
    50
100
AcDbLine
 10
962.636642
 20
514.65014
 30
0.0
 11
967.636642
 21
514.65014
 31
0.0
  0
LINE
  5
78
330
1F
100
AcDbEntity
  8
LC-001-100-D00-0
 62
     7
370
    50
100
AcDbLine
 10
967.636642
 20
511.65014
 30
0.0
 11
962.636642
 21
511.65014
 31
0.0
  0
LINE
  5
79
330
1F
100
AcDbEntity
  8
LC-001-100-D00-0
 62
     7
370
    50
100
AcDbLine
 10
891.636642
 20
514.65014
 30
0.0
 11
899.636642
 21
514.65014
 31
0.0
  0
LINE
  5
7A
330
1F
100
AcDbEntity
  8
LC-001-100-D00-0
 62
     7
370
    50
100
AcDbLine
 10
891.636642
 20
511.65014
 30
0.0
 11
899.636642
 21
511.650139
 31
0.0
  0
LINE
  5
7B
330
1F
100
AcDbEntity
  8
LC-001-100-D00-0
 62
     7
370
    50
100
AcDbLine
 10
965.08345
 20
501.40014
 30
0.0
 11
889.189833
 21
501.40014
 31
0.0
  0
LINE
  5
7C
330
1F
100
AcDbEntity
  8
LC-001-100-D00-0
 62
     7
370
    50
100
AcDbLine
 10
967.636642
 20
515.65014
 30
0.0
 11
967.636642
 21
514.65014
 31
0.0
  0
LINE
  5
7D
330
1F
100
AcDbEntity
  8
LC-001-100-D00-0
 62
     7
370
    50
100
AcDbLine
 10
886.636642
 20
514.65014
 30
0.0
 11
886.636642
 21
515.65014
 31
0.0
  0
LINE
  5
7E
330
1F
100
AcDbEntity
  8
LC-001-100-D00-0
 62
     7
370
    50
100
AcDbLine
 10
886.636642
 20
515.65014
 30
0.0
 11
886.636642
 21
530.65014
 31
0.0
  0
LINE
  5
7F
330
1F
100
AcDbEntity
  8
LC-001-100-D00-0
 62
     7
370
    50
100
AcDbLine
 10
967.636642
 20
530.65014
 30
0.0
 11
967.636642
 21
515.65014
 31
0.0
  0
LINE
  5
80
330
1F
100
AcDbEntity
  8
LC-001-100-D00-0
 62
     7
370
    50
100
AcDbLine
 10
967.636642
 20
509.65014
 30
0.0
 11
967.636642
 21
501.40014
 31
0.0
  0
LINE
  5
81
330
1F
100
AcDbEntity
  8
LC-001-100-D00-0
 62
     7
370
    50
100
AcDbLine
 10
967.636642
 20
501.40014
 30
0.0
 11
965.08345
 21
501.40014
 31
0.0
  0
LINE
  5
82
330
1F
100
AcDbEntity
  8
LC-001-100-D00-0
 62
     7
370
    50
100
AcDbLine
 10
886.636642
 20
501.40014
 30
0.0
 11
886.636642
 21
509.65014
 31
0.0
  0
LINE
  5
83
330
1F
100
AcDbEntity
  8
LC-001-100-D00-0
 62
     7
370
    50
100
AcDbLine
 10
889.189833
 20
501.40014
 30
0.0
 11
886.636642
 21
501.40014
 31
0.0
  0
LINE
  5
84
330
1F
100
AcDbEntity
  8
LC-001-100-D00-0
 62
     7
370
    50
100
AcDbLine
 10
889.189833
 20
501.40014
 30
0.0
 11
965.08345
 21
501.40014
 31
0.0
  0
LINE
  5
85
330
1F
100
AcDbEntity
  8
LC-001-100-D00-0
 62
     7
370
    50
100
AcDbLine
 10
954.179195
 20
448.65014
 30
0.0
 11
900.094089
 21
448.65014
 31
0.0
  0
LINE
  5
86
330
1F
100
AcDbEntity
  8
LC-001-100-D00-0
 62
     7
370
    50
100
AcDbLine
 10
947.652239
 20
442.15014
 30
0.0
 11
906.621045
 21
442.15014
 31
0.0
  0
LINE
  5
87
330
1F
100
AcDbEntity
  8
LC-001-100-D00-0
 62
     7
370
    50
100
AcDbLine
 10
967.636642
 20
501.40014
 30
0.0
 11
967.636642
 21
461.15014
 31
0.0
  0
LINE
  5
88
330
1F
100
AcDbEntity
  8
LC-001-100-D00-0
 62
     7
370
    50
100
AcDbLine
 10
965.08345
 20
501.40014
 30
0.0
 11
967.636642
 21
501.40014
 31
0.0
  0
ARC
  5
89
330
1F
100
AcDbEntity
  8
LC-001-100-D00-0
 62
     7
370
    50
100
AcDbCircle
 10
955.136642
 20
461.15014
 30
0.0
 40
12.50000000000011
100
AcDbArc
 50
270.0
 51
0.0
  0
LINE
  5
8A
330
1F
100
AcDbEntity
  8
LC-001-100-D00-0
 62
     7
370
    50
100
AcDbLine
 10
955.136642
 20
448.65014
 30
0.0
 11
954.179195
 21
448.65014
 31
0.0
  0
ARC
  5
8B
330
1F
100
AcDbEntity
  8
LC-001-100-D00-0
 62
     7
370
    50
100
AcDbCircle
 10
899.136642
 20
461.15014
 30
0.0
 40
12.50000000000046
100
AcDbArc
 50
180.0
 51
270.0
  0
LINE
  5
8C
330
1F
100
AcDbEntity
  8
LC-001-100-D00-0
 62
     7
370
    50
100
AcDbLine
 10
900.094089
 20
448.65014
 30
0.0
 11
899.136642
 21
448.65014
 31
0.0
  0
LINE
  5
8D
330
1F
100
AcDbEntity
  8
LC-001-100-D00-0
 62
     7
370
    50
100
AcDbLine
 10
886.636642
 20
461.15014
 30
0.0
 11
886.636642
 21
501.40014
 31
0.0
  0
LINE
  5
8E
330
1F
100
AcDbEntity
  8
LC-001-100-D00-0
 62
     7
370
    50
100
AcDbLine
 10
886.636642
 20
501.40014
 30
0.0
 11
889.189833
 21
501.40014
 31
0.0
  0
ARC
  5
8F
330
1F
100
AcDbEntity
  8
LC-001-100-D00-0
 62
     7
370
    50
100
AcDbCircle
 10
906.618762
 20
449.15014
 30
0.0
 40
7.000000000000109
100
AcDbArc
 50
184.096044
 51
270.0
  0
LINE
  5
90
330
1F
100
AcDbEntity
  8
LC-001-100-D00-0
 62
     7
370
    50
100
AcDbLine
 10
906.621045
 20
442.15014
 30
0.0
 11
906.618762
 21
442.15014
 31
0.0
  0
ARC
  5
91
330
1F
100
AcDbEntity
  8
LC-001-100-D00-0
 62
     7
370
    50
100
AcDbCircle
 10
947.654522
 20
449.15014
 30
0.0
 40
7.000000000000227
100
AcDbArc
 50
270.0
 51
355.903956
  0
LINE
  5
92
330
1F
100
AcDbEntity
  8
LC-001-100-D00-0
 62
     7
370
    50
100
AcDbLine
 10
947.654522
 20
442.15014
 30
0.0
 11
947.652239
 21
442.15014
 31
0.0
  0
LINE
  5
93
330
1F
100
AcDbEntity
  8
LC-001-100-D00-0
 62
     7
370
    50
100
AcDbLine
 10
892.136642
 20
509.65014
 30
0.0
 11
897.636642
 21
509.65014
 31
0.0
  0
LINE
  5
94
330
1F
100
AcDbEntity
  8
LC-001-100-D00-0
 62
     7
370
    50
100
AcDbLine
 10
886.636642
 20
509.65014
 30
0.0
 11
892.136642
 21
509.65014
 31
0.0
  0
LINE
  5
95
330
1F
100
AcDbEntity
  8
LC-001-100-D00-0
 62
     7
370
    50
100
AcDbLine
 10
962.136642
 20
509.65014
 30
0.0
 11
967.636642
 21
509.65014
 31
0.0
  0
LINE
  5
96
330
1F
100
AcDbEntity
  8
LC-001-100-D00-0
 62
     7
370
    50
100
AcDbLine
 10
956.636642
 20
509.65014
 30
0.0
 11
962.136642
 21
509.65014
 31
0.0
  0
ARC
  5
97
330
1F
100
AcDbEntity
  8
LC-001-100-D00-0
 62
     7
370
    50
100
AcDbCircle
 10
884.136642
 20
533.65014
 30
0.0
 40
1.500000000000568
100
AcDbArc
 50
180.0
 51
270.0
  0
LINE
  5
98
330
1F
100
AcDbEntity
  8
LC-001-100-D00-0
 62
     7
370
    50
100
AcDbLine
 10
884.136642
 20
532.15014
 30
0.0
 11
999.636642
 21
532.15014
 31
0.0
  0
LINE
  5
99
330
1F
100
AcDbEntity
  8
LC-001-100-D00-0
 62
     7
370
    50
100
AcDbLine
 10
883.636642
 20
530.65014
 30
0.0
 11
999.636642
 21
530.65014
 31
0.0
  0
ARC
  5
9A
330
1F
100
AcDbEntity
  8
LC-001-100-D00-0
 62
     7
370
    50
100
AcDbCircle
 10
883.636642
 20
533.15014
 30
0.0
 40
2.500000000000227
100
AcDbArc
 50
180.0
 51
270.0
  0
LINE
  5
9B
330
1F
100
AcDbEntity
  8
LC-001-100-D00-0
 62
     7
370
    50
100
AcDbLine
 10
881.136642
 20
533.15014
 30
0.0
 11
881.136642
 21
577.15014
 31
0.0
  0
LINE
  5
9C
330
1F
100
AcDbEntity
  8
LC-001-100-D00-0
 62
     7
370
    50
100
AcDbLine
 10
882.636642
 20
577.15014
 30
0.0
 11
882.636642
 21
533.65014
 31
0.0
  0
LINE
  5
9D
330
1F
100
AcDbEntity
  8
LC-001-100-D00-0
 62
     7
370
    50
100
AcDbLine
 10
999.636642
 20
532.15014
 30
0.0
 11
1004.636642
 21
532.15014
 31
0.0
  0
LINE
  5
9E
330
1F
100
AcDbEntity
  8
LC-001-100-D00-0
 62
     7
370
    50
100
AcDbLine
 10
1004.636642
 20
532.15014
 30
0.0
 11
1004.636642
 21
530.65014
 31
0.0
  0
LINE
  5
9F
330
1F
100
AcDbEntity
  8
LC-001-100-D00-0
 62
     7
370
    50
100
AcDbLine
 10
1004.636642
 20
530.65014
 30
0.0
 11
999.636642
 21
530.65014
 31
0.0
  0
LINE
  5
A0
330
1F
100
AcDbEntity
  8
LC-001-100-D00-0
 62
     7
370
    50
100
AcDbLine
 10
881.136642
 20
582.15014
 30
0.0
 11
882.636642
 21
582.15014
 31
0.0
  0
LINE
  5
A1
330
1F
100
AcDbEntity
  8
LC-001-100-D00-0
 62
     7
370
    50
100
AcDbLine
 10
882.636642
 20
582.15014
 30
0.0
 11
882.636642
 21
577.15014
 31
0.0
  0
LINE
  5
A2
330
1F
100
AcDbEntity
  8
LC-001-100-D00-0
 62
     7
370
    50
100
AcDbLine
 10
881.136642
 20
577.15014
 30
0.0
 11
881.136642
 21
582.15014
 31
0.0
  0
ARC
  5
A3
330
1F
100
AcDbEntity
  8
LC-001-100-D00-0
 62
     7
370
    50
100
AcDbCircle
 10
898.136642
 20
529.15014
 30
0.0
 40
1.5
100
AcDbArc
 50
0.0
 51
90.0
  0
ARC
  5
A4
330
1F
100
AcDbEntity
  8
LC-001-100-D00-0
 62
     7
370
    50
100
AcDbCircle
 10
956.136642
 20
529.15014
 30
0.0
 40
1.5
100
AcDbArc
 50
90.0
 51
180.0
  0
ARC
  5
A5
330
1F
100
AcDbEntity
  8
LC-001-100-D00-0
 62
     7
370
    50
100
AcDbCircle
 10
903.636642
 20
514.15014
 30
0.0
 40
4.000000000000796
100
AcDbArc
 50
180.0
 51
270.0
  0
LINE
  5
A6
330
1F
100
AcDbEntity
  8
LC-001-100-D00-0
 62
     7
370
    50
100
AcDbLine
 10
899.636642
 20
519.65014
 30
0.0
 11
899.636642
 21
514.15014
 31
0.0
  0
LINE
  5
A7
330
1F
100
AcDbEntity
  8
LC-001-100-D00-0
 62
     7
370
    50
100
AcDbLine
 10
939.470051
 20
510.15014
 30
0.0
 11
950.636642
 21
510.15014
 31
0.0
  0
LINE
  5
A8
330
1F
100
AcDbEntity
  8
LC-001-100-D00-0
 62
     7
370
    50
100
AcDbLine
 10
939.291837
 20
510.15014
 30
0.0
 11
939.470051
 21
510.15014
 31
0.0
  0
LINE
  5
A9
330
1F
100
AcDbEntity
  8
LC-001-100-D00-0
 62
     7
370
    50
100
AcDbLine
 10
939.291837
 20
510.15014
 30
0.0
 11
914.981447
 21
510.15014
 31
0.0
  0
LINE
  5
AA
330
1F
100
AcDbEntity
  8
LC-001-100-D00-0
 62
     7
370
    50
100
AcDbLine
 10
914.803233
 20
510.15014
 30
0.0
 11
914.981447
 21
510.15014
 31
0.0
  0
LINE
  5
AB
330
1F
100
AcDbEntity
  8
LC-001-100-D00-0
 62
     7
370
    50
100
AcDbLine
 10
903.636642
 20
510.15014
 30
0.0
 11
914.803233
 21
510.15014
 31
0.0
  0
ARC
  5
AC
330
1F
100
AcDbEntity
  8
LC-001-100-D00-0
 62
     7
370
    50
100
AcDbCircle
 10
950.636642
 20
514.15014
 30
0.0
 40
4.000000000014666
100
AcDbArc
 50
270.0
 51
0.0
  0
LINE
  5
AD
330
1F
100
AcDbEntity
  8
LC-001-100-D00-0
 62
     7
370
    50
100
AcDbLine
 10
954.636642
 20
514.15014
 30
0.0
 11
954.636642
 21
519.65014
 31
0.0
  0
LINE
  5
AE
330
1F
100
AcDbEntity
  8
LC-001-100-D00-0
 62
     7
370
    50
100
AcDbLine
 10
954.636642
 20
529.15014
 30
0.0
 11
954.636642
 21
519.65014
 31
0.0
  0
LINE
  5
AF
330
1F
100
AcDbEntity
  8
LC-001-100-D00-0
 62
     7
370
    50
100
AcDbLine
 10
899.636642
 20
519.65014
 30
0.0
 11
899.636642
 21
529.15014
 31
0.0
  0
ARC
  5
B0
330
1F
100
AcDbEntity
  8
LC-001-100-D00-0
 62
     7
370
    50
100
AcDbCircle
 10
950.636642
 20
509.15014
 30
0.0
 40
3.999999999999886
100
AcDbArc
 50
270.0
 51
0.0
  0
LINE
  5
B1
330
1F
100
AcDbEntity
  8
LC-001-100-D00-0
 62
     7
370
    50
100
AcDbLine
 10
954.636642
 20
514.15014
 30
0.0
 11
954.636642
 21
509.15014
 31
0.0
  0
ARC
  5
B2
330
1F
100
AcDbEntity
  8
LC-001-100-D00-0
 62
     7
370
    50
100
AcDbCircle
 10
903.636642
 20
509.15014
 30
0.0
 40
4.00000000004718
100
AcDbArc
 50
180.0
 51
270.0
  0
LINE
  5
B3
330
1F
100
AcDbEntity
  8
LC-001-100-D00-0
 62
     7
370
    50
100
AcDbLine
 10
899.636642
 20
509.15014
 30
0.0
 11
899.636642
 21
514.15014
 31
0.0
  0
LINE
  5
B4
330
1F
100
AcDbEntity
  8
LC-001-100-D00-0
 62
     7
370
    50
100
AcDbLine
 10
932.522601
 20
510.021487
 30
0.0
 11
932.521517
 21
510.021849
 31
0.0
  0
ARC
  5
B5
330
1F
100
AcDbEntity
  8
LC-001-100-D00-0
 62
     7
370
    50
100
AcDbCircle
 10
931.730948
 20
507.65014
 30
0.0
 40
2.500000000000169
100
AcDbArc
 50
71.565051
 51
90.0
  0
LINE
  5
B6
330
1F
100
AcDbEntity
  8
LC-001-100-D00-0
 62
     7
370
    50
100
AcDbLine
 10
906.485674
 20
505.150139
 30
0.0
 11
903.636643
 21
505.150139
 31
0.0
  0
LINE
  5
B7
330
1F
100
AcDbEntity
  8
LC-001-100-D00-0
 62
     7
370
    50
100
AcDbLine
 10
950.636641
 20
505.150139
 30
0.0
 11
947.78761
 21
505.150139
 31
0.0
  0
ARC
  5
B8
330
1F
100
AcDbEntity
  8
LC-001-100-D00-0
 62
     7
370
    50
100
AcDbCircle
 10
922.542336
 20
507.65014
 30
0.0
 40
2.500000000000227
100
AcDbArc
 50
90.0
 51
108.434949
  0
LINE
  5
B9
330
1F
100
AcDbEntity
  8
LC-001-100-D00-0
 62
     7
370
    50
100
AcDbLine
 10
921.751767
 20
510.021849
 30
0.0
 11
921.750683
 21
510.021487
 31
0.0
  0
LINE
  5
BA
330
1F
100
AcDbEntity
  8
LC-001-100-D00-0
 62
     7
370
    50
100
AcDbLine
 10
947.78761
 20
505.150139
 30
0.0
 11
947.785753
 21
505.150139
 31
0.0
  0
LINE
  5
BB
330
1F
100
AcDbEntity
  8
LC-001-100-D00-0
 62
     7
370
    50
100
AcDbLine
 10
947.785753
 20
505.150139
 30
0.0
 11
946.520842
 21
505.355407
 31
0.0
  0
LINE
  5
BC
330
1F
100
AcDbEntity
  8
LC-001-100-D00-0
 62
     7
370
    50
100
AcDbLine
 10
946.520842
 20
505.355407
 30
0.0
 11
946.518761
 21
505.356099
 31
0.0
  0
LINE
  5
BD
330
1F
100
AcDbEntity
  8
LC-001-100-D00-0
 62
     7
370
    50
100
AcDbLine
 10
906.487531
 20
505.150139
 30
0.0
 11
907.752442
 21
505.355407
 31
0.0
  0
LINE
  5
BE
330
1F
100
AcDbEntity
  8
LC-001-100-D00-0
 62
     7
370
    50
100
AcDbLine
 10
906.487531
 20
505.150139
 30
0.0
 11
906.485674
 21
505.150139
 31
0.0
  0
LINE
  5
BF
330
1F
100
AcDbEntity
  8
LC-001-100-D00-0
 62
     7
370
    50
100
AcDbLine
 10
907.754523
 20
505.356099
 30
0.0
 11
907.752442
 21
505.355407
 31
0.0
  0
LINE
  5
C0
330
1F
100
AcDbEntity
  8
LC-001-100-D00-0
 62
     7
370
    50
100
AcDbLine
 10
946.518761
 20
505.356099
 30
0.0
 11
932.522601
 21
510.021487
 31
0.0
  0
LINE
  5
C1
330
1F
100
AcDbEntity
  8
LC-001-100-D00-0
 62
     7
370
    50
100
AcDbLine
 10
921.750683
 20
510.021487
 30
0.0
 11
907.754523
 21
505.356099
 31
0.0
  0
LINE
  5
C2
330
1F
100
AcDbEntity
  8
LC-001-100-D00-0
 62
     7
370
    50
100
AcDbLine
 10
978.636642
 20
530.65014
 30
0.0
 11
978.636642
 21
528.65014
 31
0.0
  0
LINE
  5
C3
330
1F
100
AcDbEntity
  8
LC-001-100-D00-0
 62
     7
370
    50
100
AcDbLine
 10
978.636642
 20
528.65014
 30
0.0
 11
1004.636642
 21
528.65014
 31
0.0
  0
LINE
  5
C4
330
1F
100
AcDbEntity
  8
LC-001-100-D00-0
 62
     7
370
    50
100
AcDbLine
 10
1004.636642
 20
530.65014
 30
0.0
 11
1004.636642
 21
528.65014
 31
0.0
  0
LINE
  5
C5
330
1F
100
AcDbEntity
  8
LC-001-100-D00-0
 62
     7
370
    50
100
AcDbLine
 10
978.636642
 20
526.65014
 30
0.0
 11
978.636642
 21
528.65014
 31
0.0
  0
LINE
  5
C6
330
1F
100
AcDbEntity
  8
LC-001-100-D00-0
 62
     7
370
    50
100
AcDbLine
 10
1004.636642
 20
528.65014
 30
0.0
 11
1004.636642
 21
526.65014
 31
0.0
  0
LINE
  5
C7
330
1F
100
AcDbEntity
  8
LC-001-100-D00-0
 62
     7
370
    50
100
AcDbLine
 10
1004.636642
 20
501.55014
 30
0.0
 11
1002.19625
 21
501.55014
 31
0.0
  0
LINE
  5
C8
330
1F
100
AcDbEntity
  8
LC-001-100-D00-0
 62
     7
370
    50
100
AcDbLine
 10
981.077035
 20
501.55014
 30
0.0
 11
978.636642
 21
501.55014
 31
0.0
  0
LINE
  5
C9
330
1F
100
AcDbEntity
  8
LC-001-100-D00-0
 62
     7
370
    50
100
AcDbLine
 10
978.636642
 20
501.55014
 30
0.0
 11
978.636642
 21
505.55014
 31
0.0
  0
LINE
  5
CA
330
1F
100
AcDbEntity
  8
LC-001-100-D00-0
 62
     7
370
    50
100
AcDbLine
 10
1004.636642
 20
505.55014
 30
0.0
 11
1004.636642
 21
501.55014
 31
0.0
  0
LINE
  5
CB
330
1F
100
AcDbEntity
  8
LC-001-100-D00-0
 62
     7
370
    50
100
AcDbLine
 10
978.636642
 20
526.65014
 30
0.0
 11
978.636642
 21
505.55014
 31
0.0
  0
LINE
  5
CC
330
1F
100
AcDbEntity
  8
LC-001-100-D00-0
 62
     7
370
    50
100
AcDbLine
 10
1004.636642
 20
526.65014
 30
0.0
 11
1004.636642
 21
505.55014
 31
0.0
  0
LINE
  5
CD
330
1F
100
AcDbEntity
  8
LC-001-100-D00-0
 62
     7
370
    50
100
AcDbLine
 10
947.785753
 20
505.150139
 30
0.0
 11
946.066502
 21
505.150139
 31
0.0
  0
LINE
  5
CE
330
1F
100
AcDbEntity
  8
LC-001-100-D00-0
 62
     7
370
    50
100
AcDbLine
 10
908.206782
 20
505.150139
 30
0.0
 11
906.487531
 21
505.150139
 31
0.0
  0
LINE
  5
CF
330
1F
100
AcDbEntity
  8
LC-001-100-D00-0
 62
     7
370
    50
100
AcDbLine
 10
946.066502
 20
505.150139
 30
0.0
 11
908.206782
 21
505.150139
 31
0.0
  0
LINE
  5
D0
330
1F
100
AcDbEntity
  8
LC-001-100-D00-0
 62
     7
370
    50
100
AcDbLine
 10
887.636642
 20
529.25014
 30
0.0
 11
896.636642
 21
529.25014
 31
0.0
  0
LINE
  5
D1
330
1F
100
AcDbEntity
  8
LC-001-100-D00-0
 62
     7
370
    50
100
AcDbLine
 10
966.636642
 20
529.25014
 30
0.0
 11
957.636642
 21
529.25014
 31
0.0
  0
LINE
  5
D2
330
1F
100
AcDbEntity
  8
LC-001-100-D00-0
 62
     7
370
    50
100
AcDbLine
 10
966.136642
 20
515.65014
 30
0.0
 11
958.136642
 21
515.65014
 31
0.0
  0
LINE
  5
D3
330
1F
100
AcDbEntity
  8
LC-001-100-D00-0
 62
     7
370
    50
100
AcDbLine
 10
888.136642
 20
515.65014
 30
0.0
 11
896.136642
 21
515.65014
 31
0.0
  0
DIMENSION
  5
D6
330
1F
100
AcDbEntity
  8
LC-001-100-D00-0
 62
     7
370
    25
100
AcDbDimension
  2
*D1
 10
967.636642
 20
388.709042
 30
0.0
 11
927.183401
 21
443.709042
 31
0.0
 70
   160
  1
81
 71
     5
 42
81.0
  3
LC-DIM-L-0100-02-02
100
AcDbAlignedDimension
 13
886.636642
 23
461.15014
 33
0.0
 14
967.636642
 24
461.15014
 34
0.0
100
AcDbRotatedDimension
  0
LINE
  5
E7
330
1F
100
AcDbEntity
  8
LC-001-100-D00-0
  6
DASHDOT
 62
     7
370
    25
100
AcDbLine
 10
927.136642
 20
442.15014
 30
0.0
 11
927.136642
 21
532.15014
 31
0.0
  0
LINE
  5
E8
330
1F
100
AcDbEntity
  8
LC-001-100-D00-0
  6
DASHDOT
 62
     7
370
    25
100
AcDbLine
 10
991.636642
 20
408.65014
 30
0.0
 11
991.636642
 21
536.65014
 31
0.0
  0
ARC
  5
E9
330
1F
100
AcDbEntity
  8
LC-001-100-D00-0
 62
     7
370
    50
100
AcDbCircle
 10
-229.552704
 20
132.555626
 30
0.0
 40
4.99999999999983
100
AcDbArc
 50
270.0
 51
0.0
  0
LINE
  5
EA
330
1F
100
AcDbEntity
  8
LC-001-100-D00-0
 62
     7
370
    50
100
AcDbLine
 10
-224.552704
 20
159.055626
 30
0.0
 11
-224.552704
 21
132.555626
 31
0.0
  0
ARC
  5
EB
330
1F
100
AcDbEntity
  8
LC-001-100-D00-0
 62
     7
370
    50
100
AcDbCircle
 10
-229.552704
 20
159.055626
 30
0.0
 40
5.000000000000057
100
AcDbArc
 50
0.0
 51
90.0
  0
CIRCLE
  5
EC
330
1F
100
AcDbEntity
  8
LC-001-100-D00-0
 62
     7
370
    50
100
AcDbCircle
 10
-242.802704
 20
145.805626
 30
0.0
 40
3.900000000000262
  0
LINE
  5
ED
330
1F
100
AcDbEntity
  8
LC-001-100-D00-0
 62
     7
370
    50
100
AcDbLine
 10
-256.052704
 20
164.055626
 30
0.0
 11
-229.552704
 21
164.055626
 31
0.0
  0
LINE
  5
EE
330
1F
100
AcDbEntity
  8
LC-001-100-D00-0
 62
     7
370
    50
100
AcDbLine
 10
-229.552704
 20
127.555626
 30
0.0
 11
-256.052704
 21
127.555626
 31
0.0
  0
ARC
  5
EF
330
1F
100
AcDbEntity
  8
LC-001-100-D00-0
 62
     7
370
    50
100
AcDbCircle
 10
-256.052704
 20
132.555626
 30
0.0
 40
4.999999999999943
100
AcDbArc
 50
180.0
 51
270.0
  0
ARC
  5
F0
330
1F
100
AcDbEntity
  8
LC-001-100-D00-0
 62
     7
370
    50
100
AcDbCircle
 10
-256.052704
 20
159.055626
 30
0.0
 40
4.99999999999983
100
AcDbArc
 50
90.0
 51
180.0
  0
LINE
  5
F1
330
1F
100
AcDbEntity
  8
LC-001-100-D00-0
 62
     7
370
    50
100
AcDbLine
 10
-261.052704
 20
132.555626
 30
0.0
 11
-261.052704
 21
159.055626
 31
0.0
  0
ARC
  5
F2
330
1F
100
AcDbEntity
  8
LC-001-100-D00-0
 62
     7
370
    50
100
AcDbCircle
 10
-386.219371
 20
159.055626
 30
0.0
 40
5.000000000000227
100
AcDbArc
 50
0.0
 51
90.0
  0
LINE
  5
F3
330
1F
100
AcDbEntity
  8
LC-001-100-D00-0
 62
     7
370
    50
100
AcDbLine
 10
-381.219371
 20
159.055626
 30
0.0
 11
-381.219371
 21
132.555626
 31
0.0
  0
ARC
  5
F4
330
1F
100
AcDbEntity
  8
LC-001-100-D00-0
 62
     7
370
    50
100
AcDbCircle
 10
-386.219371
 20
132.555626
 30
0.0
 40
4.99999999999983
100
AcDbArc
 50
270.0
 51
0.0
  0
CIRCLE
  5
F5
330
1F
100
AcDbEntity
  8
LC-001-100-D00-0
 62
     7
370
    50
100
AcDbCircle
 10
-399.469371
 20
145.805626
 30
0.0
 40
3.900000000000262
  0
LINE
  5
F6
330
1F
100
AcDbEntity
  8
LC-001-100-D00-0
 62
     7
370
    50
100
AcDbLine
 10
-412.719371
 20
164.055626
 30
0.0
 11
-386.219371
 21
164.055626
 31
0.0
  0
LINE
  5
F7
330
1F
100
AcDbEntity
  8
LC-001-100-D00-0
 62
     7
370
    50
100
AcDbLine
 10
-386.219371
 20
127.555626
 30
0.0
 11
-412.719371
 21
127.555626
 31
0.0
  0
ARC
  5
F8
330
1F
100
AcDbEntity
  8
LC-001-100-D00-0
 62
     7
370
    50
100
AcDbCircle
 10
-412.719371
 20
159.055626
 30
0.0
 40
4.99999999999983
100
AcDbArc
 50
90.0
 51
180.0
  0
ARC
  5
F9
330
1F
100
AcDbEntity
  8
LC-001-100-D00-0
 62
     7
370
    50
100
AcDbCircle
 10
-412.719371
 20
132.555626
 30
0.0
 40
4.999999999999886
100
AcDbArc
 50
180.0
 51
270.0
  0
LINE
  5
FA
330
1F
100
AcDbEntity
  8
LC-001-100-D00-0
 62
     7
370
    50
100
AcDbLine
 10
-417.719371
 20
132.555626
 30
0.0
 11
-417.719371
 21
159.055626
 31
0.0
  0
LINE
  5
FB
330
1F
100
AcDbEntity
  8
LC-001-100-D00-0
 62
     7
370
    50
100
AcDbLine
 10
395.447296
 20
159.055626
 30
0.0
 11
395.447296
 21
132.555626
 31
0.0
  0
ARC
  5
FC
330
1F
100
AcDbEntity
  8
LC-001-100-D00-0
 62
     7
370
    50
100
AcDbCircle
 10
390.447296
 20
159.055626
 30
0.0
 40
5.000000000000057
100
AcDbArc
 50
0.0
 51
90.0
  0
ARC
  5
FD
330
1F
100
AcDbEntity
  8
LC-001-100-D00-0
 62
     7
370
    50
100
AcDbCircle
 10
390.447296
 20
132.555626
 30
0.0
 40
5.000000000000227
100
AcDbArc
 50
270.0
 51
0.0
  0
CIRCLE
  5
FE
330
1F
100
AcDbEntity
  8
LC-001-100-D00-0
 62
     7
370
    50
100
AcDbCircle
 10
377.197296
 20
145.805626
 30
0.0
 40
3.900000000000262
  0
LINE
  5
FF
330
1F
100
AcDbEntity
  8
LC-001-100-D00-0
 62
     7
370
    50
100
AcDbLine
 10
363.947296
 20
164.055626
 30
0.0
 11
390.447296
 21
164.055626
 31
0.0
  0
LINE
  5
100
330
1F
100
AcDbEntity
  8
LC-001-100-D00-0
 62
     7
370
    50
100
AcDbLine
 10
390.447296
 20
127.555626
 30
0.0
 11
363.947296
 21
127.555626
 31
0.0
  0
ARC
  5
101
330
1F
100
AcDbEntity
  8
LC-001-100-D00-0
 62
     7
370
    50
100
AcDbCircle
 10
363.947296
 20
132.555626
 30
0.0
 40
5.000000000000057
100
AcDbArc
 50
180.0
 51
270.0
  0
ARC
  5
102
330
1F
100
AcDbEntity
  8
LC-001-100-D00-0
 62
     7
370
    50
100
AcDbCircle
 10
363.947296
 20
159.055626
 30
0.0
 40
5.000000000000227
100
AcDbArc
 50
90.0
 51
180.0
  0
LINE
  5
103
330
1F
100
AcDbEntity
  8
LC-001-100-D00-0
 62
     7
370
    50
100
AcDbLine
 10
358.947296
 20
132.555626
 30
0.0
 11
358.947296
 21
159.055626
 31
0.0
  0
LINE
  5
104
330
1F
100
AcDbEntity
  8
LC-001-100-D00-0
 62
     7
370
    50
100
AcDbLine
 10
238.780629
 20
159.055626
 30
0.0
 11
238.780629
 21
132.555626
 31
0.0
  0
ARC
  5
105
330
1F
100
AcDbEntity
  8
LC-001-100-D00-0
 62
     7
370
    50
100
AcDbCircle
 10
233.780629
 20
159.055626
 30
0.0
 40
5.000000000000341
100
AcDbArc
 50
0.0
 51
90.0
  0
ARC
  5
106
330
1F
100
AcDbEntity
  8
LC-001-100-D00-0
 62
     7
370
    50
100
AcDbCircle
 10
233.780629
 20
132.555626
 30
0.0
 40
5.000000000000227
100
AcDbArc
 50
270.0
 51
0.0
  0
CIRCLE
  5
107
330
1F
100
AcDbEntity
  8
LC-001-100-D00-0
 62
     7
370
    50
100
AcDbCircle
 10
220.530629
 20
145.805626
 30
0.0
 40
3.900000000000262
  0
LINE
  5
108
330
1F
100
AcDbEntity
  8
LC-001-100-D00-0
 62
     7
370
    50
100
AcDbLine
 10
207.280629
 20
164.055626
 30
0.0
 11
233.780629
 21
164.055626
 31
0.0
  0
LINE
  5
109
330
1F
100
AcDbEntity
  8
LC-001-100-D00-0
 62
     7
370
    50
100
AcDbLine
 10
233.780629
 20
127.555626
 30
0.0
 11
207.280629
 21
127.555626
 31
0.0
  0
ARC
  5
10A
330
1F
100
AcDbEntity
  8
LC-001-100-D00-0
 62
     7
370
    50
100
AcDbCircle
 10
207.280629
 20
159.055626
 30
0.0
 40
5.000000000000227
100
AcDbArc
 50
90.0
 51
180.0
  0
ARC
  5
10B
330
1F
100
AcDbEntity
  8
LC-001-100-D00-0
 62
     7
370
    50
100
AcDbCircle
 10
207.280629
 20
132.555626
 30
0.0
 40
4.99999999999983
100
AcDbArc
 50
180.0
 51
270.0
  0
LINE
  5
10C
330
1F
100
AcDbEntity
  8
LC-001-100-D00-0
 62
     7
370
    50
100
AcDbLine
 10
202.280629
 20
132.555626
 30
0.0
 11
202.280629
 21
159.055626
 31
0.0
  0
LINE
  5
10D
330
1F
100
AcDbEntity
  8
LC-001-100-D00-0
 62
     7
370
    50
100
AcDbLine
 10
-644.552704
 20
159.055626
 30
0.0
 11
-644.552704
 21
132.555626
 31
0.0
  0
ARC
  5
10E
330
1F
100
AcDbEntity
  8
LC-001-100-D00-0
 62
     7
370
    50
100
AcDbCircle
 10
-649.552704
 20
132.555626
 30
0.0
 40
4.99999999999983
100
AcDbArc
 50
270.0
 51
0.0
  0
ARC
  5
10F
330
1F
100
AcDbEntity
  8
LC-001-100-D00-0
 62
     7
370
    50
100
AcDbCircle
 10
-649.552704
 20
159.055626
 30
0.0
 40
5.0
100
AcDbArc
 50
0.0
 51
90.0
  0
CIRCLE
  5
110
330
1F
100
AcDbEntity
  8
LC-001-100-D00-0
 62
     7
370
    50
100
AcDbCircle
 10
-662.802704
 20
145.805626
 30
0.0
 40
3.899999999999864
  0
LINE
  5
111
330
1F
100
AcDbEntity
  8
LC-001-100-D00-0
 62
     7
370
    50
100
AcDbLine
 10
-676.052704
 20
164.055626
 30
0.0
 11
-649.552704
 21
164.055626
 31
0.0
  0
LINE
  5
112
330
1F
100
AcDbEntity
  8
LC-001-100-D00-0
 62
     7
370
    50
100
AcDbLine
 10
-649.552704
 20
127.555626
 30
0.0
 11
-676.052704
 21
127.555626
 31
0.0
  0
ARC
  5
113
330
1F
100
AcDbEntity
  8
LC-001-100-D00-0
 62
     7
370
    50
100
AcDbCircle
 10
-676.052704
 20
159.055626
 30
0.0
 40
5.000000000000227
100
AcDbArc
 50
90.0
 51
180.0
  0
ARC
  5
114
330
1F
100
AcDbEntity
  8
LC-001-100-D00-0
 62
     7
370
    50
100
AcDbCircle
 10
-676.052704
 20
132.555626
 30
0.0
 40
5.000000000000114
100
AcDbArc
 50
180.0
 51
270.0
  0
LINE
  5
115
330
1F
100
AcDbEntity
  8
LC-001-100-D00-0
 62
     7
370
    50
100
AcDbLine
 10
-681.052704
 20
132.555626
 30
0.0
 11
-681.052704
 21
159.055626
 31
0.0
  0
ARC
  5
116
330
1F
100
AcDbEntity
  8
LC-001-100-D00-0
 62
     7
370
    50
100
AcDbCircle
 10
127.113963
 20
132.555626
 30
0.0
 40
4.99999999999983
100
AcDbArc
 50
270.0
 51
0.0
  0
LINE
  5
117
330
1F
100
AcDbEntity
  8
LC-001-100-D00-0
 62
     7
370
    50
100
AcDbLine
 10
132.113963
 20
159.055626
 30
0.0
 11
132.113963
 21
132.555626
 31
0.0
  0
ARC
  5
118
330
1F
100
AcDbEntity
  8
LC-001-100-D00-0
 62
     7
370
    50
100
AcDbCircle
 10
127.113963
 20
159.055626
 30
0.0
 40
5.000000000000085
100
AcDbArc
 50
0.0
 51
90.0
  0
CIRCLE
  5
119
330
1F
100
AcDbEntity
  8
LC-001-100-D00-0
 62
     7
370
    50
100
AcDbCircle
 10
113.863963
 20
145.805626
 30
0.0
 40
3.900000000000262
  0
LINE
  5
11A
330
1F
100
AcDbEntity
  8
LC-001-100-D00-0
 62
     7
370
    50
100
AcDbLine
 10
127.113963
 20
127.555626
 30
0.0
 11
100.613963
 21
127.555626
 31
0.0
  0
LINE
  5
11B
330
1F
100
AcDbEntity
  8
LC-001-100-D00-0
 62
     7
370
    50
100
AcDbLine
 10
100.613963
 20
164.055626
 30
0.0
 11
127.113963
 21
164.055626
 31
0.0
  0
ARC
  5
11C
330
1F
100
AcDbEntity
  8
LC-001-100-D00-0
 62
     7
370
    50
100
AcDbCircle
 10
100.613963
 20
132.555626
 30
0.0
 40
4.999999999999815
100
AcDbArc
 50
180.0
 51
270.0
  0
ARC
  5
11D
330
1F
100
AcDbEntity
  8
LC-001-100-D00-0
 62
     7
370
    50
100
AcDbCircle
 10
100.613963
 20
159.055626
 30
0.0
 40
4.99999999999983
100
AcDbArc
 50
90.0
 51
180.0
  0
LINE
  5
11E
330
1F
100
AcDbEntity
  8
LC-001-100-D00-0
 62
     7
370
    50
100
AcDbLine
 10
95.613963
 20
132.555626
 30
0.0
 11
95.613963
 21
159.055626
 31
0.0
  0
LINE
  5
11F
330
1F
100
AcDbEntity
  8
LC-001-100-D00-0
 62
     7
370
    50
100
AcDbLine
 10
-24.552704
 20
159.055626
 30
0.0
 11
-24.552704
 21
132.555626
 31
0.0
  0
ARC
  5
120
330
1F
100
AcDbEntity
  8
LC-001-100-D00-0
 62
     7
370
    50
100
AcDbCircle
 10
-29.552704
 20
159.055626
 30
0.0
 40
5.000000000000227
100
AcDbArc
 50
0.0
 51
90.0
  0
ARC
  5
121
330
1F
100
AcDbEntity
  8
LC-001-100-D00-0
 62
     7
370
    50
100
AcDbCircle
 10
-29.552704
 20
132.555626
 30
0.0
 40
4.99999999999983
100
AcDbArc
 50
270.0
 51
0.0
  0
CIRCLE
  5
122
330
1F
100
AcDbEntity
  8
LC-001-100-D00-0
 62
     7
370
    50
100
AcDbCircle
 10
-42.802704
 20
145.805626
 30
0.0
 40
3.899999999999864
  0
LINE
  5
123
330
1F
100
AcDbEntity
  8
LC-001-100-D00-0
 62
     7
370
    50
100
AcDbLine
 10
-56.052704
 20
164.055626
 30
0.0
 11
-29.552704
 21
164.055626
 31
0.0
  0
LINE
  5
124
330
1F
100
AcDbEntity
  8
LC-001-100-D00-0
 62
     7
370
    50
100
AcDbLine
 10
-29.552704
 20
127.555626
 30
0.0
 11
-56.052704
 21
127.555626
 31
0.0
  0
ARC
  5
125
330
1F
100
AcDbEntity
  8
LC-001-100-D00-0
 62
     7
370
    50
100
AcDbCircle
 10
-56.052704
 20
132.555626
 30
0.0
 40
4.99999999999983
100
AcDbArc
 50
180.0
 51
270.0
  0
ARC
  5
126
330
1F
100
AcDbEntity
  8
LC-001-100-D00-0
 62
     7
370
    50
100
AcDbCircle
 10
-56.052704
 20
159.055626
 30
0.0
 40
4.99999999999983
100
AcDbArc
 50
90.0
 51
180.0
  0
LINE
  5
127
330
1F
100
AcDbEntity
  8
LC-001-100-D00-0
 62
     7
370
    50
100
AcDbLine
 10
-61.052704
 20
132.555626
 30
0.0
 11
-61.052704
 21
159.055626
 31
0.0
  0
ARC
  5
128
330
1F
100
AcDbEntity
  8
LC-001-100-D00-0
 62
     7
370
    50
100
AcDbCircle
 10
-492.886037
 20
159.055626
 30
0.0
 40
5.000000000000227
100
AcDbArc
 50
0.0
 51
90.0
  0
LINE
  5
129
330
1F
100
AcDbEntity
  8
LC-001-100-D00-0
 62
     7
370
    50
100
AcDbLine
 10
-487.886037
 20
159.055626
 30
0.0
 11
-487.886037
 21
132.555626
 31
0.0
  0
ARC
  5
12A
330
1F
100
AcDbEntity
  8
LC-001-100-D00-0
 62
     7
370
    50
100
AcDbCircle
 10
-492.886037
 20
132.555626
 30
0.0
 40
4.99999999999983
100
AcDbArc
 50
270.0
 51
0.0
  0
CIRCLE
  5
12B
330
1F
100
AcDbEntity
  8
LC-001-100-D00-0
 62
     7
370
    50
100
AcDbCircle
 10
-506.136037
 20
145.805626
 30
0.0
 40
3.899999999999864
  0
LINE
  5
12C
330
1F
100
AcDbEntity
  8
LC-001-100-D00-0
 62
     7
370
    50
100
AcDbLine
 10
-492.886037
 20
127.555626
 30
0.0
 11
-519.386037
 21
127.555626
 31
0.0
  0
LINE
  5
12D
330
1F
100
AcDbEntity
  8
LC-001-100-D00-0
 62
     7
370
    50
100
AcDbLine
 10
-519.386037
 20
164.055626
 30
0.0
 11
-492.886037
 21
164.055626
 31
0.0
  0
ARC
  5
12E
330
1F
100
AcDbEntity
  8
LC-001-100-D00-0
 62
     7
370
    50
100
AcDbCircle
 10
-519.386037
 20
132.555626
 30
0.0
 40
5.0
100
AcDbArc
 50
180.0
 51
270.0
  0
ARC
  5
12F
330
1F
100
AcDbEntity
  8
LC-001-100-D00-0
 62
     7
370
    50
100
AcDbCircle
 10
-519.386037
 20
159.055626
 30
0.0
 40
4.99999999999983
100
AcDbArc
 50
90.0
 51
180.0
  0
LINE
  5
130
330
1F
100
AcDbEntity
  8
LC-001-100-D00-0
 62
     7
370
    50
100
AcDbLine
 10
-524.386037
 20
132.555626
 30
0.0
 11
-524.386037
 21
159.055626
 31
0.0
  0
LINE
  5
131
330
1F
100
AcDbEntity
  8
LC-001-100-D00-0
 62
     7
370
    50
100
AcDbLine
 10
-173.302704
 20
121.805626
 30
0.0
 11
-112.302704
 21
121.805626
 31
0.0
  0
ARC
  5
132
330
1F
100
AcDbEntity
  8
LC-001-100-D00-0
 62
     7
370
    50
100
AcDbCircle
 10
-173.302704
 20
145.805626
 30
0.0
 40
24.0
100
AcDbArc
 50
90.0
 51
270.0
  0
LINE
  5
133
330
1F
100
AcDbEntity
  8
LC-001-100-D00-0
 62
     7
370
    50
100
AcDbLine
 10
-112.302704
 20
169.805626
 30
0.0
 11
-173.302704
 21
169.805626
 31
0.0
  0
ARC
  5
134
330
1F
100
AcDbEntity
  8
LC-001-100-D00-0
 62
     7
370
    50
100
AcDbCircle
 10
-112.302704
 20
145.805626
 30
0.0
 40
24.0
100
AcDbArc
 50
270.0
 51
90.0
  0
ARC
  5
135
330
1F
100
AcDbEntity
  8
LC-001-100-D00-0
 62
     7
370
    50
100
AcDbCircle
 10
-131.302704
 20
145.805626
 30
0.0
 40
16.00000000000046
100
AcDbArc
 50
270.0
 51
90.0
  0
LINE
  5
136
330
1F
100
AcDbEntity
  8
LC-001-100-D00-0
 62
     7
370
    50
100
AcDbLine
 10
-154.302704
 20
129.805626
 30
0.0
 11
-131.302704
 21
129.805626
 31
0.0
  0
LINE
  5
137
330
1F
100
AcDbEntity
  8
LC-001-100-D00-0
 62
     7
370
    50
100
AcDbLine
 10
-131.302704
 20
161.805626
 30
0.0
 11
-154.302704
 21
161.805626
 31
0.0
  0
ARC
  5
138
330
1F
100
AcDbEntity
  8
LC-001-100-D00-0
 62
     7
370
    50
100
AcDbCircle
 10
-154.302704
 20
145.805626
 30
0.0
 40
16.00000000000046
100
AcDbArc
 50
90.0
 51
270.0
  0
LINE
  5
139
330
1F
100
AcDbEntity
  8
LC-001-100-D00-0
 62
     7
370
    50
100
AcDbLine
 10
457.197296
 20
191.805626
 30
0.0
 11
457.197296
 21
190.305626
 31
0.0
  0
LINE
  5
13A
330
1F
100
AcDbEntity
  8
LC-001-100-D00-0
 62
     7
370
    50
100
AcDbLine
 10
457.197296
 20
190.305626
 30
0.0
 11
452.197296
 21
190.305626
 31
0.0
  0
LINE
  5
13B
330
1F
100
AcDbEntity
  8
LC-001-100-D00-0
 62
     7
370
    50
100
AcDbLine
 10
452.197296
 20
191.805626
 30
0.0
 11
457.197296
 21
191.805626
 31
0.0
  0
LINE
  5
13C
330
1F
100
AcDbEntity
  8
LC-001-100-D00-0
 62
     7
370
    50
100
AcDbLine
 10
-737.802704
 20
191.805626
 30
0.0
 11
452.197296
 21
191.805626
 31
0.0
  0
LINE
  5
13D
330
1F
100
AcDbEntity
  8
LC-001-100-D00-0
 62
     7
370
    50
100
AcDbLine
 10
-737.802704
 20
190.305626
 30
0.0
 11
452.197296
 21
190.305626
 31
0.0
  0
LINE
  5
13E
330
1F
100
AcDbEntity
  8
LC-001-100-D00-0
 62
     7
370
    50
100
AcDbLine
 10
-742.802704
 20
190.305626
 30
0.0
 11
-742.802704
 21
191.805626
 31
0.0
  0
LINE
  5
13F
330
1F
100
AcDbEntity
  8
LC-001-100-D00-0
 62
     7
370
    50
100
AcDbLine
 10
-742.802704
 20
191.805626
 30
0.0
 11
-737.802704
 21
191.805626
 31
0.0
  0
LINE
  5
140
330
1F
100
AcDbEntity
  8
LC-001-100-D00-0
 62
     7
370
    50
100
AcDbLine
 10
-737.802704
 20
190.305626
 30
0.0
 11
-742.802704
 21
190.305626
 31
0.0
  0
LINE
  5
141
330
1F
100
AcDbEntity
  8
LC-001-100-D00-0
 62
     7
370
    50
100
AcDbLine
 10
-742.802704
 20
188.805626
 30
0.0
 11
-742.802704
 21
190.305626
 31
0.0
  0
LINE
  5
142
330
1F
100
AcDbEntity
  8
LC-001-100-D00-0
 62
     7
370
    50
100
AcDbLine
 10
457.197296
 20
190.305626
 30
0.0
 11
457.197296
 21
188.805626
 31
0.0
  0
ARC
  5
143
330
1F
100
AcDbEntity
  8
LC-001-100-D00-0
 62
     7
370
    50
100
AcDbCircle
 10
404.697296
 20
169.305626
 30
0.0
 40
2.500000000000171
100
AcDbArc
 50
0.0
 51
90.0
  0
LINE
  5
144
330
1F
100
AcDbEntity
  8
LC-001-100-D00-0
 62
     7
370
    50
100
AcDbLine
 10
407.197296
 20
122.305626
 30
0.0
 11
407.197296
 21
169.305626
 31
0.0
  0
ARC
  5
145
330
1F
100
AcDbEntity
  8
LC-001-100-D00-0
 62
     7
370
    50
100
AcDbCircle
 10
404.697296
 20
122.305626
 30
0.0
 40
2.500000000000171
100
AcDbArc
 50
270.0
 51
0.0
  0
LINE
  5
146
330
1F
100
AcDbEntity
  8
LC-001-100-D00-0
 62
     7
370
    50
100
AcDbLine
 10
-690.302704
 20
171.805626
 30
0.0
 11
404.697296
 21
171.805626
 31
0.0
  0
LINE
  5
147
330
1F
100
AcDbEntity
  8
LC-001-100-D00-0
 62
     7
370
    50
100
AcDbLine
 10
404.697296
 20
119.805626
 30
0.0
 11
-690.302704
 21
119.805626
 31
0.0
  0
ARC
  5
148
330
1F
100
AcDbEntity
  8
LC-001-100-D00-0
 62
     7
370
    50
100
AcDbCircle
 10
-690.302704
 20
122.305626
 30
0.0
 40
2.500000000000114
100
AcDbArc
 50
180.0
 51
270.0
  0
ARC
  5
149
330
1F
100
AcDbEntity
  8
LC-001-100-D00-0
 62
     7
370
    50
100
AcDbCircle
 10
-690.302704
 20
169.305626
 30
0.0
 40
2.500000000000171
100
AcDbArc
 50
90.0
 51
180.0
  0
LINE
  5
14A
330
1F
100
AcDbEntity
  8
LC-001-100-D00-0
 62
     7
370
    50
100
AcDbLine
 10
-692.802704
 20
122.305626
 30
0.0
 11
-692.802704
 21
169.305626
 31
0.0
  0
LINE
  5
14B
330
1F
100
AcDbEntity
  8
LC-001-100-D00-0
 62
     7
370
    50
100
AcDbLine
 10
-737.802704
 20
68.305626
 30
0.0
 11
452.197296
 21
68.305626
 31
0.0
  0
ARC
  5
14C
330
1F
100
AcDbEntity
  8
LC-001-100-D00-0
 62
     7
370
    50
100
AcDbCircle
 10
-737.802704
 20
73.305626
 30
0.0
 40
5.000000000000227
100
AcDbArc
 50
180.0
 51
270.0
  0
ARC
  5
14D
330
1F
100
AcDbEntity
  8
LC-001-100-D00-0
 62
     7
370
    50
100
AcDbCircle
 10
452.197296
 20
73.305626
 30
0.0
 40
5.000000000000227
100
AcDbArc
 50
270.0
 51
0.0
  0
LINE
  5
14E
330
1F
100
AcDbEntity
  8
LC-001-100-D00-0
 62
     7
370
    50
100
AcDbLine
 10
-742.802704
 20
188.805626
 30
0.0
 11
-742.802704
 21
73.305626
 31
0.0
  0
LINE
  5
14F
330
1F
100
AcDbEntity
  8
LC-001-100-D00-0
 62
     7
370
    50
100
AcDbLine
 10
457.197296
 20
188.805626
 30
0.0
 11
457.197296
 21
73.305626
 31
0.0
  0
CIRCLE
  5
150
330
1F
100
AcDbEntity
  8
LC-001-100-D00-0
 62
     7
370
    50
100
AcDbCircle
 10
377.197296
 20
145.805626
 30
0.0
 40
3.0
  0
CIRCLE
  5
151
330
1F
100
AcDbEntity
  8
LC-001-100-D00-0
 62
     7
370
    50
100
AcDbCircle
 10
220.530629
 20
145.805626
 30
0.0
 40
3.0
  0
CIRCLE
  5
152
330
1F
100
AcDbEntity
  8
LC-001-100-D00-0
 62
     7
370
    50
100
AcDbCircle
 10
113.863963
 20
145.805626
 30
0.0
 40
3.0
  0
CIRCLE
  5
153
330
1F
100
AcDbEntity
  8
LC-001-100-D00-0
 62
     7
370
    50
100
AcDbCircle
 10
-42.802704
 20
145.805626
 30
0.0
 40
3.0
  0
CIRCLE
  5
154
330
1F
100
AcDbEntity
  8
LC-001-100-D00-0
 62
     7
370
    50
100
AcDbCircle
 10
-242.802704
 20
145.805626
 30
0.0
 40
3.0
  0
CIRCLE
  5
155
330
1F
100
AcDbEntity
  8
LC-001-100-D00-0
 62
     7
370
    50
100
AcDbCircle
 10
-399.469371
 20
145.805626
 30
0.0
 40
3.0
  0
CIRCLE
  5
156
330
1F
100
AcDbEntity
  8
LC-001-100-D00-0
 62
     7
370
    50
100
AcDbCircle
 10
-506.136037
 20
145.805626
 30
0.0
 40
3.0
  0
CIRCLE
  5
157
330
1F
100
AcDbEntity
  8
LC-001-100-D00-0
 62
     7
370
    50
100
AcDbCircle
 10
-662.802704
 20
145.805626
 30
0.0
 40
3.0
  0
INSERT
  5
15D
330
1F
100
AcDbEntity
  8
LC-001-100-D00-0
 62
     7
370
    50
100
AcDbBlockReference
  2
KLON1
 10
0.0
 20
0.0
 30
0.0
  0
LINE
  5
15E
330
1F
100
AcDbEntity
  8
LC-001-100-D00-0
 62
     7
370
    50
100
AcDbLine
 10
399.171125
 20
133.482957
 30
0.0
 11
399.171125
 21
122.305626
 31
0.0
  0
INSERT
  5
165
330
1F
100
AcDbEntity
  8
LC-001-100-D00-0
 62
     7
370
    50
100
AcDbBlockReference
  2
KLON2
 10
0.0
 20
0.0
 30
0.0
  0
ARC
  5
166
330
1F
100
AcDbEntity
  8
LC-001-100-D00-0
 62
     7
370
    50
100
AcDbCircle
 10
2010.285609
 20
409.765712
 30
0.0
 40
1630.647500306862
100
AcDbArc
 50
188.877215
 51
188.883171
  0
LINE
  5
167
330
1F
100
AcDbEntity
  8
LC-001-100-D00-0
 62
     7
370
    50
100
AcDbLine
 10
399.171125
 20
169.290986
 30
0.0
 11
399.171125
 21
158.128294
 31
0.0
  0
INSERT
  5
16D
330
1F
100
AcDbEntity
  8
LC-001-100-D00-0
 62
     7
370
    50
100
AcDbBlockReference
  2
KLON3
 10
0.0
 20
0.0
 30
0.0
  0
INSERT
  5
173
330
1F
100
AcDbEntity
  8
LC-001-100-D00-0
 62
     7
370
    50
100
AcDbBlockReference
  2
KLON4
 10
0.0
 20
0.0
 30
0.0
  0
LINE
  5
174
330
1F
100
AcDbEntity
  8
LC-001-100-D00-0
 62
     7
370
    50
100
AcDbLine
 10
-684.776533
 20
169.290986
 30
0.0
 11
-684.776533
 21
158.128294
 31
0.0
  0
ARC
  5
175
330
1F
100
AcDbEntity
  8
LC-001-100-D00-0
 62
     7
370
    50
100
AcDbCircle
 10
-2295.891366
 20
409.765767
 30
0.0
 40
1630.647853820368
100
AcDbArc
 50
351.116829
 51
351.122785
  0
INSERT
  5
17C
330
1F
100
AcDbEntity
  8
LC-001-100-D00-0
 62
     7
370
    50
100
AcDbBlockReference
  2
KLON5
 10
0.0
 20
0.0
 30
0.0
  0
LINE
  5
17D
330
1F
100
AcDbEntity
  8
LC-001-100-D00-0
 62
     7
370
    50
100
AcDbLine
 10
-684.776533
 20
133.482957
 30
0.0
 11
-684.776533
 21
122.305626
 31
0.0
  0
INSERT
  5
183
330
1F
100
AcDbEntity
  8
LC-001-100-D00-0
 62
     7
370
    50
100
AcDbBlockReference
  2
KLON6
 10
0.0
 20
0.0
 30
0.0
  0
ELLIPSE
  5
184
330
1F
100
AcDbEntity
  8
LC-001-100-D00-0
 62
     7
370
    50
100
AcDbEllipse
 10
399.124328
 20
122.305626
 30
0.0
 11
0.0
 21
-2.499999542236059
 31
0.0
210
0.0
220
0.0
230
1.0
 40
0.018242
 41
3.141592653579822
 42
4.712388980377408
  0
ELLIPSE
  5
185
330
1F
100
AcDbEntity
  8
LC-001-100-D00-0
 62
     7
370
    50
100
AcDbEllipse
 10
467.669933
 20
122.305626
 30
0.0
 11
68.49999999020042
 21
0.0
 31
0.0
210
0.0
220
0.0
230
1.0
 40
0.036496
 41
3.141592653597484
 42
3.169858841660619
  0
ELLIPSE
  5
186
330
1F
100
AcDbEntity
  8
LC-001-100-D00-0
 62
     7
370
    50
100
AcDbEllipse
 10
262.124328
 20
122.305626
 30
0.0
 11
0.0
 21
-2.499999999999773
 31
0.0
210
0.0
220
0.0
230
0.9999999999999999
 40
0.018242
 41
3.141592653589793
 42
4.712388980381478
  0
ELLIPSE
  5
187
330
1F
100
AcDbEntity
  8
LC-001-100-D00-0
 62
     7
370
    50
100
AcDbEllipse
 10
-684.729736
 20
122.305626
 30
0.0
 11
0.0
 21
-2.500000061034929
 31
0.0
210
0.0
220
0.0
230
1.0
 40
0.018242
 41
1.570796326802116
 42
3.141592653597272
  0
ELLIPSE
  5
188
330
1F
100
AcDbEntity
  8
LC-001-100-D00-0
 62
     7
370
    50
100
AcDbEllipse
 10
-547.729736
 20
122.305626
 30
0.0
 11
0.0
 21
-2.499999969482195
 31
0.0
210
0.0
220
0.0
230
1.0
 40
0.018242
 41
1.570796326798722
 42
3.141592653589793
  0
ELLIPSE
  5
189
330
1F
100
AcDbEntity
  8
LC-001-100-D00-0
 62
     7
370
    50
100
AcDbEllipse
 10
-753.275341
 20
122.305626
 30
0.0
 11
68.49999999997397
 21
0.0
 31
0.0
210
0.0
220
0.0
230
1.0
 40
0.036496
 41
6.254919119109423
 42
6.283185307179586
  0
ELLIPSE
  5
18A
330
1F
100
AcDbEntity
  8
LC-001-100-D00-0
 62
     7
370
    50
100
AcDbEllipse
 10
467.669933
 20
169.305626
 30
0.0
 11
68.49999998861829
 21
0.0
 31
0.0
210
0.0
220
0.0
230
1.0
 40
0.036496
 41
3.141592653589873
 42
3.14744862803968
  0
ELLIPSE
  5
18B
330
1F
100
AcDbEntity
  8
LC-001-100-D00-0
 62
     7
370
    50
100
AcDbEllipse
 10
399.124328
 20
169.305626
 30
0.0
 11
0.0
 21
-2.500000030517351
 31
0.0
210
0.0
220
0.0
230
1.0
 40
0.018242
 41
4.71238898038486
 42
6.283185335568105
  0
ELLIPSE
  5
18C
330
1F
100
AcDbEntity
  8
LC-001-100-D00-0
 62
     7
370
    50
100
AcDbEllipse
 10
-753.275341
 20
169.305626
 30
0.0
 11
68.49999998524994
 21
0.0
 31
0.0
210
0.0
220
0.0
230
1.0
 40
0.036496
 41
6.277329332730587
 42
6.283185307179643
  0
ELLIPSE
  5
18D
330
1F
100
AcDbEntity
  8
LC-001-100-D00-0
 62
     7
370
    50
100
AcDbEllipse
 10
-684.729736
 20
169.305626
 30
0.0
 11
0.0
 21
-2.499999877929457
 31
0.0
210
0.0
220
0.0
230
1.0
 40
0.018242
 41
6.283185278781093
 42
7.853981633974517
  0
ELLIPSE
  5
18E
330
1F
100
AcDbEntity
  8
LC-001-100-D00-0
 62
     7
370
    50
100
AcDbEllipse
 10
262.124328
 20
169.305626
 30
0.0
 11
0.0
 21
-2.500000122070083
 31
0.0
210
0.0
220
0.0
230
0.9999999999999999
 40
0.018242
 41
4.712388980388828
 42
6.283185319421948
  0
ELLIPSE
  5
18F
330
1F
100
AcDbEntity
  8
LC-001-100-D00-0
 62
     7
370
    50
100
AcDbEllipse
 10
-547.729736
 20
169.305626
 30
0.0
 11
0.0
 21
-2.499999999999773
 31
0.0
210
0.0
220
0.0
230
0.9999999999999999
 40
0.018242
 41
6.283185294939717
 42
7.853981633970935
  0
LINE
  5
190
330
1F
100
AcDbEntity
  8
LC-001-100-D00-0
 62
     7
370
    50
100
AcDbLine
 10
262.169939
 20
122.305626
 30
0.0
 11
262.169939
 21
125.156142
 31
0.0
  0
INSERT
  5
196
330
1F
100
AcDbEntity
  8
LC-001-100-D00-0
 62
     7
370
    50
100
AcDbBlockReference
  2
KLON7
 10
0.0
 20
0.0
 30
0.0
  0
INSERT
  5
19C
330
1F
100
AcDbEntity
  8
LC-001-100-D00-0
 62
     7
370
    50
100
AcDbBlockReference
  2
KLON8
 10
0.0
 20
0.0
 30
0.0
  0
LINE
  5
19D
330
1F
100
AcDbEntity
  8
LC-001-100-D00-0
 62
     7
370
    50
100
AcDbLine
 10
-547.775347
 20
122.305626
 30
0.0
 11
-547.775347
 21
125.156142
 31
0.0
  0
INSERT
  5
1A4
330
1F
100
AcDbEntity
  8
LC-001-100-D00-0
 62
     7
370
    50
100
AcDbBlockReference
  2
KLON9
 10
0.0
 20
0.0
 30
0.0
  0
INSERT
  5
1AA
330
1F
100
AcDbEntity
  8
LC-001-100-D00-0
 62
     7
370
    50
100
AcDbBlockReference
  2
KLON10
 10
0.0
 20
0.0
 30
0.0
  0
INSERT
  5
1B1
330
1F
100
AcDbEntity
  8
LC-001-100-D00-0
 62
     7
370
    50
100
AcDbBlockReference
  2
KLON11
 10
0.0
 20
0.0
 30
0.0
  0
INSERT
  5
1B8
330
1F
100
AcDbEntity
  8
LC-001-100-D00-0
 62
     7
370
    50
100
AcDbBlockReference
  2
KLON12
 10
0.0
 20
0.0
 30
0.0
  0
INSERT
  5
1BF
330
1F
100
AcDbEntity
  8
LC-001-100-D00-0
 62
     7
370
    50
100
AcDbBlockReference
  2
KLON13
 10
0.0
 20
0.0
 30
0.0
  0
INSERT
  5
1C5
330
1F
100
AcDbEntity
  8
LC-001-100-D00-0
 62
     7
370
    50
100
AcDbBlockReference
  2
KLON14
 10
0.0
 20
0.0
 30
0.0
  0
LINE
  5
1C6
330
1F
100
AcDbEntity
  8
LC-001-100-D00-0
 62
     7
370
    50
100
AcDbLine
 10
262.169939
 20
166.455109
 30
0.0
 11
262.169939
 21
169.305625
 31
0.0
  0
LINE
  5
1C7
330
1F
100
AcDbEntity
  8
LC-001-100-D00-0
 62
     7
370
    50
100
AcDbLine
 10
-547.775347
 20
166.455109
 30
0.0
 11
-547.775347
 21
169.305625
 31
0.0
  0
LINE
  5
1C8
330
1F
100
AcDbEntity
  8
LC-001-100-D00-0
 62
     7
370
    50
100
AcDbLine
 10
262.184214
 20
125.949948
 30
0.0
 11
262.184214
 21
139.944675
 31
0.0
  0
ELLIPSE
  5
1C9
330
1F
100
AcDbEntity
  8
LC-001-100-D00-0
 62
     7
370
    15
100
AcDbEllipse
 10
181.739293
 20
192.579028
 30
0.0
 11
23.87444180682992
 21
1.427912449921337
 31
0.0
210
0.0
220
0.0
230
1.0
 40
0.016531
 41
6.280994665935592
 42
6.282196627513054
  0
ELLIPSE
  5
1CA
330
1F
100
AcDbEntity
  8
LC-001-100-D00-0
 62
     7
370
    15
100
AcDbEllipse
 10
181.739293
 20
202.052631
 30
0.0
 11
23.87444186688163
 21
-1.427912453512978
 31
0.0
210
0.0
220
0.0
230
1.0
 40
0.016531
 41
0.0009886796664199
 42
0.0021906412437971
  0
LINE
  5
1CB
330
1F
100
AcDbEntity
  8
LC-001-100-D00-0
 62
     7
370
    50
100
AcDbLine
 10
262.184214
 20
151.666576
 30
0.0
 11
262.184214
 21
165.661304
 31
0.0
  0
ELLIPSE
  5
1CC
330
1F
100
AcDbEntity
  8
LC-001-100-D00-0
 62
     7
370
    15
100
AcDbEllipse
 10
94.492563
 20
192.579028
 30
0.0
 11
23.87444187371216
 21
-1.427912453921508
 31
0.0
210
0.0
220
0.0
230
1.0
 40
0.016531
 41
3.142581333256044
 42
3.143783294833577
  0
LINE
  5
1CD
330
1F
100
AcDbEntity
  8
LC-001-100-D00-0
 62
     7
370
    50
100
AcDbLine
 10
-547.789622
 20
125.949948
 30
0.0
 11
-547.789622
 21
139.944675
 31
0.0
  0
ELLIPSE
  5
1CE
330
1F
100
AcDbEntity
  8
LC-001-100-D00-0
 62
     7
370
    15
100
AcDbEllipse
 10
94.492563
 20
202.052631
 30
0.0
 11
23.87444186745091
 21
1.427912453546974
 31
0.0
210
0.0
220
0.0
230
1.0
 40
0.016531
 41
3.139402012346356
 42
3.1406039739238
  0
LINE
  5
1CF
330
1F
100
AcDbEntity
  8
LC-001-100-D00-0
 62
     7
370
    50
100
AcDbLine
 10
-547.789622
 20
151.666576
 30
0.0
 11
-547.789622
 21
165.661304
 31
0.0
  0
LINE
  5
1D0
330
1F
100
AcDbEntity
  8
LC-001-100-D00-0
 62
     7
370
    50
100
AcDbLine
 10
262.169939
 20
125.156515
 30
0.0
 11
262.184095
 21
125.947085
 31
0.0
  0
LINE
  5
1D1
330
1F
100
AcDbEntity
  8
LC-001-100-D00-0
 62
     7
370
    50
100
AcDbLine
 10
262.169939
 20
166.454736
 30
0.0
 11
262.184095
 21
165.664167
 31
0.0
  0
LINE
  5
1D2
330
1F
100
AcDbEntity
  8
LC-001-100-D00-0
 62
     7
370
    50
100
AcDbLine
 10
-547.775347
 20
125.156515
 30
0.0
 11
-547.789503
 21
125.947085
 31
0.0
  0
LINE
  5
1D3
330
1F
100
AcDbEntity
  8
LC-001-100-D00-0
 62
     7
370
    50
100
AcDbLine
 10
-547.775347
 20
166.454736
 30
0.0
 11
-547.789503
 21
165.664167
 31
0.0
  0
ARC
  5
1D4
330
1F
100
AcDbEntity
  8
LC-001-100-D00-0
 62
     7
370
    50
100
AcDbCircle
 10
-112.302712
 20
145.805646
 30
0.0
 40
24.80002105913701
100
AcDbArc
 50
270.0
 51
300.592807
  0
ARC
  5
1D5
330
1F
100
AcDbEntity
  8
LC-001-100-D00-0
 62
     7
370
    50
100
AcDbCircle
 10
-173.302696
 20
145.805646
 30
0.0
 40
24.80002105913712
100
AcDbArc
 50
239.407193
 51
270.0
  0
ARC
  5
1D6
330
1F
100
AcDbEntity
  8
LC-001-100-D00-0
 62
     7
370
    50
100
AcDbCircle
 10
-112.30271
 20
145.805613
 30
0.0
 40
24.80001358063243
100
AcDbArc
 50
59.407188
 51
90.0
  0
ARC
  5
1D7
330
1F
100
AcDbEntity
  8
LC-001-100-D00-0
 62
     7
370
    50
100
AcDbCircle
 10
-173.302698
 20
145.805613
 30
0.0
 40
24.80001358063532
100
AcDbArc
 50
90.0
 51
120.592812
  0
LINE
  5
1D8
330
1F
100
AcDbEntity
  8
LC-001-100-D00-0
 62
     7
370
    50
100
AcDbLine
 10
-173.302704
 20
170.605626
 30
0.0
 11
-112.302704
 21
170.605626
 31
0.0
  0
LINE
  5
1D9
330
1F
100
AcDbEntity
  8
LC-001-100-D00-0
 62
     7
370
    50
100
AcDbLine
 10
-112.302704
 20
121.005625
 30
0.0
 11
-173.302704
 21
121.005625
 31
0.0
  0
LINE
  5
1DA
330
1F
100
AcDbEntity
  8
LC-001-100-D00-0
 62
     7
370
    50
100
AcDbLine
 10
-209.635537
 20
149.244529
 30
0.0
 11
-209.627393
 21
148.876637
 31
0.0
  0
LINE
  5
1DB
330
1F
100
AcDbEntity
  8
LC-001-100-D00-0
 62
     7
370
    50
100
AcDbLine
 10
-210.746813
 20
150.037497
 30
0.0
 11
-209.635537
 21
149.244529
 31
0.0
  0
LINE
  5
1DC
330
1F
100
AcDbEntity
  8
LC-001-100-D00-0
 62
     7
370
    50
100
AcDbLine
 10
-209.635537
 20
150.830466
 30
0.0
 11
-210.746813
 21
150.037497
 31
0.0
  0
LINE
  5
1DD
330
1F
100
AcDbEntity
  8
LC-001-100-D00-0
 62
     7
370
    50
100
AcDbLine
 10
-209.635537
 20
151.204164
 30
0.0
 11
-209.635537
 21
150.830466
 31
0.0
  0
LINE
  5
1DE
330
1F
100
AcDbEntity
  8
LC-001-100-D00-0
 62
     7
370
    50
100
AcDbLine
 10
-211.009037
 20
150.224697
 30
0.0
 11
-209.635537
 21
151.204164
 31
0.0
  0
LINE
  5
1DF
330
1F
100
AcDbEntity
  8
LC-001-100-D00-0
 62
     7
370
    50
100
AcDbLine
 10
-212.193232
 20
151.069549
 30
0.0
 11
-211.009037
 21
150.224697
 31
0.0
  0
LINE
  5
1E0
330
1F
100
AcDbEntity
  8
LC-001-100-D00-0
 62
     7
370
    50
100
AcDbLine
 10
-212.193232
 20
150.69585
 30
0.0
 11
-212.193232
 21
151.069549
 31
0.0
  0
LINE
  5
1E1
330
1F
100
AcDbEntity
  8
LC-001-100-D00-0
 62
     7
370
    50
100
AcDbLine
 10
-211.270552
 20
150.037497
 30
0.0
 11
-212.193232
 21
150.69585
 31
0.0
  0
LINE
  5
1E2
330
1F
100
AcDbEntity
  8
LC-001-100-D00-0
 62
     7
370
    50
100
AcDbLine
 10
-212.193232
 20
149.379144
 30
0.0
 11
-211.270552
 21
150.037497
 31
0.0
  0
LINE
  5
1E3
330
1F
100
AcDbEntity
  8
LC-001-100-D00-0
 62
     7
370
    50
100
AcDbLine
 10
-212.193232
 20
149.005446
 30
0.0
 11
-212.193232
 21
149.379144
 31
0.0
  0
LINE
  5
1E4
330
1F
100
AcDbEntity
  8
LC-001-100-D00-0
 62
     7
370
    50
100
AcDbLine
 10
-211.009037
 20
149.850999
 30
0.0
 11
-212.193232
 21
149.005446
 31
0.0
  0
LINE
  5
1E5
330
1F
100
AcDbEntity
  8
LC-001-100-D00-0
 62
     7
370
    50
100
AcDbLine
 10
-209.627393
 20
148.876637
 30
0.0
 11
-211.009037
 21
149.850999
 31
0.0
  0
LINE
  5
1E6
330
1F
100
AcDbEntity
  8
LC-001-100-D00-0
 62
     7
370
    50
100
AcDbLine
 10
-209.635537
 20
144.577862
 30
0.0
 11
-209.627393
 21
144.20997
 31
0.0
  0
LINE
  5
1E7
330
1F
100
AcDbEntity
  8
LC-001-100-D00-0
 62
     7
370
    50
100
AcDbLine
 10
-210.746813
 20
145.370831
 30
0.0
 11
-209.635537
 21
144.577862
 31
0.0
  0
LINE
  5
1E8
330
1F
100
AcDbEntity
  8
LC-001-100-D00-0
 62
     7
370
    50
100
AcDbLine
 10
-209.635537
 20
146.163799
 30
0.0
 11
-210.746813
 21
145.370831
 31
0.0
  0
LINE
  5
1E9
330
1F
100
AcDbEntity
  8
LC-001-100-D00-0
 62
     7
370
    50
100
AcDbLine
 10
-209.635537
 20
146.537497
 30
0.0
 11
-209.635537
 21
146.163799
 31
0.0
  0
LINE
  5
1EA
330
1F
100
AcDbEntity
  8
LC-001-100-D00-0
 62
     7
370
    50
100
AcDbLine
 10
-211.009037
 20
145.55803
 30
0.0
 11
-209.635537
 21
146.537497
 31
0.0
  0
LINE
  5
1EB
330
1F
100
AcDbEntity
  8
LC-001-100-D00-0
 62
     7
370
    50
100
AcDbLine
 10
-212.193232
 20
146.402882
 30
0.0
 11
-211.009037
 21
145.55803
 31
0.0
  0
LINE
  5
1EC
330
1F
100
AcDbEntity
  8
LC-001-100-D00-0
 62
     7
370
    50
100
AcDbLine
 10
-212.193232
 20
146.029184
 30
0.0
 11
-212.193232
 21
146.402882
 31
0.0
  0
LINE
  5
1ED
330
1F
100
AcDbEntity
  8
LC-001-100-D00-0
 62
     7
370
    50
100
AcDbLine
 10
-211.270552
 20
145.370831
 30
0.0
 11
-212.193232
 21
146.029184
 31
0.0
  0
LINE
  5
1EE
330
1F
100
AcDbEntity
  8
LC-001-100-D00-0
 62
     7
370
    50
100
AcDbLine
 10
-212.193232
 20
144.712477
 30
0.0
 11
-211.270552
 21
145.370831
 31
0.0
  0
LINE
  5
1EF
330
1F
100
AcDbEntity
  8
LC-001-100-D00-0
 62
     7
370
    50
100
AcDbLine
 10
-212.193232
 20
144.338779
 30
0.0
 11
-212.193232
 21
144.712477
 31
0.0
  0
LINE
  5
1F0
330
1F
100
AcDbEntity
  8
LC-001-100-D00-0
 62
     7
370
    50
100
AcDbLine
 10
-211.009037
 20
145.184332
 30
0.0
 11
-212.193232
 21
144.338779
 31
0.0
  0
LINE
  5
1F1
330
1F
100
AcDbEntity
  8
LC-001-100-D00-0
 62
     7
370
    50
100
AcDbLine
 10
-209.627393
 20
144.20997
 30
0.0
 11
-211.009037
 21
145.184332
 31
0.0
  0
LINE
  5
1F2
330
1F
100
AcDbEntity
  8
LC-001-100-D00-0
 62
     7
370
    50
100
AcDbLine
 10
-209.635537
 20
139.911195
 30
0.0
 11
-209.627393
 21
139.543304
 31
0.0
  0
LINE
  5
1F3
330
1F
100
AcDbEntity
  8
LC-001-100-D00-0
 62
     7
370
    50
100
AcDbLine
 10
-210.746813
 20
140.704164
 30
0.0
 11
-209.635537
 21
139.911195
 31
0.0
  0
LINE
  5
1F4
330
1F
100
AcDbEntity
  8
LC-001-100-D00-0
 62
     7
370
    50
100
AcDbLine
 10
-209.635537
 20
141.497133
 30
0.0
 11
-210.746813
 21
140.704164
 31
0.0
  0
LINE
  5
1F5
330
1F
100
AcDbEntity
  8
LC-001-100-D00-0
 62
     7
370
    50
100
AcDbLine
 10
-209.635537
 20
141.870831
 30
0.0
 11
-209.635537
 21
141.497133
 31
0.0
  0
LINE
  5
1F6
330
1F
100
AcDbEntity
  8
LC-001-100-D00-0
 62
     7
370
    50
100
AcDbLine
 10
-211.009037
 20
140.891364
 30
0.0
 11
-209.635537
 21
141.870831
 31
0.0
  0
LINE
  5
1F7
330
1F
100
AcDbEntity
  8
LC-001-100-D00-0
 62
     7
370
    50
100
AcDbLine
 10
-212.193232
 20
141.736215
 30
0.0
 11
-211.009037
 21
140.891364
 31
0.0
  0
LINE
  5
1F8
330
1F
100
AcDbEntity
  8
LC-001-100-D00-0
 62
     7
370
    50
100
AcDbLine
 10
-212.193232
 20
141.362517
 30
0.0
 11
-212.193232
 21
141.736215
 31
0.0
  0
LINE
  5
1F9
330
1F
100
AcDbEntity
  8
LC-001-100-D00-0
 62
     7
370
    50
100
AcDbLine
 10
-211.270552
 20
140.704164
 30
0.0
 11
-212.193232
 21
141.362517
 31
0.0
  0
LINE
  5
1FA
330
1F
100
AcDbEntity
  8
LC-001-100-D00-0
 62
     7
370
    50
100
AcDbLine
 10
-212.193232
 20
140.045811
 30
0.0
 11
-211.270552
 21
140.704164
 31
0.0
  0
LINE
  5
1FB
330
1F
100
AcDbEntity
  8
LC-001-100-D00-0
 62
     7
370
    50
100
AcDbLine
 10
-212.193232
 20
139.672113
 30
0.0
 11
-212.193232
 21
140.045811
 31
0.0
  0
LINE
  5
1FC
330
1F
100
AcDbEntity
  8
LC-001-100-D00-0
 62
     7
370
    50
100
AcDbLine
 10
-211.009037
 20
140.517665
 30
0.0
 11
-212.193232
 21
139.672113
 31
0.0
  0
LINE
  5
1FD
330
1F
100
AcDbEntity
  8
LC-001-100-D00-0
 62
     7
370
    50
100
AcDbLine
 10
-209.627393
 20
139.543304
 30
0.0
 11
-211.009037
 21
140.517665
 31
0.0
  0
LINE
  5
1FE
330
1F
100
AcDbEntity
  8
LC-001-100-D00-0
 62
     7
370
    50
100
AcDbLine
 10
-209.635537
 20
137.577862
 30
0.0
 11
-209.635537
 21
137.204164
 31
0.0
  0
LINE
  5
1FF
330
1F
100
AcDbEntity
  8
LC-001-100-D00-0
 62
     7
370
    50
100
AcDbLine
 10
-210.746813
 20
138.37083
 30
0.0
 11
-209.635537
 21
137.577862
 31
0.0
  0
LINE
  5
200
330
1F
100
AcDbEntity
  8
LC-001-100-D00-0
 62
     7
370
    50
100
AcDbLine
 10
-209.635537
 20
139.163799
 30
0.0
 11
-210.746813
 21
138.37083
 31
0.0
  0
LINE
  5
201
330
1F
100
AcDbEntity
  8
LC-001-100-D00-0
 62
     7
370
    50
100
AcDbLine
 10
-209.635537
 20
139.537497
 30
0.0
 11
-209.635537
 21
139.163799
 31
0.0
  0
LINE
  5
202
330
1F
100
AcDbEntity
  8
LC-001-100-D00-0
 62
     7
370
    50
100
AcDbLine
 10
-211.009037
 20
138.55803
 30
0.0
 11
-209.635537
 21
139.537497
 31
0.0
  0
LINE
  5
203
330
1F
100
AcDbEntity
  8
LC-001-100-D00-0
 62
     7
370
    50
100
AcDbLine
 10
-212.193232
 20
139.402882
 30
0.0
 11
-211.009037
 21
138.55803
 31
0.0
  0
LINE
  5
204
330
1F
100
AcDbEntity
  8
LC-001-100-D00-0
 62
     7
370
    50
100
AcDbLine
 10
-212.193232
 20
139.029184
 30
0.0
 11
-212.193232
 21
139.402882
 31
0.0
  0
LINE
  5
205
330
1F
100
AcDbEntity
  8
LC-001-100-D00-0
 62
     7
370
    50
100
AcDbLine
 10
-211.270552
 20
138.37083
 30
0.0
 11
-212.193232
 21
139.029184
 31
0.0
  0
LINE
  5
206
330
1F
100
AcDbEntity
  8
LC-001-100-D00-0
 62
     7
370
    50
100
AcDbLine
 10
-212.193232
 20
137.712477
 30
0.0
 11
-211.270552
 21
138.37083
 31
0.0
  0
LINE
  5
207
330
1F
100
AcDbEntity
  8
LC-001-100-D00-0
 62
     7
370
    50
100
AcDbLine
 10
-212.193232
 20
137.338779
 30
0.0
 11
-212.193232
 21
137.712477
 31
0.0
  0
LINE
  5
208
330
1F
100
AcDbEntity
  8
LC-001-100-D00-0
 62
     7
370
    50
100
AcDbLine
 10
-211.009037
 20
138.184332
 30
0.0
 11
-212.193232
 21
137.338779
 31
0.0
  0
LINE
  5
209
330
1F
100
AcDbEntity
  8
LC-001-100-D00-0
 62
     7
370
    50
100
AcDbLine
 10
-209.635537
 20
137.204164
 30
0.0
 11
-211.009037
 21
138.184332
 31
0.0
  0
LINE
  5
20A
330
1F
100
AcDbEntity
  8
LC-001-100-D00-0
 62
     7
370
    50
100
AcDbLine
 10
-209.635537
 20
142.244529
 30
0.0
 11
-209.627393
 21
141.876637
 31
0.0
  0
LINE
  5
20B
330
1F
100
AcDbEntity
  8
LC-001-100-D00-0
 62
     7
370
    50
100
AcDbLine
 10
-210.746813
 20
143.037497
 30
0.0
 11
-209.635537
 21
142.244529
 31
0.0
  0
LINE
  5
20C
330
1F
100
AcDbEntity
  8
LC-001-100-D00-0
 62
     7
370
    50
100
AcDbLine
 10
-209.635537
 20
143.830466
 30
0.0
 11
-210.746813
 21
143.037497
 31
0.0
  0
LINE
  5
20D
330
1F
100
AcDbEntity
  8
LC-001-100-D00-0
 62
     7
370
    50
100
AcDbLine
 10
-209.635537
 20
144.204164
 30
0.0
 11
-209.635537
 21
143.830466
 31
0.0
  0
LINE
  5
20E
330
1F
100
AcDbEntity
  8
LC-001-100-D00-0
 62
     7
370
    50
100
AcDbLine
 10
-211.009037
 20
143.224697
 30
0.0
 11
-209.635537
 21
144.204164
 31
0.0
  0
LINE
  5
20F
330
1F
100
AcDbEntity
  8
LC-001-100-D00-0
 62
     7
370
    50
100
AcDbLine
 10
-212.193232
 20
144.069549
 30
0.0
 11
-211.009037
 21
143.224697
 31
0.0
  0
LINE
  5
210
330
1F
100
AcDbEntity
  8
LC-001-100-D00-0
 62
     7
370
    50
100
AcDbLine
 10
-212.193232
 20
143.695851
 30
0.0
 11
-212.193232
 21
144.069549
 31
0.0
  0
LINE
  5
211
330
1F
100
AcDbEntity
  8
LC-001-100-D00-0
 62
     7
370
    50
100
AcDbLine
 10
-211.270552
 20
143.037497
 30
0.0
 11
-212.193232
 21
143.695851
 31
0.0
  0
LINE
  5
212
330
1F
100
AcDbEntity
  8
LC-001-100-D00-0
 62
     7
370
    50
100
AcDbLine
 10
-212.193232
 20
142.379144
 30
0.0
 11
-211.270552
 21
143.037497
 31
0.0
  0
LINE
  5
213
330
1F
100
AcDbEntity
  8
LC-001-100-D00-0
 62
     7
370
    50
100
AcDbLine
 10
-212.193232
 20
142.005446
 30
0.0
 11
-212.193232
 21
142.379144
 31
0.0
  0
LINE
  5
214
330
1F
100
AcDbEntity
  8
LC-001-100-D00-0
 62
     7
370
    50
100
AcDbLine
 10
-211.009037
 20
142.850999
 30
0.0
 11
-212.193232
 21
142.005446
 31
0.0
  0
LINE
  5
215
330
1F
100
AcDbEntity
  8
LC-001-100-D00-0
 62
     7
370
    50
100
AcDbLine
 10
-209.627393
 20
141.876637
 30
0.0
 11
-211.009037
 21
142.850999
 31
0.0
  0
LINE
  5
216
330
1F
100
AcDbEntity
  8
LC-001-100-D00-0
 62
     7
370
    50
100
AcDbLine
 10
-209.635537
 20
146.911195
 30
0.0
 11
-209.627393
 21
146.543303
 31
0.0
  0
LINE
  5
217
330
1F
100
AcDbEntity
  8
LC-001-100-D00-0
 62
     7
370
    50
100
AcDbLine
 10
-210.746813
 20
147.704164
 30
0.0
 11
-209.635537
 21
146.911195
 31
0.0
  0
LINE
  5
218
330
1F
100
AcDbEntity
  8
LC-001-100-D00-0
 62
     7
370
    50
100
AcDbLine
 10
-209.635537
 20
148.497133
 30
0.0
 11
-210.746813
 21
147.704164
 31
0.0
  0
LINE
  5
219
330
1F
100
AcDbEntity
  8
LC-001-100-D00-0
 62
     7
370
    50
100
AcDbLine
 10
-209.635537
 20
148.870831
 30
0.0
 11
-209.635537
 21
148.497133
 31
0.0
  0
LINE
  5
21A
330
1F
100
AcDbEntity
  8
LC-001-100-D00-0
 62
     7
370
    50
100
AcDbLine
 10
-211.009037
 20
147.891363
 30
0.0
 11
-209.635537
 21
148.870831
 31
0.0
  0
LINE
  5
21B
330
1F
100
AcDbEntity
  8
LC-001-100-D00-0
 62
     7
370
    50
100
AcDbLine
 10
-212.193232
 20
148.736215
 30
0.0
 11
-211.009037
 21
147.891363
 31
0.0
  0
LINE
  5
21C
330
1F
100
AcDbEntity
  8
LC-001-100-D00-0
 62
     7
370
    50
100
AcDbLine
 10
-212.193232
 20
148.362517
 30
0.0
 11
-212.193232
 21
148.736215
 31
0.0
  0
LINE
  5
21D
330
1F
100
AcDbEntity
  8
LC-001-100-D00-0
 62
     7
370
    50
100
AcDbLine
 10
-211.270552
 20
147.704164
 30
0.0
 11
-212.193232
 21
148.362517
 31
0.0
  0
LINE
  5
21E
330
1F
100
AcDbEntity
  8
LC-001-100-D00-0
 62
     7
370
    50
100
AcDbLine
 10
-212.193232
 20
147.045811
 30
0.0
 11
-211.270552
 21
147.704164
 31
0.0
  0
LINE
  5
21F
330
1F
100
AcDbEntity
  8
LC-001-100-D00-0
 62
     7
370
    50
100
AcDbLine
 10
-212.193232
 20
146.672113
 30
0.0
 11
-212.193232
 21
147.045811
 31
0.0
  0
LINE
  5
220
330
1F
100
AcDbEntity
  8
LC-001-100-D00-0
 62
     7
370
    50
100
AcDbLine
 10
-211.009037
 20
147.517666
 30
0.0
 11
-212.193232
 21
146.672113
 31
0.0
  0
LINE
  5
221
330
1F
100
AcDbEntity
  8
LC-001-100-D00-0
 62
     7
370
    50
100
AcDbLine
 10
-209.627393
 20
146.543303
 30
0.0
 11
-211.009037
 21
147.517666
 31
0.0
  0
ARC
  5
222
330
1F
100
AcDbEntity
  8
LC-001-100-D00-0
 62
     7
370
    50
100
AcDbCircle
 10
-112.302704
 20
145.805626
 30
0.0
 40
24.79999999999454
100
AcDbArc
 50
300.592814
 51
59.407186
  0
ARC
  5
223
330
1F
100
AcDbEntity
  8
LC-001-100-D00-0
 62
     7
370
    50
100
AcDbCircle
 10
-173.302704
 20
145.805626
 30
0.0
 40
24.79999999999457
100
AcDbArc
 50
120.592814
 51
239.407186
  0
DIMENSION
  5
224
330
1F
100
AcDbEntity
  8
LC-001-100-D00-0
 62
     7
370
    25
100
AcDbDimension
  2
*D16
 10
553.665982
 20
190.305626
 30
0.0
 11
498.665982
 21
159.135626
 31
0.0
 70
   160
  1
1,5
 71
     5
 42
1.5
 53
90.0
  3
LC-DIM-L-0100-02-02
100
AcDbAlignedDimension
 13
452.197296
 23
191.805626
 33
0.0
 14
452.197296
 24
190.305626
 34
0.0
 50
90.0
100
AcDbRotatedDimension
  0
DIMENSION
  5
232
330
1F
100
AcDbEntity
  8
LC-001-100-D00-0
 62
     7
370
    25
100
AcDbDimension
  2
*D17
 10
642.313414
 20
171.805626
 30
0.0
 11
587.313414
 21
107.160626
 31
0.0
 70
   160
  1
18,5
 71
     5
 42
18.5
 53
90.0
  3
LC-DIM-L-0100-02-02
100
AcDbAlignedDimension
 13
452.197296
 23
190.305626
 33
0.0
 14
404.697296
 24
171.805626
 34
0.0
 50
90.0
100
AcDbRotatedDimension
  0
DIMENSION
  5
240
330
1F
100
AcDbEntity
  8
LC-001-100-D00-0
 62
     7
370
    25
100
AcDbDimension
  2
*D18
 10
730.960845
 20
68.305626
 30
0.0
 11
675.960845
 21
105.675626
 31
0.0
 70
   160
  1
123,5
 71
     5
 42
123.5
 53
90.0
  3
LC-DIM-L-0100-02-02
100
AcDbAlignedDimension
 13
452.197296
 23
191.805626
 33
0.0
 14
452.197296
 24
68.305626
 34
0.0
 50
90.0
100
AcDbRotatedDimension
  0
LINE
  5
24D
330
1F
100
AcDbEntity
  8
LC-001-100-D00-0
  6
DASHDOT
 62
     7
370
    25
100
AcDbLine
 10
-142.802704
 20
203.805626
 30
0.0
 11
-142.802704
 21
61.305626
 31
0.0
  0
LINE
  5
24E
330
1F
100
AcDbEntity
  8
LC-001-100-D00-0
  6
DASHDOT
 62
     7
370
    25
100
AcDbLine
 10
-702.302704
 20
145.805626
 30
0.0
 11
416.697296
 21
145.805626
 31
0.0
  0
LINE
  5
24F
330
1F
100
AcDbEntity
  8
LC-001-100-D00-0
 62
     7
370
    50
100
AcDbLine
 10
-29.554884
 20
447.65014
 30
0.0
 11
-29.554884
 21
449.433061
 31
0.0
  0
LINE
  5
250
330
1F
100
AcDbEntity
  8
LC-001-100-D00-0
 62
     7
370
    50
100
AcDbLine
 10
-29.554884
 20
499.867219
 30
0.0
 11
-29.554884
 21
501.65014
 31
0.0
  0
LINE
  5
251
330
1F
100
AcDbEntity
  8
LC-001-100-D00-0
 62
     7
370
    50
100
AcDbLine
 10
-33.554884
 20
501.65014
 30
0.0
 11
-33.554884
 21
499.867219
 31
0.0
  0
LINE
  5
252
330
1F
100
AcDbEntity
  8
LC-001-100-D00-0
 62
     7
370
    50
100
AcDbLine
 10
-33.554884
 20
449.433061
 30
0.0
 11
-33.554884
 21
447.65014
 31
0.0
  0
LINE
  5
253
330
1F
100
AcDbEntity
  8
LC-001-100-D00-0
 62
     7
370
    50
100
AcDbLine
 10
-103.088265
 20
498.15014
 30
0.0
 11
-103.088265
 21
496.65014
 31
0.0
  0
LINE
  5
254
330
1F
100
AcDbEntity
  8
LC-001-100-D00-0
 62
     7
370
    50
100
AcDbLine
 10
-182.517095
 20
496.65014
 30
0.0
 11
-182.517095
 21
498.15014
 31
0.0
  0
LINE
  5
255
330
1F
100
AcDbEntity
  8
LC-001-100-D00-0
 62
     7
370
    50
100
AcDbLine
 10
373.797333
 20
520.15014
 30
0.0
 11
372.797346
 21
521.15014
 31
0.0
  0
LINE
  5
256
330
1F
100
AcDbEntity
  8
LC-001-100-D00-0
 62
     7
370
    50
100
AcDbLine
 10
373.797333
 20
520.15014
 30
0.0
 11
373.79732
 21
514.15014
 31
0.0
  0
LINE
  5
257
330
1F
100
AcDbEntity
  8
LC-001-100-D00-0
 62
     7
370
    50
100
AcDbLine
 10
372.79732
 20
513.15014
 30
0.0
 11
373.79732
 21
514.15014
 31
0.0
  0
LINE
  5
258
330
1F
100
AcDbEntity
  8
LC-001-100-D00-0
 62
     7
370
    50
100
AcDbLine
 10
370.846486
 20
515.150139
 30
0.0
 11
370.846486
 21
513.150141
 31
0.0
  0
LINE
  5
259
330
1F
100
AcDbEntity
  8
LC-001-100-D00-0
 62
     7
370
    50
100
AcDbLine
 10
371.552611
 20
515.339351
 30
0.0
 11
370.846486
 21
515.150139
 31
0.0
  0
ARC
  5
25A
330
1F
100
AcDbEntity
  8
LC-001-100-D00-0
 62
     7
370
    50
100
AcDbCircle
 10
371.39732
 20
515.918906
 30
0.0
 40
0.6000000000003082
100
AcDbArc
 50
285.0
 51
0.0
  0
LINE
  5
25B
330
1F
100
AcDbEntity
  8
LC-001-100-D00-0
 62
     7
370
    50
100
AcDbLine
 10
371.99732
 20
518.381374
 30
0.0
 11
371.99732
 21
515.918906
 31
0.0
  0
ARC
  5
25C
330
1F
100
AcDbEntity
  8
LC-001-100-D00-0
 62
     7
370
    50
100
AcDbCircle
 10
371.39732
 20
518.381374
 30
0.0
 40
0.6000000000000227
100
AcDbArc
 50
0.0
 51
75.0
  0
LINE
  5
25D
330
1F
100
AcDbEntity
  8
LC-001-100-D00-0
 62
     7
370
    50
100
AcDbLine
 10
370.846486
 20
519.15014
 30
0.0
 11
371.552611
 21
518.960929
 31
0.0
  0
LINE
  5
25E
330
1F
100
AcDbEntity
  8
LC-001-100-D00-0
 62
     7
370
    50
100
AcDbLine
 10
370.846486
 20
521.15014
 30
0.0
 11
370.846486
 21
519.15014
 31
0.0
  0
LINE
  5
25F
330
1F
100
AcDbEntity
  8
LC-001-100-D00-0
 62
     7
370
    50
100
AcDbLine
 10
370.846486
 20
513.150141
 30
0.0
 11
372.79732
 21
513.15014
 31
0.0
  0
LINE
  5
260
330
1F
100
AcDbEntity
  8
LC-001-100-D00-0
 62
     7
370
    50
100
AcDbLine
 10
370.846486
 20
521.15014
 30
0.0
 11
372.797346
 21
521.15014
 31
0.0
  0
LINE
  5
261
330
1F
100
AcDbEntity
  8
LC-001-100-D00-0
 62
     7
370
    50
100
AcDbLine
 10
382.39732
 20
515.918906
 30
0.0
 11
382.39732
 21
518.381374
 31
0.0
  0
ARC
  5
262
330
1F
100
AcDbEntity
  8
LC-001-100-D00-0
 62
     7
370
    50
100
AcDbCircle
 10
382.99732
 20
515.918906
 30
0.0
 40
0.5999999999997385
100
AcDbArc
 50
180.0
 51
255.0
  0
LINE
  5
263
330
1F
100
AcDbEntity
  8
LC-001-100-D00-0
 62
     7
370
    50
100
AcDbLine
 10
383.548176
 20
515.150139
 30
0.0
 11
382.842029
 21
515.339351
 31
0.0
  0
LINE
  5
264
330
1F
100
AcDbEntity
  8
LC-001-100-D00-0
 62
     7
370
    50
100
AcDbLine
 10
383.548176
 20
515.150139
 30
0.0
 11
383.548176
 21
513.150141
 31
0.0
  0
LINE
  5
265
330
1F
100
AcDbEntity
  8
LC-001-100-D00-0
 62
     7
370
    50
100
AcDbLine
 10
380.59732
 20
514.15014
 30
0.0
 11
381.59732
 21
513.15014
 31
0.0
  0
LINE
  5
266
330
1F
100
AcDbEntity
  8
LC-001-100-D00-0
 62
     7
370
    50
100
AcDbLine
 10
380.59732
 20
514.15014
 30
0.0
 11
380.597329
 21
520.15014
 31
0.0
  0
LINE
  5
267
330
1F
100
AcDbEntity
  8
LC-001-100-D00-0
 62
     7
370
    50
100
AcDbLine
 10
381.597316
 20
521.15014
 30
0.0
 11
380.597329
 21
520.15014
 31
0.0
  0
LINE
  5
268
330
1F
100
AcDbEntity
  8
LC-001-100-D00-0
 62
     7
370
    50
100
AcDbLine
 10
383.548176
 20
521.15014
 30
0.0
 11
383.548176
 21
519.15014
 31
0.0
  0
LINE
  5
269
330
1F
100
AcDbEntity
  8
LC-001-100-D00-0
 62
     7
370
    50
100
AcDbLine
 10
382.842029
 20
518.960929
 30
0.0
 11
383.548176
 21
519.15014
 31
0.0
  0
ARC
  5
26A
330
1F
100
AcDbEntity
  8
LC-001-100-D00-0
 62
     7
370
    50
100
AcDbCircle
 10
382.99732
 20
518.381374
 30
0.0
 40
0.6000000000000886
100
AcDbArc
 50
105.0
 51
180.0
  0
LINE
  5
26B
330
1F
100
AcDbEntity
  8
LC-001-100-D00-0
 62
     7
370
    50
100
AcDbLine
 10
381.59732
 20
513.15014
 30
0.0
 11
383.548176
 21
513.150141
 31
0.0
  0
LINE
  5
26C
330
1F
100
AcDbEntity
  8
LC-001-100-D00-0
 62
     7
370
    50
100
AcDbLine
 10
381.597316
 20
521.15014
 30
0.0
 11
383.548176
 21
521.15014
 31
0.0
  0
LINE
  5
26D
330
1F
100
AcDbEntity
  8
LC-001-100-D00-0
 62
     7
370
    50
100
AcDbLine
 10
373.79732
 20
514.15014
 30
0.0
 11
373.95516
 21
514.15014
 31
0.0
  0
LINE
  5
26E
330
1F
100
AcDbEntity
  8
LC-001-100-D00-0
 62
     7
370
    50
100
AcDbLine
 10
380.43948
 20
514.15014
 30
0.0
 11
380.59732
 21
514.15014
 31
0.0
  0
LINE
  5
26F
330
1F
100
AcDbEntity
  8
LC-001-100-D00-0
 62
     7
370
    50
100
AcDbLine
 10
381.59732
 20
513.15014
 30
0.0
 11
381.061538
 21
513.15014
 31
0.0
  0
LINE
  5
270
330
1F
100
AcDbEntity
  8
LC-001-100-D00-0
 62
     7
370
    50
100
AcDbLine
 10
373.333102
 20
513.15014
 30
0.0
 11
372.79732
 21
513.15014
 31
0.0
  0
LINE
  5
271
330
1F
100
AcDbEntity
  8
LC-001-100-D00-0
 62
     7
370
    50
100
AcDbLine
 10
383.548176
 20
521.15014
 30
0.0
 11
381.097292
 21
521.15014
 31
0.0
  0
LINE
  5
272
330
1F
100
AcDbEntity
  8
LC-001-100-D00-0
 62
     7
370
    50
100
AcDbLine
 10
381.097292
 20
521.15014
 30
0.0
 11
381.09732
 21
532.15014
 31
0.0
  0
LINE
  5
273
330
1F
100
AcDbEntity
  8
LC-001-100-D00-0
 62
     7
370
    50
100
AcDbLine
 10
381.09732
 20
532.15014
 30
0.0
 11
394.44732
 21
532.15014
 31
0.0
  0
ARC
  5
274
330
1F
100
AcDbEntity
  8
LC-001-100-D00-0
 62
     7
370
    50
100
AcDbCircle
 10
394.44732
 20
531.15014
 30
0.0
 40
1.000000000000171
100
AcDbArc
 50
0.0
 51
90.0
  0
LINE
  5
275
330
1F
100
AcDbEntity
  8
LC-001-100-D00-0
 62
     7
370
    50
100
AcDbLine
 10
395.44732
 20
531.15014
 30
0.0
 11
395.447349
 21
525.15014
 31
0.0
  0
LINE
  5
276
330
1F
100
AcDbEntity
  8
LC-001-100-D00-0
 62
     7
370
    50
100
AcDbLine
 10
392.44732
 20
525.15014
 30
0.0
 11
395.447349
 21
525.15014
 31
0.0
  0
LINE
  5
277
330
1F
100
AcDbEntity
  8
LC-001-100-D00-0
 62
     7
370
    50
100
AcDbLine
 10
392.44732
 20
525.15014
 30
0.0
 11
392.447328
 21
529.15014
 31
0.0
  0
LINE
  5
278
330
1F
100
AcDbEntity
  8
LC-001-100-D00-0
 62
     7
370
    50
100
AcDbLine
 10
387.94732
 20
529.15014
 30
0.0
 11
392.447328
 21
529.15014
 31
0.0
  0
ARC
  5
279
330
1F
100
AcDbEntity
  8
LC-001-100-D00-0
 62
     7
370
    50
100
AcDbCircle
 10
387.94732
 20
528.15014
 30
0.0
 40
1.000000000000227
100
AcDbArc
 50
90.0
 51
180.0
  0
LINE
  5
27A
330
1F
100
AcDbEntity
  8
LC-001-100-D00-0
 62
     7
370
    50
100
AcDbLine
 10
386.94732
 20
514.15014
 30
0.0
 11
386.94732
 21
528.15014
 31
0.0
  0
ARC
  5
27B
330
1F
100
AcDbEntity
  8
LC-001-100-D00-0
 62
     7
370
    50
100
AcDbCircle
 10
385.94732
 20
514.15014
 30
0.0
 40
1.000000000000227
100
AcDbArc
 50
270.0
 51
0.0
  0
LINE
  5
27C
330
1F
100
AcDbEntity
  8
LC-001-100-D00-0
 62
     7
370
    50
100
AcDbLine
 10
385.94732
 20
513.15014
 30
0.0
 11
383.548176
 21
513.150141
 31
0.0
  0
LINE
  5
27D
330
1F
100
AcDbEntity
  8
LC-001-100-D00-0
 62
     7
370
    50
100
AcDbLine
 10
383.548176
 20
515.150139
 30
0.0
 11
383.548176
 21
513.150141
 31
0.0
  0
LINE
  5
27E
330
1F
100
AcDbEntity
  8
LC-001-100-D00-0
 62
     7
370
    50
100
AcDbLine
 10
382.89732
 20
515.15014
 30
0.0
 11
383.548176
 21
515.150139
 31
0.0
  0
ARC
  5
27F
330
1F
100
AcDbEntity
  8
LC-001-100-D00-0
 62
     7
370
    50
100
AcDbCircle
 10
382.89732
 20
515.65014
 30
0.0
 40
0.5000000000003411
100
AcDbArc
 50
180.0
 51
270.0
  0
LINE
  5
280
330
1F
100
AcDbEntity
  8
LC-001-100-D00-0
 62
     7
370
    50
100
AcDbLine
 10
382.39732
 20
518.65014
 30
0.0
 11
382.39732
 21
515.65014
 31
0.0
  0
ARC
  5
281
330
1F
100
AcDbEntity
  8
LC-001-100-D00-0
 62
     7
370
    50
100
AcDbCircle
 10
382.89732
 20
518.65014
 30
0.0
 40
0.4999999999997726
100
AcDbArc
 50
90.0
 51
180.0
  0
LINE
  5
282
330
1F
100
AcDbEntity
  8
LC-001-100-D00-0
 62
     7
370
    50
100
AcDbLine
 10
383.548176
 20
519.15014
 30
0.0
 11
382.89732
 21
519.15014
 31
0.0
  0
LINE
  5
283
330
1F
100
AcDbEntity
  8
LC-001-100-D00-0
 62
     7
370
    50
100
AcDbLine
 10
383.548176
 20
521.15014
 30
0.0
 11
383.548176
 21
519.15014
 31
0.0
  0
ARC
  5
284
330
1F
100
AcDbEntity
  8
LC-001-100-D00-0
 62
     7
370
    50
100
AcDbCircle
 10
366.44732
 20
528.15014
 30
0.0
 40
0.9999999999999432
100
AcDbArc
 50
0.0
 51
90.0
  0
ARC
  5
285
330
1F
100
AcDbEntity
  8
LC-001-100-D00-0
 62
     7
370
    50
100
AcDbCircle
 10
368.44732
 20
514.15014
 30
0.0
 40
0.9999999999998863
100
AcDbArc
 50
180.0
 51
270.0
  0
LINE
  5
286
330
1F
100
AcDbEntity
  8
LC-001-100-D00-0
 62
     7
370
    50
100
AcDbLine
 10
367.44732
 20
528.15014
 30
0.0
 11
367.44732
 21
514.15014
 31
0.0
  0
LINE
  5
287
330
1F
100
AcDbEntity
  8
LC-001-100-D00-0
 62
     7
370
    50
100
AcDbLine
 10
371.99732
 20
515.65014
 30
0.0
 11
371.99732
 21
518.65014
 31
0.0
  0
LINE
  5
288
330
1F
100
AcDbEntity
  8
LC-001-100-D00-0
 62
     7
370
    50
100
AcDbLine
 10
373.29732
 20
532.15014
 30
0.0
 11
373.297309
 21
521.15014
 31
0.0
  0
LINE
  5
289
330
1F
100
AcDbEntity
  8
LC-001-100-D00-0
 62
     7
370
    50
100
AcDbLine
 10
373.29732
 20
532.15014
 30
0.0
 11
381.09732
 21
532.15014
 31
0.0
  0
LINE
  5
28A
330
1F
100
AcDbEntity
  8
LC-001-100-D00-0
 62
     7
370
    50
100
AcDbLine
 10
370.846486
 20
521.15014
 30
0.0
 11
370.846486
 21
519.15014
 31
0.0
  0
LINE
  5
28B
330
1F
100
AcDbEntity
  8
LC-001-100-D00-0
 62
     7
370
    50
100
AcDbLine
 10
370.846486
 20
515.150139
 30
0.0
 11
370.846486
 21
513.150141
 31
0.0
  0
ARC
  5
28C
330
1F
100
AcDbEntity
  8
LC-001-100-D00-0
 62
     7
370
    50
100
AcDbCircle
 10
371.49732
 20
515.65014
 30
0.0
 40
0.5000000000003411
100
AcDbArc
 50
270.0
 51
0.0
  0
LINE
  5
28D
330
1F
100
AcDbEntity
  8
LC-001-100-D00-0
 62
     7
370
    50
100
AcDbLine
 10
370.846486
 20
515.150139
 30
0.0
 11
371.49732
 21
515.15014
 31
0.0
  0
LINE
  5
28E
330
1F
100
AcDbEntity
  8
LC-001-100-D00-0
 62
     7
370
    50
100
AcDbLine
 10
361.947333
 20
529.15014
 30
0.0
 11
361.94732
 21
525.15014
 31
0.0
  0
LINE
  5
28F
330
1F
100
AcDbEntity
  8
LC-001-100-D00-0
 62
     7
370
    50
100
AcDbLine
 10
358.947312
 20
525.15014
 30
0.0
 11
358.94732
 21
531.15014
 31
0.0
  0
ARC
  5
290
330
1F
100
AcDbEntity
  8
LC-001-100-D00-0
 62
     7
370
    50
100
AcDbCircle
 10
359.94732
 20
531.15014
 30
0.0
 40
1.000000000000227
100
AcDbArc
 50
90.0
 51
180.0
  0
LINE
  5
291
330
1F
100
AcDbEntity
  8
LC-001-100-D00-0
 62
     7
370
    50
100
AcDbLine
 10
371.49732
 20
519.15014
 30
0.0
 11
370.846486
 21
519.15014
 31
0.0
  0
ARC
  5
292
330
1F
100
AcDbEntity
  8
LC-001-100-D00-0
 62
     7
370
    50
100
AcDbCircle
 10
371.49732
 20
518.65014
 30
0.0
 40
0.5000000000001137
100
AcDbArc
 50
0.0
 51
90.0
  0
LINE
  5
293
330
1F
100
AcDbEntity
  8
LC-001-100-D00-0
 62
     7
370
    50
100
AcDbLine
 10
358.947312
 20
525.15014
 30
0.0
 11
361.94732
 21
525.15014
 31
0.0
  0
LINE
  5
294
330
1F
100
AcDbEntity
  8
LC-001-100-D00-0
 62
     7
370
    50
100
AcDbLine
 10
373.297309
 20
521.15014
 30
0.0
 11
370.846486
 21
521.15014
 31
0.0
  0
LINE
  5
295
330
1F
100
AcDbEntity
  8
LC-001-100-D00-0
 62
     7
370
    50
100
AcDbLine
 10
370.846486
 20
513.150141
 30
0.0
 11
368.44732
 21
513.15014
 31
0.0
  0
LINE
  5
296
330
1F
100
AcDbEntity
  8
LC-001-100-D00-0
 62
     7
370
    50
100
AcDbLine
 10
361.947333
 20
529.15014
 30
0.0
 11
366.44732
 21
529.15014
 31
0.0
  0
LINE
  5
297
330
1F
100
AcDbEntity
  8
LC-001-100-D00-0
 62
     7
370
    50
100
AcDbLine
 10
359.94732
 20
532.15014
 30
0.0
 11
373.29732
 21
532.15014
 31
0.0
  0
LINE
  5
298
330
1F
100
AcDbEntity
  8
LC-001-100-D00-0
 62
     7
370
    50
100
AcDbLine
 10
390.44732
 20
525.15014
 30
0.0
 11
392.44732
 21
525.15014
 31
0.0
  0
LINE
  5
299
330
1F
100
AcDbEntity
  8
LC-001-100-D00-0
 62
     7
370
    50
100
AcDbLine
 10
361.94732
 20
525.15014
 30
0.0
 11
363.94732
 21
525.15014
 31
0.0
  0
LINE
  5
29A
330
1F
100
AcDbEntity
  8
LC-001-100-D00-0
 62
     7
370
    50
100
AcDbLine
 10
363.94732
 20
525.15014
 30
0.0
 11
367.447292
 21
525.15014
 31
0.0
  0
LINE
  5
29B
330
1F
100
AcDbEntity
  8
LC-001-100-D00-0
 62
     7
370
    50
100
AcDbLine
 10
386.947309
 20
525.15014
 30
0.0
 11
390.44732
 21
525.15014
 31
0.0
  0
LINE
  5
29C
330
1F
100
AcDbEntity
  8
LC-001-100-D00-0
 62
     7
370
    50
100
AcDbLine
 10
-666.202689
 20
520.15014
 30
0.0
 11
-667.202676
 21
521.15014
 31
0.0
  0
LINE
  5
29D
330
1F
100
AcDbEntity
  8
LC-001-100-D00-0
 62
     7
370
    50
100
AcDbLine
 10
-666.202689
 20
520.15014
 30
0.0
 11
-666.20268
 21
514.15014
 31
0.0
  0
LINE
  5
29E
330
1F
100
AcDbEntity
  8
LC-001-100-D00-0
 62
     7
370
    50
100
AcDbLine
 10
-667.20268
 20
513.15014
 30
0.0
 11
-666.20268
 21
514.15014
 31
0.0
  0
LINE
  5
29F
330
1F
100
AcDbEntity
  8
LC-001-100-D00-0
 62
     7
370
    50
100
AcDbLine
 10
-669.153536
 20
515.150139
 30
0.0
 11
-669.153536
 21
513.150141
 31
0.0
  0
LINE
  5
2A0
330
1F
100
AcDbEntity
  8
LC-001-100-D00-0
 62
     7
370
    50
100
AcDbLine
 10
-668.447389
 20
515.339351
 30
0.0
 11
-669.153536
 21
515.150139
 31
0.0
  0
ARC
  5
2A1
330
1F
100
AcDbEntity
  8
LC-001-100-D00-0
 62
     7
370
    50
100
AcDbCircle
 10
-668.60268
 20
515.918906
 30
0.0
 40
0.5999999999997885
100
AcDbArc
 50
285.0
 51
0.0
  0
LINE
  5
2A2
330
1F
100
AcDbEntity
  8
LC-001-100-D00-0
 62
     7
370
    50
100
AcDbLine
 10
-668.00268
 20
518.381374
 30
0.0
 11
-668.00268
 21
515.918906
 31
0.0
  0
ARC
  5
2A3
330
1F
100
AcDbEntity
  8
LC-001-100-D00-0
 62
     7
370
    50
100
AcDbCircle
 10
-668.60268
 20
518.381374
 30
0.0
 40
0.6000000000001364
100
AcDbArc
 50
0.0
 51
75.0
  0
LINE
  5
2A4
330
1F
100
AcDbEntity
  8
LC-001-100-D00-0
 62
     7
370
    50
100
AcDbLine
 10
-669.153536
 20
519.15014
 30
0.0
 11
-668.447389
 21
518.960929
 31
0.0
  0
LINE
  5
2A5
330
1F
100
AcDbEntity
  8
LC-001-100-D00-0
 62
     7
370
    50
100
AcDbLine
 10
-669.153536
 20
521.15014
 30
0.0
 11
-669.153536
 21
519.15014
 31
0.0
  0
LINE
  5
2A6
330
1F
100
AcDbEntity
  8
LC-001-100-D00-0
 62
     7
370
    50
100
AcDbLine
 10
-669.153536
 20
513.150141
 30
0.0
 11
-667.20268
 21
513.15014
 31
0.0
  0
LINE
  5
2A7
330
1F
100
AcDbEntity
  8
LC-001-100-D00-0
 62
     7
370
    50
100
AcDbLine
 10
-669.153536
 20
521.15014
 30
0.0
 11
-667.202676
 21
521.15014
 31
0.0
  0
LINE
  5
2A8
330
1F
100
AcDbEntity
  8
LC-001-100-D00-0
 62
     7
370
    50
100
AcDbLine
 10
-657.60268
 20
515.918906
 30
0.0
 11
-657.60268
 21
518.381374
 31
0.0
  0
ARC
  5
2A9
330
1F
100
AcDbEntity
  8
LC-001-100-D00-0
 62
     7
370
    50
100
AcDbCircle
 10
-657.00268
 20
515.918906
 30
0.0
 40
0.6000000000000227
100
AcDbArc
 50
180.0
 51
255.0
  0
LINE
  5
2AA
330
1F
100
AcDbEntity
  8
LC-001-100-D00-0
 62
     7
370
    50
100
AcDbLine
 10
-656.451846
 20
515.150139
 30
0.0
 11
-657.157971
 21
515.339351
 31
0.0
  0
LINE
  5
2AB
330
1F
100
AcDbEntity
  8
LC-001-100-D00-0
 62
     7
370
    50
100
AcDbLine
 10
-656.451846
 20
515.150139
 30
0.0
 11
-656.451846
 21
513.150141
 31
0.0
  0
LINE
  5
2AC
330
1F
100
AcDbEntity
  8
LC-001-100-D00-0
 62
     7
370
    50
100
AcDbLine
 10
-659.40268
 20
514.15014
 30
0.0
 11
-658.40268
 21
513.15014
 31
0.0
  0
LINE
  5
2AD
330
1F
100
AcDbEntity
  8
LC-001-100-D00-0
 62
     7
370
    50
100
AcDbLine
 10
-659.40268
 20
514.15014
 30
0.0
 11
-659.402693
 21
520.15014
 31
0.0
  0
LINE
  5
2AE
330
1F
100
AcDbEntity
  8
LC-001-100-D00-0
 62
     7
370
    50
100
AcDbLine
 10
-658.402706
 20
521.15014
 30
0.0
 11
-659.402693
 21
520.15014
 31
0.0
  0
LINE
  5
2AF
330
1F
100
AcDbEntity
  8
LC-001-100-D00-0
 62
     7
370
    50
100
AcDbLine
 10
-656.451846
 20
521.15014
 30
0.0
 11
-656.451846
 21
519.15014
 31
0.0
  0
LINE
  5
2B0
330
1F
100
AcDbEntity
  8
LC-001-100-D00-0
 62
     7
370
    50
100
AcDbLine
 10
-657.157971
 20
518.960929
 30
0.0
 11
-656.451846
 21
519.15014
 31
0.0
  0
ARC
  5
2B1
330
1F
100
AcDbEntity
  8
LC-001-100-D00-0
 62
     7
370
    50
100
AcDbCircle
 10
-657.00268
 20
518.381374
 30
0.0
 40
0.600000000000118
100
AcDbArc
 50
105.0
 51
180.0
  0
LINE
  5
2B2
330
1F
100
AcDbEntity
  8
LC-001-100-D00-0
 62
     7
370
    50
100
AcDbLine
 10
-658.40268
 20
513.15014
 30
0.0
 11
-656.451846
 21
513.150141
 31
0.0
  0
LINE
  5
2B3
330
1F
100
AcDbEntity
  8
LC-001-100-D00-0
 62
     7
370
    50
100
AcDbLine
 10
-658.402706
 20
521.15014
 30
0.0
 11
-656.451846
 21
521.15014
 31
0.0
  0
LINE
  5
2B4
330
1F
100
AcDbEntity
  8
LC-001-100-D00-0
 62
     7
370
    50
100
AcDbLine
 10
-666.20268
 20
514.15014
 30
0.0
 11
-666.04484
 21
514.15014
 31
0.0
  0
LINE
  5
2B5
330
1F
100
AcDbEntity
  8
LC-001-100-D00-0
 62
     7
370
    50
100
AcDbLine
 10
-659.56052
 20
514.15014
 30
0.0
 11
-659.40268
 21
514.15014
 31
0.0
  0
LINE
  5
2B6
330
1F
100
AcDbEntity
  8
LC-001-100-D00-0
 62
     7
370
    50
100
AcDbLine
 10
-658.40268
 20
513.15014
 30
0.0
 11
-658.938462
 21
513.15014
 31
0.0
  0
LINE
  5
2B7
330
1F
100
AcDbEntity
  8
LC-001-100-D00-0
 62
     7
370
    50
100
AcDbLine
 10
-666.666898
 20
513.15014
 30
0.0
 11
-667.20268
 21
513.15014
 31
0.0
  0
LINE
  5
2B8
330
1F
100
AcDbEntity
  8
LC-001-100-D00-0
 62
     7
370
    50
100
AcDbLine
 10
-656.451846
 20
521.15014
 30
0.0
 11
-658.902669
 21
521.15014
 31
0.0
  0
LINE
  5
2B9
330
1F
100
AcDbEntity
  8
LC-001-100-D00-0
 62
     7
370
    50
100
AcDbLine
 10
-658.902669
 20
521.15014
 30
0.0
 11
-658.90268
 21
532.15014
 31
0.0
  0
LINE
  5
2BA
330
1F
100
AcDbEntity
  8
LC-001-100-D00-0
 62
     7
370
    50
100
AcDbLine
 10
-658.90268
 20
532.15014
 30
0.0
 11
-645.55268
 21
532.15014
 31
0.0
  0
ARC
  5
2BB
330
1F
100
AcDbEntity
  8
LC-001-100-D00-0
 62
     7
370
    50
100
AcDbCircle
 10
-645.55268
 20
531.15014
 30
0.0
 40
1.000000000000114
100
AcDbArc
 50
0.0
 51
90.0
  0
LINE
  5
2BC
330
1F
100
AcDbEntity
  8
LC-001-100-D00-0
 62
     7
370
    50
100
AcDbLine
 10
-644.55268
 20
531.15014
 30
0.0
 11
-644.552672
 21
525.15014
 31
0.0
  0
LINE
  5
2BD
330
1F
100
AcDbEntity
  8
LC-001-100-D00-0
 62
     7
370
    50
100
AcDbLine
 10
-647.55268
 20
525.15014
 30
0.0
 11
-644.552672
 21
525.15014
 31
0.0
  0
LINE
  5
2BE
330
1F
100
AcDbEntity
  8
LC-001-100-D00-0
 62
     7
370
    50
100
AcDbLine
 10
-647.55268
 20
525.15014
 30
0.0
 11
-647.552693
 21
529.15014
 31
0.0
  0
LINE
  5
2BF
330
1F
100
AcDbEntity
  8
LC-001-100-D00-0
 62
     7
370
    50
100
AcDbLine
 10
-652.05268
 20
529.15014
 30
0.0
 11
-647.552693
 21
529.15014
 31
0.0
  0
ARC
  5
2C0
330
1F
100
AcDbEntity
  8
LC-001-100-D00-0
 62
     7
370
    50
100
AcDbCircle
 10
-652.05268
 20
528.15014
 30
0.0
 40
1.000000000000227
100
AcDbArc
 50
90.0
 51
180.0
  0
LINE
  5
2C1
330
1F
100
AcDbEntity
  8
LC-001-100-D00-0
 62
     7
370
    50
100
AcDbLine
 10
-653.05268
 20
514.15014
 30
0.0
 11
-653.05268
 21
528.15014
 31
0.0
  0
ARC
  5
2C2
330
1F
100
AcDbEntity
  8
LC-001-100-D00-0
 62
     7
370
    50
100
AcDbCircle
 10
-654.05268
 20
514.15014
 30
0.0
 40
1.000000000000227
100
AcDbArc
 50
270.0
 51
0.0
  0
LINE
  5
2C3
330
1F
100
AcDbEntity
  8
LC-001-100-D00-0
 62
     7
370
    50
100
AcDbLine
 10
-654.05268
 20
513.15014
 30
0.0
 11
-656.451846
 21
513.150141
 31
0.0
  0
LINE
  5
2C4
330
1F
100
AcDbEntity
  8
LC-001-100-D00-0
 62
     7
370
    50
100
AcDbLine
 10
-656.451846
 20
515.150139
 30
0.0
 11
-656.451846
 21
513.150141
 31
0.0
  0
LINE
  5
2C5
330
1F
100
AcDbEntity
  8
LC-001-100-D00-0
 62
     7
370
    50
100
AcDbLine
 10
-657.10268
 20
515.15014
 30
0.0
 11
-656.451846
 21
515.150139
 31
0.0
  0
ARC
  5
2C6
330
1F
100
AcDbEntity
  8
LC-001-100-D00-0
 62
     7
370
    50
100
AcDbCircle
 10
-657.10268
 20
515.65014
 30
0.0
 40
0.5000000000002274
100
AcDbArc
 50
180.0
 51
270.0
  0
LINE
  5
2C7
330
1F
100
AcDbEntity
  8
LC-001-100-D00-0
 62
     7
370
    50
100
AcDbLine
 10
-657.60268
 20
518.65014
 30
0.0
 11
-657.60268
 21
515.65014
 31
0.0
  0
ARC
  5
2C8
330
1F
100
AcDbEntity
  8
LC-001-100-D00-0
 62
     7
370
    50
100
AcDbCircle
 10
-657.10268
 20
518.65014
 30
0.0
 40
0.4999999999997726
100
AcDbArc
 50
90.0
 51
180.0
  0
LINE
  5
2C9
330
1F
100
AcDbEntity
  8
LC-001-100-D00-0
 62
     7
370
    50
100
AcDbLine
 10
-656.451846
 20
519.15014
 30
0.0
 11
-657.10268
 21
519.15014
 31
0.0
  0
LINE
  5
2CA
330
1F
100
AcDbEntity
  8
LC-001-100-D00-0
 62
     7
370
    50
100
AcDbLine
 10
-656.451846
 20
521.15014
 30
0.0
 11
-656.451846
 21
519.15014
 31
0.0
  0
ARC
  5
2CB
330
1F
100
AcDbEntity
  8
LC-001-100-D00-0
 62
     7
370
    50
100
AcDbCircle
 10
-673.55268
 20
528.15014
 30
0.0
 40
1.000000000000227
100
AcDbArc
 50
0.0
 51
90.0
  0
LINE
  5
2CC
330
1F
100
AcDbEntity
  8
LC-001-100-D00-0
 62
     7
370
    50
100
AcDbLine
 10
-672.55268
 20
528.15014
 30
0.0
 11
-672.55268
 21
514.15014
 31
0.0
  0
ARC
  5
2CD
330
1F
100
AcDbEntity
  8
LC-001-100-D00-0
 62
     7
370
    50
100
AcDbCircle
 10
-671.55268
 20
514.15014
 30
0.0
 40
0.9999999999998863
100
AcDbArc
 50
180.0
 51
270.0
  0
LINE
  5
2CE
330
1F
100
AcDbEntity
  8
LC-001-100-D00-0
 62
     7
370
    50
100
AcDbLine
 10
-668.00268
 20
515.65014
 30
0.0
 11
-668.00268
 21
518.65014
 31
0.0
  0
LINE
  5
2CF
330
1F
100
AcDbEntity
  8
LC-001-100-D00-0
 62
     7
370
    50
100
AcDbLine
 10
-666.70268
 20
532.15014
 30
0.0
 11
-666.702653
 21
521.15014
 31
0.0
  0
LINE
  5
2D0
330
1F
100
AcDbEntity
  8
LC-001-100-D00-0
 62
     7
370
    50
100
AcDbLine
 10
-666.70268
 20
532.15014
 30
0.0
 11
-658.90268
 21
532.15014
 31
0.0
  0
LINE
  5
2D1
330
1F
100
AcDbEntity
  8
LC-001-100-D00-0
 62
     7
370
    50
100
AcDbLine
 10
-669.153536
 20
521.15014
 30
0.0
 11
-669.153536
 21
519.15014
 31
0.0
  0
LINE
  5
2D2
330
1F
100
AcDbEntity
  8
LC-001-100-D00-0
 62
     7
370
    50
100
AcDbLine
 10
-669.153536
 20
515.150139
 30
0.0
 11
-669.153536
 21
513.150141
 31
0.0
  0
ARC
  5
2D3
330
1F
100
AcDbEntity
  8
LC-001-100-D00-0
 62
     7
370
    50
100
AcDbCircle
 10
-668.50268
 20
515.65014
 30
0.0
 40
0.5000000000003411
100
AcDbArc
 50
270.0
 51
0.0
  0
LINE
  5
2D4
330
1F
100
AcDbEntity
  8
LC-001-100-D00-0
 62
     7
370
    50
100
AcDbLine
 10
-669.153536
 20
515.150139
 30
0.0
 11
-668.50268
 21
515.15014
 31
0.0
  0
LINE
  5
2D5
330
1F
100
AcDbEntity
  8
LC-001-100-D00-0
 62
     7
370
    50
100
AcDbLine
 10
-678.052688
 20
529.15014
 30
0.0
 11
-678.05268
 21
525.15014
 31
0.0
  0
LINE
  5
2D6
330
1F
100
AcDbEntity
  8
LC-001-100-D00-0
 62
     7
370
    50
100
AcDbLine
 10
-681.052709
 20
525.15014
 30
0.0
 11
-681.05268
 21
531.15014
 31
0.0
  0
ARC
  5
2D7
330
1F
100
AcDbEntity
  8
LC-001-100-D00-0
 62
     7
370
    50
100
AcDbCircle
 10
-680.05268
 20
531.15014
 30
0.0
 40
1.000000000000227
100
AcDbArc
 50
90.0
 51
180.0
  0
LINE
  5
2D8
330
1F
100
AcDbEntity
  8
LC-001-100-D00-0
 62
     7
370
    50
100
AcDbLine
 10
-668.50268
 20
519.15014
 30
0.0
 11
-669.153536
 21
519.15014
 31
0.0
  0
ARC
  5
2D9
330
1F
100
AcDbEntity
  8
LC-001-100-D00-0
 62
     7
370
    50
100
AcDbCircle
 10
-668.50268
 20
518.65014
 30
0.0
 40
0.5
100
AcDbArc
 50
0.0
 51
90.0
  0
LINE
  5
2DA
330
1F
100
AcDbEntity
  8
LC-001-100-D00-0
 62
     7
370
    50
100
AcDbLine
 10
-681.052709
 20
525.15014
 30
0.0
 11
-678.05268
 21
525.15014
 31
0.0
  0
LINE
  5
2DB
330
1F
100
AcDbEntity
  8
LC-001-100-D00-0
 62
     7
370
    50
100
AcDbLine
 10
-666.702653
 20
521.15014
 30
0.0
 11
-669.153536
 21
521.15014
 31
0.0
  0
LINE
  5
2DC
330
1F
100
AcDbEntity
  8
LC-001-100-D00-0
 62
     7
370
    50
100
AcDbLine
 10
-669.153536
 20
513.150141
 30
0.0
 11
-671.55268
 21
513.15014
 31
0.0
  0
LINE
  5
2DD
330
1F
100
AcDbEntity
  8
LC-001-100-D00-0
 62
     7
370
    50
100
AcDbLine
 10
-678.052688
 20
529.15014
 30
0.0
 11
-673.55268
 21
529.15014
 31
0.0
  0
LINE
  5
2DE
330
1F
100
AcDbEntity
  8
LC-001-100-D00-0
 62
     7
370
    50
100
AcDbLine
 10
-680.05268
 20
532.15014
 30
0.0
 11
-666.70268
 21
532.15014
 31
0.0
  0
LINE
  5
2DF
330
1F
100
AcDbEntity
  8
LC-001-100-D00-0
 62
     7
370
    50
100
AcDbLine
 10
-649.55268
 20
525.15014
 30
0.0
 11
-647.55268
 21
525.15014
 31
0.0
  0
LINE
  5
2E0
330
1F
100
AcDbEntity
  8
LC-001-100-D00-0
 62
     7
370
    50
100
AcDbLine
 10
-678.05268
 20
525.15014
 30
0.0
 11
-676.05268
 21
525.15014
 31
0.0
  0
LINE
  5
2E1
330
1F
100
AcDbEntity
  8
LC-001-100-D00-0
 62
     7
370
    50
100
AcDbLine
 10
-676.05268
 20
525.15014
 30
0.0
 11
-672.55267
 21
525.15014
 31
0.0
  0
LINE
  5
2E2
330
1F
100
AcDbEntity
  8
LC-001-100-D00-0
 62
     7
370
    50
100
AcDbLine
 10
-653.052652
 20
525.15014
 30
0.0
 11
-649.55268
 21
525.15014
 31
0.0
  0
LINE
  5
2E3
330
1F
100
AcDbEntity
  8
LC-001-100-D00-0
 62
     7
370
    50
100
AcDbLine
 10
-46.202677
 20
520.15014
 30
0.0
 11
-47.202679
 21
521.15014
 31
0.0
  0
LINE
  5
2E4
330
1F
100
AcDbEntity
  8
LC-001-100-D00-0
 62
     7
370
    50
100
AcDbLine
 10
-46.202677
 20
520.15014
 30
0.0
 11
-46.20268
 21
514.15014
 31
0.0
  0
LINE
  5
2E5
330
1F
100
AcDbEntity
  8
LC-001-100-D00-0
 62
     7
370
    50
100
AcDbLine
 10
-47.20268
 20
513.15014
 30
0.0
 11
-46.20268
 21
514.15014
 31
0.0
  0
LINE
  5
2E6
330
1F
100
AcDbEntity
  8
LC-001-100-D00-0
 62
     7
370
    50
100
AcDbLine
 10
-49.153531
 20
515.150139
 30
0.0
 11
-49.153531
 21
513.150141
 31
0.0
  0
LINE
  5
2E7
330
1F
100
AcDbEntity
  8
LC-001-100-D00-0
 62
     7
370
    50
100
AcDbLine
 10
-48.447389
 20
515.339351
 30
0.0
 11
-49.153531
 21
515.150139
 31
0.0
  0
ARC
  5
2E8
330
1F
100
AcDbEntity
  8
LC-001-100-D00-0
 62
     7
370
    50
100
AcDbCircle
 10
-48.60268
 20
515.918906
 30
0.0
 40
0.5999999999997591
100
AcDbArc
 50
285.0
 51
0.0
  0
LINE
  5
2E9
330
1F
100
AcDbEntity
  8
LC-001-100-D00-0
 62
     7
370
    50
100
AcDbLine
 10
-48.00268
 20
518.381374
 30
0.0
 11
-48.00268
 21
515.918906
 31
0.0
  0
ARC
  5
2EA
330
1F
100
AcDbEntity
  8
LC-001-100-D00-0
 62
     7
370
    50
100
AcDbCircle
 10
-48.60268
 20
518.381374
 30
0.0
 40
0.5999999999998522
100
AcDbArc
 50
0.0
 51
75.0
  0
LINE
  5
2EB
330
1F
100
AcDbEntity
  8
LC-001-100-D00-0
 62
     7
370
    50
100
AcDbLine
 10
-49.153531
 20
519.15014
 30
0.0
 11
-48.447389
 21
518.960929
 31
0.0
  0
LINE
  5
2EC
330
1F
100
AcDbEntity
  8
LC-001-100-D00-0
 62
     7
370
    50
100
AcDbLine
 10
-49.153531
 20
521.15014
 30
0.0
 11
-49.153531
 21
519.15014
 31
0.0
  0
LINE
  5
2ED
330
1F
100
AcDbEntity
  8
LC-001-100-D00-0
 62
     7
370
    50
100
AcDbLine
 10
-49.153531
 20
513.150141
 30
0.0
 11
-47.20268
 21
513.15014
 31
0.0
  0
LINE
  5
2EE
330
1F
100
AcDbEntity
  8
LC-001-100-D00-0
 62
     7
370
    50
100
AcDbLine
 10
-49.153531
 20
521.15014
 30
0.0
 11
-47.202679
 21
521.15014
 31
0.0
  0
LINE
  5
2EF
330
1F
100
AcDbEntity
  8
LC-001-100-D00-0
 62
     7
370
    50
100
AcDbLine
 10
-37.60268
 20
515.918906
 30
0.0
 11
-37.60268
 21
518.381374
 31
0.0
  0
ARC
  5
2F0
330
1F
100
AcDbEntity
  8
LC-001-100-D00-0
 62
     7
370
    50
100
AcDbCircle
 10
-37.00268
 20
515.918906
 30
0.0
 40
0.5999999999999943
100
AcDbArc
 50
180.0
 51
255.0
  0
LINE
  5
2F1
330
1F
100
AcDbEntity
  8
LC-001-100-D00-0
 62
     7
370
    50
100
AcDbLine
 10
-36.451826
 20
515.150139
 30
0.0
 11
-37.157971
 21
515.339351
 31
0.0
  0
LINE
  5
2F2
330
1F
100
AcDbEntity
  8
LC-001-100-D00-0
 62
     7
370
    50
100
AcDbLine
 10
-36.451826
 20
515.150139
 30
0.0
 11
-36.451826
 21
513.150141
 31
0.0
  0
LINE
  5
2F3
330
1F
100
AcDbEntity
  8
LC-001-100-D00-0
 62
     7
370
    50
100
AcDbLine
 10
-39.40268
 20
514.15014
 30
0.0
 11
-38.40268
 21
513.15014
 31
0.0
  0
LINE
  5
2F4
330
1F
100
AcDbEntity
  8
LC-001-100-D00-0
 62
     7
370
    50
100
AcDbLine
 10
-39.40268
 20
514.15014
 30
0.0
 11
-39.402681
 21
520.15014
 31
0.0
  0
LINE
  5
2F5
330
1F
100
AcDbEntity
  8
LC-001-100-D00-0
 62
     7
370
    50
100
AcDbLine
 10
-38.402679
 20
521.15014
 30
0.0
 11
-39.402681
 21
520.15014
 31
0.0
  0
LINE
  5
2F6
330
1F
100
AcDbEntity
  8
LC-001-100-D00-0
 62
     7
370
    50
100
AcDbLine
 10
-36.451826
 20
521.15014
 30
0.0
 11
-36.451826
 21
519.15014
 31
0.0
  0
LINE
  5
2F7
330
1F
100
AcDbEntity
  8
LC-001-100-D00-0
 62
     7
370
    50
100
AcDbLine
 10
-37.157971
 20
518.960929
 30
0.0
 11
-36.451826
 21
519.15014
 31
0.0
  0
ARC
  5
2F8
330
1F
100
AcDbEntity
  8
LC-001-100-D00-0
 62
     7
370
    50
100
AcDbCircle
 10
-37.00268
 20
518.381374
 30
0.0
 40
0.6000000000000886
100
AcDbArc
 50
105.0
 51
180.0
  0
LINE
  5
2F9
330
1F
100
AcDbEntity
  8
LC-001-100-D00-0
 62
     7
370
    50
100
AcDbLine
 10
-38.40268
 20
513.15014
 30
0.0
 11
-36.451826
 21
513.150141
 31
0.0
  0
LINE
  5
2FA
330
1F
100
AcDbEntity
  8
LC-001-100-D00-0
 62
     7
370
    50
100
AcDbLine
 10
-38.402679
 20
521.15014
 30
0.0
 11
-36.451826
 21
521.15014
 31
0.0
  0
LINE
  5
2FB
330
1F
100
AcDbEntity
  8
LC-001-100-D00-0
 62
     7
370
    50
100
AcDbLine
 10
-46.20268
 20
514.15014
 30
0.0
 11
-46.04484
 21
514.15014
 31
0.0
  0
LINE
  5
2FC
330
1F
100
AcDbEntity
  8
LC-001-100-D00-0
 62
     7
370
    50
100
AcDbLine
 10
-39.56052
 20
514.15014
 30
0.0
 11
-39.40268
 21
514.15014
 31
0.0
  0
LINE
  5
2FD
330
1F
100
AcDbEntity
  8
LC-001-100-D00-0
 62
     7
370
    50
100
AcDbLine
 10
-38.40268
 20
513.15014
 30
0.0
 11
-38.938462
 21
513.15014
 31
0.0
  0
LINE
  5
2FE
330
1F
100
AcDbEntity
  8
LC-001-100-D00-0
 62
     7
370
    50
100
AcDbLine
 10
-46.666898
 20
513.15014
 30
0.0
 11
-47.20268
 21
513.15014
 31
0.0
  0
LINE
  5
2FF
330
1F
100
AcDbEntity
  8
LC-001-100-D00-0
 62
     7
370
    50
100
AcDbLine
 10
-36.451826
 20
521.15014
 30
0.0
 11
-38.90268
 21
521.15014
 31
0.0
  0
LINE
  5
300
330
1F
100
AcDbEntity
  8
LC-001-100-D00-0
 62
     7
370
    50
100
AcDbLine
 10
-38.90268
 20
521.15014
 30
0.0
 11
-38.90268
 21
532.15014
 31
0.0
  0
LINE
  5
301
330
1F
100
AcDbEntity
  8
LC-001-100-D00-0
 62
     7
370
    50
100
AcDbLine
 10
-38.90268
 20
532.15014
 30
0.0
 11
-25.55268
 21
532.15014
 31
0.0
  0
ARC
  5
302
330
1F
100
AcDbEntity
  8
LC-001-100-D00-0
 62
     7
370
    50
100
AcDbCircle
 10
-25.55268
 20
531.15014
 30
0.0
 40
1.000000000000057
100
AcDbArc
 50
0.0
 51
90.0
  0
LINE
  5
303
330
1F
100
AcDbEntity
  8
LC-001-100-D00-0
 62
     7
370
    50
100
AcDbLine
 10
-24.55268
 20
531.15014
 30
0.0
 11
-24.552683
 21
525.15014
 31
0.0
  0
LINE
  5
304
330
1F
100
AcDbEntity
  8
LC-001-100-D00-0
 62
     7
370
    50
100
AcDbLine
 10
-27.55268
 20
525.15014
 30
0.0
 11
-24.552683
 21
525.15014
 31
0.0
  0
LINE
  5
305
330
1F
100
AcDbEntity
  8
LC-001-100-D00-0
 62
     7
370
    50
100
AcDbLine
 10
-27.55268
 20
525.15014
 30
0.0
 11
-27.552681
 21
529.15014
 31
0.0
  0
LINE
  5
306
330
1F
100
AcDbEntity
  8
LC-001-100-D00-0
 62
     7
370
    50
100
AcDbLine
 10
-32.05268
 20
529.15014
 30
0.0
 11
-27.552681
 21
529.15014
 31
0.0
  0
ARC
  5
307
330
1F
100
AcDbEntity
  8
LC-001-100-D00-0
 62
     7
370
    50
100
AcDbCircle
 10
-32.05268
 20
528.15014
 30
0.0
 40
1.000000000000227
100
AcDbArc
 50
90.0
 51
180.0
  0
LINE
  5
308
330
1F
100
AcDbEntity
  8
LC-001-100-D00-0
 62
     7
370
    50
100
AcDbLine
 10
-33.05268
 20
514.15014
 30
0.0
 11
-33.05268
 21
528.15014
 31
0.0
  0
ARC
  5
309
330
1F
100
AcDbEntity
  8
LC-001-100-D00-0
 62
     7
370
    50
100
AcDbCircle
 10
-34.05268
 20
514.15014
 30
0.0
 40
1.000000000000227
100
AcDbArc
 50
270.0
 51
0.0
  0
LINE
  5
30A
330
1F
100
AcDbEntity
  8
LC-001-100-D00-0
 62
     7
370
    50
100
AcDbLine
 10
-34.05268
 20
513.15014
 30
0.0
 11
-36.451826
 21
513.150141
 31
0.0
  0
LINE
  5
30B
330
1F
100
AcDbEntity
  8
LC-001-100-D00-0
 62
     7
370
    50
100
AcDbLine
 10
-36.451826
 20
515.150139
 30
0.0
 11
-36.451826
 21
513.150141
 31
0.0
  0
LINE
  5
30C
330
1F
100
AcDbEntity
  8
LC-001-100-D00-0
 62
     7
370
    50
100
AcDbLine
 10
-37.10268
 20
515.15014
 30
0.0
 11
-36.451826
 21
515.150139
 31
0.0
  0
ARC
  5
30D
330
1F
100
AcDbEntity
  8
LC-001-100-D00-0
 62
     7
370
    50
100
AcDbCircle
 10
-37.10268
 20
515.65014
 30
0.0
 40
0.5000000000002274
100
AcDbArc
 50
180.0
 51
270.0
  0
LINE
  5
30E
330
1F
100
AcDbEntity
  8
LC-001-100-D00-0
 62
     7
370
    50
100
AcDbLine
 10
-37.60268
 20
518.65014
 30
0.0
 11
-37.60268
 21
515.65014
 31
0.0
  0
ARC
  5
30F
330
1F
100
AcDbEntity
  8
LC-001-100-D00-0
 62
     7
370
    50
100
AcDbCircle
 10
-37.10268
 20
518.65014
 30
0.0
 40
0.4999999999997726
100
AcDbArc
 50
90.0
 51
180.0
  0
LINE
  5
310
330
1F
100
AcDbEntity
  8
LC-001-100-D00-0
 62
     7
370
    50
100
AcDbLine
 10
-36.451826
 20
519.15014
 30
0.0
 11
-37.10268
 21
519.15014
 31
0.0
  0
LINE
  5
311
330
1F
100
AcDbEntity
  8
LC-001-100-D00-0
 62
     7
370
    50
100
AcDbLine
 10
-36.451826
 20
521.15014
 30
0.0
 11
-36.451826
 21
519.15014
 31
0.0
  0
ARC
  5
312
330
1F
100
AcDbEntity
  8
LC-001-100-D00-0
 62
     7
370
    50
100
AcDbCircle
 10
-53.55268
 20
528.15014
 30
0.0
 40
1.000000000000171
100
AcDbArc
 50
0.0
 51
90.0
  0
ARC
  5
313
330
1F
100
AcDbEntity
  8
LC-001-100-D00-0
 62
     7
370
    50
100
AcDbCircle
 10
-51.55268
 20
514.15014
 30
0.0
 40
1.000000000000057
100
AcDbArc
 50
180.0
 51
270.0
  0
LINE
  5
314
330
1F
100
AcDbEntity
  8
LC-001-100-D00-0
 62
     7
370
    50
100
AcDbLine
 10
-52.55268
 20
528.15014
 30
0.0
 11
-52.55268
 21
514.15014
 31
0.0
  0
LINE
  5
315
330
1F
100
AcDbEntity
  8
LC-001-100-D00-0
 62
     7
370
    50
100
AcDbLine
 10
-48.00268
 20
515.65014
 30
0.0
 11
-48.00268
 21
518.65014
 31
0.0
  0
LINE
  5
316
330
1F
100
AcDbEntity
  8
LC-001-100-D00-0
 62
     7
370
    50
100
AcDbLine
 10
-46.70268
 20
532.15014
 30
0.0
 11
-46.702678
 21
521.15014
 31
0.0
  0
LINE
  5
317
330
1F
100
AcDbEntity
  8
LC-001-100-D00-0
 62
     7
370
    50
100
AcDbLine
 10
-46.70268
 20
532.15014
 30
0.0
 11
-38.90268
 21
532.15014
 31
0.0
  0
LINE
  5
318
330
1F
100
AcDbEntity
  8
LC-001-100-D00-0
 62
     7
370
    50
100
AcDbLine
 10
-49.153531
 20
521.15014
 30
0.0
 11
-49.153531
 21
519.15014
 31
0.0
  0
LINE
  5
319
330
1F
100
AcDbEntity
  8
LC-001-100-D00-0
 62
     7
370
    50
100
AcDbLine
 10
-49.153531
 20
515.150139
 30
0.0
 11
-49.153531
 21
513.150141
 31
0.0
  0
ARC
  5
31A
330
1F
100
AcDbEntity
  8
LC-001-100-D00-0
 62
     7
370
    50
100
AcDbCircle
 10
-48.50268
 20
515.65014
 30
0.0
 40
0.5000000000003411
100
AcDbArc
 50
270.0
 51
0.0
  0
LINE
  5
31B
330
1F
100
AcDbEntity
  8
LC-001-100-D00-0
 62
     7
370
    50
100
AcDbLine
 10
-49.153531
 20
515.150139
 30
0.0
 11
-48.50268
 21
515.15014
 31
0.0
  0
LINE
  5
31C
330
1F
100
AcDbEntity
  8
LC-001-100-D00-0
 62
     7
370
    50
100
AcDbLine
 10
-58.052683
 20
529.15014
 30
0.0
 11
-58.05268
 21
525.15014
 31
0.0
  0
LINE
  5
31D
330
1F
100
AcDbEntity
  8
LC-001-100-D00-0
 62
     7
370
    50
100
AcDbLine
 10
-61.052682
 20
525.15014
 30
0.0
 11
-61.05268
 21
531.15014
 31
0.0
  0
ARC
  5
31E
330
1F
100
AcDbEntity
  8
LC-001-100-D00-0
 62
     7
370
    50
100
AcDbCircle
 10
-60.05268
 20
531.15014
 30
0.0
 40
1.000000000000227
100
AcDbArc
 50
90.0
 51
180.0
  0
LINE
  5
31F
330
1F
100
AcDbEntity
  8
LC-001-100-D00-0
 62
     7
370
    50
100
AcDbLine
 10
-48.50268
 20
519.15014
 30
0.0
 11
-49.153531
 21
519.15014
 31
0.0
  0
ARC
  5
320
330
1F
100
AcDbEntity
  8
LC-001-100-D00-0
 62
     7
370
    50
100
AcDbCircle
 10
-48.50268
 20
518.65014
 30
0.0
 40
0.5000000000000853
100
AcDbArc
 50
0.0
 51
90.0
  0
LINE
  5
321
330
1F
100
AcDbEntity
  8
LC-001-100-D00-0
 62
     7
370
    50
100
AcDbLine
 10
-46.702678
 20
521.15014
 30
0.0
 11
-49.153531
 21
521.15014
 31
0.0
  0
LINE
  5
322
330
1F
100
AcDbEntity
  8
LC-001-100-D00-0
 62
     7
370
    50
100
AcDbLine
 10
-49.153531
 20
513.150141
 30
0.0
 11
-51.55268
 21
513.15014
 31
0.0
  0
LINE
  5
323
330
1F
100
AcDbEntity
  8
LC-001-100-D00-0
 62
     7
370
    50
100
AcDbLine
 10
-58.052683
 20
529.15014
 30
0.0
 11
-53.55268
 21
529.15014
 31
0.0
  0
LINE
  5
324
330
1F
100
AcDbEntity
  8
LC-001-100-D00-0
 62
     7
370
    50
100
AcDbLine
 10
-60.05268
 20
532.15014
 30
0.0
 11
-46.70268
 21
532.15014
 31
0.0
  0
LINE
  5
325
330
1F
100
AcDbEntity
  8
LC-001-100-D00-0
 62
     7
370
    50
100
AcDbLine
 10
-61.052682
 20
525.15014
 30
0.0
 11
-58.05268
 21
525.15014
 31
0.0
  0
LINE
  5
326
330
1F
100
AcDbEntity
  8
LC-001-100-D00-0
 62
     7
370
    50
100
AcDbLine
 10
-29.55268
 20
525.15014
 30
0.0
 11
-27.55268
 21
525.15014
 31
0.0
  0
LINE
  5
327
330
1F
100
AcDbEntity
  8
LC-001-100-D00-0
 62
     7
370
    50
100
AcDbLine
 10
-58.05268
 20
525.15014
 30
0.0
 11
-56.05268
 21
525.15014
 31
0.0
  0
LINE
  5
328
330
1F
100
AcDbEntity
  8
LC-001-100-D00-0
 62
     7
370
    50
100
AcDbLine
 10
-56.05268
 20
525.15014
 30
0.0
 11
-52.55268
 21
525.15014
 31
0.0
  0
LINE
  5
329
330
1F
100
AcDbEntity
  8
LC-001-100-D00-0
 62
     7
370
    50
100
AcDbLine
 10
-33.052677
 20
525.15014
 30
0.0
 11
-29.55268
 21
525.15014
 31
0.0
  0
LINE
  5
32A
330
1F
100
AcDbEntity
  8
LC-001-100-D00-0
 62
     7
370
    50
100
AcDbLine
 10
-246.20268
 20
520.15014
 30
0.0
 11
-247.202682
 21
521.15014
 31
0.0
  0
LINE
  5
32B
330
1F
100
AcDbEntity
  8
LC-001-100-D00-0
 62
     7
370
    50
100
AcDbLine
 10
-246.20268
 20
520.15014
 30
0.0
 11
-246.20268
 21
514.15014
 31
0.0
  0
LINE
  5
32C
330
1F
100
AcDbEntity
  8
LC-001-100-D00-0
 62
     7
370
    50
100
AcDbLine
 10
-247.20268
 20
513.15014
 30
0.0
 11
-246.20268
 21
514.15014
 31
0.0
  0
LINE
  5
32D
330
1F
100
AcDbEntity
  8
LC-001-100-D00-0
 62
     7
370
    50
100
AcDbLine
 10
-249.153534
 20
515.150139
 30
0.0
 11
-249.153534
 21
513.150141
 31
0.0
  0
LINE
  5
32E
330
1F
100
AcDbEntity
  8
LC-001-100-D00-0
 62
     7
370
    50
100
AcDbLine
 10
-248.447389
 20
515.339351
 30
0.0
 11
-249.153534
 21
515.150139
 31
0.0
  0
ARC
  5
32F
330
1F
100
AcDbEntity
  8
LC-001-100-D00-0
 62
     7
370
    50
100
AcDbCircle
 10
-248.60268
 20
515.918906
 30
0.0
 40
0.5999999999997591
100
AcDbArc
 50
285.0
 51
0.0
  0
LINE
  5
330
330
1F
100
AcDbEntity
  8
LC-001-100-D00-0
 62
     7
370
    50
100
AcDbLine
 10
-248.00268
 20
518.381374
 30
0.0
 11
-248.00268
 21
515.918906
 31
0.0
  0
ARC
  5
331
330
1F
100
AcDbEntity
  8
LC-001-100-D00-0
 62
     7
370
    50
100
AcDbCircle
 10
-248.60268
 20
518.381374
 30
0.0
 40
0.5999999999999659
100
AcDbArc
 50
0.0
 51
75.0
  0
LINE
  5
332
330
1F
100
AcDbEntity
  8
LC-001-100-D00-0
 62
     7
370
    50
100
AcDbLine
 10
-249.153534
 20
519.15014
 30
0.0
 11
-248.447389
 21
518.960929
 31
0.0
  0
LINE
  5
333
330
1F
100
AcDbEntity
  8
LC-001-100-D00-0
 62
     7
370
    50
100
AcDbLine
 10
-249.153534
 20
521.15014
 30
0.0
 11
-249.153534
 21
519.15014
 31
0.0
  0
LINE
  5
334
330
1F
100
AcDbEntity
  8
LC-001-100-D00-0
 62
     7
370
    50
100
AcDbLine
 10
-249.153534
 20
513.150141
 30
0.0
 11
-247.20268
 21
513.15014
 31
0.0
  0
LINE
  5
335
330
1F
100
AcDbEntity
  8
LC-001-100-D00-0
 62
     7
370
    50
100
AcDbLine
 10
-249.153534
 20
521.15014
 30
0.0
 11
-247.202682
 21
521.15014
 31
0.0
  0
LINE
  5
336
330
1F
100
AcDbEntity
  8
LC-001-100-D00-0
 62
     7
370
    50
100
AcDbLine
 10
-237.60268
 20
515.918906
 30
0.0
 11
-237.60268
 21
518.381374
 31
0.0
  0
ARC
  5
337
330
1F
100
AcDbEntity
  8
LC-001-100-D00-0
 62
     7
370
    50
100
AcDbCircle
 10
-237.00268
 20
515.918906
 30
0.0
 40
0.5999999999999659
100
AcDbArc
 50
180.0
 51
255.0
  0
LINE
  5
338
330
1F
100
AcDbEntity
  8
LC-001-100-D00-0
 62
     7
370
    50
100
AcDbLine
 10
-236.451829
 20
515.150139
 30
0.0
 11
-237.157971
 21
515.339351
 31
0.0
  0
LINE
  5
339
330
1F
100
AcDbEntity
  8
LC-001-100-D00-0
 62
     7
370
    50
100
AcDbLine
 10
-236.451829
 20
515.150139
 30
0.0
 11
-236.451829
 21
513.150141
 31
0.0
  0
LINE
  5
33A
330
1F
100
AcDbEntity
  8
LC-001-100-D00-0
 62
     7
370
    50
100
AcDbLine
 10
-239.40268
 20
514.15014
 30
0.0
 11
-238.40268
 21
513.15014
 31
0.0
  0
LINE
  5
33B
330
1F
100
AcDbEntity
  8
LC-001-100-D00-0
 62
     7
370
    50
100
AcDbLine
 10
-239.40268
 20
514.15014
 30
0.0
 11
-239.402684
 21
520.15014
 31
0.0
  0
LINE
  5
33C
330
1F
100
AcDbEntity
  8
LC-001-100-D00-0
 62
     7
370
    50
100
AcDbLine
 10
-238.402682
 20
521.15014
 30
0.0
 11
-239.402684
 21
520.15014
 31
0.0
  0
LINE
  5
33D
330
1F
100
AcDbEntity
  8
LC-001-100-D00-0
 62
     7
370
    50
100
AcDbLine
 10
-236.451829
 20
521.15014
 30
0.0
 11
-236.451829
 21
519.15014
 31
0.0
  0
LINE
  5
33E
330
1F
100
AcDbEntity
  8
LC-001-100-D00-0
 62
     7
370
    50
100
AcDbLine
 10
-237.157971
 20
518.960929
 30
0.0
 11
-236.451829
 21
519.15014
 31
0.0
  0
ARC
  5
33F
330
1F
100
AcDbEntity
  8
LC-001-100-D00-0
 62
     7
370
    50
100
AcDbCircle
 10
-237.00268
 20
518.381374
 30
0.0
 40
0.600000000000118
100
AcDbArc
 50
105.0
 51
180.0
  0
LINE
  5
340
330
1F
100
AcDbEntity
  8
LC-001-100-D00-0
 62
     7
370
    50
100
AcDbLine
 10
-238.40268
 20
513.15014
 30
0.0
 11
-236.451829
 21
513.150141
 31
0.0
  0
LINE
  5
341
330
1F
100
AcDbEntity
  8
LC-001-100-D00-0
 62
     7
370
    50
100
AcDbLine
 10
-238.402682
 20
521.15014
 30
0.0
 11
-236.451829
 21
521.15014
 31
0.0
  0
LINE
  5
342
330
1F
100
AcDbEntity
  8
LC-001-100-D00-0
 62
     7
370
    50
100
AcDbLine
 10
-246.20268
 20
514.15014
 30
0.0
 11
-246.04484
 21
514.15014
 31
0.0
  0
LINE
  5
343
330
1F
100
AcDbEntity
  8
LC-001-100-D00-0
 62
     7
370
    50
100
AcDbLine
 10
-239.56052
 20
514.15014
 30
0.0
 11
-239.40268
 21
514.15014
 31
0.0
  0
LINE
  5
344
330
1F
100
AcDbEntity
  8
LC-001-100-D00-0
 62
     7
370
    50
100
AcDbLine
 10
-238.40268
 20
513.15014
 30
0.0
 11
-238.938462
 21
513.15014
 31
0.0
  0
LINE
  5
345
330
1F
100
AcDbEntity
  8
LC-001-100-D00-0
 62
     7
370
    50
100
AcDbLine
 10
-246.666898
 20
513.15014
 30
0.0
 11
-247.20268
 21
513.15014
 31
0.0
  0
LINE
  5
346
330
1F
100
AcDbEntity
  8
LC-001-100-D00-0
 62
     7
370
    50
100
AcDbLine
 10
-236.451829
 20
521.15014
 30
0.0
 11
-238.902683
 21
521.15014
 31
0.0
  0
LINE
  5
347
330
1F
100
AcDbEntity
  8
LC-001-100-D00-0
 62
     7
370
    50
100
AcDbLine
 10
-238.902683
 20
521.15014
 30
0.0
 11
-238.90268
 21
532.15014
 31
0.0
  0
LINE
  5
348
330
1F
100
AcDbEntity
  8
LC-001-100-D00-0
 62
     7
370
    50
100
AcDbLine
 10
-238.90268
 20
532.15014
 30
0.0
 11
-225.55268
 21
532.15014
 31
0.0
  0
ARC
  5
349
330
1F
100
AcDbEntity
  8
LC-001-100-D00-0
 62
     7
370
    50
100
AcDbCircle
 10
-225.55268
 20
531.15014
 30
0.0
 40
0.9999999999999432
100
AcDbArc
 50
0.0
 51
90.0
  0
LINE
  5
34A
330
1F
100
AcDbEntity
  8
LC-001-100-D00-0
 62
     7
370
    50
100
AcDbLine
 10
-224.55268
 20
531.15014
 30
0.0
 11
-224.552678
 21
525.15014
 31
0.0
  0
LINE
  5
34B
330
1F
100
AcDbEntity
  8
LC-001-100-D00-0
 62
     7
370
    50
100
AcDbLine
 10
-227.55268
 20
525.15014
 30
0.0
 11
-224.552678
 21
525.15014
 31
0.0
  0
LINE
  5
34C
330
1F
100
AcDbEntity
  8
LC-001-100-D00-0
 62
     7
370
    50
100
AcDbLine
 10
-227.55268
 20
525.15014
 30
0.0
 11
-227.552677
 21
529.15014
 31
0.0
  0
LINE
  5
34D
330
1F
100
AcDbEntity
  8
LC-001-100-D00-0
 62
     7
370
    50
100
AcDbLine
 10
-232.05268
 20
529.15014
 30
0.0
 11
-227.552677
 21
529.15014
 31
0.0
  0
ARC
  5
34E
330
1F
100
AcDbEntity
  8
LC-001-100-D00-0
 62
     7
370
    50
100
AcDbCircle
 10
-232.05268
 20
528.15014
 30
0.0
 40
1.000000000000227
100
AcDbArc
 50
90.0
 51
180.0
  0
LINE
  5
34F
330
1F
100
AcDbEntity
  8
LC-001-100-D00-0
 62
     7
370
    50
100
AcDbLine
 10
-233.05268
 20
514.15014
 30
0.0
 11
-233.05268
 21
528.15014
 31
0.0
  0
ARC
  5
350
330
1F
100
AcDbEntity
  8
LC-001-100-D00-0
 62
     7
370
    50
100
AcDbCircle
 10
-234.05268
 20
514.15014
 30
0.0
 40
1.000000000000227
100
AcDbArc
 50
270.0
 51
0.0
  0
LINE
  5
351
330
1F
100
AcDbEntity
  8
LC-001-100-D00-0
 62
     7
370
    50
100
AcDbLine
 10
-234.05268
 20
513.15014
 30
0.0
 11
-236.451829
 21
513.150141
 31
0.0
  0
LINE
  5
352
330
1F
100
AcDbEntity
  8
LC-001-100-D00-0
 62
     7
370
    50
100
AcDbLine
 10
-236.451829
 20
515.150139
 30
0.0
 11
-236.451829
 21
513.150141
 31
0.0
  0
LINE
  5
353
330
1F
100
AcDbEntity
  8
LC-001-100-D00-0
 62
     7
370
    50
100
AcDbLine
 10
-237.10268
 20
515.15014
 30
0.0
 11
-236.451829
 21
515.150139
 31
0.0
  0
ARC
  5
354
330
1F
100
AcDbEntity
  8
LC-001-100-D00-0
 62
     7
370
    50
100
AcDbCircle
 10
-237.10268
 20
515.65014
 30
0.0
 40
0.5000000000002274
100
AcDbArc
 50
180.0
 51
270.0
  0
LINE
  5
355
330
1F
100
AcDbEntity
  8
LC-001-100-D00-0
 62
     7
370
    50
100
AcDbLine
 10
-237.60268
 20
518.65014
 30
0.0
 11
-237.60268
 21
515.65014
 31
0.0
  0
ARC
  5
356
330
1F
100
AcDbEntity
  8
LC-001-100-D00-0
 62
     7
370
    50
100
AcDbCircle
 10
-237.10268
 20
518.65014
 30
0.0
 40
0.4999999999997726
100
AcDbArc
 50
90.0
 51
180.0
  0
LINE
  5
357
330
1F
100
AcDbEntity
  8
LC-001-100-D00-0
 62
     7
370
    50
100
AcDbLine
 10
-236.451829
 20
519.15014
 30
0.0
 11
-237.10268
 21
519.15014
 31
0.0
  0
LINE
  5
358
330
1F
100
AcDbEntity
  8
LC-001-100-D00-0
 62
     7
370
    50
100
AcDbLine
 10
-236.451829
 20
521.15014
 30
0.0
 11
-236.451829
 21
519.15014
 31
0.0
  0
ARC
  5
359
330
1F
100
AcDbEntity
  8
LC-001-100-D00-0
 62
     7
370
    50
100
AcDbCircle
 10
-253.55268
 20
528.15014
 30
0.0
 40
1.000000000000057
100
AcDbArc
 50
0.0
 51
90.0
  0
ARC
  5
35A
330
1F
100
AcDbEntity
  8
LC-001-100-D00-0
 62
     7
370
    50
100
AcDbCircle
 10
-251.55268
 20
514.15014
 30
0.0
 40
1.0
100
AcDbArc
 50
180.0
 51
270.0
  0
LINE
  5
35B
330
1F
100
AcDbEntity
  8
LC-001-100-D00-0
 62
     7
370
    50
100
AcDbLine
 10
-252.55268
 20
528.15014
 30
0.0
 11
-252.55268
 21
514.15014
 31
0.0
  0
LINE
  5
35C
330
1F
100
AcDbEntity
  8
LC-001-100-D00-0
 62
     7
370
    50
100
AcDbLine
 10
-248.00268
 20
515.65014
 30
0.0
 11
-248.00268
 21
518.65014
 31
0.0
  0
LINE
  5
35D
330
1F
100
AcDbEntity
  8
LC-001-100-D00-0
 62
     7
370
    50
100
AcDbLine
 10
-246.70268
 20
532.15014
 30
0.0
 11
-246.702681
 21
521.15014
 31
0.0
  0
LINE
  5
35E
330
1F
100
AcDbEntity
  8
LC-001-100-D00-0
 62
     7
370
    50
100
AcDbLine
 10
-246.70268
 20
532.15014
 30
0.0
 11
-238.90268
 21
532.15014
 31
0.0
  0
LINE
  5
35F
330
1F
100
AcDbEntity
  8
LC-001-100-D00-0
 62
     7
370
    50
100
AcDbLine
 10
-249.153534
 20
515.150139
 30
0.0
 11
-249.153534
 21
513.150141
 31
0.0
  0
LINE
  5
360
330
1F
100
AcDbEntity
  8
LC-001-100-D00-0
 62
     7
370
    50
100
AcDbLine
 10
-249.153534
 20
521.15014
 30
0.0
 11
-249.153534
 21
519.15014
 31
0.0
  0
ARC
  5
361
330
1F
100
AcDbEntity
  8
LC-001-100-D00-0
 62
     7
370
    50
100
AcDbCircle
 10
-248.50268
 20
515.65014
 30
0.0
 40
0.5000000000003411
100
AcDbArc
 50
270.0
 51
0.0
  0
LINE
  5
362
330
1F
100
AcDbEntity
  8
LC-001-100-D00-0
 62
     7
370
    50
100
AcDbLine
 10
-249.153534
 20
515.150139
 30
0.0
 11
-248.50268
 21
515.15014
 31
0.0
  0
LINE
  5
363
330
1F
100
AcDbEntity
  8
LC-001-100-D00-0
 62
     7
370
    50
100
AcDbLine
 10
-258.052679
 20
529.15014
 30
0.0
 11
-258.05268
 21
525.15014
 31
0.0
  0
LINE
  5
364
330
1F
100
AcDbEntity
  8
LC-001-100-D00-0
 62
     7
370
    50
100
AcDbLine
 10
-261.052678
 20
525.15014
 30
0.0
 11
-261.05268
 21
531.15014
 31
0.0
  0
ARC
  5
365
330
1F
100
AcDbEntity
  8
LC-001-100-D00-0
 62
     7
370
    50
100
AcDbCircle
 10
-260.05268
 20
531.15014
 30
0.0
 40
1.000000000000227
100
AcDbArc
 50
90.0
 51
180.0
  0
LINE
  5
366
330
1F
100
AcDbEntity
  8
LC-001-100-D00-0
 62
     7
370
    50
100
AcDbLine
 10
-248.50268
 20
519.15014
 30
0.0
 11
-249.153534
 21
519.15014
 31
0.0
  0
ARC
  5
367
330
1F
100
AcDbEntity
  8
LC-001-100-D00-0
 62
     7
370
    50
100
AcDbCircle
 10
-248.50268
 20
518.65014
 30
0.0
 40
0.4999999999999432
100
AcDbArc
 50
0.0
 51
90.0
  0
LINE
  5
368
330
1F
100
AcDbEntity
  8
LC-001-100-D00-0
 62
     7
370
    50
100
AcDbLine
 10
-246.702681
 20
521.15014
 30
0.0
 11
-249.153534
 21
521.15014
 31
0.0
  0
LINE
  5
369
330
1F
100
AcDbEntity
  8
LC-001-100-D00-0
 62
     7
370
    50
100
AcDbLine
 10
-249.153534
 20
513.150141
 30
0.0
 11
-251.55268
 21
513.15014
 31
0.0
  0
LINE
  5
36A
330
1F
100
AcDbEntity
  8
LC-001-100-D00-0
 62
     7
370
    50
100
AcDbLine
 10
-258.052679
 20
529.15014
 30
0.0
 11
-253.55268
 21
529.15014
 31
0.0
  0
LINE
  5
36B
330
1F
100
AcDbEntity
  8
LC-001-100-D00-0
 62
     7
370
    50
100
AcDbLine
 10
-260.05268
 20
532.15014
 30
0.0
 11
-246.70268
 21
532.15014
 31
0.0
  0
LINE
  5
36C
330
1F
100
AcDbEntity
  8
LC-001-100-D00-0
 62
     7
370
    50
100
AcDbLine
 10
-261.052678
 20
525.15014
 30
0.0
 11
-258.05268
 21
525.15014
 31
0.0
  0
LINE
  5
36D
330
1F
100
AcDbEntity
  8
LC-001-100-D00-0
 62
     7
370
    50
100
AcDbLine
 10
-229.55268
 20
525.15014
 30
0.0
 11
-227.55268
 21
525.15014
 31
0.0
  0
LINE
  5
36E
330
1F
100
AcDbEntity
  8
LC-001-100-D00-0
 62
     7
370
    50
100
AcDbLine
 10
-258.05268
 20
525.15014
 30
0.0
 11
-256.05268
 21
525.15014
 31
0.0
  0
LINE
  5
36F
330
1F
100
AcDbEntity
  8
LC-001-100-D00-0
 62
     7
370
    50
100
AcDbLine
 10
-256.05268
 20
525.15014
 30
0.0
 11
-252.552683
 21
525.15014
 31
0.0
  0
LINE
  5
370
330
1F
100
AcDbEntity
  8
LC-001-100-D00-0
 62
     7
370
    50
100
AcDbLine
 10
-233.05268
 20
525.15014
 30
0.0
 11
-229.55268
 21
525.15014
 31
0.0
  0
LINE
  5
371
330
1F
100
AcDbEntity
  8
LC-001-100-D00-0
 62
     7
370
    50
100
AcDbLine
 10
225.730653
 20
515.918906
 30
0.0
 11
225.730653
 21
518.381374
 31
0.0
  0
ARC
  5
372
330
1F
100
AcDbEntity
  8
LC-001-100-D00-0
 62
     7
370
    50
100
AcDbCircle
 10
226.330653
 20
515.918906
 30
0.0
 40
0.5999999999999943
100
AcDbArc
 50
180.0
 51
255.0
  0
LINE
  5
373
330
1F
100
AcDbEntity
  8
LC-001-100-D00-0
 62
     7
370
    50
100
AcDbLine
 10
226.881509
 20
515.150139
 30
0.0
 11
226.175362
 21
515.339351
 31
0.0
  0
LINE
  5
374
330
1F
100
AcDbEntity
  8
LC-001-100-D00-0
 62
     7
370
    50
100
AcDbLine
 10
226.881509
 20
515.150139
 30
0.0
 11
226.881509
 21
513.150141
 31
0.0
  0
LINE
  5
375
330
1F
100
AcDbEntity
  8
LC-001-100-D00-0
 62
     7
370
    50
100
AcDbLine
 10
224.930653
 20
513.15014
 30
0.0
 11
226.881509
 21
513.150141
 31
0.0
  0
LINE
  5
376
330
1F
100
AcDbEntity
  8
LC-001-100-D00-0
 62
     7
370
    50
100
AcDbLine
 10
223.930653
 20
514.15014
 30
0.0
 11
224.930653
 21
513.15014
 31
0.0
  0
LINE
  5
377
330
1F
100
AcDbEntity
  8
LC-001-100-D00-0
 62
     7
370
    50
100
AcDbLine
 10
223.930653
 20
514.15014
 30
0.0
 11
223.930662
 21
520.15014
 31
0.0
  0
LINE
  5
378
330
1F
100
AcDbEntity
  8
LC-001-100-D00-0
 62
     7
370
    50
100
AcDbLine
 10
224.930649
 20
521.15014
 30
0.0
 11
223.930662
 21
520.15014
 31
0.0
  0
LINE
  5
379
330
1F
100
AcDbEntity
  8
LC-001-100-D00-0
 62
     7
370
    50
100
AcDbLine
 10
226.881509
 20
521.15014
 30
0.0
 11
226.881509
 21
519.15014
 31
0.0
  0
LINE
  5
37A
330
1F
100
AcDbEntity
  8
LC-001-100-D00-0
 62
     7
370
    50
100
AcDbLine
 10
226.175362
 20
518.960929
 30
0.0
 11
226.881509
 21
519.15014
 31
0.0
  0
ARC
  5
37B
330
1F
100
AcDbEntity
  8
LC-001-100-D00-0
 62
     7
370
    50
100
AcDbCircle
 10
226.330653
 20
518.381374
 30
0.0
 40
0.6000000000000886
100
AcDbArc
 50
105.0
 51
180.0
  0
LINE
  5
37C
330
1F
100
AcDbEntity
  8
LC-001-100-D00-0
 62
     7
370
    50
100
AcDbLine
 10
224.930649
 20
521.15014
 30
0.0
 11
226.881509
 21
521.15014
 31
0.0
  0
LINE
  5
37D
330
1F
100
AcDbEntity
  8
LC-001-100-D00-0
 62
     7
370
    50
100
AcDbLine
 10
217.130666
 20
520.15014
 30
0.0
 11
216.13065
 21
521.15014
 31
0.0
  0
LINE
  5
37E
330
1F
100
AcDbEntity
  8
LC-001-100-D00-0
 62
     7
370
    50
100
AcDbLine
 10
216.130653
 20
513.15014
 30
0.0
 11
217.130653
 21
514.15014
 31
0.0
  0
LINE
  5
37F
330
1F
100
AcDbEntity
  8
LC-001-100-D00-0
 62
     7
370
    50
100
AcDbLine
 10
217.130653
 20
514.15014
 30
0.0
 11
217.288493
 21
514.15014
 31
0.0
  0
LINE
  5
380
330
1F
100
AcDbEntity
  8
LC-001-100-D00-0
 62
     7
370
    50
100
AcDbLine
 10
223.772814
 20
514.15014
 30
0.0
 11
223.930653
 21
514.15014
 31
0.0
  0
LINE
  5
381
330
1F
100
AcDbEntity
  8
LC-001-100-D00-0
 62
     7
370
    50
100
AcDbLine
 10
224.930653
 20
513.15014
 30
0.0
 11
224.394872
 21
513.15014
 31
0.0
  0
LINE
  5
382
330
1F
100
AcDbEntity
  8
LC-001-100-D00-0
 62
     7
370
    50
100
AcDbLine
 10
216.666435
 20
513.15014
 30
0.0
 11
216.130653
 21
513.15014
 31
0.0
  0
LINE
  5
383
330
1F
100
AcDbEntity
  8
LC-001-100-D00-0
 62
     7
370
    50
100
AcDbLine
 10
217.130666
 20
520.15014
 30
0.0
 11
217.130653
 21
514.15014
 31
0.0
  0
LINE
  5
384
330
1F
100
AcDbEntity
  8
LC-001-100-D00-0
 62
     7
370
    50
100
AcDbLine
 10
214.179789
 20
515.150139
 30
0.0
 11
214.179789
 21
513.150141
 31
0.0
  0
LINE
  5
385
330
1F
100
AcDbEntity
  8
LC-001-100-D00-0
 62
     7
370
    50
100
AcDbLine
 10
214.885945
 20
515.339351
 30
0.0
 11
214.179789
 21
515.150139
 31
0.0
  0
ARC
  5
386
330
1F
100
AcDbEntity
  8
LC-001-100-D00-0
 62
     7
370
    50
100
AcDbCircle
 10
214.730653
 20
515.918906
 30
0.0
 40
0.6000000000003449
100
AcDbArc
 50
285.0
 51
0.0
  0
LINE
  5
387
330
1F
100
AcDbEntity
  8
LC-001-100-D00-0
 62
     7
370
    50
100
AcDbLine
 10
215.330653
 20
518.381374
 30
0.0
 11
215.330653
 21
515.918906
 31
0.0
  0
ARC
  5
388
330
1F
100
AcDbEntity
  8
LC-001-100-D00-0
 62
     7
370
    50
100
AcDbCircle
 10
214.730653
 20
518.381374
 30
0.0
 40
0.6000000000001364
100
AcDbArc
 50
0.0
 51
75.0
  0
LINE
  5
389
330
1F
100
AcDbEntity
  8
LC-001-100-D00-0
 62
     7
370
    50
100
AcDbLine
 10
214.179789
 20
519.15014
 30
0.0
 11
214.885945
 21
518.960929
 31
0.0
  0
LINE
  5
38A
330
1F
100
AcDbEntity
  8
LC-001-100-D00-0
 62
     7
370
    50
100
AcDbLine
 10
214.179789
 20
521.15014
 30
0.0
 11
214.179789
 21
519.15014
 31
0.0
  0
LINE
  5
38B
330
1F
100
AcDbEntity
  8
LC-001-100-D00-0
 62
     7
370
    50
100
AcDbLine
 10
214.179789
 20
513.150141
 30
0.0
 11
216.130653
 21
513.15014
 31
0.0
  0
LINE
  5
38C
330
1F
100
AcDbEntity
  8
LC-001-100-D00-0
 62
     7
370
    50
100
AcDbLine
 10
214.179789
 20
521.15014
 30
0.0
 11
216.13065
 21
521.15014
 31
0.0
  0
LINE
  5
38D
330
1F
100
AcDbEntity
  8
LC-001-100-D00-0
 62
     7
370
    50
100
AcDbLine
 10
226.881509
 20
521.15014
 30
0.0
 11
224.430656
 21
521.15014
 31
0.0
  0
LINE
  5
38E
330
1F
100
AcDbEntity
  8
LC-001-100-D00-0
 62
     7
370
    50
100
AcDbLine
 10
224.430656
 20
521.15014
 30
0.0
 11
224.430653
 21
532.15014
 31
0.0
  0
LINE
  5
38F
330
1F
100
AcDbEntity
  8
LC-001-100-D00-0
 62
     7
370
    50
100
AcDbLine
 10
224.430653
 20
532.15014
 30
0.0
 11
237.780653
 21
532.15014
 31
0.0
  0
LINE
  5
390
330
1F
100
AcDbEntity
  8
LC-001-100-D00-0
 62
     7
370
    50
100
AcDbLine
 10
238.780653
 20
531.15014
 30
0.0
 11
238.780653
 21
525.15014
 31
0.0
  0
LINE
  5
391
330
1F
100
AcDbEntity
  8
LC-001-100-D00-0
 62
     7
370
    50
100
AcDbLine
 10
235.780653
 20
525.15014
 30
0.0
 11
238.780653
 21
525.15014
 31
0.0
  0
LINE
  5
392
330
1F
100
AcDbEntity
  8
LC-001-100-D00-0
 62
     7
370
    50
100
AcDbLine
 10
235.780653
 20
525.15014
 30
0.0
 11
235.780662
 21
529.15014
 31
0.0
  0
LINE
  5
393
330
1F
100
AcDbEntity
  8
LC-001-100-D00-0
 62
     7
370
    50
100
AcDbLine
 10
231.280653
 20
529.15014
 30
0.0
 11
235.780662
 21
529.15014
 31
0.0
  0
ARC
  5
394
330
1F
100
AcDbEntity
  8
LC-001-100-D00-0
 62
     7
370
    50
100
AcDbCircle
 10
231.280653
 20
528.15014
 30
0.0
 40
1.000000000000227
100
AcDbArc
 50
90.0
 51
180.0
  0
LINE
  5
395
330
1F
100
AcDbEntity
  8
LC-001-100-D00-0
 62
     7
370
    50
100
AcDbLine
 10
230.280653
 20
514.15014
 30
0.0
 11
230.280653
 21
528.15014
 31
0.0
  0
ARC
  5
396
330
1F
100
AcDbEntity
  8
LC-001-100-D00-0
 62
     7
370
    50
100
AcDbCircle
 10
229.280653
 20
514.15014
 30
0.0
 40
1.000000000000227
100
AcDbArc
 50
270.0
 51
0.0
  0
LINE
  5
397
330
1F
100
AcDbEntity
  8
LC-001-100-D00-0
 62
     7
370
    50
100
AcDbLine
 10
229.280653
 20
513.15014
 30
0.0
 11
226.881509
 21
513.150141
 31
0.0
  0
LINE
  5
398
330
1F
100
AcDbEntity
  8
LC-001-100-D00-0
 62
     7
370
    50
100
AcDbLine
 10
226.881509
 20
515.150139
 30
0.0
 11
226.881509
 21
513.150141
 31
0.0
  0
LINE
  5
399
330
1F
100
AcDbEntity
  8
LC-001-100-D00-0
 62
     7
370
    50
100
AcDbLine
 10
226.230653
 20
515.15014
 30
0.0
 11
226.881509
 21
515.150139
 31
0.0
  0
ARC
  5
39A
330
1F
100
AcDbEntity
  8
LC-001-100-D00-0
 62
     7
370
    50
100
AcDbCircle
 10
226.230653
 20
515.65014
 30
0.0
 40
0.5000000000002274
100
AcDbArc
 50
180.0
 51
270.0
  0
LINE
  5
39B
330
1F
100
AcDbEntity
  8
LC-001-100-D00-0
 62
     7
370
    50
100
AcDbLine
 10
225.730653
 20
518.65014
 30
0.0
 11
225.730653
 21
515.65014
 31
0.0
  0
ARC
  5
39C
330
1F
100
AcDbEntity
  8
LC-001-100-D00-0
 62
     7
370
    50
100
AcDbCircle
 10
226.230653
 20
518.65014
 30
0.0
 40
0.4999999999997726
100
AcDbArc
 50
90.0
 51
180.0
  0
LINE
  5
39D
330
1F
100
AcDbEntity
  8
LC-001-100-D00-0
 62
     7
370
    50
100
AcDbLine
 10
226.881509
 20
519.15014
 30
0.0
 11
226.230653
 21
519.15014
 31
0.0
  0
LINE
  5
39E
330
1F
100
AcDbEntity
  8
LC-001-100-D00-0
 62
     7
370
    50
100
AcDbLine
 10
226.881509
 20
521.15014
 30
0.0
 11
226.881509
 21
519.15014
 31
0.0
  0
ARC
  5
39F
330
1F
100
AcDbEntity
  8
LC-001-100-D00-0
 62
     7
370
    50
100
AcDbCircle
 10
237.780653
 20
531.15014
 30
0.0
 40
1.000000000000057
100
AcDbArc
 50
0.0
 51
90.0
  0
LINE
  5
3A0
330
1F
100
AcDbEntity
  8
LC-001-100-D00-0
 62
     7
370
    50
100
AcDbLine
 10
216.630653
 20
532.15014
 30
0.0
 11
216.630643
 21
521.15014
 31
0.0
  0
LINE
  5
3A1
330
1F
100
AcDbEntity
  8
LC-001-100-D00-0
 62
     7
370
    50
100
AcDbLine
 10
216.630653
 20
532.15014
 30
0.0
 11
224.430653
 21
532.15014
 31
0.0
  0
ARC
  5
3A2
330
1F
100
AcDbEntity
  8
LC-001-100-D00-0
 62
     7
370
    50
100
AcDbCircle
 10
209.780653
 20
528.15014
 30
0.0
 40
0.9999999999999432
100
AcDbArc
 50
0.0
 51
90.0
  0
ARC
  5
3A3
330
1F
100
AcDbEntity
  8
LC-001-100-D00-0
 62
     7
370
    50
100
AcDbCircle
 10
211.780653
 20
514.15014
 30
0.0
 40
1.000000000000057
100
AcDbArc
 50
180.0
 51
270.0
  0
LINE
  5
3A4
330
1F
100
AcDbEntity
  8
LC-001-100-D00-0
 62
     7
370
    50
100
AcDbLine
 10
210.780653
 20
528.15014
 30
0.0
 11
210.780653
 21
514.15014
 31
0.0
  0
LINE
  5
3A5
330
1F
100
AcDbEntity
  8
LC-001-100-D00-0
 62
     7
370
    50
100
AcDbLine
 10
215.330653
 20
515.65014
 30
0.0
 11
215.330653
 21
518.65014
 31
0.0
  0
ARC
  5
3A6
330
1F
100
AcDbEntity
  8
LC-001-100-D00-0
 62
     7
370
    50
100
AcDbCircle
 10
214.830653
 20
515.65014
 30
0.0
 40
0.5000000000003411
100
AcDbArc
 50
270.0
 51
0.0
  0
LINE
  5
3A7
330
1F
100
AcDbEntity
  8
LC-001-100-D00-0
 62
     7
370
    50
100
AcDbLine
 10
214.179789
 20
515.150139
 30
0.0
 11
214.830653
 21
515.15014
 31
0.0
  0
LINE
  5
3A8
330
1F
100
AcDbEntity
  8
LC-001-100-D00-0
 62
     7
370
    50
100
AcDbLine
 10
214.179789
 20
515.150139
 30
0.0
 11
214.179789
 21
513.150141
 31
0.0
  0
LINE
  5
3A9
330
1F
100
AcDbEntity
  8
LC-001-100-D00-0
 62
     7
370
    50
100
AcDbLine
 10
205.280667
 20
529.15014
 30
0.0
 11
205.280653
 21
525.15014
 31
0.0
  0
LINE
  5
3AA
330
1F
100
AcDbEntity
  8
LC-001-100-D00-0
 62
     7
370
    50
100
AcDbLine
 10
202.280646
 20
525.15014
 30
0.0
 11
202.280653
 21
531.15014
 31
0.0
  0
ARC
  5
3AB
330
1F
100
AcDbEntity
  8
LC-001-100-D00-0
 62
     7
370
    50
100
AcDbCircle
 10
203.280653
 20
531.15014
 30
0.0
 40
1.000000000000227
100
AcDbArc
 50
90.0
 51
180.0
  0
LINE
  5
3AC
330
1F
100
AcDbEntity
  8
LC-001-100-D00-0
 62
     7
370
    50
100
AcDbLine
 10
214.179789
 20
521.15014
 30
0.0
 11
214.179789
 21
519.15014
 31
0.0
  0
LINE
  5
3AD
330
1F
100
AcDbEntity
  8
LC-001-100-D00-0
 62
     7
370
    50
100
AcDbLine
 10
214.830653
 20
519.15014
 30
0.0
 11
214.179789
 21
519.15014
 31
0.0
  0
ARC
  5
3AE
330
1F
100
AcDbEntity
  8
LC-001-100-D00-0
 62
     7
370
    50
100
AcDbCircle
 10
214.830653
 20
518.65014
 30
0.0
 40
0.4999999999998011
100
AcDbArc
 50
0.0
 51
90.0
  0
LINE
  5
3AF
330
1F
100
AcDbEntity
  8
LC-001-100-D00-0
 62
     7
370
    50
100
AcDbLine
 10
214.179789
 20
513.150141
 30
0.0
 11
211.780653
 21
513.15014
 31
0.0
  0
LINE
  5
3B0
330
1F
100
AcDbEntity
  8
LC-001-100-D00-0
 62
     7
370
    50
100
AcDbLine
 10
216.630643
 20
521.15014
 30
0.0
 11
214.179789
 21
521.15014
 31
0.0
  0
LINE
  5
3B1
330
1F
100
AcDbEntity
  8
LC-001-100-D00-0
 62
     7
370
    50
100
AcDbLine
 10
205.280667
 20
529.15014
 30
0.0
 11
209.780653
 21
529.15014
 31
0.0
  0
LINE
  5
3B2
330
1F
100
AcDbEntity
  8
LC-001-100-D00-0
 62
     7
370
    50
100
AcDbLine
 10
203.280653
 20
532.15014
 30
0.0
 11
216.630653
 21
532.15014
 31
0.0
  0
LINE
  5
3B3
330
1F
100
AcDbEntity
  8
LC-001-100-D00-0
 62
     7
370
    50
100
AcDbLine
 10
202.280646
 20
525.15014
 30
0.0
 11
205.280653
 21
525.15014
 31
0.0
  0
LINE
  5
3B4
330
1F
100
AcDbEntity
  8
LC-001-100-D00-0
 62
     7
370
    50
100
AcDbLine
 10
233.780653
 20
525.15014
 30
0.0
 11
235.780653
 21
525.15014
 31
0.0
  0
LINE
  5
3B5
330
1F
100
AcDbEntity
  8
LC-001-100-D00-0
 62
     7
370
    50
100
AcDbLine
 10
205.280653
 20
525.15014
 30
0.0
 11
207.280653
 21
525.15014
 31
0.0
  0
LINE
  5
3B6
330
1F
100
AcDbEntity
  8
LC-001-100-D00-0
 62
     7
370
    50
100
AcDbLine
 10
207.280653
 20
525.15014
 30
0.0
 11
210.780656
 21
525.15014
 31
0.0
  0
LINE
  5
3B7
330
1F
100
AcDbEntity
  8
LC-001-100-D00-0
 62
     7
370
    50
100
AcDbLine
 10
230.280643
 20
525.15014
 30
0.0
 11
233.780653
 21
525.15014
 31
0.0
  0
LINE
  5
3B8
330
1F
100
AcDbEntity
  8
LC-001-100-D00-0
 62
     7
370
    50
100
AcDbLine
 10
-394.269347
 20
515.918906
 30
0.0
 11
-394.269347
 21
518.381374
 31
0.0
  0
ARC
  5
3B9
330
1F
100
AcDbEntity
  8
LC-001-100-D00-0
 62
     7
370
    50
100
AcDbCircle
 10
-393.669347
 20
515.918906
 30
0.0
 40
0.6000000000000227
100
AcDbArc
 50
180.0
 51
255.0
  0
LINE
  5
3BA
330
1F
100
AcDbEntity
  8
LC-001-100-D00-0
 62
     7
370
    50
100
AcDbLine
 10
-393.118495
 20
515.150139
 30
0.0
 11
-393.824638
 21
515.339351
 31
0.0
  0
LINE
  5
3BB
330
1F
100
AcDbEntity
  8
LC-001-100-D00-0
 62
     7
370
    50
100
AcDbLine
 10
-393.118495
 20
515.150139
 30
0.0
 11
-393.118495
 21
513.150141
 31
0.0
  0
LINE
  5
3BC
330
1F
100
AcDbEntity
  8
LC-001-100-D00-0
 62
     7
370
    50
100
AcDbLine
 10
-395.069347
 20
513.15014
 30
0.0
 11
-393.118495
 21
513.150141
 31
0.0
  0
LINE
  5
3BD
330
1F
100
AcDbEntity
  8
LC-001-100-D00-0
 62
     7
370
    50
100
AcDbLine
 10
-396.069347
 20
514.15014
 30
0.0
 11
-395.069347
 21
513.15014
 31
0.0
  0
LINE
  5
3BE
330
1F
100
AcDbEntity
  8
LC-001-100-D00-0
 62
     7
370
    50
100
AcDbLine
 10
-396.069347
 20
514.15014
 30
0.0
 11
-396.069342
 21
520.15014
 31
0.0
  0
LINE
  5
3BF
330
1F
100
AcDbEntity
  8
LC-001-100-D00-0
 62
     7
370
    50
100
AcDbLine
 10
-395.069355
 20
521.15014
 30
0.0
 11
-396.069342
 21
520.15014
 31
0.0
  0
LINE
  5
3C0
330
1F
100
AcDbEntity
  8
LC-001-100-D00-0
 62
     7
370
    50
100
AcDbLine
 10
-393.118495
 20
521.15014
 30
0.0
 11
-393.118495
 21
519.15014
 31
0.0
  0
LINE
  5
3C1
330
1F
100
AcDbEntity
  8
LC-001-100-D00-0
 62
     7
370
    50
100
AcDbLine
 10
-393.824638
 20
518.960929
 30
0.0
 11
-393.118495
 21
519.15014
 31
0.0
  0
ARC
  5
3C2
330
1F
100
AcDbEntity
  8
LC-001-100-D00-0
 62
     7
370
    50
100
AcDbCircle
 10
-393.669347
 20
518.381374
 30
0.0
 40
0.6000000000000886
100
AcDbArc
 50
105.0
 51
180.0
  0
LINE
  5
3C3
330
1F
100
AcDbEntity
  8
LC-001-100-D00-0
 62
     7
370
    50
100
AcDbLine
 10
-395.069355
 20
521.15014
 30
0.0
 11
-393.118495
 21
521.15014
 31
0.0
  0
LINE
  5
3C4
330
1F
100
AcDbEntity
  8
LC-001-100-D00-0
 62
     7
370
    50
100
AcDbLine
 10
-402.869338
 20
520.15014
 30
0.0
 11
-403.869355
 21
521.15014
 31
0.0
  0
LINE
  5
3C5
330
1F
100
AcDbEntity
  8
LC-001-100-D00-0
 62
     7
370
    50
100
AcDbLine
 10
-403.869347
 20
513.15014
 30
0.0
 11
-402.869347
 21
514.15014
 31
0.0
  0
LINE
  5
3C6
330
1F
100
AcDbEntity
  8
LC-001-100-D00-0
 62
     7
370
    50
100
AcDbLine
 10
-402.869347
 20
514.15014
 30
0.0
 11
-402.711507
 21
514.15014
 31
0.0
  0
LINE
  5
3C7
330
1F
100
AcDbEntity
  8
LC-001-100-D00-0
 62
     7
370
    50
100
AcDbLine
 10
-396.227186
 20
514.15014
 30
0.0
 11
-396.069347
 21
514.15014
 31
0.0
  0
LINE
  5
3C8
330
1F
100
AcDbEntity
  8
LC-001-100-D00-0
 62
     7
370
    50
100
AcDbLine
 10
-395.069347
 20
513.15014
 30
0.0
 11
-395.605128
 21
513.15014
 31
0.0
  0
LINE
  5
3C9
330
1F
100
AcDbEntity
  8
LC-001-100-D00-0
 62
     7
370
    50
100
AcDbLine
 10
-403.333565
 20
513.15014
 30
0.0
 11
-403.869347
 21
513.15014
 31
0.0
  0
LINE
  5
3CA
330
1F
100
AcDbEntity
  8
LC-001-100-D00-0
 62
     7
370
    50
100
AcDbLine
 10
-402.869338
 20
520.15014
 30
0.0
 11
-402.869347
 21
514.15014
 31
0.0
  0
LINE
  5
3CB
330
1F
100
AcDbEntity
  8
LC-001-100-D00-0
 62
     7
370
    50
100
AcDbLine
 10
-405.820185
 20
515.150139
 30
0.0
 11
-405.820185
 21
513.150141
 31
0.0
  0
LINE
  5
3CC
330
1F
100
AcDbEntity
  8
LC-001-100-D00-0
 62
     7
370
    50
100
AcDbLine
 10
-405.114055
 20
515.339351
 30
0.0
 11
-405.820185
 21
515.150139
 31
0.0
  0
ARC
  5
3CD
330
1F
100
AcDbEntity
  8
LC-001-100-D00-0
 62
     7
370
    50
100
AcDbCircle
 10
-405.269347
 20
515.918906
 30
0.0
 40
0.6000000000003082
100
AcDbArc
 50
285.0
 51
0.0
  0
LINE
  5
3CE
330
1F
100
AcDbEntity
  8
LC-001-100-D00-0
 62
     7
370
    50
100
AcDbLine
 10
-404.669347
 20
518.381374
 30
0.0
 11
-404.669347
 21
515.918906
 31
0.0
  0
ARC
  5
3CF
330
1F
100
AcDbEntity
  8
LC-001-100-D00-0
 62
     7
370
    50
100
AcDbCircle
 10
-405.269347
 20
518.381374
 30
0.0
 40
0.6000000000001364
100
AcDbArc
 50
0.0
 51
75.0
  0
LINE
  5
3D0
330
1F
100
AcDbEntity
  8
LC-001-100-D00-0
 62
     7
370
    50
100
AcDbLine
 10
-405.820185
 20
519.15014
 30
0.0
 11
-405.114055
 21
518.960929
 31
0.0
  0
LINE
  5
3D1
330
1F
100
AcDbEntity
  8
LC-001-100-D00-0
 62
     7
370
    50
100
AcDbLine
 10
-405.820185
 20
521.15014
 30
0.0
 11
-405.820185
 21
519.15014
 31
0.0
  0
LINE
  5
3D2
330
1F
100
AcDbEntity
  8
LC-001-100-D00-0
 62
     7
370
    50
100
AcDbLine
 10
-405.820185
 20
513.150141
 30
0.0
 11
-403.869347
 21
513.15014
 31
0.0
  0
LINE
  5
3D3
330
1F
100
AcDbEntity
  8
LC-001-100-D00-0
 62
     7
370
    50
100
AcDbLine
 10
-405.820185
 20
521.15014
 30
0.0
 11
-403.869355
 21
521.15014
 31
0.0
  0
LINE
  5
3D4
330
1F
100
AcDbEntity
  8
LC-001-100-D00-0
 62
     7
370
    50
100
AcDbLine
 10
-393.118495
 20
521.15014
 30
0.0
 11
-395.569349
 21
521.15014
 31
0.0
  0
LINE
  5
3D5
330
1F
100
AcDbEntity
  8
LC-001-100-D00-0
 62
     7
370
    50
100
AcDbLine
 10
-395.569349
 20
521.15014
 30
0.0
 11
-395.569347
 21
532.15014
 31
0.0
  0
LINE
  5
3D6
330
1F
100
AcDbEntity
  8
LC-001-100-D00-0
 62
     7
370
    50
100
AcDbLine
 10
-395.569347
 20
532.15014
 30
0.0
 11
-382.219347
 21
532.15014
 31
0.0
  0
LINE
  5
3D7
330
1F
100
AcDbEntity
  8
LC-001-100-D00-0
 62
     7
370
    50
100
AcDbLine
 10
-384.219347
 20
525.15014
 30
0.0
 11
-384.219343
 21
529.15014
 31
0.0
  0
LINE
  5
3D8
330
1F
100
AcDbEntity
  8
LC-001-100-D00-0
 62
     7
370
    50
100
AcDbLine
 10
-388.719347
 20
529.15014
 30
0.0
 11
-384.219343
 21
529.15014
 31
0.0
  0
ARC
  5
3D9
330
1F
100
AcDbEntity
  8
LC-001-100-D00-0
 62
     7
370
    50
100
AcDbCircle
 10
-388.719347
 20
528.15014
 30
0.0
 40
1.000000000000227
100
AcDbArc
 50
90.0
 51
180.0
  0
LINE
  5
3DA
330
1F
100
AcDbEntity
  8
LC-001-100-D00-0
 62
     7
370
    50
100
AcDbLine
 10
-389.719347
 20
514.15014
 30
0.0
 11
-389.719347
 21
528.15014
 31
0.0
  0
ARC
  5
3DB
330
1F
100
AcDbEntity
  8
LC-001-100-D00-0
 62
     7
370
    50
100
AcDbCircle
 10
-390.719347
 20
514.15014
 30
0.0
 40
1.000000000000227
100
AcDbArc
 50
270.0
 51
0.0
  0
LINE
  5
3DC
330
1F
100
AcDbEntity
  8
LC-001-100-D00-0
 62
     7
370
    50
100
AcDbLine
 10
-390.719347
 20
513.15014
 30
0.0
 11
-393.118495
 21
513.150141
 31
0.0
  0
LINE
  5
3DD
330
1F
100
AcDbEntity
  8
LC-001-100-D00-0
 62
     7
370
    50
100
AcDbLine
 10
-393.118495
 20
515.150139
 30
0.0
 11
-393.118495
 21
513.150141
 31
0.0
  0
LINE
  5
3DE
330
1F
100
AcDbEntity
  8
LC-001-100-D00-0
 62
     7
370
    50
100
AcDbLine
 10
-393.769347
 20
515.15014
 30
0.0
 11
-393.118495
 21
515.150139
 31
0.0
  0
ARC
  5
3DF
330
1F
100
AcDbEntity
  8
LC-001-100-D00-0
 62
     7
370
    50
100
AcDbCircle
 10
-393.769347
 20
515.65014
 30
0.0
 40
0.5000000000002274
100
AcDbArc
 50
180.0
 51
270.0
  0
LINE
  5
3E0
330
1F
100
AcDbEntity
  8
LC-001-100-D00-0
 62
     7
370
    50
100
AcDbLine
 10
-394.269347
 20
518.65014
 30
0.0
 11
-394.269347
 21
515.65014
 31
0.0
  0
ARC
  5
3E1
330
1F
100
AcDbEntity
  8
LC-001-100-D00-0
 62
     7
370
    50
100
AcDbCircle
 10
-393.769347
 20
518.65014
 30
0.0
 40
0.4999999999997726
100
AcDbArc
 50
90.0
 51
180.0
  0
LINE
  5
3E2
330
1F
100
AcDbEntity
  8
LC-001-100-D00-0
 62
     7
370
    50
100
AcDbLine
 10
-393.118495
 20
519.15014
 30
0.0
 11
-393.769347
 21
519.15014
 31
0.0
  0
LINE
  5
3E3
330
1F
100
AcDbEntity
  8
LC-001-100-D00-0
 62
     7
370
    50
100
AcDbLine
 10
-393.118495
 20
521.15014
 30
0.0
 11
-393.118495
 21
519.15014
 31
0.0
  0
LINE
  5
3E4
330
1F
100
AcDbEntity
  8
LC-001-100-D00-0
 62
     7
370
    50
100
AcDbLine
 10
-384.219347
 20
525.15014
 30
0.0
 11
-381.219352
 21
525.15014
 31
0.0
  0
LINE
  5
3E5
330
1F
100
AcDbEntity
  8
LC-001-100-D00-0
 62
     7
370
    50
100
AcDbLine
 10
-381.219347
 20
531.15014
 30
0.0
 11
-381.219352
 21
525.15014
 31
0.0
  0
ARC
  5
3E6
330
1F
100
AcDbEntity
  8
LC-001-100-D00-0
 62
     7
370
    50
100
AcDbCircle
 10
-382.219347
 20
531.15014
 30
0.0
 40
0.9999999999999432
100
AcDbArc
 50
0.0
 51
90.0
  0
LINE
  5
3E7
330
1F
100
AcDbEntity
  8
LC-001-100-D00-0
 62
     7
370
    50
100
AcDbLine
 10
-403.369347
 20
532.15014
 30
0.0
 11
-403.369332
 21
521.15014
 31
0.0
  0
LINE
  5
3E8
330
1F
100
AcDbEntity
  8
LC-001-100-D00-0
 62
     7
370
    50
100
AcDbLine
 10
-403.369347
 20
532.15014
 30
0.0
 11
-395.569347
 21
532.15014
 31
0.0
  0
ARC
  5
3E9
330
1F
100
AcDbEntity
  8
LC-001-100-D00-0
 62
     7
370
    50
100
AcDbCircle
 10
-410.219347
 20
528.15014
 30
0.0
 40
1.000000000000114
100
AcDbArc
 50
0.0
 51
90.0
  0
ARC
  5
3EA
330
1F
100
AcDbEntity
  8
LC-001-100-D00-0
 62
     7
370
    50
100
AcDbCircle
 10
-408.219347
 20
514.15014
 30
0.0
 40
1.000000000000114
100
AcDbArc
 50
180.0
 51
270.0
  0
LINE
  5
3EB
330
1F
100
AcDbEntity
  8
LC-001-100-D00-0
 62
     7
370
    50
100
AcDbLine
 10
-409.219347
 20
528.15014
 30
0.0
 11
-409.219347
 21
514.15014
 31
0.0
  0
LINE
  5
3EC
330
1F
100
AcDbEntity
  8
LC-001-100-D00-0
 62
     7
370
    50
100
AcDbLine
 10
-404.669347
 20
515.65014
 30
0.0
 11
-404.669347
 21
518.65014
 31
0.0
  0
ARC
  5
3ED
330
1F
100
AcDbEntity
  8
LC-001-100-D00-0
 62
     7
370
    50
100
AcDbCircle
 10
-405.169347
 20
515.65014
 30
0.0
 40
0.5000000000003411
100
AcDbArc
 50
270.0
 51
0.0
  0
LINE
  5
3EE
330
1F
100
AcDbEntity
  8
LC-001-100-D00-0
 62
     7
370
    50
100
AcDbLine
 10
-405.820185
 20
515.150139
 30
0.0
 11
-405.169347
 21
515.15014
 31
0.0
  0
LINE
  5
3EF
330
1F
100
AcDbEntity
  8
LC-001-100-D00-0
 62
     7
370
    50
100
AcDbLine
 10
-405.820185
 20
515.150139
 30
0.0
 11
-405.820185
 21
513.150141
 31
0.0
  0
LINE
  5
3F0
330
1F
100
AcDbEntity
  8
LC-001-100-D00-0
 62
     7
370
    50
100
AcDbLine
 10
-414.719338
 20
529.15014
 30
0.0
 11
-414.719347
 21
525.15014
 31
0.0
  0
LINE
  5
3F1
330
1F
100
AcDbEntity
  8
LC-001-100-D00-0
 62
     7
370
    50
100
AcDbLine
 10
-417.719359
 20
525.15014
 30
0.0
 11
-417.719347
 21
531.15014
 31
0.0
  0
ARC
  5
3F2
330
1F
100
AcDbEntity
  8
LC-001-100-D00-0
 62
     7
370
    50
100
AcDbCircle
 10
-416.719347
 20
531.15014
 30
0.0
 40
1.000000000000227
100
AcDbArc
 50
90.0
 51
180.0
  0
LINE
  5
3F3
330
1F
100
AcDbEntity
  8
LC-001-100-D00-0
 62
     7
370
    50
100
AcDbLine
 10
-405.820185
 20
521.15014
 30
0.0
 11
-405.820185
 21
519.15014
 31
0.0
  0
LINE
  5
3F4
330
1F
100
AcDbEntity
  8
LC-001-100-D00-0
 62
     7
370
    50
100
AcDbLine
 10
-405.169347
 20
519.15014
 30
0.0
 11
-405.820185
 21
519.15014
 31
0.0
  0
ARC
  5
3F5
330
1F
100
AcDbEntity
  8
LC-001-100-D00-0
 62
     7
370
    50
100
AcDbCircle
 10
-405.169347
 20
518.65014
 30
0.0
 40
0.5
100
AcDbArc
 50
0.0
 51
90.0
  0
LINE
  5
3F6
330
1F
100
AcDbEntity
  8
LC-001-100-D00-0
 62
     7
370
    50
100
AcDbLine
 10
-405.820185
 20
513.150141
 30
0.0
 11
-408.219347
 21
513.15014
 31
0.0
  0
LINE
  5
3F7
330
1F
100
AcDbEntity
  8
LC-001-100-D00-0
 62
     7
370
    50
100
AcDbLine
 10
-403.369332
 20
521.15014
 30
0.0
 11
-405.820185
 21
521.15014
 31
0.0
  0
LINE
  5
3F8
330
1F
100
AcDbEntity
  8
LC-001-100-D00-0
 62
     7
370
    50
100
AcDbLine
 10
-414.719338
 20
529.15014
 30
0.0
 11
-410.219347
 21
529.15014
 31
0.0
  0
LINE
  5
3F9
330
1F
100
AcDbEntity
  8
LC-001-100-D00-0
 62
     7
370
    50
100
AcDbLine
 10
-416.719347
 20
532.15014
 30
0.0
 11
-403.369347
 21
532.15014
 31
0.0
  0
LINE
  5
3FA
330
1F
100
AcDbEntity
  8
LC-001-100-D00-0
 62
     7
370
    50
100
AcDbLine
 10
-417.719359
 20
525.15014
 30
0.0
 11
-414.719347
 21
525.15014
 31
0.0
  0
LINE
  5
3FB
330
1F
100
AcDbEntity
  8
LC-001-100-D00-0
 62
     7
370
    50
100
AcDbLine
 10
-386.219347
 20
525.15014
 30
0.0
 11
-384.219347
 21
525.15014
 31
0.0
  0
LINE
  5
3FC
330
1F
100
AcDbEntity
  8
LC-001-100-D00-0
 62
     7
370
    50
100
AcDbLine
 10
-414.719347
 20
525.15014
 30
0.0
 11
-412.719347
 21
525.15014
 31
0.0
  0
LINE
  5
3FD
330
1F
100
AcDbEntity
  8
LC-001-100-D00-0
 62
     7
370
    50
100
AcDbLine
 10
-412.719347
 20
525.15014
 30
0.0
 11
-409.219349
 21
525.15014
 31
0.0
  0
LINE
  5
3FE
330
1F
100
AcDbEntity
  8
LC-001-100-D00-0
 62
     7
370
    50
100
AcDbLine
 10
-389.719347
 20
525.15014
 30
0.0
 11
-386.219347
 21
525.15014
 31
0.0
  0
LINE
  5
3FF
330
1F
100
AcDbEntity
  8
LC-001-100-D00-0
 62
     7
370
    50
100
AcDbLine
 10
-500.936013
 20
515.918906
 30
0.0
 11
-500.936013
 21
518.381374
 31
0.0
  0
ARC
  5
400
330
1F
100
AcDbEntity
  8
LC-001-100-D00-0
 62
     7
370
    50
100
AcDbCircle
 10
-500.336013
 20
515.918906
 30
0.0
 40
0.6000000000000227
100
AcDbArc
 50
180.0
 51
255.0
  0
LINE
  5
401
330
1F
100
AcDbEntity
  8
LC-001-100-D00-0
 62
     7
370
    50
100
AcDbLine
 10
-499.78515
 20
515.150139
 30
0.0
 11
-500.491305
 21
515.339351
 31
0.0
  0
LINE
  5
402
330
1F
100
AcDbEntity
  8
LC-001-100-D00-0
 62
     7
370
    50
100
AcDbLine
 10
-499.78515
 20
515.150139
 30
0.0
 11
-499.78515
 21
513.150141
 31
0.0
  0
LINE
  5
403
330
1F
100
AcDbEntity
  8
LC-001-100-D00-0
 62
     7
370
    50
100
AcDbLine
 10
-501.736013
 20
513.15014
 30
0.0
 11
-499.78515
 21
513.150141
 31
0.0
  0
LINE
  5
404
330
1F
100
AcDbEntity
  8
LC-001-100-D00-0
 62
     7
370
    50
100
AcDbLine
 10
-502.736013
 20
514.15014
 30
0.0
 11
-501.736013
 21
513.15014
 31
0.0
  0
LINE
  5
405
330
1F
100
AcDbEntity
  8
LC-001-100-D00-0
 62
     7
370
    50
100
AcDbLine
 10
-502.736013
 20
514.15014
 30
0.0
 11
-502.736027
 21
520.15014
 31
0.0
  0
LINE
  5
406
330
1F
100
AcDbEntity
  8
LC-001-100-D00-0
 62
     7
370
    50
100
AcDbLine
 10
-501.73601
 20
521.15014
 30
0.0
 11
-502.736027
 21
520.15014
 31
0.0
  0
LINE
  5
407
330
1F
100
AcDbEntity
  8
LC-001-100-D00-0
 62
     7
370
    50
100
AcDbLine
 10
-499.78515
 20
521.15014
 30
0.0
 11
-499.78515
 21
519.15014
 31
0.0
  0
LINE
  5
408
330
1F
100
AcDbEntity
  8
LC-001-100-D00-0
 62
     7
370
    50
100
AcDbLine
 10
-500.491305
 20
518.960929
 30
0.0
 11
-499.78515
 21
519.15014
 31
0.0
  0
ARC
  5
409
330
1F
100
AcDbEntity
  8
LC-001-100-D00-0
 62
     7
370
    50
100
AcDbCircle
 10
-500.336013
 20
518.381374
 30
0.0
 40
0.6000000000000886
100
AcDbArc
 50
105.0
 51
180.0
  0
LINE
  5
40A
330
1F
100
AcDbEntity
  8
LC-001-100-D00-0
 62
     7
370
    50
100
AcDbLine
 10
-501.73601
 20
521.15014
 30
0.0
 11
-499.78515
 21
521.15014
 31
0.0
  0
LINE
  5
40B
330
1F
100
AcDbEntity
  8
LC-001-100-D00-0
 62
     7
370
    50
100
AcDbLine
 10
-509.536022
 20
520.15014
 30
0.0
 11
-510.53601
 21
521.15014
 31
0.0
  0
LINE
  5
40C
330
1F
100
AcDbEntity
  8
LC-001-100-D00-0
 62
     7
370
    50
100
AcDbLine
 10
-510.536013
 20
513.15014
 30
0.0
 11
-509.536013
 21
514.15014
 31
0.0
  0
LINE
  5
40D
330
1F
100
AcDbEntity
  8
LC-001-100-D00-0
 62
     7
370
    50
100
AcDbLine
 10
-509.536013
 20
514.15014
 30
0.0
 11
-509.378174
 21
514.15014
 31
0.0
  0
LINE
  5
40E
330
1F
100
AcDbEntity
  8
LC-001-100-D00-0
 62
     7
370
    50
100
AcDbLine
 10
-502.893853
 20
514.15014
 30
0.0
 11
-502.736013
 21
514.15014
 31
0.0
  0
LINE
  5
40F
330
1F
100
AcDbEntity
  8
LC-001-100-D00-0
 62
     7
370
    50
100
AcDbLine
 10
-501.736013
 20
513.15014
 30
0.0
 11
-502.271795
 21
513.15014
 31
0.0
  0
LINE
  5
410
330
1F
100
AcDbEntity
  8
LC-001-100-D00-0
 62
     7
370
    50
100
AcDbLine
 10
-510.000232
 20
513.15014
 30
0.0
 11
-510.536013
 21
513.15014
 31
0.0
  0
LINE
  5
411
330
1F
100
AcDbEntity
  8
LC-001-100-D00-0
 62
     7
370
    50
100
AcDbLine
 10
-509.536022
 20
520.15014
 30
0.0
 11
-509.536013
 21
514.15014
 31
0.0
  0
LINE
  5
412
330
1F
100
AcDbEntity
  8
LC-001-100-D00-0
 62
     7
370
    50
100
AcDbLine
 10
-512.48687
 20
515.150139
 30
0.0
 11
-512.48687
 21
513.150141
 31
0.0
  0
LINE
  5
413
330
1F
100
AcDbEntity
  8
LC-001-100-D00-0
 62
     7
370
    50
100
AcDbLine
 10
-511.780722
 20
515.339351
 30
0.0
 11
-512.48687
 21
515.150139
 31
0.0
  0
ARC
  5
414
330
1F
100
AcDbEntity
  8
LC-001-100-D00-0
 62
     7
370
    50
100
AcDbCircle
 10
-511.936013
 20
515.918906
 30
0.0
 40
0.5999999999998179
100
AcDbArc
 50
285.0
 51
0.0
  0
LINE
  5
415
330
1F
100
AcDbEntity
  8
LC-001-100-D00-0
 62
     7
370
    50
100
AcDbLine
 10
-511.336013
 20
518.381374
 30
0.0
 11
-511.336013
 21
515.918906
 31
0.0
  0
ARC
  5
416
330
1F
100
AcDbEntity
  8
LC-001-100-D00-0
 62
     7
370
    50
100
AcDbCircle
 10
-511.936013
 20
518.381374
 30
0.0
 40
0.6000000000001364
100
AcDbArc
 50
0.0
 51
75.0
  0
LINE
  5
417
330
1F
100
AcDbEntity
  8
LC-001-100-D00-0
 62
     7
370
    50
100
AcDbLine
 10
-512.48687
 20
519.15014
 30
0.0
 11
-511.780722
 21
518.960929
 31
0.0
  0
LINE
  5
418
330
1F
100
AcDbEntity
  8
LC-001-100-D00-0
 62
     7
370
    50
100
AcDbLine
 10
-512.48687
 20
521.15014
 30
0.0
 11
-512.48687
 21
519.15014
 31
0.0
  0
LINE
  5
419
330
1F
100
AcDbEntity
  8
LC-001-100-D00-0
 62
     7
370
    50
100
AcDbLine
 10
-512.48687
 20
513.150141
 30
0.0
 11
-510.536013
 21
513.15014
 31
0.0
  0
LINE
  5
41A
330
1F
100
AcDbEntity
  8
LC-001-100-D00-0
 62
     7
370
    50
100
AcDbLine
 10
-512.48687
 20
521.15014
 30
0.0
 11
-510.53601
 21
521.15014
 31
0.0
  0
LINE
  5
41B
330
1F
100
AcDbEntity
  8
LC-001-100-D00-0
 62
     7
370
    50
100
AcDbLine
 10
-499.78515
 20
521.15014
 30
0.0
 11
-502.236003
 21
521.15014
 31
0.0
  0
LINE
  5
41C
330
1F
100
AcDbEntity
  8
LC-001-100-D00-0
 62
     7
370
    50
100
AcDbLine
 10
-502.236003
 20
521.15014
 30
0.0
 11
-502.236013
 21
532.15014
 31
0.0
  0
LINE
  5
41D
330
1F
100
AcDbEntity
  8
LC-001-100-D00-0
 62
     7
370
    50
100
AcDbLine
 10
-502.236013
 20
532.15014
 30
0.0
 11
-488.886013
 21
532.15014
 31
0.0
  0
LINE
  5
41E
330
1F
100
AcDbEntity
  8
LC-001-100-D00-0
 62
     7
370
    50
100
AcDbLine
 10
-490.886013
 20
525.15014
 30
0.0
 11
-490.886027
 21
529.15014
 31
0.0
  0
LINE
  5
41F
330
1F
100
AcDbEntity
  8
LC-001-100-D00-0
 62
     7
370
    50
100
AcDbLine
 10
-495.386013
 20
529.15014
 30
0.0
 11
-490.886027
 21
529.15014
 31
0.0
  0
ARC
  5
420
330
1F
100
AcDbEntity
  8
LC-001-100-D00-0
 62
     7
370
    50
100
AcDbCircle
 10
-495.386013
 20
528.15014
 30
0.0
 40
1.000000000000227
100
AcDbArc
 50
90.0
 51
180.0
  0
LINE
  5
421
330
1F
100
AcDbEntity
  8
LC-001-100-D00-0
 62
     7
370
    50
100
AcDbLine
 10
-496.386013
 20
514.15014
 30
0.0
 11
-496.386013
 21
528.15014
 31
0.0
  0
ARC
  5
422
330
1F
100
AcDbEntity
  8
LC-001-100-D00-0
 62
     7
370
    50
100
AcDbCircle
 10
-497.386013
 20
514.15014
 30
0.0
 40
0.9999999999998863
100
AcDbArc
 50
270.0
 51
0.0
  0
LINE
  5
423
330
1F
100
AcDbEntity
  8
LC-001-100-D00-0
 62
     7
370
    50
100
AcDbLine
 10
-497.386013
 20
513.15014
 30
0.0
 11
-499.78515
 21
513.150141
 31
0.0
  0
LINE
  5
424
330
1F
100
AcDbEntity
  8
LC-001-100-D00-0
 62
     7
370
    50
100
AcDbLine
 10
-499.78515
 20
515.150139
 30
0.0
 11
-499.78515
 21
513.150141
 31
0.0
  0
LINE
  5
425
330
1F
100
AcDbEntity
  8
LC-001-100-D00-0
 62
     7
370
    50
100
AcDbLine
 10
-500.436013
 20
515.15014
 30
0.0
 11
-499.78515
 21
515.150139
 31
0.0
  0
ARC
  5
426
330
1F
100
AcDbEntity
  8
LC-001-100-D00-0
 62
     7
370
    50
100
AcDbCircle
 10
-500.436013
 20
515.65014
 30
0.0
 40
0.5000000000003411
100
AcDbArc
 50
180.0
 51
270.0
  0
LINE
  5
427
330
1F
100
AcDbEntity
  8
LC-001-100-D00-0
 62
     7
370
    50
100
AcDbLine
 10
-500.936013
 20
518.65014
 30
0.0
 11
-500.936013
 21
515.65014
 31
0.0
  0
ARC
  5
428
330
1F
100
AcDbEntity
  8
LC-001-100-D00-0
 62
     7
370
    50
100
AcDbCircle
 10
-500.436013
 20
518.65014
 30
0.0
 40
0.4999999999997726
100
AcDbArc
 50
90.0
 51
180.0
  0
LINE
  5
429
330
1F
100
AcDbEntity
  8
LC-001-100-D00-0
 62
     7
370
    50
100
AcDbLine
 10
-499.78515
 20
519.15014
 30
0.0
 11
-500.436013
 21
519.15014
 31
0.0
  0
LINE
  5
42A
330
1F
100
AcDbEntity
  8
LC-001-100-D00-0
 62
     7
370
    50
100
AcDbLine
 10
-499.78515
 20
521.15014
 30
0.0
 11
-499.78515
 21
519.15014
 31
0.0
  0
LINE
  5
42B
330
1F
100
AcDbEntity
  8
LC-001-100-D00-0
 62
     7
370
    50
100
AcDbLine
 10
-490.886013
 20
525.15014
 30
0.0
 11
-487.886006
 21
525.15014
 31
0.0
  0
LINE
  5
42C
330
1F
100
AcDbEntity
  8
LC-001-100-D00-0
 62
     7
370
    50
100
AcDbLine
 10
-487.886013
 20
531.15014
 30
0.0
 11
-487.886006
 21
525.15014
 31
0.0
  0
ARC
  5
42D
330
1F
100
AcDbEntity
  8
LC-001-100-D00-0
 62
     7
370
    50
100
AcDbCircle
 10
-488.886013
 20
531.15014
 30
0.0
 40
0.9999999999998863
100
AcDbArc
 50
0.0
 51
90.0
  0
LINE
  5
42E
330
1F
100
AcDbEntity
  8
LC-001-100-D00-0
 62
     7
370
    50
100
AcDbLine
 10
-510.036013
 20
532.15014
 30
0.0
 11
-510.036016
 21
521.15014
 31
0.0
  0
LINE
  5
42F
330
1F
100
AcDbEntity
  8
LC-001-100-D00-0
 62
     7
370
    50
100
AcDbLine
 10
-510.036013
 20
532.15014
 30
0.0
 11
-502.236013
 21
532.15014
 31
0.0
  0
ARC
  5
430
330
1F
100
AcDbEntity
  8
LC-001-100-D00-0
 62
     7
370
    50
100
AcDbCircle
 10
-516.886013
 20
528.15014
 30
0.0
 40
1.0
100
AcDbArc
 50
0.0
 51
90.0
  0
ARC
  5
431
330
1F
100
AcDbEntity
  8
LC-001-100-D00-0
 62
     7
370
    50
100
AcDbCircle
 10
-514.886013
 20
514.15014
 30
0.0
 40
0.9999999999998863
100
AcDbArc
 50
180.0
 51
270.0
  0
LINE
  5
432
330
1F
100
AcDbEntity
  8
LC-001-100-D00-0
 62
     7
370
    50
100
AcDbLine
 10
-515.886013
 20
528.15014
 30
0.0
 11
-515.886013
 21
514.15014
 31
0.0
  0
LINE
  5
433
330
1F
100
AcDbEntity
  8
LC-001-100-D00-0
 62
     7
370
    50
100
AcDbLine
 10
-511.336013
 20
515.65014
 30
0.0
 11
-511.336013
 21
518.65014
 31
0.0
  0
ARC
  5
434
330
1F
100
AcDbEntity
  8
LC-001-100-D00-0
 62
     7
370
    50
100
AcDbCircle
 10
-511.836013
 20
515.65014
 30
0.0
 40
0.5000000000003411
100
AcDbArc
 50
270.0
 51
0.0
  0
LINE
  5
435
330
1F
100
AcDbEntity
  8
LC-001-100-D00-0
 62
     7
370
    50
100
AcDbLine
 10
-512.48687
 20
515.150139
 30
0.0
 11
-511.836013
 21
515.15014
 31
0.0
  0
LINE
  5
436
330
1F
100
AcDbEntity
  8
LC-001-100-D00-0
 62
     7
370
    50
100
AcDbLine
 10
-512.48687
 20
515.150139
 30
0.0
 11
-512.48687
 21
513.150141
 31
0.0
  0
LINE
  5
437
330
1F
100
AcDbEntity
  8
LC-001-100-D00-0
 62
     7
370
    50
100
AcDbLine
 10
-521.386022
 20
529.15014
 30
0.0
 11
-521.386013
 21
525.15014
 31
0.0
  0
LINE
  5
438
330
1F
100
AcDbEntity
  8
LC-001-100-D00-0
 62
     7
370
    50
100
AcDbLine
 10
-524.386013
 20
525.15014
 30
0.0
 11
-524.386013
 21
531.15014
 31
0.0
  0
ARC
  5
439
330
1F
100
AcDbEntity
  8
LC-001-100-D00-0
 62
     7
370
    50
100
AcDbCircle
 10
-523.386013
 20
531.15014
 30
0.0
 40
1.000000000000227
100
AcDbArc
 50
90.0
 51
180.0
  0
LINE
  5
43A
330
1F
100
AcDbEntity
  8
LC-001-100-D00-0
 62
     7
370
    50
100
AcDbLine
 10
-512.48687
 20
521.15014
 30
0.0
 11
-512.48687
 21
519.15014
 31
0.0
  0
LINE
  5
43B
330
1F
100
AcDbEntity
  8
LC-001-100-D00-0
 62
     7
370
    50
100
AcDbLine
 10
-511.836013
 20
519.15014
 30
0.0
 11
-512.48687
 21
519.15014
 31
0.0
  0
ARC
  5
43C
330
1F
100
AcDbEntity
  8
LC-001-100-D00-0
 62
     7
370
    50
100
AcDbCircle
 10
-511.836013
 20
518.65014
 30
0.0
 40
0.5
100
AcDbArc
 50
0.0
 51
90.0
  0
LINE
  5
43D
330
1F
100
AcDbEntity
  8
LC-001-100-D00-0
 62
     7
370
    50
100
AcDbLine
 10
-512.48687
 20
513.150141
 30
0.0
 11
-514.886013
 21
513.15014
 31
0.0
  0
LINE
  5
43E
330
1F
100
AcDbEntity
  8
LC-001-100-D00-0
 62
     7
370
    50
100
AcDbLine
 10
-510.036016
 20
521.15014
 30
0.0
 11
-512.48687
 21
521.15014
 31
0.0
  0
LINE
  5
43F
330
1F
100
AcDbEntity
  8
LC-001-100-D00-0
 62
     7
370
    50
100
AcDbLine
 10
-521.386022
 20
529.15014
 30
0.0
 11
-516.886013
 21
529.15014
 31
0.0
  0
LINE
  5
440
330
1F
100
AcDbEntity
  8
LC-001-100-D00-0
 62
     7
370
    50
100
AcDbLine
 10
-523.386013
 20
532.15014
 30
0.0
 11
-510.036013
 21
532.15014
 31
0.0
  0
LINE
  5
441
330
1F
100
AcDbEntity
  8
LC-001-100-D00-0
 62
     7
370
    50
100
AcDbLine
 10
-524.386013
 20
525.15014
 30
0.0
 11
-521.386013
 21
525.15014
 31
0.0
  0
LINE
  5
442
330
1F
100
AcDbEntity
  8
LC-001-100-D00-0
 62
     7
370
    50
100
AcDbLine
 10
-492.886013
 20
525.15014
 30
0.0
 11
-490.886013
 21
525.15014
 31
0.0
  0
LINE
  5
443
330
1F
100
AcDbEntity
  8
LC-001-100-D00-0
 62
     7
370
    50
100
AcDbLine
 10
-521.386013
 20
525.15014
 30
0.0
 11
-519.386013
 21
525.15014
 31
0.0
  0
LINE
  5
444
330
1F
100
AcDbEntity
  8
LC-001-100-D00-0
 62
     7
370
    50
100
AcDbLine
 10
-519.386013
 20
525.15014
 30
0.0
 11
-515.886003
 21
525.15014
 31
0.0
  0
LINE
  5
445
330
1F
100
AcDbEntity
  8
LC-001-100-D00-0
 62
     7
370
    50
100
AcDbLine
 10
-496.386016
 20
525.15014
 30
0.0
 11
-492.886013
 21
525.15014
 31
0.0
  0
LINE
  5
446
330
1F
100
AcDbEntity
  8
LC-001-100-D00-0
 62
     7
370
    50
100
AcDbLine
 10
119.063987
 20
515.918906
 30
0.0
 11
119.063987
 21
518.381374
 31
0.0
  0
ARC
  5
447
330
1F
100
AcDbEntity
  8
LC-001-100-D00-0
 62
     7
370
    50
100
AcDbCircle
 10
119.663987
 20
515.918906
 30
0.0
 40
0.5999999999998522
100
AcDbArc
 50
180.0
 51
255.0
  0
LINE
  5
448
330
1F
100
AcDbEntity
  8
LC-001-100-D00-0
 62
     7
370
    50
100
AcDbLine
 10
120.214825
 20
515.150139
 30
0.0
 11
119.508695
 21
515.339351
 31
0.0
  0
LINE
  5
449
330
1F
100
AcDbEntity
  8
LC-001-100-D00-0
 62
     7
370
    50
100
AcDbLine
 10
120.214825
 20
515.150139
 30
0.0
 11
120.214825
 21
513.150141
 31
0.0
  0
LINE
  5
44A
330
1F
100
AcDbEntity
  8
LC-001-100-D00-0
 62
     7
370
    50
100
AcDbLine
 10
118.263987
 20
513.15014
 30
0.0
 11
120.214825
 21
513.150141
 31
0.0
  0
LINE
  5
44B
330
1F
100
AcDbEntity
  8
LC-001-100-D00-0
 62
     7
370
    50
100
AcDbLine
 10
117.263987
 20
514.15014
 30
0.0
 11
118.263987
 21
513.15014
 31
0.0
  0
LINE
  5
44C
330
1F
100
AcDbEntity
  8
LC-001-100-D00-0
 62
     7
370
    50
100
AcDbLine
 10
117.263987
 20
514.15014
 30
0.0
 11
117.263978
 21
520.15014
 31
0.0
  0
LINE
  5
44D
330
1F
100
AcDbEntity
  8
LC-001-100-D00-0
 62
     7
370
    50
100
AcDbLine
 10
118.263995
 20
521.15014
 30
0.0
 11
117.263978
 21
520.15014
 31
0.0
  0
LINE
  5
44E
330
1F
100
AcDbEntity
  8
LC-001-100-D00-0
 62
     7
370
    50
100
AcDbLine
 10
120.214825
 20
521.15014
 30
0.0
 11
120.214825
 21
519.15014
 31
0.0
  0
LINE
  5
44F
330
1F
100
AcDbEntity
  8
LC-001-100-D00-0
 62
     7
370
    50
100
AcDbLine
 10
119.508695
 20
518.960929
 30
0.0
 11
120.214825
 21
519.15014
 31
0.0
  0
ARC
  5
450
330
1F
100
AcDbEntity
  8
LC-001-100-D00-0
 62
     7
370
    50
100
AcDbCircle
 10
119.663987
 20
518.381374
 30
0.0
 40
0.6000000000000886
100
AcDbArc
 50
105.0
 51
180.0
  0
LINE
  5
451
330
1F
100
AcDbEntity
  8
LC-001-100-D00-0
 62
     7
370
    50
100
AcDbLine
 10
118.263995
 20
521.15014
 30
0.0
 11
120.214825
 21
521.15014
 31
0.0
  0
LINE
  5
452
330
1F
100
AcDbEntity
  8
LC-001-100-D00-0
 62
     7
370
    50
100
AcDbLine
 10
110.463982
 20
520.15014
 30
0.0
 11
109.463995
 21
521.15014
 31
0.0
  0
LINE
  5
453
330
1F
100
AcDbEntity
  8
LC-001-100-D00-0
 62
     7
370
    50
100
AcDbLine
 10
109.463987
 20
513.15014
 30
0.0
 11
110.463987
 21
514.15014
 31
0.0
  0
LINE
  5
454
330
1F
100
AcDbEntity
  8
LC-001-100-D00-0
 62
     7
370
    50
100
AcDbLine
 10
110.463987
 20
514.15014
 30
0.0
 11
110.621826
 21
514.15014
 31
0.0
  0
LINE
  5
455
330
1F
100
AcDbEntity
  8
LC-001-100-D00-0
 62
     7
370
    50
100
AcDbLine
 10
117.106147
 20
514.15014
 30
0.0
 11
117.263987
 21
514.15014
 31
0.0
  0
LINE
  5
456
330
1F
100
AcDbEntity
  8
LC-001-100-D00-0
 62
     7
370
    50
100
AcDbLine
 10
118.263987
 20
513.15014
 30
0.0
 11
117.728205
 21
513.15014
 31
0.0
  0
LINE
  5
457
330
1F
100
AcDbEntity
  8
LC-001-100-D00-0
 62
     7
370
    50
100
AcDbLine
 10
109.999768
 20
513.15014
 30
0.0
 11
109.463987
 21
513.15014
 31
0.0
  0
LINE
  5
458
330
1F
100
AcDbEntity
  8
LC-001-100-D00-0
 62
     7
370
    50
100
AcDbLine
 10
110.463982
 20
520.15014
 30
0.0
 11
110.463987
 21
514.15014
 31
0.0
  0
LINE
  5
459
330
1F
100
AcDbEntity
  8
LC-001-100-D00-0
 62
     7
370
    50
100
AcDbLine
 10
107.513135
 20
515.150139
 30
0.0
 11
107.513135
 21
513.150141
 31
0.0
  0
LINE
  5
45A
330
1F
100
AcDbEntity
  8
LC-001-100-D00-0
 62
     7
370
    50
100
AcDbLine
 10
108.219278
 20
515.339351
 30
0.0
 11
107.513135
 21
515.150139
 31
0.0
  0
ARC
  5
45B
330
1F
100
AcDbEntity
  8
LC-001-100-D00-0
 62
     7
370
    50
100
AcDbCircle
 10
108.063987
 20
515.918906
 30
0.0
 40
0.6000000000003413
100
AcDbArc
 50
285.0
 51
0.0
  0
LINE
  5
45C
330
1F
100
AcDbEntity
  8
LC-001-100-D00-0
 62
     7
370
    50
100
AcDbLine
 10
108.663987
 20
518.381374
 30
0.0
 11
108.663987
 21
515.918906
 31
0.0
  0
ARC
  5
45D
330
1F
100
AcDbEntity
  8
LC-001-100-D00-0
 62
     7
370
    50
100
AcDbCircle
 10
108.063987
 20
518.381374
 30
0.0
 40
0.6000000000001364
100
AcDbArc
 50
0.0
 51
75.0
  0
LINE
  5
45E
330
1F
100
AcDbEntity
  8
LC-001-100-D00-0
 62
     7
370
    50
100
AcDbLine
 10
107.513135
 20
519.15014
 30
0.0
 11
108.219278
 21
518.960929
 31
0.0
  0
LINE
  5
45F
330
1F
100
AcDbEntity
  8
LC-001-100-D00-0
 62
     7
370
    50
100
AcDbLine
 10
107.513135
 20
521.15014
 30
0.0
 11
107.513135
 21
519.15014
 31
0.0
  0
LINE
  5
460
330
1F
100
AcDbEntity
  8
LC-001-100-D00-0
 62
     7
370
    50
100
AcDbLine
 10
107.513135
 20
513.150141
 30
0.0
 11
109.463987
 21
513.15014
 31
0.0
  0
LINE
  5
461
330
1F
100
AcDbEntity
  8
LC-001-100-D00-0
 62
     7
370
    50
100
AcDbLine
 10
107.513135
 20
521.15014
 30
0.0
 11
109.463995
 21
521.15014
 31
0.0
  0
LINE
  5
462
330
1F
100
AcDbEntity
  8
LC-001-100-D00-0
 62
     7
370
    50
100
AcDbLine
 10
120.214825
 20
521.15014
 30
0.0
 11
117.763972
 21
521.15014
 31
0.0
  0
LINE
  5
463
330
1F
100
AcDbEntity
  8
LC-001-100-D00-0
 62
     7
370
    50
100
AcDbLine
 10
117.763972
 20
521.15014
 30
0.0
 11
117.763987
 21
532.15014
 31
0.0
  0
LINE
  5
464
330
1F
100
AcDbEntity
  8
LC-001-100-D00-0
 62
     7
370
    50
100
AcDbLine
 10
117.763987
 20
532.15014
 30
0.0
 11
131.113987
 21
532.15014
 31
0.0
  0
ARC
  5
465
330
1F
100
AcDbEntity
  8
LC-001-100-D00-0
 62
     7
370
    50
100
AcDbCircle
 10
131.113987
 20
531.15014
 30
0.0
 40
0.9999999999997726
100
AcDbArc
 50
0.0
 51
90.0
  0
LINE
  5
466
330
1F
100
AcDbEntity
  8
LC-001-100-D00-0
 62
     7
370
    50
100
AcDbLine
 10
132.113987
 20
531.15014
 30
0.0
 11
132.113999
 21
525.15014
 31
0.0
  0
LINE
  5
467
330
1F
100
AcDbEntity
  8
LC-001-100-D00-0
 62
     7
370
    50
100
AcDbLine
 10
129.113987
 20
525.15014
 30
0.0
 11
132.113999
 21
525.15014
 31
0.0
  0
LINE
  5
468
330
1F
100
AcDbEntity
  8
LC-001-100-D00-0
 62
     7
370
    50
100
AcDbLine
 10
129.113987
 20
525.15014
 30
0.0
 11
129.113978
 21
529.15014
 31
0.0
  0
LINE
  5
469
330
1F
100
AcDbEntity
  8
LC-001-100-D00-0
 62
     7
370
    50
100
AcDbLine
 10
124.613987
 20
529.15014
 30
0.0
 11
129.113978
 21
529.15014
 31
0.0
  0
ARC
  5
46A
330
1F
100
AcDbEntity
  8
LC-001-100-D00-0
 62
     7
370
    50
100
AcDbCircle
 10
124.613987
 20
528.15014
 30
0.0
 40
1.000000000000227
100
AcDbArc
 50
90.0
 51
180.0
  0
LINE
  5
46B
330
1F
100
AcDbEntity
  8
LC-001-100-D00-0
 62
     7
370
    50
100
AcDbLine
 10
123.613987
 20
514.15014
 30
0.0
 11
123.613987
 21
528.15014
 31
0.0
  0
ARC
  5
46C
330
1F
100
AcDbEntity
  8
LC-001-100-D00-0
 62
     7
370
    50
100
AcDbCircle
 10
122.613987
 20
514.15014
 30
0.0
 40
1.000000000000227
100
AcDbArc
 50
270.0
 51
0.0
  0
LINE
  5
46D
330
1F
100
AcDbEntity
  8
LC-001-100-D00-0
 62
     7
370
    50
100
AcDbLine
 10
122.613987
 20
513.15014
 30
0.0
 11
120.214825
 21
513.150141
 31
0.0
  0
LINE
  5
46E
330
1F
100
AcDbEntity
  8
LC-001-100-D00-0
 62
     7
370
    50
100
AcDbLine
 10
120.214825
 20
515.150139
 30
0.0
 11
120.214825
 21
513.150141
 31
0.0
  0
LINE
  5
46F
330
1F
100
AcDbEntity
  8
LC-001-100-D00-0
 62
     7
370
    50
100
AcDbLine
 10
119.563987
 20
515.15014
 30
0.0
 11
120.214825
 21
515.150139
 31
0.0
  0
ARC
  5
470
330
1F
100
AcDbEntity
  8
LC-001-100-D00-0
 62
     7
370
    50
100
AcDbCircle
 10
119.563987
 20
515.65014
 30
0.0
 40
0.5000000000000853
100
AcDbArc
 50
180.0
 51
270.0
  0
LINE
  5
471
330
1F
100
AcDbEntity
  8
LC-001-100-D00-0
 62
     7
370
    50
100
AcDbLine
 10
119.063987
 20
518.65014
 30
0.0
 11
119.063987
 21
515.65014
 31
0.0
  0
ARC
  5
472
330
1F
100
AcDbEntity
  8
LC-001-100-D00-0
 62
     7
370
    50
100
AcDbCircle
 10
119.563987
 20
518.65014
 30
0.0
 40
0.4999999999997726
100
AcDbArc
 50
90.0
 51
180.0
  0
LINE
  5
473
330
1F
100
AcDbEntity
  8
LC-001-100-D00-0
 62
     7
370
    50
100
AcDbLine
 10
120.214825
 20
519.15014
 30
0.0
 11
119.563987
 21
519.15014
 31
0.0
  0
LINE
  5
474
330
1F
100
AcDbEntity
  8
LC-001-100-D00-0
 62
     7
370
    50
100
AcDbLine
 10
120.214825
 20
521.15014
 30
0.0
 11
120.214825
 21
519.15014
 31
0.0
  0
LINE
  5
475
330
1F
100
AcDbEntity
  8
LC-001-100-D00-0
 62
     7
370
    50
100
AcDbLine
 10
109.963987
 20
532.15014
 30
0.0
 11
109.963989
 21
521.15014
 31
0.0
  0
LINE
  5
476
330
1F
100
AcDbEntity
  8
LC-001-100-D00-0
 62
     7
370
    50
100
AcDbLine
 10
109.963987
 20
532.15014
 30
0.0
 11
117.763987
 21
532.15014
 31
0.0
  0
ARC
  5
477
330
1F
100
AcDbEntity
  8
LC-001-100-D00-0
 62
     7
370
    50
100
AcDbCircle
 10
103.113987
 20
528.15014
 30
0.0
 40
0.9999999999999147
100
AcDbArc
 50
0.0
 51
90.0
  0
ARC
  5
478
330
1F
100
AcDbEntity
  8
LC-001-100-D00-0
 62
     7
370
    50
100
AcDbCircle
 10
105.113987
 20
514.15014
 30
0.0
 40
1.000000000000185
100
AcDbArc
 50
180.0
 51
270.0
  0
LINE
  5
479
330
1F
100
AcDbEntity
  8
LC-001-100-D00-0
 62
     7
370
    50
100
AcDbLine
 10
104.113987
 20
528.15014
 30
0.0
 11
104.113987
 21
514.15014
 31
0.0
  0
LINE
  5
47A
330
1F
100
AcDbEntity
  8
LC-001-100-D00-0
 62
     7
370
    50
100
AcDbLine
 10
108.663987
 20
515.65014
 30
0.0
 11
108.663987
 21
518.65014
 31
0.0
  0
ARC
  5
47B
330
1F
100
AcDbEntity
  8
LC-001-100-D00-0
 62
     7
370
    50
100
AcDbCircle
 10
108.163987
 20
515.65014
 30
0.0
 40
0.5000000000003411
100
AcDbArc
 50
270.0
 51
0.0
  0
LINE
  5
47C
330
1F
100
AcDbEntity
  8
LC-001-100-D00-0
 62
     7
370
    50
100
AcDbLine
 10
107.513135
 20
515.150139
 30
0.0
 11
108.163987
 21
515.15014
 31
0.0
  0
LINE
  5
47D
330
1F
100
AcDbEntity
  8
LC-001-100-D00-0
 62
     7
370
    50
100
AcDbLine
 10
107.513135
 20
515.150139
 30
0.0
 11
107.513135
 21
513.150141
 31
0.0
  0
LINE
  5
47E
330
1F
100
AcDbEntity
  8
LC-001-100-D00-0
 62
     7
370
    50
100
AcDbLine
 10
98.613983
 20
529.15014
 30
0.0
 11
98.613987
 21
525.15014
 31
0.0
  0
LINE
  5
47F
330
1F
100
AcDbEntity
  8
LC-001-100-D00-0
 62
     7
370
    50
100
AcDbLine
 10
95.613992
 20
525.15014
 30
0.0
 11
95.613987
 21
531.15014
 31
0.0
  0
ARC
  5
480
330
1F
100
AcDbEntity
  8
LC-001-100-D00-0
 62
     7
370
    50
100
AcDbCircle
 10
96.613987
 20
531.15014
 30
0.0
 40
1.000000000000227
100
AcDbArc
 50
90.0
 51
180.0
  0
LINE
  5
481
330
1F
100
AcDbEntity
  8
LC-001-100-D00-0
 62
     7
370
    50
100
AcDbLine
 10
107.513135
 20
521.15014
 30
0.0
 11
107.513135
 21
519.15014
 31
0.0
  0
LINE
  5
482
330
1F
100
AcDbEntity
  8
LC-001-100-D00-0
 62
     7
370
    50
100
AcDbLine
 10
108.163987
 20
519.15014
 30
0.0
 11
107.513135
 21
519.15014
 31
0.0
  0
ARC
  5
483
330
1F
100
AcDbEntity
  8
LC-001-100-D00-0
 62
     7
370
    50
100
AcDbCircle
 10
108.163987
 20
518.65014
 30
0.0
 40
0.5000000000000995
100
AcDbArc
 50
0.0
 51
90.0
  0
LINE
  5
484
330
1F
100
AcDbEntity
  8
LC-001-100-D00-0
 62
     7
370
    50
100
AcDbLine
 10
107.513135
 20
513.150141
 30
0.0
 11
105.113987
 21
513.15014
 31
0.0
  0
LINE
  5
485
330
1F
100
AcDbEntity
  8
LC-001-100-D00-0
 62
     7
370
    50
100
AcDbLine
 10
109.963989
 20
521.15014
 30
0.0
 11
107.513135
 21
521.15014
 31
0.0
  0
LINE
  5
486
330
1F
100
AcDbEntity
  8
LC-001-100-D00-0
 62
     7
370
    50
100
AcDbLine
 10
98.613983
 20
529.15014
 30
0.0
 11
103.113987
 21
529.15014
 31
0.0
  0
LINE
  5
487
330
1F
100
AcDbEntity
  8
LC-001-100-D00-0
 62
     7
370
    50
100
AcDbLine
 10
96.613987
 20
532.15014
 30
0.0
 11
109.963987
 21
532.15014
 31
0.0
  0
LINE
  5
488
330
1F
100
AcDbEntity
  8
LC-001-100-D00-0
 62
     7
370
    50
100
AcDbLine
 10
95.613992
 20
525.15014
 30
0.0
 11
98.613987
 21
525.15014
 31
0.0
  0
LINE
  5
489
330
1F
100
AcDbEntity
  8
LC-001-100-D00-0
 62
     7
370
    50
100
AcDbLine
 10
127.113987
 20
525.15014
 30
0.0
 11
129.113987
 21
525.15014
 31
0.0
  0
LINE
  5
48A
330
1F
100
AcDbEntity
  8
LC-001-100-D00-0
 62
     7
370
    50
100
AcDbLine
 10
98.613987
 20
525.15014
 30
0.0
 11
100.613987
 21
525.15014
 31
0.0
  0
LINE
  5
48B
330
1F
100
AcDbEntity
  8
LC-001-100-D00-0
 62
     7
370
    50
100
AcDbLine
 10
100.613987
 20
525.15014
 30
0.0
 11
104.113987
 21
525.15014
 31
0.0
  0
LINE
  5
48C
330
1F
100
AcDbEntity
  8
LC-001-100-D00-0
 62
     7
370
    50
100
AcDbLine
 10
123.613989
 20
525.15014
 30
0.0
 11
127.113987
 21
525.15014
 31
0.0
  0
LINE
  5
48D
330
1F
100
AcDbEntity
  8
LC-001-100-D00-0
 62
     7
370
    50
100
AcDbLine
 10
-87.174544
 20
501.400837
 30
0.0
 11
-84.167759
 21
502.069011
 31
0.0
  0
ARC
  5
48E
330
1F
100
AcDbEntity
  8
LC-001-100-D00-0
 62
     7
370
    50
100
AcDbCircle
 10
-87.239623
 20
501.693693
 30
0.0
 40
0.3000000000002004
100
AcDbArc
 50
131.633539
 51
282.528808
  0
LINE
  5
48F
330
1F
100
AcDbEntity
  8
LC-001-100-D00-0
 62
     7
370
    25
100
AcDbLine
 10
-84.086845
 20
504.897549
 30
0.0
 11
-87.438932
 21
501.917916
 31
0.0
  0
ARC
  5
490
330
1F
100
AcDbEntity
  8
LC-001-100-D00-0
 62
     7
370
    50
100
AcDbCircle
 10
-83.422481
 20
504.15014
 30
0.0
 40
0.9999999999998863
100
AcDbArc
 50
90.0
 51
131.633539
  0
LINE
  5
491
330
1F
100
AcDbEntity
  8
LC-001-100-D00-0
 62
     7
370
    50
100
AcDbLine
 10
-77.802682
 20
505.150139
 30
0.0
 11
-77.802682
 21
501.150141
 31
0.0
  0
LINE
  5
492
330
1F
100
AcDbEntity
  8
LC-001-100-D00-0
 62
     7
370
    50
100
AcDbLine
 10
-83.80268
 20
501.776155
 30
0.0
 11
-83.80268
 21
501.15014
 31
0.0
  0
ARC
  5
493
330
1F
100
AcDbEntity
  8
LC-001-100-D00-0
 62
     7
370
    50
100
AcDbCircle
 10
-84.10268
 20
501.776155
 30
0.0
 40
0.3000000000002672
100
AcDbArc
 50
0.0
 51
102.528808
  0
LINE
  5
494
330
1F
100
AcDbEntity
  8
LC-001-100-D00-0
 62
     7
370
    50
100
AcDbLine
 10
-77.802682
 20
505.150139
 30
0.0
 11
-83.422481
 21
505.15014
 31
0.0
  0
LINE
  5
495
330
1F
100
AcDbEntity
  8
LC-001-100-D00-0
 62
     7
370
    50
100
AcDbLine
 10
-77.802682
 20
501.150141
 30
0.0
 11
-83.80268
 21
501.15014
 31
0.0
  0
LINE
  5
496
330
1F
100
AcDbEntity
  8
LC-001-100-D00-0
 62
     7
370
    50
100
AcDbLine
 10
-83.80268
 20
501.15014
 30
0.0
 11
-86.00268
 21
501.15014
 31
0.0
  0
LINE
  5
497
330
1F
100
AcDbEntity
  8
LC-001-100-D00-0
 62
     7
370
    50
100
AcDbLine
 10
-201.80268
 20
501.15014
 30
0.0
 11
-201.80268
 21
501.776155
 31
0.0
  0
LINE
  5
498
330
1F
100
AcDbEntity
  8
LC-001-100-D00-0
 62
     7
370
    50
100
AcDbLine
 10
-199.60268
 20
501.15014
 30
0.0
 11
-201.80268
 21
501.15014
 31
0.0
  0
ARC
  5
499
330
1F
100
AcDbEntity
  8
LC-001-100-D00-0
 62
     7
370
    50
100
AcDbCircle
 10
-201.50268
 20
501.776155
 30
0.0
 40
0.3000000000002698
100
AcDbArc
 50
77.471192
 51
180.0
  0
ARC
  5
49A
330
1F
100
AcDbEntity
  8
LC-001-100-D00-0
 62
     7
370
    50
100
AcDbCircle
 10
-202.182879
 20
504.15014
 30
0.0
 40
0.9999999999997112
100
AcDbArc
 50
48.366461
 51
90.0
  0
LINE
  5
49B
330
1F
100
AcDbEntity
  8
LC-001-100-D00-0
 62
     7
370
    25
100
AcDbLine
 10
-198.166428
 20
501.917916
 30
0.0
 11
-201.518516
 21
504.897549
 31
0.0
  0
LINE
  5
49C
330
1F
100
AcDbEntity
  8
LC-001-100-D00-0
 62
     7
370
    50
100
AcDbLine
 10
-201.437601
 20
502.069011
 30
0.0
 11
-198.430816
 21
501.400837
 31
0.0
  0
ARC
  5
49D
330
1F
100
AcDbEntity
  8
LC-001-100-D00-0
 62
     7
370
    50
100
AcDbCircle
 10
-198.365737
 20
501.693693
 30
0.0
 40
0.3000000000003807
100
AcDbArc
 50
257.471192
 51
48.366461
  0
LINE
  5
49E
330
1F
100
AcDbEntity
  8
LC-001-100-D00-0
 62
     7
370
    50
100
AcDbLine
 10
-207.802678
 20
501.150141
 30
0.0
 11
-207.802678
 21
505.150139
 31
0.0
  0
LINE
  5
49F
330
1F
100
AcDbEntity
  8
LC-001-100-D00-0
 62
     7
370
    50
100
AcDbLine
 10
-202.182879
 20
505.15014
 30
0.0
 11
-207.802678
 21
505.150139
 31
0.0
  0
LINE
  5
4A0
330
1F
100
AcDbEntity
  8
LC-001-100-D00-0
 62
     7
370
    50
100
AcDbLine
 10
-201.80268
 20
501.15014
 30
0.0
 11
-207.802678
 21
501.150141
 31
0.0
  0
LINE
  5
4A1
330
1F
100
AcDbEntity
  8
LC-001-100-D00-0
 62
     7
370
    50
100
AcDbLine
 10
-68.802679
 20
505.150139
 30
0.0
 11
-68.802679
 21
501.400139
 31
0.0
  0
LINE
  5
4A2
330
1F
100
AcDbEntity
  8
LC-001-100-D00-0
 62
     7
370
    50
100
AcDbLine
 10
-71.802678
 20
502.150141
 30
0.0
 11
-71.80268
 21
501.40014
 31
0.0
  0
LINE
  5
4A3
330
1F
100
AcDbEntity
  8
LC-001-100-D00-0
 62
     7
370
    50
100
AcDbLine
 10
-74.802676
 20
502.150141
 30
0.0
 11
-74.802676
 21
498.150138
 31
0.0
  0
LINE
  5
4A4
330
1F
100
AcDbEntity
  8
LC-001-100-D00-0
 62
     7
370
    50
100
AcDbLine
 10
-80.80268
 20
498.15014
 30
0.0
 11
-74.802676
 21
498.150138
 31
0.0
  0
LINE
  5
4A5
330
1F
100
AcDbEntity
  8
LC-001-100-D00-0
 62
     7
370
    50
100
AcDbLine
 10
-80.802681
 20
501.150141
 30
0.0
 11
-80.80268
 21
498.15014
 31
0.0
  0
LINE
  5
4A6
330
1F
100
AcDbEntity
  8
LC-001-100-D00-0
 62
     7
370
    50
100
AcDbLine
 10
-77.802682
 20
501.150141
 30
0.0
 11
-80.802681
 21
501.150141
 31
0.0
  0
LINE
  5
4A7
330
1F
100
AcDbEntity
  8
LC-001-100-D00-0
 62
     7
370
    50
100
AcDbLine
 10
-77.802682
 20
501.150141
 30
0.0
 11
-77.802682
 21
505.150139
 31
0.0
  0
LINE
  5
4A8
330
1F
100
AcDbEntity
  8
LC-001-100-D00-0
 62
     7
370
    50
100
AcDbLine
 10
-74.802676
 20
502.150141
 30
0.0
 11
-71.802678
 21
502.150141
 31
0.0
  0
LINE
  5
4A9
330
1F
100
AcDbEntity
  8
LC-001-100-D00-0
 62
     7
370
    50
100
AcDbLine
 10
-71.80268
 20
501.40014
 30
0.0
 11
-68.802679
 21
501.400139
 31
0.0
  0
LINE
  5
4AA
330
1F
100
AcDbEntity
  8
LC-001-100-D00-0
 62
     7
370
    50
100
AcDbLine
 10
-68.802679
 20
505.150139
 30
0.0
 11
-77.802682
 21
505.150139
 31
0.0
  0
LINE
  5
4AB
330
1F
100
AcDbEntity
  8
LC-001-100-D00-0
 62
     7
370
    50
100
AcDbLine
 10
-74.80268
 20
501.40014
 30
0.0
 11
-71.80268
 21
501.40014
 31
0.0
  0
LINE
  5
4AC
330
1F
100
AcDbEntity
  8
LC-001-100-D00-0
 62
     7
370
    50
100
AcDbLine
 10
-87.70268
 20
498.15014
 30
0.0
 11
-80.80268
 21
498.15014
 31
0.0
  0
LINE
  5
4AD
330
1F
100
AcDbEntity
  8
LC-001-100-D00-0
 62
     7
370
    50
100
AcDbLine
 10
-204.80268
 20
498.15014
 30
0.0
 11
-204.802679
 21
501.150141
 31
0.0
  0
LINE
  5
4AE
330
1F
100
AcDbEntity
  8
LC-001-100-D00-0
 62
     7
370
    50
100
AcDbLine
 10
-204.80268
 20
498.15014
 30
0.0
 11
-197.90268
 21
498.15014
 31
0.0
  0
LINE
  5
4AF
330
1F
100
AcDbEntity
  8
LC-001-100-D00-0
 62
     7
370
    50
100
AcDbLine
 10
-207.802678
 20
505.150139
 30
0.0
 11
-207.802678
 21
501.150141
 31
0.0
  0
LINE
  5
4B0
330
1F
100
AcDbEntity
  8
LC-001-100-D00-0
 62
     7
370
    50
100
AcDbLine
 10
-210.802684
 20
498.150138
 30
0.0
 11
-210.802684
 21
502.150141
 31
0.0
  0
LINE
  5
4B1
330
1F
100
AcDbEntity
  8
LC-001-100-D00-0
 62
     7
370
    50
100
AcDbLine
 10
-213.80268
 20
501.40014
 30
0.0
 11
-213.802682
 21
502.150141
 31
0.0
  0
LINE
  5
4B2
330
1F
100
AcDbEntity
  8
LC-001-100-D00-0
 62
     7
370
    50
100
AcDbLine
 10
-213.80268
 20
501.40014
 30
0.0
 11
-210.80268
 21
501.40014
 31
0.0
  0
LINE
  5
4B3
330
1F
100
AcDbEntity
  8
LC-001-100-D00-0
 62
     7
370
    50
100
AcDbLine
 10
-216.802681
 20
501.400139
 30
0.0
 11
-216.802681
 21
505.150139
 31
0.0
  0
LINE
  5
4B4
330
1F
100
AcDbEntity
  8
LC-001-100-D00-0
 62
     7
370
    50
100
AcDbLine
 10
-204.802679
 20
501.150141
 30
0.0
 11
-207.802678
 21
501.150141
 31
0.0
  0
LINE
  5
4B5
330
1F
100
AcDbEntity
  8
LC-001-100-D00-0
 62
     7
370
    50
100
AcDbLine
 10
-210.802684
 20
498.150138
 30
0.0
 11
-204.80268
 21
498.15014
 31
0.0
  0
LINE
  5
4B6
330
1F
100
AcDbEntity
  8
LC-001-100-D00-0
 62
     7
370
    50
100
AcDbLine
 10
-213.802682
 20
502.150141
 30
0.0
 11
-210.802684
 21
502.150141
 31
0.0
  0
LINE
  5
4B7
330
1F
100
AcDbEntity
  8
LC-001-100-D00-0
 62
     7
370
    50
100
AcDbLine
 10
-216.802681
 20
501.400139
 30
0.0
 11
-213.80268
 21
501.40014
 31
0.0
  0
LINE
  5
4B8
330
1F
100
AcDbEntity
  8
LC-001-100-D00-0
 62
     7
370
    50
100
AcDbLine
 10
-207.802678
 20
505.150139
 30
0.0
 11
-216.802681
 21
505.150139
 31
0.0
  0
LINE
  5
4B9
330
1F
100
AcDbEntity
  8
LC-001-100-D00-0
 62
     7
370
    50
100
AcDbLine
 10
-68.802679
 20
500.65014
 30
0.0
 11
-57.802679
 21
500.65014
 31
0.0
  0
LINE
  5
4BA
330
1F
100
AcDbEntity
  8
LC-001-100-D00-0
 62
     7
370
    50
100
AcDbLine
 10
-57.802679
 20
448.650142
 30
0.0
 11
-68.802679
 21
448.650142
 31
0.0
  0
LINE
  5
4BB
330
1F
100
AcDbEntity
  8
LC-001-100-D00-0
 62
     7
370
    50
100
AcDbLine
 10
-68.802679
 20
501.400139
 30
0.0
 11
-68.802679
 21
500.65014
 31
0.0
  0
INSERT
  5
4CC
330
1F
100
AcDbEntity
  8
LC-001-100-D00-0
 62
     7
370
    50
100
AcDbBlockReference
  2
KLON15
 10
0.0
 20
0.0
 30
0.0
  0
INSERT
  5
4E0
330
1F
100
AcDbEntity
  8
LC-001-100-D00-0
 62
     7
370
    50
100
AcDbBlockReference
  2
KLON16
 10
0.0
 20
0.0
 30
0.0
  0
LINE
  5
4E1
330
1F
100
AcDbEntity
  8
LC-001-100-D00-0
 62
     7
370
    50
100
AcDbLine
 10
-71.802678
 20
497.650141
 30
0.0
 11
-29.905494
 21
497.65014
 31
0.0
  0
LINE
  5
4E2
330
1F
100
AcDbEntity
  8
LC-001-100-D00-0
 62
     7
370
    50
100
AcDbLine
 10
-29.905494
 20
451.65014
 30
0.0
 11
-29.905494
 21
497.65014
 31
0.0
  0
LINE
  5
4E3
330
1F
100
AcDbEntity
  8
LC-001-100-D00-0
 62
     7
370
    50
100
AcDbLine
 10
-29.905494
 20
451.65014
 30
0.0
 11
-68.802679
 21
451.650141
 31
0.0
  0
INSERT
  5
4E9
330
1F
100
AcDbEntity
  8
LC-001-100-D00-0
 62
     7
370
    50
100
AcDbBlockReference
  2
KLON17
 10
0.0
 20
0.0
 30
0.0
  0
LINE
  5
4EA
330
1F
100
AcDbEntity
  8
LC-001-100-D00-0
 62
     7
370
    50
100
AcDbLine
 10
-71.80268
 20
501.40014
 30
0.0
 11
-74.80268
 21
501.40014
 31
0.0
  0
LINE
  5
4EB
330
1F
100
AcDbEntity
  8
LC-001-100-D00-0
 62
     7
370
    50
100
AcDbLine
 10
-71.80268
 20
501.40014
 30
0.0
 11
-71.802678
 21
497.650141
 31
0.0
  0
LINE
  5
4EC
330
1F
100
AcDbEntity
  8
LC-001-100-D00-0
 62
     7
370
    50
100
AcDbLine
 10
-81.80268
 20
448.65014
 30
0.0
 11
-68.802679
 21
448.650142
 31
0.0
  0
ARC
  5
4ED
330
1F
100
AcDbEntity
  8
LC-001-100-D00-0
 62
     7
370
    50
100
AcDbCircle
 10
-88.7848
 20
449.15014
 30
0.0
 40
7.000000000000227
100
AcDbArc
 50
270.0
 51
355.903956
  0
LINE
  5
4EE
330
1F
100
AcDbEntity
  8
LC-001-100-D00-0
 62
     7
370
    50
100
AcDbLine
 10
-88.7848
 20
442.15014
 30
0.0
 11
-196.82056
 21
442.15014
 31
0.0
  0
ARC
  5
4EF
330
1F
100
AcDbEntity
  8
LC-001-100-D00-0
 62
     7
370
    50
100
AcDbCircle
 10
-196.82056
 20
449.15014
 30
0.0
 40
7.000000000000073
100
AcDbArc
 50
184.096044
 51
270.0
  0
LINE
  5
4F0
330
1F
100
AcDbEntity
  8
LC-001-100-D00-0
 62
     7
370
    50
100
AcDbLine
 10
-204.30268
 20
448.65014
 30
0.0
 11
-203.80268
 21
448.65014
 31
0.0
  0
ARC
  5
4F1
330
1F
100
AcDbEntity
  8
LC-001-100-D00-0
 62
     7
370
    50
100
AcDbCircle
 10
-204.30268
 20
461.15014
 30
0.0
 40
12.50000000000006
100
AcDbArc
 50
180.0
 51
270.0
  0
LINE
  5
4F2
330
1F
100
AcDbEntity
  8
LC-001-100-D00-0
 62
     7
370
    50
100
AcDbLine
 10
-216.80268
 20
461.15014
 30
0.0
 11
-216.802681
 21
501.400139
 31
0.0
  0
LINE
  5
4F3
330
1F
100
AcDbEntity
  8
LC-001-100-D00-0
 62
     7
370
    50
100
AcDbLine
 10
-216.802681
 20
501.400139
 30
0.0
 11
-213.80268
 21
501.40014
 31
0.0
  0
LINE
  5
4F4
330
1F
100
AcDbEntity
  8
LC-001-100-D00-0
 62
     7
370
    50
100
AcDbLine
 10
-213.80268
 20
461.15014
 30
0.0
 11
-213.80268
 21
501.40014
 31
0.0
  0
ARC
  5
4F5
330
1F
100
AcDbEntity
  8
LC-001-100-D00-0
 62
     7
370
    50
100
AcDbCircle
 10
-204.30268
 20
461.15014
 30
0.0
 40
9.500000000000057
100
AcDbArc
 50
180.0
 51
270.0
  0
LINE
  5
4F6
330
1F
100
AcDbEntity
  8
LC-001-100-D00-0
 62
     7
370
    50
100
AcDbLine
 10
-204.30268
 20
451.65014
 30
0.0
 11
-201.80268
 21
451.65014
 31
0.0
  0
ARC
  5
4F7
330
1F
100
AcDbEntity
  8
LC-001-100-D00-0
 62
     7
370
    50
100
AcDbCircle
 10
-201.80268
 20
450.65014
 30
0.0
 40
1.000000000000171
100
AcDbArc
 50
0.0
 51
90.0
  0
LINE
  5
4F8
330
1F
100
AcDbEntity
  8
LC-001-100-D00-0
 62
     7
370
    50
100
AcDbLine
 10
-200.80268
 20
450.65014
 30
0.0
 11
-200.80268
 21
449.15014
 31
0.0
  0
ARC
  5
4F9
330
1F
100
AcDbEntity
  8
LC-001-100-D00-0
 62
     7
370
    50
100
AcDbCircle
 10
-196.80268
 20
449.15014
 30
0.0
 40
4.000000000000171
100
AcDbArc
 50
180.0
 51
270.0
  0
LINE
  5
4FA
330
1F
100
AcDbEntity
  8
LC-001-100-D00-0
 62
     7
370
    50
100
AcDbLine
 10
-88.80268
 20
445.15014
 30
0.0
 11
-196.80268
 21
445.15014
 31
0.0
  0
ARC
  5
4FB
330
1F
100
AcDbEntity
  8
LC-001-100-D00-0
 62
     7
370
    50
100
AcDbCircle
 10
-88.80268
 20
449.15014
 30
0.0
 40
4.000000000000227
100
AcDbArc
 50
270.0
 51
0.0
  0
LINE
  5
4FC
330
1F
100
AcDbEntity
  8
LC-001-100-D00-0
 62
     7
370
    50
100
AcDbLine
 10
-84.80268
 20
449.15014
 30
0.0
 11
-84.80268
 21
450.65014
 31
0.0
  0
ARC
  5
4FD
330
1F
100
AcDbEntity
  8
LC-001-100-D00-0
 62
     7
370
    50
100
AcDbCircle
 10
-83.80268
 20
450.65014
 30
0.0
 40
0.9999999999998863
100
AcDbArc
 50
90.0
 51
180.0
  0
LINE
  5
4FE
330
1F
100
AcDbEntity
  8
LC-001-100-D00-0
 62
     7
370
    50
100
AcDbLine
 10
-83.80268
 20
451.65014
 30
0.0
 11
-68.802679
 21
451.650141
 31
0.0
  0
LINE
  5
4FF
330
1F
100
AcDbEntity
  8
LC-001-100-D00-0
 62
     7
370
    50
100
AcDbLine
 10
-24.305494
 20
450.149625
 30
0.0
 11
-29.905494
 21
451.65014
 31
0.0
  0
LINE
  5
500
330
1F
100
AcDbEntity
  8
LC-001-100-D00-0
 62
     7
370
    50
100
AcDbLine
 10
-24.305494
 20
449.715885
 30
0.0
 11
-24.305494
 21
450.149625
 31
0.0
  0
ARC
  5
501
330
1F
100
AcDbEntity
  8
LC-001-100-D00-0
 62
     7
370
    50
100
AcDbCircle
 10
-24.805452
 20
449.715885
 30
0.0
 40
0.499957879680252
100
AcDbArc
 50
301.198872
 51
0.0
  0
ARC
  5
502
330
1F
100
AcDbEntity
  8
LC-001-100-D00-0
 62
     7
370
    50
100
AcDbCircle
 10
-39.904177
 20
474.64795
 30
0.0
 40
29.64750216706069
100
AcDbArc
 50
292.382556
 51
301.198872
  0
ARC
  5
503
330
1F
100
AcDbEntity
  8
LC-001-100-D00-0
 62
     7
370
    50
100
AcDbCircle
 10
-28.805116
 20
447.696323
 30
0.0
 40
0.4999578796801814
100
AcDbArc
 50
180.0
 51
292.382556
  0
LINE
  5
504
330
1F
100
AcDbEntity
  8
LC-001-100-D00-0
 62
     7
370
    50
100
AcDbLine
 10
-29.305074
 20
449.000182
 30
0.0
 11
-29.305074
 21
447.696323
 31
0.0
  0
ARC
  5
505
330
1F
100
AcDbEntity
  8
LC-001-100-D00-0
 62
     7
370
    50
100
AcDbCircle
 10
-29.805032
 20
449.000182
 30
0.0
 40
0.499957879679755
100
AcDbArc
 50
0.0
 51
90.0
  0
LINE
  5
506
330
1F
100
AcDbEntity
  8
LC-001-100-D00-0
 62
     7
370
    50
100
AcDbLine
 10
-33.304737
 20
449.50014
 30
0.0
 11
-29.805032
 21
449.50014
 31
0.0
  0
ARC
  5
507
330
1F
100
AcDbEntity
  8
LC-001-100-D00-0
 62
     7
370
    50
100
AcDbCircle
 10
-33.304737
 20
449.000182
 30
0.0
 40
0.4999578796798687
100
AcDbArc
 50
90.0
 51
180.0
  0
LINE
  5
508
330
1F
100
AcDbEntity
  8
LC-001-100-D00-0
 62
     7
370
    50
100
AcDbLine
 10
-33.804695
 20
446.043321
 30
0.0
 11
-33.804695
 21
449.000182
 31
0.0
  0
ARC
  5
509
330
1F
100
AcDbEntity
  8
LC-001-100-D00-0
 62
     7
370
    50
100
AcDbCircle
 10
-34.304652
 20
446.043321
 30
0.0
 40
0.4999578796801373
100
AcDbArc
 50
281.075925
 51
0.0
  0
ARC
  5
50A
330
1F
100
AcDbEntity
  8
LC-001-100-D00-0
 62
     7
370
    50
100
AcDbCircle
 10
-39.904177
 20
474.64795
 30
0.0
 40
29.64750432250003
100
AcDbArc
 50
241.270296
 51
281.075925
  0
LINE
  5
50B
330
1F
100
AcDbEntity
  8
LC-001-100-D00-0
 62
     7
370
    50
100
AcDbLine
 10
-55.302883
 20
448.650142
 30
0.0
 11
-54.155085
 21
448.65014
 31
0.0
  0
LINE
  5
50C
330
1F
100
AcDbEntity
  8
LC-001-100-D00-0
 62
     7
370
    50
100
AcDbLine
 10
-55.302883
 20
447.150139
 30
0.0
 11
-55.302883
 21
448.650142
 31
0.0
  0
LINE
  5
50D
330
1F
100
AcDbEntity
  8
LC-001-100-D00-0
 62
     7
370
    50
100
AcDbLine
 10
-57.802679
 20
447.150139
 30
0.0
 11
-55.302883
 21
447.150139
 31
0.0
  0
LINE
  5
50E
330
1F
100
AcDbEntity
  8
LC-001-100-D00-0
 62
     7
370
    50
100
AcDbLine
 10
-57.802679
 20
448.650142
 30
0.0
 11
-57.802679
 21
447.150139
 31
0.0
  0
ARC
  5
50F
330
1F
100
AcDbEntity
  8
LC-001-100-D00-0
 62
     7
370
    50
100
AcDbCircle
 10
-39.904177
 20
474.65233
 30
0.0
 40
29.64750216706071
100
AcDbArc
 50
58.801128
 51
67.617444
  0
ARC
  5
510
330
1F
100
AcDbEntity
  8
LC-001-100-D00-0
 62
     7
370
    50
100
AcDbCircle
 10
-24.805452
 20
499.584395
 30
0.0
 40
0.4999578796802098
100
AcDbArc
 50
0.0
 51
58.801128
  0
ARC
  5
511
330
1F
100
AcDbEntity
  8
LC-001-100-D00-0
 62
     7
370
    50
100
AcDbCircle
 10
-29.805032
 20
500.300098
 30
0.0
 40
0.4999578796799824
100
AcDbArc
 50
270.0
 51
0.0
  0
LINE
  5
512
330
1F
100
AcDbEntity
  8
LC-001-100-D00-0
 62
     7
370
    50
100
AcDbLine
 10
-29.305074
 20
501.603957
 30
0.0
 11
-29.305074
 21
500.300098
 31
0.0
  0
ARC
  5
513
330
1F
100
AcDbEntity
  8
LC-001-100-D00-0
 62
     7
370
    50
100
AcDbCircle
 10
-28.805116
 20
501.603957
 30
0.0
 40
0.4999578796799869
100
AcDbArc
 50
67.617444
 51
180.0
  0
LINE
  5
514
330
1F
100
AcDbEntity
  8
LC-001-100-D00-0
 62
     7
370
    50
100
AcDbLine
 10
-24.305494
 20
499.150655
 30
0.0
 11
-24.305494
 21
499.584395
 31
0.0
  0
LINE
  5
515
330
1F
100
AcDbEntity
  8
LC-001-100-D00-0
 62
     7
370
    50
100
AcDbLine
 10
-29.905494
 20
497.65014
 30
0.0
 11
-24.305494
 21
499.150655
 31
0.0
  0
LINE
  5
516
330
1F
100
AcDbEntity
  8
LC-001-100-D00-0
 62
     7
370
    50
100
AcDbLine
 10
-71.80268
 20
501.40014
 30
0.0
 11
-68.802679
 21
501.400139
 31
0.0
  0
LINE
  5
517
330
1F
100
AcDbEntity
  8
LC-001-100-D00-0
 62
     7
370
    50
100
AcDbLine
 10
-57.802679
 20
502.150141
 30
0.0
 11
-57.802679
 21
500.65014
 31
0.0
  0
LINE
  5
518
330
1F
100
AcDbEntity
  8
LC-001-100-D00-0
 62
     7
370
    50
100
AcDbLine
 10
-55.302883
 20
502.15014
 30
0.0
 11
-57.802679
 21
502.150141
 31
0.0
  0
ARC
  5
519
330
1F
100
AcDbEntity
  8
LC-001-100-D00-0
 62
     7
370
    50
100
AcDbCircle
 10
-39.940592
 20
474.65014
 30
0.0
 40
31.50000000000006
100
AcDbArc
 50
105.394857
 51
119.188982
  0
LINE
  5
51A
330
1F
100
AcDbEntity
  8
LC-001-100-D00-0
 62
     7
370
    50
100
AcDbLine
 10
-48.302883
 20
505.019896
 30
0.0
 11
-48.302883
 21
503.085343
 31
0.0
  0
ARC
  5
51B
330
1F
100
AcDbEntity
  8
LC-001-100-D00-0
 62
     7
370
    50
100
AcDbCircle
 10
-39.904177
 20
474.65233
 30
0.0
 40
29.64750432249997
100
AcDbArc
 50
78.924075
 51
106.456389
  0
ARC
  5
51C
330
1F
100
AcDbEntity
  8
LC-001-100-D00-0
 62
     7
370
    50
100
AcDbCircle
 10
-34.304652
 20
503.256959
 30
0.0
 40
0.4999578796801814
100
AcDbArc
 50
0.0
 51
78.924075
  0
LINE
  5
51D
330
1F
100
AcDbEntity
  8
LC-001-100-D00-0
 62
     7
370
    50
100
AcDbLine
 10
-33.804695
 20
500.300098
 30
0.0
 11
-33.804695
 21
503.256959
 31
0.0
  0
ARC
  5
51E
330
1F
100
AcDbEntity
  8
LC-001-100-D00-0
 62
     7
370
    50
100
AcDbCircle
 10
-33.304737
 20
500.300098
 30
0.0
 40
0.4999578796798971
100
AcDbArc
 50
180.0
 51
270.0
  0
LINE
  5
51F
330
1F
100
AcDbEntity
  8
LC-001-100-D00-0
 62
     7
370
    50
100
AcDbLine
 10
-29.805032
 20
499.80014
 30
0.0
 11
-33.304737
 21
499.80014
 31
0.0
  0
LINE
  5
520
330
1F
100
AcDbEntity
  8
LC-001-100-D00-0
 62
     7
370
    50
100
AcDbLine
 10
-24.305494
 20
499.150655
 30
0.0
 11
-24.305494
 21
450.149625
 31
0.0
  0
LINE
  5
521
330
1F
100
AcDbEntity
  8
LC-001-100-D00-0
 62
     7
370
    50
100
AcDbLine
 10
-98.36906
 20
451.65014
 30
0.0
 11
-83.80268
 21
451.65014
 31
0.0
  0
LINE
  5
522
330
1F
100
AcDbEntity
  8
LC-001-100-D00-0
 62
     7
370
    50
100
AcDbLine
 10
-201.80268
 20
451.65014
 30
0.0
 11
-187.2363
 21
451.65014
 31
0.0
  0
LINE
  5
523
330
1F
100
AcDbEntity
  8
LC-001-100-D00-0
 62
     7
370
    50
100
AcDbLine
 10
-210.80268
 20
501.40014
 30
0.0
 11
-213.80268
 21
501.40014
 31
0.0
  0
LINE
  5
524
330
1F
100
AcDbEntity
  8
LC-001-100-D00-0
 62
     7
370
    50
100
AcDbLine
 10
-100.813555
 20
451.65014
 30
0.0
 11
-98.36906
 21
451.65014
 31
0.0
  0
LINE
  5
525
330
1F
100
AcDbEntity
  8
LC-001-100-D00-0
 62
     7
370
    50
100
AcDbLine
 10
-187.2363
 20
451.65014
 30
0.0
 11
-184.791805
 21
451.65014
 31
0.0
  0
LINE
  5
526
330
1F
100
AcDbEntity
  8
LC-001-100-D00-0
 62
     7
370
    50
100
AcDbLine
 10
-184.791805
 20
451.65014
 30
0.0
 11
-183.802681
 21
451.650141
 31
0.0
  0
LINE
  5
527
330
1F
100
AcDbEntity
  8
LC-001-100-D00-0
 62
     7
370
    50
100
AcDbLine
 10
-101.802679
 20
451.650141
 30
0.0
 11
-100.813555
 21
451.65014
 31
0.0
  0
CIRCLE
  5
528
330
1F
100
AcDbEntity
  8
LC-001-100-D00-0
 62
     7
370
    50
100
AcDbCircle
 10
-88.55268
 20
502.90014
 30
0.0
 40
1.750000000000057
  0
CIRCLE
  5
529
330
1F
100
AcDbEntity
  8
LC-001-100-D00-0
 62
     7
370
    50
100
AcDbCircle
 10
-197.05268
 20
502.90014
 30
0.0
 40
1.75
  0
LINE
  5
52A
330
1F
100
AcDbEntity
  8
LC-001-100-D00-0
 62
     7
370
    50
100
AcDbLine
 10
-88.302681
 20
504.65014
 30
0.0
 11
-88.302681
 21
506.150139
 31
0.0
  0
LINE
  5
52B
330
1F
100
AcDbEntity
  8
LC-001-100-D00-0
 62
     7
370
    50
100
AcDbLine
 10
-90.302682
 20
504.65014
 30
0.0
 11
-88.302681
 21
504.65014
 31
0.0
  0
LINE
  5
52C
330
1F
100
AcDbEntity
  8
LC-001-100-D00-0
 62
     7
370
    50
100
AcDbLine
 10
-90.302682
 20
504.65014
 30
0.0
 11
-90.302682
 21
501.150141
 31
0.0
  0
LINE
  5
52D
330
1F
100
AcDbEntity
  8
LC-001-100-D00-0
 62
     7
370
    50
100
AcDbLine
 10
-90.302682
 20
501.150141
 30
0.0
 11
-88.302681
 21
501.150141
 31
0.0
  0
LINE
  5
52E
330
1F
100
AcDbEntity
  8
LC-001-100-D00-0
 62
     7
370
    50
100
AcDbLine
 10
-88.302681
 20
501.150141
 30
0.0
 11
-88.302681
 21
500.150138
 31
0.0
  0
LINE
  5
52F
330
1F
100
AcDbEntity
  8
LC-001-100-D00-0
 62
     7
370
    50
100
AcDbLine
 10
-103.80268
 20
500.15014
 30
0.0
 11
-88.302681
 21
500.150138
 31
0.0
  0
ARC
  5
530
330
1F
100
AcDbEntity
  8
LC-001-100-D00-0
 62
     7
370
    50
100
AcDbCircle
 10
-103.80268
 20
490.15014
 30
0.0
 40
10.00000000000023
100
AcDbArc
 50
90.0
 51
180.0
  0
LINE
  5
531
330
1F
100
AcDbEntity
  8
LC-001-100-D00-0
 62
     7
370
    50
100
AcDbLine
 10
-113.80268
 20
490.15014
 30
0.0
 11
-113.802681
 21
460.650137
 31
0.0
  0
LINE
  5
532
330
1F
100
AcDbEntity
  8
LC-001-100-D00-0
 62
     7
370
    50
100
AcDbLine
 10
-115.30268
 20
460.65014
 30
0.0
 11
-113.802681
 21
460.650137
 31
0.0
  0
LINE
  5
533
330
1F
100
AcDbEntity
  8
LC-001-100-D00-0
 62
     7
370
    50
100
AcDbLine
 10
-115.30268
 20
504.15014
 30
0.0
 11
-115.30268
 21
460.65014
 31
0.0
  0
ARC
  5
534
330
1F
100
AcDbEntity
  8
LC-001-100-D00-0
 62
     7
370
    50
100
AcDbCircle
 10
-113.30268
 20
504.15014
 30
0.0
 40
2.000000000000114
100
AcDbArc
 50
90.0
 51
180.0
  0
LINE
  5
535
330
1F
100
AcDbEntity
  8
LC-001-100-D00-0
 62
     7
370
    50
100
AcDbLine
 10
-113.30268
 20
506.15014
 30
0.0
 11
-88.302681
 21
506.150139
 31
0.0
  0
LINE
  5
536
330
1F
100
AcDbEntity
  8
LC-001-100-D00-0
 62
     7
370
    50
100
AcDbLine
 10
-131.30268
 20
506.15014
 30
0.0
 11
-113.30268
 21
506.15014
 31
0.0
  0
LINE
  5
537
330
1F
100
AcDbEntity
  8
LC-001-100-D00-0
 62
     7
370
    50
100
AcDbLine
 10
-131.30268
 20
460.65014
 30
0.0
 11
-115.30268
 21
460.65014
 31
0.0
  0
LINE
  5
538
330
1F
100
AcDbEntity
  8
LC-001-100-D00-0
 62
     7
370
    50
100
AcDbLine
 10
-171.802679
 20
460.650137
 30
0.0
 11
-171.80268
 21
490.15014
 31
0.0
  0
ARC
  5
539
330
1F
100
AcDbEntity
  8
LC-001-100-D00-0
 62
     7
370
    50
100
AcDbCircle
 10
-172.30268
 20
504.15014
 30
0.0
 40
1.999999999999773
100
AcDbArc
 50
0.0
 51
90.0
  0
LINE
  5
53A
330
1F
100
AcDbEntity
  8
LC-001-100-D00-0
 62
     7
370
    50
100
AcDbLine
 10
-172.30268
 20
506.15014
 30
0.0
 11
-154.30268
 21
506.15014
 31
0.0
  0
LINE
  5
53B
330
1F
100
AcDbEntity
  8
LC-001-100-D00-0
 62
     7
370
    50
100
AcDbLine
 10
-170.30268
 20
460.65014
 30
0.0
 11
-170.30268
 21
504.15014
 31
0.0
  0
LINE
  5
53C
330
1F
100
AcDbEntity
  8
LC-001-100-D00-0
 62
     7
370
    50
100
AcDbLine
 10
-170.30268
 20
460.65014
 30
0.0
 11
-154.30268
 21
460.65014
 31
0.0
  0
ARC
  5
53D
330
1F
100
AcDbEntity
  8
LC-001-100-D00-0
 62
     7
370
    50
100
AcDbCircle
 10
-181.80268
 20
490.15014
 30
0.0
 40
10.00000000000023
100
AcDbArc
 50
0.0
 51
90.0
  0
LINE
  5
53E
330
1F
100
AcDbEntity
  8
LC-001-100-D00-0
 62
     7
370
    50
100
AcDbLine
 10
-197.302679
 20
500.150138
 30
0.0
 11
-197.302679
 21
501.150141
 31
0.0
  0
LINE
  5
53F
330
1F
100
AcDbEntity
  8
LC-001-100-D00-0
 62
     7
370
    50
100
AcDbLine
 10
-195.302678
 20
501.150141
 30
0.0
 11
-195.302678
 21
504.65014
 31
0.0
  0
LINE
  5
540
330
1F
100
AcDbEntity
  8
LC-001-100-D00-0
 62
     7
370
    50
100
AcDbLine
 10
-197.302679
 20
506.150139
 30
0.0
 11
-197.302679
 21
504.65014
 31
0.0
  0
LINE
  5
541
330
1F
100
AcDbEntity
  8
LC-001-100-D00-0
 62
     7
370
    50
100
AcDbLine
 10
-171.802679
 20
460.650137
 30
0.0
 11
-170.30268
 21
460.65014
 31
0.0
  0
LINE
  5
542
330
1F
100
AcDbEntity
  8
LC-001-100-D00-0
 62
     7
370
    50
100
AcDbLine
 10
-197.302679
 20
501.150141
 30
0.0
 11
-195.302678
 21
501.150141
 31
0.0
  0
LINE
  5
543
330
1F
100
AcDbEntity
  8
LC-001-100-D00-0
 62
     7
370
    50
100
AcDbLine
 10
-197.302679
 20
504.65014
 30
0.0
 11
-195.302678
 21
504.65014
 31
0.0
  0
LINE
  5
544
330
1F
100
AcDbEntity
  8
LC-001-100-D00-0
 62
     7
370
    50
100
AcDbLine
 10
-197.302679
 20
506.150139
 30
0.0
 11
-172.30268
 21
506.15014
 31
0.0
  0
LINE
  5
545
330
1F
100
AcDbEntity
  8
LC-001-100-D00-0
 62
     7
370
    50
100
AcDbLine
 10
-197.302679
 20
500.150138
 30
0.0
 11
-181.80268
 21
500.15014
 31
0.0
  0
LINE
  5
546
330
1F
100
AcDbEntity
  8
LC-001-100-D00-0
 62
     7
370
    50
100
AcDbLine
 10
-154.30268
 20
460.65014
 30
0.0
 11
-131.30268
 21
460.65014
 31
0.0
  0
LINE
  5
547
330
1F
100
AcDbEntity
  8
LC-001-100-D00-0
 62
     7
370
    50
100
AcDbLine
 10
-154.30268
 20
506.15014
 30
0.0
 11
-131.30268
 21
506.15014
 31
0.0
  0
LINE
  5
548
330
1F
100
AcDbEntity
  8
LC-001-100-D00-0
 62
     7
370
    50
100
AcDbLine
 10
-87.70268
 20
500.15014
 30
0.0
 11
-87.70268
 21
498.15014
 31
0.0
  0
LINE
  5
549
330
1F
100
AcDbEntity
  8
LC-001-100-D00-0
 62
     7
370
    50
100
AcDbLine
 10
-101.802679
 20
490.650142
 30
0.0
 11
-91.866995
 21
497.955791
 31
0.0
  0
LINE
  5
54A
330
1F
100
AcDbEntity
  8
LC-001-100-D00-0
 62
     7
370
    50
100
AcDbLine
 10
-101.802679
 20
490.650142
 30
0.0
 11
-101.80268
 21
449.65014
 31
0.0
  0
ARC
  5
54B
330
1F
100
AcDbEntity
  8
LC-001-100-D00-0
 62
     7
370
    50
100
AcDbCircle
 10
-106.80268
 20
449.65014
 30
0.0
 40
5.000000000000114
100
AcDbArc
 50
270.0
 51
0.0
  0
LINE
  5
54C
330
1F
100
AcDbEntity
  8
LC-001-100-D00-0
 62
     7
370
    50
100
AcDbLine
 10
-106.80268
 20
444.65014
 30
0.0
 11
-178.80268
 21
444.65014
 31
0.0
  0
ARC
  5
54D
330
1F
100
AcDbEntity
  8
LC-001-100-D00-0
 62
     7
370
    50
100
AcDbCircle
 10
-178.80268
 20
449.65014
 30
0.0
 40
5.000000000000227
100
AcDbArc
 50
180.0
 51
270.0
  0
LINE
  5
54E
330
1F
100
AcDbEntity
  8
LC-001-100-D00-0
 62
     7
370
    50
100
AcDbLine
 10
-183.80268
 20
449.65014
 30
0.0
 11
-183.802681
 21
490.650142
 31
0.0
  0
LINE
  5
54F
330
1F
100
AcDbEntity
  8
LC-001-100-D00-0
 62
     7
370
    50
100
AcDbLine
 10
-183.802681
 20
490.650142
 30
0.0
 11
-193.738365
 21
497.955791
 31
0.0
  0
ARC
  5
550
330
1F
100
AcDbEntity
  8
LC-001-100-D00-0
 62
     7
370
    50
100
AcDbCircle
 10
-194.330756
 20
497.15014
 30
0.0
 40
1.000000000000139
100
AcDbArc
 50
53.673174
 51
90.0
  0
LINE
  5
551
330
1F
100
AcDbEntity
  8
LC-001-100-D00-0
 62
     7
370
    50
100
AcDbLine
 10
-197.90268
 20
498.15014
 30
0.0
 11
-194.330756
 21
498.15014
 31
0.0
  0
LINE
  5
552
330
1F
100
AcDbEntity
  8
LC-001-100-D00-0
 62
     7
370
    50
100
AcDbLine
 10
-197.90268
 20
498.15014
 30
0.0
 11
-197.90268
 21
500.15014
 31
0.0
  0
LINE
  5
553
330
1F
100
AcDbEntity
  8
LC-001-100-D00-0
 62
     7
370
    50
100
AcDbLine
 10
-197.90268
 20
500.15014
 30
0.0
 11
-194.330756
 21
500.15014
 31
0.0
  0
ARC
  5
554
330
1F
100
AcDbEntity
  8
LC-001-100-D00-0
 62
     7
370
    50
100
AcDbCircle
 10
-194.330756
 20
497.15014
 30
0.0
 40
3.000000000000134
100
AcDbArc
 50
53.673174
 51
90.0
  0
LINE
  5
555
330
1F
100
AcDbEntity
  8
LC-001-100-D00-0
 62
     7
370
    50
100
AcDbLine
 10
-192.553585
 20
499.567093
 30
0.0
 11
-182.71029
 21
492.329376
 31
0.0
  0
ARC
  5
556
330
1F
100
AcDbEntity
  8
LC-001-100-D00-0
 62
     7
370
    50
100
AcDbCircle
 10
-183.30268
 20
491.523725
 30
0.0
 40
0.9999999999997726
100
AcDbArc
 50
0.0
 51
53.673174
  0
LINE
  5
557
330
1F
100
AcDbEntity
  8
LC-001-100-D00-0
 62
     7
370
    50
100
AcDbLine
 10
-182.30268
 20
449.65014
 30
0.0
 11
-182.30268
 21
491.523725
 31
0.0
  0
ARC
  5
558
330
1F
100
AcDbEntity
  8
LC-001-100-D00-0
 62
     7
370
    50
100
AcDbCircle
 10
-178.80268
 20
449.65014
 30
0.0
 40
3.500000000000227
100
AcDbArc
 50
180.0
 51
270.0
  0
LINE
  5
559
330
1F
100
AcDbEntity
  8
LC-001-100-D00-0
 62
     7
370
    50
100
AcDbLine
 10
-106.80268
 20
446.15014
 30
0.0
 11
-178.80268
 21
446.15014
 31
0.0
  0
ARC
  5
55A
330
1F
100
AcDbEntity
  8
LC-001-100-D00-0
 62
     7
370
    50
100
AcDbCircle
 10
-106.80268
 20
449.65014
 30
0.0
 40
3.500000000000114
100
AcDbArc
 50
270.0
 51
0.0
  0
LINE
  5
55B
330
1F
100
AcDbEntity
  8
LC-001-100-D00-0
 62
     7
370
    50
100
AcDbLine
 10
-103.30268
 20
491.523725
 30
0.0
 11
-103.30268
 21
449.65014
 31
0.0
  0
ARC
  5
55C
330
1F
100
AcDbEntity
  8
LC-001-100-D00-0
 62
     7
370
    50
100
AcDbCircle
 10
-102.30268
 20
491.523725
 30
0.0
 40
0.9999999999998719
100
AcDbArc
 50
126.326826
 51
180.0
  0
LINE
  5
55D
330
1F
100
AcDbEntity
  8
LC-001-100-D00-0
 62
     7
370
    50
100
AcDbLine
 10
-93.051776
 20
499.567093
 30
0.0
 11
-102.895071
 21
492.329376
 31
0.0
  0
ARC
  5
55E
330
1F
100
AcDbEntity
  8
LC-001-100-D00-0
 62
     7
370
    50
100
AcDbCircle
 10
-91.274604
 20
497.15014
 30
0.0
 40
3.000000000000227
100
AcDbArc
 50
90.0
 51
126.326826
  0
ARC
  5
55F
330
1F
100
AcDbEntity
  8
LC-001-100-D00-0
 62
     7
370
    50
100
AcDbCircle
 10
-91.274604
 20
497.15014
 30
0.0
 40
1.000000000000455
100
AcDbArc
 50
90.0
 51
126.326826
  0
LINE
  5
560
330
1F
100
AcDbEntity
  8
LC-001-100-D00-0
 62
     7
370
    50
100
AcDbLine
 10
-91.274604
 20
500.15014
 30
0.0
 11
-87.70268
 21
500.15014
 31
0.0
  0
LINE
  5
561
330
1F
100
AcDbEntity
  8
LC-001-100-D00-0
 62
     7
370
    50
100
AcDbLine
 10
-91.274604
 20
498.15014
 30
0.0
 11
-87.70268
 21
498.15014
 31
0.0
  0
ARC
  5
562
330
1F
100
AcDbEntity
  8
LC-001-100-D00-0
 62
     7
370
    50
100
AcDbCircle
 10
-102.309427
 20
491.518299
 30
0.0
 40
1.00037357344643
100
AcDbArc
 50
126.325165
 51
180.0
  0
LINE
  5
563
330
1F
100
AcDbEntity
  8
LC-001-100-D00-0
 62
     7
370
    50
100
AcDbLine
 10
-102.902016
 20
492.324268
 30
0.0
 11
-102.895071
 21
492.329376
 31
0.0
  0
LINE
  5
564
330
1F
100
AcDbEntity
  8
LC-001-100-D00-0
 62
     7
370
    50
100
AcDbLine
 10
-103.309801
 20
490.65014
 30
0.0
 11
-107.723285
 21
490.65014
 31
0.0
  0
LINE
  5
565
330
1F
100
AcDbEntity
  8
LC-001-100-D00-0
 62
     7
370
    50
100
AcDbLine
 10
-103.309801
 20
491.518358
 30
0.0
 11
-103.309801
 21
490.65014
 31
0.0
  0
LINE
  5
566
330
1F
100
AcDbEntity
  8
LC-001-100-D00-0
 62
     7
370
    50
100
AcDbLine
 10
-182.295559
 20
491.518358
 30
0.0
 11
-182.295559
 21
490.65014
 31
0.0
  0
LINE
  5
567
330
1F
100
AcDbEntity
  8
LC-001-100-D00-0
 62
     7
370
    50
100
AcDbLine
 10
-177.882075
 20
490.65014
 30
0.0
 11
-182.295559
 21
490.65014
 31
0.0
  0
ARC
  5
568
330
1F
100
AcDbEntity
  8
LC-001-100-D00-0
 62
     7
370
    50
100
AcDbCircle
 10
-183.295906
 20
491.518313
 30
0.0
 40
1.000347039121607
100
AcDbArc
 50
0.0
 51
53.675603
  0
LINE
  5
569
330
1F
100
AcDbEntity
  8
LC-001-100-D00-0
 62
     7
370
    50
100
AcDbLine
 10
-109.850245
 20
498.114245
 30
0.0
 11
-109.850245
 21
490.650142
 31
0.0
  0
LINE
  5
56A
330
1F
100
AcDbEntity
  8
LC-001-100-D00-0
 62
     7
370
    50
100
AcDbLine
 10
-109.850247
 20
498.15014
 30
0.0
 11
-103.088265
 21
498.15014
 31
0.0
  0
LINE
  5
56B
330
1F
100
AcDbEntity
  8
LC-001-100-D00-0
 62
     7
370
    50
100
AcDbLine
 10
-98.714814
 20
498.15014
 30
0.0
 11
-94.978832
 21
498.15014
 31
0.0
  0
LINE
  5
56C
330
1F
100
AcDbEntity
  8
LC-001-100-D00-0
 62
     7
370
    50
100
AcDbLine
 10
-175.755115
 20
498.114245
 30
0.0
 11
-175.755115
 21
490.650142
 31
0.0
  0
LINE
  5
56D
330
1F
100
AcDbEntity
  8
LC-001-100-D00-0
 62
     7
370
    50
100
AcDbLine
 10
-190.626528
 20
498.15014
 30
0.0
 11
-186.890546
 21
498.15014
 31
0.0
  0
LINE
  5
56E
330
1F
100
AcDbEntity
  8
LC-001-100-D00-0
 62
     7
370
    50
100
AcDbLine
 10
-182.517095
 20
498.15014
 30
0.0
 11
-175.755114
 21
498.15014
 31
0.0
  0
LINE
  5
56F
330
1F
100
AcDbEntity
  8
LC-001-100-D00-0
 62
     7
370
    50
100
AcDbLine
 10
-107.723285
 20
490.65014
 30
0.0
 11
-113.790172
 21
490.65014
 31
0.0
  0
LINE
  5
570
330
1F
100
AcDbEntity
  8
LC-001-100-D00-0
 62
     7
370
    50
100
AcDbLine
 10
-171.815188
 20
490.65014
 30
0.0
 11
-177.882075
 21
490.65014
 31
0.0
  0
ARC
  5
571
330
1F
100
AcDbEntity
  8
LC-001-100-D00-0
 62
     7
370
    50
100
AcDbCircle
 10
-39.802883
 20
474.65014
 30
0.0
 40
32.00000000000043
100
AcDbArc
 50
51.375167
 51
90.0
  0
LINE
  5
572
330
1F
100
AcDbEntity
  8
LC-001-100-D00-0
 62
     7
370
    50
100
AcDbLine
 10
-19.827899
 20
499.65014
 30
0.0
 11
63.197112
 21
499.650141
 31
0.0
  0
LINE
  5
573
330
1F
100
AcDbEntity
  8
LC-001-100-D00-0
 62
     7
370
    50
100
AcDbLine
 10
63.197112
 20
499.650141
 30
0.0
 11
66.697111
 21
498.712318
 31
0.0
  0
LINE
  5
574
330
1F
100
AcDbEntity
  8
LC-001-100-D00-0
 62
     7
370
    50
100
AcDbLine
 10
66.697111
 20
498.712318
 30
0.0
 11
66.697117
 21
497.40014
 31
0.0
  0
LINE
  5
575
330
1F
100
AcDbEntity
  8
LC-001-100-D00-0
 62
     7
370
    50
100
AcDbLine
 10
66.697117
 20
497.40014
 30
0.0
 11
-21.022907
 21
497.40014
 31
0.0
  0
ARC
  5
576
330
1F
100
AcDbEntity
  8
LC-001-100-D00-0
 62
     7
370
    50
100
AcDbCircle
 10
-39.802883
 20
474.65014
 30
0.0
 40
29.50000000000013
100
AcDbArc
 50
50.46055
 51
104.235124
  0
ARC
  5
577
330
1F
100
AcDbEntity
  8
LC-001-100-D00-0
 62
     7
370
    50
100
AcDbCircle
 10
-47.302883
 20
504.213631
 30
0.0
 40
0.9999999999999147
100
AcDbArc
 50
180.0
 51
284.235124
  0
LINE
  5
578
330
1F
100
AcDbEntity
  8
LC-001-100-D00-0
 62
     7
370
    50
100
AcDbLine
 10
-48.302883
 20
504.213631
 30
0.0
 11
-48.302883
 21
506.65014
 31
0.0
  0
LINE
  5
579
330
1F
100
AcDbEntity
  8
LC-001-100-D00-0
 62
     7
370
    50
100
AcDbLine
 10
-48.302883
 20
506.65014
 30
0.0
 11
-39.802883
 21
506.65014
 31
0.0
  0
LINE
  5
57A
330
1F
100
AcDbEntity
  8
LC-001-100-D00-0
 62
     7
370
    50
100
AcDbLine
 10
-48.302883
 20
442.650137
 30
0.0
 11
-48.302883
 21
445.086649
 31
0.0
  0
ARC
  5
57B
330
1F
100
AcDbEntity
  8
LC-001-100-D00-0
 62
     7
370
    50
100
AcDbCircle
 10
-47.302883
 20
445.086649
 30
0.0
 40
1.000000000000353
100
AcDbArc
 50
75.764876
 51
180.0
  0
ARC
  5
57C
330
1F
100
AcDbEntity
  8
LC-001-100-D00-0
 62
     7
370
    50
100
AcDbCircle
 10
-39.802883
 20
474.65014
 30
0.0
 40
29.5
100
AcDbArc
 50
255.764876
 51
309.53945
  0
LINE
  5
57D
330
1F
100
AcDbEntity
  8
LC-001-100-D00-0
 62
     7
370
    50
100
AcDbLine
 10
-21.022907
 20
451.90014
 30
0.0
 11
66.697117
 21
451.90014
 31
0.0
  0
LINE
  5
57E
330
1F
100
AcDbEntity
  8
LC-001-100-D00-0
 62
     7
370
    50
100
AcDbLine
 10
66.697117
 20
451.90014
 30
0.0
 11
66.697111
 21
450.587964
 31
0.0
  0
LINE
  5
57F
330
1F
100
AcDbEntity
  8
LC-001-100-D00-0
 62
     7
370
    50
100
AcDbLine
 10
66.697111
 20
450.587964
 30
0.0
 11
63.197112
 21
449.650137
 31
0.0
  0
LINE
  5
580
330
1F
100
AcDbEntity
  8
LC-001-100-D00-0
 62
     7
370
    50
100
AcDbLine
 10
63.197112
 20
449.650137
 30
0.0
 11
-19.827899
 21
449.65014
 31
0.0
  0
ARC
  5
581
330
1F
100
AcDbEntity
  8
LC-001-100-D00-0
 62
     7
370
    50
100
AcDbCircle
 10
-39.802883
 20
474.65014
 30
0.0
 40
32.00000000000011
100
AcDbArc
 50
270.0
 51
308.624833
  0
LINE
  5
582
330
1F
100
AcDbEntity
  8
LC-001-100-D00-0
 62
     7
370
    50
100
AcDbLine
 10
-39.802883
 20
442.65014
 30
0.0
 11
-48.302883
 21
442.650137
 31
0.0
  0
LINE
  5
583
330
1F
100
AcDbEntity
  8
LC-001-100-D00-0
 62
     7
370
    50
100
AcDbLine
 10
66.697117
 20
497.40014
 30
0.0
 11
66.697117
 21
451.90014
 31
0.0
  0
LINE
  5
584
330
1F
100
AcDbEntity
  8
LC-001-100-D00-0
 62
     7
370
    50
100
AcDbLine
 10
-21.022907
 20
497.40014
 30
0.0
 11
-21.022907
 21
451.90014
 31
0.0
  0
LINE
  5
585
330
1F
100
AcDbEntity
  8
LC-001-100-D00-0
 62
     7
370
    50
100
AcDbLine
 10
-48.302883
 20
446.214937
 30
0.0
 11
-48.302883
 21
445.086649
 31
0.0
  0
CIRCLE
  5
586
330
1F
100
AcDbEntity
  8
LC-001-100-D00-0
 62
     7
370
    50
100
AcDbCircle
 10
-31.554884
 20
501.65014
 30
0.0
 40
2.000000000000227
  0
CIRCLE
  5
587
330
1F
100
AcDbEntity
  8
LC-001-100-D00-0
 62
     7
370
    50
100
AcDbCircle
 10
-31.554884
 20
447.65014
 30
0.0
 40
2.000000000000227
  0
ARC
  5
588
330
1F
100
AcDbEntity
  8
LC-001-100-D00-0
 62
     7
370
    50
100
AcDbCircle
 10
410.19732
 20
529.15014
 30
0.0
 40
1.500000000000227
100
AcDbArc
 50
90.0
 51
180.0
  0
LINE
  5
589
330
1F
100
AcDbEntity
  8
LC-001-100-D00-0
 62
     7
370
    50
100
AcDbLine
 10
408.69732
 20
519.65014
 30
0.0
 11
408.69732
 21
529.15014
 31
0.0
  0
ARC
  5
58A
330
1F
100
AcDbEntity
  8
LC-001-100-D00-0
 62
     7
370
    50
100
AcDbCircle
 10
399.19732
 20
519.65014
 30
0.0
 40
9.500000000000341
100
AcDbArc
 50
270.0
 51
0.0
  0
LINE
  5
58B
330
1F
100
AcDbEntity
  8
LC-001-100-D00-0
 62
     7
370
    50
100
AcDbLine
 10
-48.813295
 20
510.15014
 30
0.0
 11
399.19732
 21
510.15014
 31
0.0
  0
ARC
  5
58C
330
1F
100
AcDbEntity
  8
LC-001-100-D00-0
 62
     7
370
    50
100
AcDbCircle
 10
-48.813295
 20
507.65014
 30
0.0
 40
2.499999999999659
100
AcDbArc
 50
90.0
 51
105.0
  0
LINE
  5
58D
330
1F
100
AcDbEntity
  8
LC-001-100-D00-0
 62
     7
370
    50
100
AcDbLine
 10
-49.460342
 20
510.064955
 30
0.0
 11
-67.294014
 21
505.286437
 31
0.0
  0
ARC
  5
58E
330
1F
100
AcDbEntity
  8
LC-001-100-D00-0
 62
     7
370
    50
100
AcDbCircle
 10
-68.32929
 20
509.15014
 30
0.0
 40
4.000000000000114
100
AcDbArc
 50
270.0
 51
285.0
  0
LINE
  5
58F
330
1F
100
AcDbEntity
  8
LC-001-100-D00-0
 62
     7
370
    50
100
AcDbLine
 10
-68.32929
 20
505.15014
 30
0.0
 11
-85.00268
 21
505.15014
 31
0.0
  0
ARC
  5
590
330
1F
100
AcDbEntity
  8
LC-001-100-D00-0
 62
     7
370
    50
100
AcDbCircle
 10
-85.00268
 20
504.15014
 30
0.0
 40
1.000000000000227
100
AcDbArc
 50
90.0
 51
180.0
  0
LINE
  5
591
330
1F
100
AcDbEntity
  8
LC-001-100-D00-0
 62
     7
370
    50
100
AcDbLine
 10
-86.00268
 20
504.15014
 30
0.0
 11
-86.00268
 21
500.150138
 31
0.0
  0
LINE
  5
592
330
1F
100
AcDbEntity
  8
LC-001-100-D00-0
 62
     7
370
    50
100
AcDbLine
 10
-86.00268
 20
500.150138
 30
0.0
 11
-87.50268
 21
500.15014
 31
0.0
  0
LINE
  5
593
330
1F
100
AcDbEntity
  8
LC-001-100-D00-0
 62
     7
370
    50
100
AcDbLine
 10
-87.50268
 20
504.15014
 30
0.0
 11
-87.50268
 21
500.15014
 31
0.0
  0
ARC
  5
594
330
1F
100
AcDbEntity
  8
LC-001-100-D00-0
 62
     7
370
    50
100
AcDbCircle
 10
-85.00268
 20
504.15014
 30
0.0
 40
2.500000000000227
100
AcDbArc
 50
90.0
 51
180.0
  0
LINE
  5
595
330
1F
100
AcDbEntity
  8
LC-001-100-D00-0
 62
     7
370
    50
100
AcDbLine
 10
-68.32929
 20
506.65014
 30
0.0
 11
-85.00268
 21
506.65014
 31
0.0
  0
ARC
  5
596
330
1F
100
AcDbEntity
  8
LC-001-100-D00-0
 62
     7
370
    50
100
AcDbCircle
 10
-68.32929
 20
509.15014
 30
0.0
 40
2.500000000000114
100
AcDbArc
 50
270.0
 51
285.0
  0
LINE
  5
597
330
1F
100
AcDbEntity
  8
LC-001-100-D00-0
 62
     7
370
    50
100
AcDbLine
 10
-49.848571
 20
511.513843
 30
0.0
 11
-67.682242
 21
506.735325
 31
0.0
  0
ARC
  5
598
330
1F
100
AcDbEntity
  8
LC-001-100-D00-0
 62
     7
370
    50
100
AcDbCircle
 10
-48.813295
 20
507.65014
 30
0.0
 40
3.999999999999659
100
AcDbArc
 50
90.0
 51
105.0
  0
LINE
  5
599
330
1F
100
AcDbEntity
  8
LC-001-100-D00-0
 62
     7
370
    50
100
AcDbLine
 10
-48.813295
 20
511.65014
 30
0.0
 11
-47.30268
 21
511.650139
 31
0.0
  0
LINE
  5
59A
330
1F
100
AcDbEntity
  8
LC-001-100-D00-0
 62
     7
370
    50
100
AcDbLine
 10
-47.30268
 20
511.650139
 30
0.0
 11
-47.30268
 21
513.050141
 31
0.0
  0
LINE
  5
59B
330
1F
100
AcDbEntity
  8
LC-001-100-D00-0
 62
     7
370
    50
100
AcDbLine
 10
-46.80268
 20
513.05014
 30
0.0
 11
-47.30268
 21
513.050141
 31
0.0
  0
ARC
  5
59C
330
1F
100
AcDbEntity
  8
LC-001-100-D00-0
 62
     7
370
    50
100
AcDbCircle
 10
-47.80268
 20
514.55014
 30
0.0
 40
1.802775637732058
100
AcDbArc
 50
303.690068
 51
56.309932
  0
LINE
  5
59D
330
1F
100
AcDbEntity
  8
LC-001-100-D00-0
 62
     7
370
    50
100
AcDbLine
 10
-46.802679
 20
530.65014
 30
0.0
 11
-46.80268
 21
516.05014
 31
0.0
  0
LINE
  5
59E
330
1F
100
AcDbEntity
  8
LC-001-100-D00-0
 62
     7
370
    50
100
AcDbLine
 10
-45.802677
 20
531.65014
 30
0.0
 11
-46.802679
 21
530.65014
 31
0.0
  0
LINE
  5
59F
330
1F
100
AcDbEntity
  8
LC-001-100-D00-0
 62
     7
370
    50
100
AcDbLine
 10
-39.80268
 20
531.65014
 30
0.0
 11
-45.802677
 21
531.65014
 31
0.0
  0
LINE
  5
5A0
330
1F
100
AcDbEntity
  8
LC-001-100-D00-0
 62
     7
370
    50
100
AcDbLine
 10
-38.802678
 20
530.65014
 30
0.0
 11
-39.80268
 21
531.65014
 31
0.0
  0
LINE
  5
5A1
330
1F
100
AcDbEntity
  8
LC-001-100-D00-0
 62
     7
370
    50
100
AcDbLine
 10
-38.80268
 20
516.05014
 30
0.0
 11
-38.802678
 21
530.65014
 31
0.0
  0
ARC
  5
5A2
330
1F
100
AcDbEntity
  8
LC-001-100-D00-0
 62
     7
370
    50
100
AcDbCircle
 10
-37.80268
 20
514.55014
 30
0.0
 40
1.802775637732058
100
AcDbArc
 50
123.690068
 51
236.309932
  0
LINE
  5
5A3
330
1F
100
AcDbEntity
  8
LC-001-100-D00-0
 62
     7
370
    50
100
AcDbLine
 10
-38.302677
 20
513.050141
 30
0.0
 11
-38.80268
 21
513.05014
 31
0.0
  0
LINE
  5
5A4
330
1F
100
AcDbEntity
  8
LC-001-100-D00-0
 62
     7
370
    50
100
AcDbLine
 10
-38.302677
 20
513.050141
 30
0.0
 11
-38.302677
 21
511.650139
 31
0.0
  0
LINE
  5
5A5
330
1F
100
AcDbEntity
  8
LC-001-100-D00-0
 62
     7
370
    50
100
AcDbLine
 10
-38.302677
 20
511.650139
 30
0.0
 11
109.363979
 21
511.650139
 31
0.0
  0
LINE
  5
5A6
330
1F
100
AcDbEntity
  8
LC-001-100-D00-0
 62
     7
370
    50
100
AcDbLine
 10
109.363979
 20
511.650139
 30
0.0
 11
109.363979
 21
513.050141
 31
0.0
  0
LINE
  5
5A7
330
1F
100
AcDbEntity
  8
LC-001-100-D00-0
 62
     7
370
    50
100
AcDbLine
 10
109.863987
 20
513.05014
 30
0.0
 11
109.363979
 21
513.050141
 31
0.0
  0
ARC
  5
5A8
330
1F
100
AcDbEntity
  8
LC-001-100-D00-0
 62
     7
370
    50
100
AcDbCircle
 10
108.863987
 20
514.55014
 30
0.0
 40
1.802775637732058
100
AcDbArc
 50
303.690068
 51
56.309932
  0
LINE
  5
5A9
330
1F
100
AcDbEntity
  8
LC-001-100-D00-0
 62
     7
370
    50
100
AcDbLine
 10
109.863972
 20
530.65014
 30
0.0
 11
109.863987
 21
516.05014
 31
0.0
  0
LINE
  5
5AA
330
1F
100
AcDbEntity
  8
LC-001-100-D00-0
 62
     7
370
    50
100
AcDbLine
 10
110.863989
 20
531.65014
 30
0.0
 11
109.863972
 21
530.65014
 31
0.0
  0
LINE
  5
5AB
330
1F
100
AcDbEntity
  8
LC-001-100-D00-0
 62
     7
370
    50
100
AcDbLine
 10
116.864001
 20
531.65014
 30
0.0
 11
110.863989
 21
531.65014
 31
0.0
  0
LINE
  5
5AC
330
1F
100
AcDbEntity
  8
LC-001-100-D00-0
 62
     7
370
    50
100
AcDbLine
 10
117.863988
 20
530.65014
 30
0.0
 11
116.864001
 21
531.65014
 31
0.0
  0
LINE
  5
5AD
330
1F
100
AcDbEntity
  8
LC-001-100-D00-0
 62
     7
370
    50
100
AcDbLine
 10
117.863987
 20
516.05014
 30
0.0
 11
117.863988
 21
530.65014
 31
0.0
  0
ARC
  5
5AE
330
1F
100
AcDbEntity
  8
LC-001-100-D00-0
 62
     7
370
    50
100
AcDbCircle
 10
118.863987
 20
514.55014
 30
0.0
 40
1.802775637732058
100
AcDbArc
 50
123.690068
 51
236.309932
  0
LINE
  5
5AF
330
1F
100
AcDbEntity
  8
LC-001-100-D00-0
 62
     7
370
    50
100
AcDbLine
 10
118.363982
 20
513.050141
 30
0.0
 11
117.863987
 21
513.05014
 31
0.0
  0
LINE
  5
5B0
330
1F
100
AcDbEntity
  8
LC-001-100-D00-0
 62
     7
370
    50
100
AcDbLine
 10
118.363982
 20
513.050141
 30
0.0
 11
118.363982
 21
511.650139
 31
0.0
  0
LINE
  5
5B1
330
1F
100
AcDbEntity
  8
LC-001-100-D00-0
 62
     7
370
    50
100
AcDbLine
 10
118.363982
 20
511.650139
 30
0.0
 11
216.030663
 21
511.650139
 31
0.0
  0
LINE
  5
5B2
330
1F
100
AcDbEntity
  8
LC-001-100-D00-0
 62
     7
370
    50
100
AcDbLine
 10
216.030663
 20
511.650139
 30
0.0
 11
216.030663
 21
513.050141
 31
0.0
  0
LINE
  5
5B3
330
1F
100
AcDbEntity
  8
LC-001-100-D00-0
 62
     7
370
    50
100
AcDbLine
 10
216.530653
 20
513.05014
 30
0.0
 11
216.030663
 21
513.050141
 31
0.0
  0
ARC
  5
5B4
330
1F
100
AcDbEntity
  8
LC-001-100-D00-0
 62
     7
370
    50
100
AcDbCircle
 10
215.530653
 20
514.55014
 30
0.0
 40
1.802775637732136
100
AcDbArc
 50
303.690068
 51
56.309932
  0
LINE
  5
5B5
330
1F
100
AcDbEntity
  8
LC-001-100-D00-0
 62
     7
370
    50
100
AcDbLine
 10
216.530656
 20
530.65014
 30
0.0
 11
216.530653
 21
516.05014
 31
0.0
  0
LINE
  5
5B6
330
1F
100
AcDbEntity
  8
LC-001-100-D00-0
 62
     7
370
    50
100
AcDbLine
 10
217.530643
 20
531.65014
 30
0.0
 11
216.530656
 21
530.65014
 31
0.0
  0
LINE
  5
5B7
330
1F
100
AcDbEntity
  8
LC-001-100-D00-0
 62
     7
370
    50
100
AcDbLine
 10
223.530656
 20
531.65014
 30
0.0
 11
217.530643
 21
531.65014
 31
0.0
  0
LINE
  5
5B8
330
1F
100
AcDbEntity
  8
LC-001-100-D00-0
 62
     7
370
    50
100
AcDbLine
 10
224.530643
 20
530.65014
 30
0.0
 11
223.530656
 21
531.65014
 31
0.0
  0
LINE
  5
5B9
330
1F
100
AcDbEntity
  8
LC-001-100-D00-0
 62
     7
370
    50
100
AcDbLine
 10
224.530653
 20
516.05014
 30
0.0
 11
224.530643
 21
530.65014
 31
0.0
  0
ARC
  5
5BA
330
1F
100
AcDbEntity
  8
LC-001-100-D00-0
 62
     7
370
    50
100
AcDbCircle
 10
225.530653
 20
514.55014
 30
0.0
 40
1.8027756377322
100
AcDbArc
 50
123.690068
 51
236.309932
  0
LINE
  5
5BB
330
1F
100
AcDbEntity
  8
LC-001-100-D00-0
 62
     7
370
    50
100
AcDbLine
 10
225.030666
 20
513.050141
 30
0.0
 11
224.530653
 21
513.05014
 31
0.0
  0
LINE
  5
5BC
330
1F
100
AcDbEntity
  8
LC-001-100-D00-0
 62
     7
370
    50
100
AcDbLine
 10
225.030666
 20
513.050141
 30
0.0
 11
225.030666
 21
511.650139
 31
0.0
  0
LINE
  5
5BD
330
1F
100
AcDbEntity
  8
LC-001-100-D00-0
 62
     7
370
    50
100
AcDbLine
 10
225.030666
 20
511.650139
 30
0.0
 11
372.697329
 21
511.650139
 31
0.0
  0
LINE
  5
5BE
330
1F
100
AcDbEntity
  8
LC-001-100-D00-0
 62
     7
370
    50
100
AcDbLine
 10
372.697329
 20
511.650139
 30
0.0
 11
372.697329
 21
513.050141
 31
0.0
  0
LINE
  5
5BF
330
1F
100
AcDbEntity
  8
LC-001-100-D00-0
 62
     7
370
    50
100
AcDbLine
 10
373.19732
 20
513.05014
 30
0.0
 11
372.697329
 21
513.050141
 31
0.0
  0
ARC
  5
5C0
330
1F
100
AcDbEntity
  8
LC-001-100-D00-0
 62
     7
370
    50
100
AcDbCircle
 10
372.19732
 20
514.55014
 30
0.0
 40
1.802775637732058
100
AcDbArc
 50
303.690068
 51
56.309932
  0
LINE
  5
5C1
330
1F
100
AcDbEntity
  8
LC-001-100-D00-0
 62
     7
370
    50
100
AcDbLine
 10
373.197293
 20
530.65014
 30
0.0
 11
373.19732
 21
516.05014
 31
0.0
  0
LINE
  5
5C2
330
1F
100
AcDbEntity
  8
LC-001-100-D00-0
 62
     7
370
    50
100
AcDbLine
 10
374.197339
 20
531.65014
 30
0.0
 11
373.197293
 21
530.65014
 31
0.0
  0
LINE
  5
5C3
330
1F
100
AcDbEntity
  8
LC-001-100-D00-0
 62
     7
370
    50
100
AcDbLine
 10
380.197322
 20
531.65014
 30
0.0
 11
374.197339
 21
531.65014
 31
0.0
  0
LINE
  5
5C4
330
1F
100
AcDbEntity
  8
LC-001-100-D00-0
 62
     7
370
    50
100
AcDbLine
 10
381.197309
 20
530.65014
 30
0.0
 11
380.197322
 21
531.65014
 31
0.0
  0
LINE
  5
5C5
330
1F
100
AcDbEntity
  8
LC-001-100-D00-0
 62
     7
370
    50
100
AcDbLine
 10
381.19732
 20
516.05014
 30
0.0
 11
381.197309
 21
530.65014
 31
0.0
  0
ARC
  5
5C6
330
1F
100
AcDbEntity
  8
LC-001-100-D00-0
 62
     7
370
    50
100
AcDbCircle
 10
382.19732
 20
514.55014
 30
0.0
 40
1.802775637732058
100
AcDbArc
 50
123.690068
 51
236.309932
  0
LINE
  5
5C7
330
1F
100
AcDbEntity
  8
LC-001-100-D00-0
 62
     7
370
    50
100
AcDbLine
 10
381.697332
 20
513.050141
 30
0.0
 11
381.19732
 21
513.05014
 31
0.0
  0
LINE
  5
5C8
330
1F
100
AcDbEntity
  8
LC-001-100-D00-0
 62
     7
370
    50
100
AcDbLine
 10
381.697332
 20
513.050141
 30
0.0
 11
381.697332
 21
511.650139
 31
0.0
  0
LINE
  5
5C9
330
1F
100
AcDbEntity
  8
LC-001-100-D00-0
 62
     7
370
    50
100
AcDbLine
 10
381.697332
 20
511.650139
 30
0.0
 11
399.19732
 21
511.65014
 31
0.0
  0
ARC
  5
5CA
330
1F
100
AcDbEntity
  8
LC-001-100-D00-0
 62
     7
370
    50
100
AcDbCircle
 10
399.19732
 20
519.65014
 30
0.0
 40
8.000000000000341
100
AcDbArc
 50
270.0
 51
0.0
  0
LINE
  5
5CB
330
1F
100
AcDbEntity
  8
LC-001-100-D00-0
 62
     7
370
    50
100
AcDbLine
 10
407.19732
 20
519.65014
 30
0.0
 11
407.19732
 21
529.15014
 31
0.0
  0
ARC
  5
5CC
330
1F
100
AcDbEntity
  8
LC-001-100-D00-0
 62
     7
370
    50
100
AcDbCircle
 10
410.19732
 20
529.15014
 30
0.0
 40
3.0
100
AcDbArc
 50
90.0
 51
180.0
  0
LINE
  5
5CD
330
1F
100
AcDbEntity
  8
LC-001-100-D00-0
 62
     7
370
    50
100
AcDbLine
 10
457.19732
 20
532.15014
 30
0.0
 11
410.19732
 21
532.15014
 31
0.0
  0
LINE
  5
5CE
330
1F
100
AcDbEntity
  8
LC-001-100-D00-0
 62
     7
370
    50
100
AcDbLine
 10
457.197344
 20
530.65014
 30
0.0
 11
457.19732
 21
532.15014
 31
0.0
  0
LINE
  5
5CF
330
1F
100
AcDbEntity
  8
LC-001-100-D00-0
 62
     7
370
    50
100
AcDbLine
 10
457.197344
 20
530.65014
 30
0.0
 11
410.19732
 21
530.65014
 31
0.0
  0
LINE
  5
5D0
330
1F
100
AcDbEntity
  8
LC-001-100-D00-0
 62
     7
370
    50
100
AcDbLine
 10
-98.408797
 20
506.65014
 30
0.0
 11
-85.00268
 21
506.65014
 31
0.0
  0
LINE
  5
5D1
330
1F
100
AcDbEntity
  8
LC-001-100-D00-0
 62
     7
370
    50
100
AcDbLine
 10
-87.50268
 20
500.15014
 30
0.0
 11
-87.70268
 21
500.15014
 31
0.0
  0
LINE
  5
5D2
330
1F
100
AcDbEntity
  8
LC-001-100-D00-0
 62
     7
370
    50
100
AcDbLine
 10
-199.60268
 20
500.150138
 30
0.0
 11
-199.60268
 21
504.15014
 31
0.0
  0
LINE
  5
5D3
330
1F
100
AcDbEntity
  8
LC-001-100-D00-0
 62
     7
370
    50
100
AcDbLine
 10
-197.90268
 20
500.15014
 30
0.0
 11
-198.10268
 21
500.15014
 31
0.0
  0
LINE
  5
5D4
330
1F
100
AcDbEntity
  8
LC-001-100-D00-0
 62
     7
370
    50
100
AcDbLine
 10
-198.10268
 20
500.15014
 30
0.0
 11
-198.10268
 21
504.15014
 31
0.0
  0
LINE
  5
5D5
330
1F
100
AcDbEntity
  8
LC-001-100-D00-0
 62
     7
370
    50
100
AcDbLine
 10
-510.136003
 20
530.65014
 30
0.0
 11
-510.136013
 21
516.05014
 31
0.0
  0
LINE
  5
5D6
330
1F
100
AcDbEntity
  8
LC-001-100-D00-0
 62
     7
370
    50
100
AcDbLine
 10
-509.136016
 20
531.65014
 30
0.0
 11
-510.136003
 21
530.65014
 31
0.0
  0
LINE
  5
5D7
330
1F
100
AcDbEntity
  8
LC-001-100-D00-0
 62
     7
370
    50
100
AcDbLine
 10
-503.136004
 20
531.65014
 30
0.0
 11
-509.136016
 21
531.65014
 31
0.0
  0
LINE
  5
5D8
330
1F
100
AcDbEntity
  8
LC-001-100-D00-0
 62
     7
370
    50
100
AcDbLine
 10
-502.136016
 20
530.65014
 30
0.0
 11
-503.136004
 21
531.65014
 31
0.0
  0
LINE
  5
5D9
330
1F
100
AcDbEntity
  8
LC-001-100-D00-0
 62
     7
370
    50
100
AcDbLine
 10
-502.136013
 20
516.05014
 30
0.0
 11
-502.136016
 21
530.65014
 31
0.0
  0
ARC
  5
5DA
330
1F
100
AcDbEntity
  8
LC-001-100-D00-0
 62
     7
370
    50
100
AcDbCircle
 10
-501.136013
 20
514.55014
 30
0.0
 40
1.802775637732121
100
AcDbArc
 50
123.690068
 51
236.309932
  0
LINE
  5
5DB
330
1F
100
AcDbEntity
  8
LC-001-100-D00-0
 62
     7
370
    50
100
AcDbLine
 10
-501.636023
 20
513.050141
 30
0.0
 11
-502.136013
 21
513.05014
 31
0.0
  0
LINE
  5
5DC
330
1F
100
AcDbEntity
  8
LC-001-100-D00-0
 62
     7
370
    50
100
AcDbLine
 10
-501.636023
 20
513.050141
 30
0.0
 11
-501.636023
 21
511.650139
 31
0.0
  0
LINE
  5
5DD
330
1F
100
AcDbEntity
  8
LC-001-100-D00-0
 62
     7
370
    50
100
AcDbLine
 10
-501.636023
 20
511.650139
 30
0.0
 11
-403.969342
 21
511.650139
 31
0.0
  0
LINE
  5
5DE
330
1F
100
AcDbEntity
  8
LC-001-100-D00-0
 62
     7
370
    50
100
AcDbLine
 10
-403.969342
 20
511.650139
 30
0.0
 11
-403.969342
 21
513.050141
 31
0.0
  0
LINE
  5
5DF
330
1F
100
AcDbEntity
  8
LC-001-100-D00-0
 62
     7
370
    50
100
AcDbLine
 10
-403.469347
 20
513.05014
 30
0.0
 11
-403.969342
 21
513.050141
 31
0.0
  0
ARC
  5
5E0
330
1F
100
AcDbEntity
  8
LC-001-100-D00-0
 62
     7
370
    50
100
AcDbCircle
 10
-404.469347
 20
514.55014
 30
0.0
 40
1.802775637732058
100
AcDbArc
 50
303.690068
 51
56.309932
  0
LINE
  5
5E1
330
1F
100
AcDbEntity
  8
LC-001-100-D00-0
 62
     7
370
    50
100
AcDbLine
 10
-403.469348
 20
530.65014
 30
0.0
 11
-403.469347
 21
516.05014
 31
0.0
  0
LINE
  5
5E2
330
1F
100
AcDbEntity
  8
LC-001-100-D00-0
 62
     7
370
    50
100
AcDbLine
 10
-402.469361
 20
531.65014
 30
0.0
 11
-403.469348
 21
530.65014
 31
0.0
  0
LINE
  5
5E3
330
1F
100
AcDbEntity
  8
LC-001-100-D00-0
 62
     7
370
    50
100
AcDbLine
 10
-396.469349
 20
531.65014
 30
0.0
 11
-402.469361
 21
531.65014
 31
0.0
  0
LINE
  5
5E4
330
1F
100
AcDbEntity
  8
LC-001-100-D00-0
 62
     7
370
    50
100
AcDbLine
 10
-395.469332
 20
530.65014
 30
0.0
 11
-396.469349
 21
531.65014
 31
0.0
  0
LINE
  5
5E5
330
1F
100
AcDbEntity
  8
LC-001-100-D00-0
 62
     7
370
    50
100
AcDbLine
 10
-395.469347
 20
516.05014
 30
0.0
 11
-395.469332
 21
530.65014
 31
0.0
  0
ARC
  5
5E6
330
1F
100
AcDbEntity
  8
LC-001-100-D00-0
 62
     7
370
    50
100
AcDbCircle
 10
-394.469347
 20
514.55014
 30
0.0
 40
1.802775637732121
100
AcDbArc
 50
123.690068
 51
236.309932
  0
LINE
  5
5E7
330
1F
100
AcDbEntity
  8
LC-001-100-D00-0
 62
     7
370
    50
100
AcDbLine
 10
-394.969339
 20
513.050141
 30
0.0
 11
-395.469347
 21
513.05014
 31
0.0
  0
LINE
  5
5E8
330
1F
100
AcDbEntity
  8
LC-001-100-D00-0
 62
     7
370
    50
100
AcDbLine
 10
-394.969339
 20
513.050141
 30
0.0
 11
-394.969339
 21
511.650139
 31
0.0
  0
LINE
  5
5E9
330
1F
100
AcDbEntity
  8
LC-001-100-D00-0
 62
     7
370
    50
100
AcDbLine
 10
-394.969339
 20
511.650139
 30
0.0
 11
-247.302683
 21
511.650139
 31
0.0
  0
LINE
  5
5EA
330
1F
100
AcDbEntity
  8
LC-001-100-D00-0
 62
     7
370
    50
100
AcDbLine
 10
-247.302683
 20
511.650139
 30
0.0
 11
-247.302683
 21
513.050141
 31
0.0
  0
LINE
  5
5EB
330
1F
100
AcDbEntity
  8
LC-001-100-D00-0
 62
     7
370
    50
100
AcDbLine
 10
-246.80268
 20
513.05014
 30
0.0
 11
-247.302683
 21
513.050141
 31
0.0
  0
ARC
  5
5EC
330
1F
100
AcDbEntity
  8
LC-001-100-D00-0
 62
     7
370
    50
100
AcDbCircle
 10
-247.80268
 20
514.55014
 30
0.0
 40
1.802775637732152
100
AcDbArc
 50
303.690068
 51
56.309932
  0
LINE
  5
5ED
330
1F
100
AcDbEntity
  8
LC-001-100-D00-0
 62
     7
370
    50
100
AcDbLine
 10
-246.802682
 20
530.65014
 30
0.0
 11
-246.80268
 21
516.05014
 31
0.0
  0
LINE
  5
5EE
330
1F
100
AcDbEntity
  8
LC-001-100-D00-0
 62
     7
370
    50
100
AcDbLine
 10
-245.80268
 20
531.65014
 30
0.0
 11
-246.802682
 21
530.65014
 31
0.0
  0
LINE
  5
5EF
330
1F
100
AcDbEntity
  8
LC-001-100-D00-0
 62
     7
370
    50
100
AcDbLine
 10
-239.802683
 20
531.65014
 30
0.0
 11
-245.80268
 21
531.65014
 31
0.0
  0
LINE
  5
5F0
330
1F
100
AcDbEntity
  8
LC-001-100-D00-0
 62
     7
370
    50
100
AcDbLine
 10
-238.802681
 20
530.65014
 30
0.0
 11
-239.802683
 21
531.65014
 31
0.0
  0
LINE
  5
5F1
330
1F
100
AcDbEntity
  8
LC-001-100-D00-0
 62
     7
370
    50
100
AcDbLine
 10
-238.80268
 20
516.05014
 30
0.0
 11
-238.802681
 21
530.65014
 31
0.0
  0
ARC
  5
5F2
330
1F
100
AcDbEntity
  8
LC-001-100-D00-0
 62
     7
370
    50
100
AcDbCircle
 10
-237.80268
 20
514.55014
 30
0.0
 40
1.802775637732058
100
AcDbArc
 50
123.690068
 51
236.309932
  0
LINE
  5
5F3
330
1F
100
AcDbEntity
  8
LC-001-100-D00-0
 62
     7
370
    50
100
AcDbLine
 10
-238.30268
 20
513.050141
 30
0.0
 11
-238.80268
 21
513.05014
 31
0.0
  0
LINE
  5
5F4
330
1F
100
AcDbEntity
  8
LC-001-100-D00-0
 62
     7
370
    50
100
AcDbLine
 10
-238.30268
 20
513.050141
 30
0.0
 11
-238.30268
 21
511.650139
 31
0.0
  0
LINE
  5
5F5
330
1F
100
AcDbEntity
  8
LC-001-100-D00-0
 62
     7
370
    50
100
AcDbLine
 10
-238.30268
 20
511.650139
 30
0.0
 11
-236.792065
 21
511.65014
 31
0.0
  0
ARC
  5
5F6
330
1F
100
AcDbEntity
  8
LC-001-100-D00-0
 62
     7
370
    50
100
AcDbCircle
 10
-236.792065
 20
507.65014
 30
0.0
 40
3.999999999999763
100
AcDbArc
 50
75.0
 51
90.0
  0
LINE
  5
5F7
330
1F
100
AcDbEntity
  8
LC-001-100-D00-0
 62
     7
370
    50
100
AcDbLine
 10
-217.923118
 20
506.735325
 30
0.0
 11
-235.756789
 21
511.513843
 31
0.0
  0
ARC
  5
5F8
330
1F
100
AcDbEntity
  8
LC-001-100-D00-0
 62
     7
370
    50
100
AcDbCircle
 10
-217.27607
 20
509.15014
 30
0.0
 40
2.500000000000201
100
AcDbArc
 50
255.0
 51
270.0
  0
LINE
  5
5F9
330
1F
100
AcDbEntity
  8
LC-001-100-D00-0
 62
     7
370
    50
100
AcDbLine
 10
-211.879889
 20
506.65014
 30
0.0
 11
-217.27607
 21
506.65014
 31
0.0
  0
LINE
  5
5FA
330
1F
100
AcDbEntity
  8
LC-001-100-D00-0
 62
     7
370
    50
100
AcDbLine
 10
-211.879889
 20
506.550141
 30
0.0
 11
-211.879889
 21
506.65014
 31
0.0
  0
LINE
  5
5FB
330
1F
100
AcDbEntity
  8
LC-001-100-D00-0
 62
     7
370
    50
100
AcDbLine
 10
-211.356053
 20
506.550141
 30
0.0
 11
-211.879889
 21
506.550141
 31
0.0
  0
LINE
  5
5FC
330
1F
100
AcDbEntity
  8
LC-001-100-D00-0
 62
     7
370
    50
100
AcDbLine
 10
-211.356053
 20
506.65014
 30
0.0
 11
-211.356053
 21
506.550141
 31
0.0
  0
LINE
  5
5FD
330
1F
100
AcDbEntity
  8
LC-001-100-D00-0
 62
     7
370
    50
100
AcDbLine
 10
-210.661808
 20
506.65014
 30
0.0
 11
-211.356053
 21
506.65014
 31
0.0
  0
LINE
  5
5FE
330
1F
100
AcDbEntity
  8
LC-001-100-D00-0
 62
     7
370
    50
100
AcDbLine
 10
-210.661808
 20
506.550141
 30
0.0
 11
-210.661808
 21
506.65014
 31
0.0
  0
LINE
  5
5FF
330
1F
100
AcDbEntity
  8
LC-001-100-D00-0
 62
     7
370
    50
100
AcDbLine
 10
-210.137459
 20
506.550141
 30
0.0
 11
-210.661808
 21
506.550141
 31
0.0
  0
LINE
  5
600
330
1F
100
AcDbEntity
  8
LC-001-100-D00-0
 62
     7
370
    50
100
AcDbLine
 10
-210.137459
 20
506.65014
 30
0.0
 11
-210.137459
 21
506.550141
 31
0.0
  0
LINE
  5
601
330
1F
100
AcDbEntity
  8
LC-001-100-D00-0
 62
     7
370
    50
100
AcDbLine
 10
-200.60268
 20
506.65014
 30
0.0
 11
-210.137459
 21
506.65014
 31
0.0
  0
ARC
  5
602
330
1F
100
AcDbEntity
  8
LC-001-100-D00-0
 62
     7
370
    50
100
AcDbCircle
 10
-200.60268
 20
504.15014
 30
0.0
 40
2.500000000000227
100
AcDbArc
 50
0.0
 51
90.0
  0
LINE
  5
603
330
1F
100
AcDbEntity
  8
LC-001-100-D00-0
 62
     7
370
    50
100
AcDbLine
 10
-198.10268
 20
500.15014
 30
0.0
 11
-199.60268
 21
500.150138
 31
0.0
  0
ARC
  5
604
330
1F
100
AcDbEntity
  8
LC-001-100-D00-0
 62
     7
370
    50
100
AcDbCircle
 10
-200.60268
 20
504.15014
 30
0.0
 40
1.000000000000227
100
AcDbArc
 50
0.0
 51
90.0
  0
LINE
  5
605
330
1F
100
AcDbEntity
  8
LC-001-100-D00-0
 62
     7
370
    50
100
AcDbLine
 10
-200.60268
 20
505.15014
 30
0.0
 11
-217.27607
 21
505.15014
 31
0.0
  0
ARC
  5
606
330
1F
100
AcDbEntity
  8
LC-001-100-D00-0
 62
     7
370
    50
100
AcDbCircle
 10
-217.27607
 20
509.15014
 30
0.0
 40
4.000000000000232
100
AcDbArc
 50
255.0
 51
270.0
  0
LINE
  5
607
330
1F
100
AcDbEntity
  8
LC-001-100-D00-0
 62
     7
370
    50
100
AcDbLine
 10
-218.311346
 20
505.286437
 30
0.0
 11
-236.145018
 21
510.064955
 31
0.0
  0
ARC
  5
608
330
1F
100
AcDbEntity
  8
LC-001-100-D00-0
 62
     7
370
    50
100
AcDbCircle
 10
-236.792065
 20
507.65014
 30
0.0
 40
2.499999999999732
100
AcDbArc
 50
75.0
 51
90.0
  0
LINE
  5
609
330
1F
100
AcDbEntity
  8
LC-001-100-D00-0
 62
     7
370
    50
100
AcDbLine
 10
-684.80268
 20
510.15014
 30
0.0
 11
-236.792065
 21
510.15014
 31
0.0
  0
ARC
  5
60A
330
1F
100
AcDbEntity
  8
LC-001-100-D00-0
 62
     7
370
    50
100
AcDbCircle
 10
-684.80268
 20
519.65014
 30
0.0
 40
9.500000000000114
100
AcDbArc
 50
180.0
 51
270.0
  0
LINE
  5
60B
330
1F
100
AcDbEntity
  8
LC-001-100-D00-0
 62
     7
370
    50
100
AcDbLine
 10
-694.30268
 20
529.15014
 30
0.0
 11
-694.30268
 21
519.65014
 31
0.0
  0
ARC
  5
60C
330
1F
100
AcDbEntity
  8
LC-001-100-D00-0
 62
     7
370
    50
100
AcDbCircle
 10
-695.80268
 20
529.15014
 30
0.0
 40
1.500000000000455
100
AcDbArc
 50
0.0
 51
90.0
  0
LINE
  5
60D
330
1F
100
AcDbEntity
  8
LC-001-100-D00-0
 62
     7
370
    50
100
AcDbLine
 10
-742.80268
 20
532.15014
 30
0.0
 11
-742.802704
 21
530.65014
 31
0.0
  0
ARC
  5
60E
330
1F
100
AcDbEntity
  8
LC-001-100-D00-0
 62
     7
370
    50
100
AcDbCircle
 10
-695.80268
 20
529.15014
 30
0.0
 40
3.0
100
AcDbArc
 50
0.0
 51
90.0
  0
LINE
  5
60F
330
1F
100
AcDbEntity
  8
LC-001-100-D00-0
 62
     7
370
    50
100
AcDbLine
 10
-692.80268
 20
529.15014
 30
0.0
 11
-692.80268
 21
519.65014
 31
0.0
  0
ARC
  5
610
330
1F
100
AcDbEntity
  8
LC-001-100-D00-0
 62
     7
370
    50
100
AcDbCircle
 10
-684.80268
 20
519.65014
 30
0.0
 40
8.000000000000114
100
AcDbArc
 50
180.0
 51
270.0
  0
LINE
  5
611
330
1F
100
AcDbEntity
  8
LC-001-100-D00-0
 62
     7
370
    50
100
AcDbLine
 10
-684.80268
 20
511.65014
 30
0.0
 11
-667.302692
 21
511.650139
 31
0.0
  0
LINE
  5
612
330
1F
100
AcDbEntity
  8
LC-001-100-D00-0
 62
     7
370
    50
100
AcDbLine
 10
-667.302692
 20
511.650139
 30
0.0
 11
-667.302692
 21
513.050141
 31
0.0
  0
LINE
  5
613
330
1F
100
AcDbEntity
  8
LC-001-100-D00-0
 62
     7
370
    50
100
AcDbLine
 10
-666.80268
 20
513.05014
 30
0.0
 11
-667.302692
 21
513.050141
 31
0.0
  0
ARC
  5
614
330
1F
100
AcDbEntity
  8
LC-001-100-D00-0
 62
     7
370
    50
100
AcDbCircle
 10
-667.80268
 20
514.55014
 30
0.0
 40
1.802775637732058
100
AcDbArc
 50
303.690068
 51
56.309932
  0
LINE
  5
615
330
1F
100
AcDbEntity
  8
LC-001-100-D00-0
 62
     7
370
    50
100
AcDbLine
 10
-666.802669
 20
530.65014
 30
0.0
 11
-666.80268
 21
516.05014
 31
0.0
  0
LINE
  5
616
330
1F
100
AcDbEntity
  8
LC-001-100-D00-0
 62
     7
370
    50
100
AcDbLine
 10
-665.802682
 20
531.65014
 30
0.0
 11
-666.802669
 21
530.65014
 31
0.0
  0
LINE
  5
617
330
1F
100
AcDbEntity
  8
LC-001-100-D00-0
 62
     7
370
    50
100
AcDbLine
 10
-659.8027
 20
531.65014
 30
0.0
 11
-665.802682
 21
531.65014
 31
0.0
  0
LINE
  5
618
330
1F
100
AcDbEntity
  8
LC-001-100-D00-0
 62
     7
370
    50
100
AcDbLine
 10
-658.802653
 20
530.65014
 30
0.0
 11
-659.8027
 21
531.65014
 31
0.0
  0
LINE
  5
619
330
1F
100
AcDbEntity
  8
LC-001-100-D00-0
 62
     7
370
    50
100
AcDbLine
 10
-658.80268
 20
516.05014
 30
0.0
 11
-658.802653
 21
530.65014
 31
0.0
  0
ARC
  5
61A
330
1F
100
AcDbEntity
  8
LC-001-100-D00-0
 62
     7
370
    50
100
AcDbCircle
 10
-657.80268
 20
514.55014
 30
0.0
 40
1.802775637732058
100
AcDbArc
 50
123.690068
 51
236.309932
  0
LINE
  5
61B
330
1F
100
AcDbEntity
  8
LC-001-100-D00-0
 62
     7
370
    50
100
AcDbLine
 10
-658.302689
 20
513.050141
 30
0.0
 11
-658.80268
 21
513.05014
 31
0.0
  0
LINE
  5
61C
330
1F
100
AcDbEntity
  8
LC-001-100-D00-0
 62
     7
370
    50
100
AcDbLine
 10
-658.302689
 20
513.050141
 30
0.0
 11
-658.302689
 21
511.650139
 31
0.0
  0
LINE
  5
61D
330
1F
100
AcDbEntity
  8
LC-001-100-D00-0
 62
     7
370
    50
100
AcDbLine
 10
-658.302689
 20
511.650139
 30
0.0
 11
-510.636026
 21
511.650139
 31
0.0
  0
LINE
  5
61E
330
1F
100
AcDbEntity
  8
LC-001-100-D00-0
 62
     7
370
    50
100
AcDbLine
 10
-510.636026
 20
511.650139
 30
0.0
 11
-510.636026
 21
513.050141
 31
0.0
  0
LINE
  5
61F
330
1F
100
AcDbEntity
  8
LC-001-100-D00-0
 62
     7
370
    50
100
AcDbLine
 10
-510.136013
 20
513.05014
 30
0.0
 11
-510.636026
 21
513.050141
 31
0.0
  0
ARC
  5
620
330
1F
100
AcDbEntity
  8
LC-001-100-D00-0
 62
     7
370
    50
100
AcDbCircle
 10
-511.136013
 20
514.55014
 30
0.0
 40
1.802775637732058
100
AcDbArc
 50
303.690068
 51
56.309932
  0
LINE
  5
621
330
1F
100
AcDbEntity
  8
LC-001-100-D00-0
 62
     7
370
    50
100
AcDbLine
 10
-695.80268
 20
530.65014
 30
0.0
 11
-742.802704
 21
530.65014
 31
0.0
  0
LINE
  5
622
330
1F
100
AcDbEntity
  8
LC-001-100-D00-0
 62
     7
370
    50
100
AcDbLine
 10
-695.80268
 20
532.15014
 30
0.0
 11
-742.80268
 21
532.15014
 31
0.0
  0
LINE
  5
623
330
1F
100
AcDbEntity
  8
LC-001-100-D00-0
 62
     7
370
    50
100
AcDbLine
 10
-187.196564
 20
506.65014
 30
0.0
 11
-200.60268
 21
506.65014
 31
0.0
  0
LINE
  5
624
330
1F
100
AcDbEntity
  8
LC-001-100-D00-0
 62
     7
370
    50
100
AcDbLine
 10
-210.661808
 20
506.65014
 30
0.0
 11
-210.137459
 21
506.65014
 31
0.0
  0
LINE
  5
625
330
1F
100
AcDbEntity
  8
LC-001-100-D00-0
 62
     7
370
    50
100
AcDbLine
 10
-211.879889
 20
506.65014
 30
0.0
 11
-211.356053
 21
506.65014
 31
0.0
  0
ELLIPSE
  5
626
330
1F
100
AcDbEntity
  8
LC-001-100-D00-0
 62
     7
370
    50
100
AcDbEllipse
 10
262.219137
 20
507.65014
 30
0.0
 11
0.0
 21
-2.499999999999773
 31
0.0
210
0.0
220
0.0
230
1.0
 40
0.027578
 41
0.0
 42
0.3217505544000594
  0
ELLIPSE
  5
627
330
1F
100
AcDbEntity
  8
LC-001-100-D00-0
 62
     7
370
    50
100
AcDbEllipse
 10
-547.824497
 20
507.65014
 30
0.0
 11
0.0
 21
-2.499999999999773
 31
0.0
210
0.0
220
0.0
230
1.0
 40
0.027578
 41
5.961434752784138
 42
6.283185307179586
  0
LINE
  5
628
330
1F
100
AcDbEntity
  8
LC-001-100-D00-0
 62
     7
370
    50
100
AcDbLine
 10
262.197321
 20
510.021487
 30
0.0
 11
262.197321
 21
505.356099
 31
0.0
  0
LINE
  5
629
330
1F
100
AcDbEntity
  8
LC-001-100-D00-0
 62
     7
370
    50
100
AcDbLine
 10
-547.802681
 20
510.021487
 30
0.0
 11
-547.802681
 21
505.356099
 31
0.0
  0
INSERT
  5
633
330
1F
100
AcDbEntity
  8
LC-001-100-D00-0
 62
     7
370
    50
100
AcDbBlockReference
  2
KLON18
 10
0.0
 20
0.0
 30
0.0
  0
INSERT
  5
63D
330
1F
100
AcDbEntity
  8
LC-001-100-D00-0
 62
     7
370
    50
100
AcDbBlockReference
  2
KLON19
 10
0.0
 20
0.0
 30
0.0
  0
LINE
  5
63E
330
1F
100
AcDbEntity
  8
LC-001-100-D00-0
 62
     7
370
    50
100
AcDbLine
 10
262.197321
 20
505.150139
 30
0.0
 11
262.197291
 21
505.355407
 31
0.0
  0
LINE
  5
63F
330
1F
100
AcDbEntity
  8
LC-001-100-D00-0
 62
     7
370
    50
100
AcDbLine
 10
262.197321
 20
505.150139
 30
0.0
 11
390.104985
 21
509.818304
 31
0.0
  0
LINE
  5
640
330
1F
100
AcDbEntity
  8
LC-001-100-D00-0
 62
     7
370
    50
100
AcDbLine
 10
-547.802681
 20
505.150139
 30
0.0
 11
-547.802651
 21
505.355407
 31
0.0
  0
LINE
  5
641
330
1F
100
AcDbEntity
  8
LC-001-100-D00-0
 62
     7
370
    50
100
AcDbLine
 10
-547.802681
 20
505.150139
 30
0.0
 11
-675.710345
 21
509.818304
 31
0.0
  0
LINE
  5
642
330
1F
100
AcDbEntity
  8
LC-001-100-D00-0
 62
     7
370
    50
100
AcDbLine
 10
-101.016524
 20
498.15014
 30
0.0
 11
-98.714814
 21
498.15014
 31
0.0
  0
LINE
  5
643
330
1F
100
AcDbEntity
  8
LC-001-100-D00-0
 62
     7
370
    50
100
AcDbLine
 10
-97.652765
 20
496.65014
 30
0.0
 11
-97.557178
 21
496.6582
 31
0.0
  0
LINE
  5
644
330
1F
100
AcDbEntity
  8
LC-001-100-D00-0
 62
     7
370
    50
100
AcDbLine
 10
-97.652765
 20
496.65014
 30
0.0
 11
-101.016524
 21
496.65014
 31
0.0
  0
LINE
  5
645
330
1F
100
AcDbEntity
  8
LC-001-100-D00-0
 62
     7
370
    50
100
AcDbLine
 10
-188.048182
 20
496.6582
 30
0.0
 11
-187.952595
 21
496.65014
 31
0.0
  0
LINE
  5
646
330
1F
100
AcDbEntity
  8
LC-001-100-D00-0
 62
     7
370
    50
100
AcDbLine
 10
-184.588836
 20
496.65014
 30
0.0
 11
-187.952595
 21
496.65014
 31
0.0
  0
LINE
  5
647
330
1F
100
AcDbEntity
  8
LC-001-100-D00-0
 62
     7
370
    50
100
AcDbLine
 10
-186.890546
 20
498.15014
 30
0.0
 11
-184.588836
 21
498.15014
 31
0.0
  0
LINE
  5
648
330
1F
100
AcDbEntity
  8
LC-001-100-D00-0
 62
     7
370
    50
100
AcDbLine
 10
-101.016524
 20
496.65014
 30
0.0
 11
-101.793452
 21
496.65014
 31
0.0
  0
LINE
  5
649
330
1F
100
AcDbEntity
  8
LC-001-100-D00-0
 62
     7
370
    50
100
AcDbLine
 10
-101.016524
 20
498.15014
 30
0.0
 11
-101.793452
 21
498.15014
 31
0.0
  0
LINE
  5
64A
330
1F
100
AcDbEntity
  8
LC-001-100-D00-0
 62
     7
370
    50
100
AcDbLine
 10
-184.588836
 20
496.65014
 30
0.0
 11
-183.811908
 21
496.65014
 31
0.0
  0
LINE
  5
64B
330
1F
100
AcDbEntity
  8
LC-001-100-D00-0
 62
     7
370
    50
100
AcDbLine
 10
-184.588836
 20
498.15014
 30
0.0
 11
-183.811908
 21
498.15014
 31
0.0
  0
LINE
  5
64C
330
1F
100
AcDbEntity
  8
LC-001-100-D00-0
 62
     7
370
    50
100
AcDbLine
 10
-68.32929
 20
505.15014
 30
0.0
 11
-66.22869
 21
505.150139
 31
0.0
  0
LINE
  5
64D
330
1F
100
AcDbEntity
  8
LC-001-100-D00-0
 62
     7
370
    50
100
AcDbLine
 10
-217.27607
 20
505.15014
 30
0.0
 11
-219.37667
 21
505.150139
 31
0.0
  0
LINE
  5
64E
330
1F
100
AcDbEntity
  8
LC-001-100-D00-0
 62
     7
370
    50
100
AcDbLine
 10
-101.793452
 20
496.65014
 30
0.0
 11
-103.088265
 21
496.65014
 31
0.0
  0
LINE
  5
64F
330
1F
100
AcDbEntity
  8
LC-001-100-D00-0
 62
     7
370
    50
100
AcDbLine
 10
-103.063879
 20
498.15014
 30
0.0
 11
-101.793452
 21
498.15014
 31
0.0
  0
LINE
  5
650
330
1F
100
AcDbEntity
  8
LC-001-100-D00-0
 62
     7
370
    50
100
AcDbLine
 10
-182.517095
 20
496.65014
 30
0.0
 11
-183.811908
 21
496.65014
 31
0.0
  0
LINE
  5
651
330
1F
100
AcDbEntity
  8
LC-001-100-D00-0
 62
     7
370
    50
100
AcDbLine
 10
-183.811908
 20
498.15014
 30
0.0
 11
-182.541482
 21
498.15014
 31
0.0
  0
LINE
  5
652
330
1F
100
AcDbEntity
  8
LC-001-100-D00-0
 62
     7
370
    50
100
AcDbLine
 10
-66.22869
 20
505.150139
 30
0.0
 11
-48.302883
 21
505.150139
 31
0.0
  0
LINE
  5
653
330
1F
100
AcDbEntity
  8
LC-001-100-D00-0
 62
     7
370
    50
100
AcDbLine
 10
-30.120427
 20
505.150139
 30
0.0
 11
262.197321
 21
505.150139
 31
0.0
  0
LINE
  5
654
330
1F
100
AcDbEntity
  8
LC-001-100-D00-0
 62
     7
370
    50
100
AcDbLine
 10
-219.37667
 20
505.150139
 30
0.0
 11
-547.802681
 21
505.150139
 31
0.0
  0
ARC
  5
655
330
1F
100
AcDbEntity
  8
LC-001-100-D00-0
 62
     7
370
    50
100
AcDbCircle
 10
-98.287052
 20
498.084291
 30
0.0
 40
1.602014939990358
100
AcDbArc
 50
297.103406
 51
2.355668
  0
INSERT
  5
65E
330
1F
100
AcDbEntity
  8
LC-001-100-D00-0
 62
     7
370
    50
100
AcDbBlockReference
  2
KLON20
 10
0.0
 20
0.0
 30
0.0
  0
INSERT
  5
66B
330
1F
100
AcDbEntity
  8
LC-001-100-D00-0
 62
     7
370
    50
100
AcDbBlockReference
  2
KLON21
 10
0.0
 20
0.0
 30
0.0
  0
INSERT
  5
678
330
1F
100
AcDbEntity
  8
LC-001-100-D00-0
 62
     7
370
    50
100
AcDbBlockReference
  2
KLON22
 10
0.0
 20
0.0
 30
0.0
  0
LINE
  5
679
330
1F
100
AcDbEntity
  8
LC-001-100-D00-0
 62
     7
370
    50
100
AcDbLine
 10
404.69732
 20
532.15014
 30
0.0
 11
410.19732
 21
532.15014
 31
0.0
  0
LINE
  5
67A
330
1F
100
AcDbEntity
  8
LC-001-100-D00-0
 62
     7
370
    50
100
AcDbLine
 10
-690.30268
 20
532.15014
 30
0.0
 11
-695.80268
 21
532.15014
 31
0.0
  0
LINE
  5
67B
330
1F
100
AcDbEntity
  8
LC-001-100-D00-0
 62
     7
370
    50
100
AcDbLine
 10
404.69732
 20
532.15014
 30
0.0
 11
394.44732
 21
532.15014
 31
0.0
  0
LINE
  5
67C
330
1F
100
AcDbEntity
  8
LC-001-100-D00-0
 62
     7
370
    50
100
AcDbLine
 10
359.94732
 20
532.15014
 30
0.0
 11
237.780653
 21
532.15014
 31
0.0
  0
LINE
  5
67D
330
1F
100
AcDbEntity
  8
LC-001-100-D00-0
 62
     7
370
    50
100
AcDbLine
 10
203.280653
 20
532.15014
 30
0.0
 11
131.113987
 21
532.15014
 31
0.0
  0
LINE
  5
67E
330
1F
100
AcDbEntity
  8
LC-001-100-D00-0
 62
     7
370
    50
100
AcDbLine
 10
96.613987
 20
532.15014
 30
0.0
 11
-25.55268
 21
532.15014
 31
0.0
  0
LINE
  5
67F
330
1F
100
AcDbEntity
  8
LC-001-100-D00-0
 62
     7
370
    50
100
AcDbLine
 10
-60.05268
 20
532.15014
 30
0.0
 11
-225.55268
 21
532.15014
 31
0.0
  0
LINE
  5
680
330
1F
100
AcDbEntity
  8
LC-001-100-D00-0
 62
     7
370
    50
100
AcDbLine
 10
-260.05268
 20
532.15014
 30
0.0
 11
-382.219347
 21
532.15014
 31
0.0
  0
LINE
  5
681
330
1F
100
AcDbEntity
  8
LC-001-100-D00-0
 62
     7
370
    50
100
AcDbLine
 10
-416.719347
 20
532.15014
 30
0.0
 11
-488.886013
 21
532.15014
 31
0.0
  0
LINE
  5
682
330
1F
100
AcDbEntity
  8
LC-001-100-D00-0
 62
     7
370
    50
100
AcDbLine
 10
-523.386013
 20
532.15014
 30
0.0
 11
-645.55268
 21
532.15014
 31
0.0
  0
LINE
  5
683
330
1F
100
AcDbEntity
  8
LC-001-100-D00-0
 62
     7
370
    50
100
AcDbLine
 10
-680.05268
 20
532.15014
 30
0.0
 11
-690.30268
 21
532.15014
 31
0.0
  0
LINE
  5
684
330
1F
100
AcDbEntity
  8
LC-001-100-D00-0
 62
     7
370
    50
100
AcDbLine
 10
-742.80268
 20
532.15014
 30
0.0
 11
-742.80268
 21
533.65014
 31
0.0
  0
LINE
  5
685
330
1F
100
AcDbEntity
  8
LC-001-100-D00-0
 62
     7
370
    50
100
AcDbLine
 10
457.19732
 20
533.65014
 30
0.0
 11
457.19732
 21
532.15014
 31
0.0
  0
ARC
  5
686
330
1F
100
AcDbEntity
  8
LC-001-100-D00-0
 62
     7
370
    50
100
AcDbCircle
 10
-737.80268
 20
573.15014
 30
0.0
 40
5.000000000000114
100
AcDbArc
 50
90.0
 51
180.0
  0
LINE
  5
687
330
1F
100
AcDbEntity
  8
LC-001-100-D00-0
 62
     7
370
    50
100
AcDbLine
 10
-737.80268
 20
578.15014
 30
0.0
 11
452.19732
 21
578.15014
 31
0.0
  0
ARC
  5
688
330
1F
100
AcDbEntity
  8
LC-001-100-D00-0
 62
     7
370
    50
100
AcDbCircle
 10
452.19732
 20
573.15014
 30
0.0
 40
5.000000000000341
100
AcDbArc
 50
0.0
 51
90.0
  0
LINE
  5
689
330
1F
100
AcDbEntity
  8
LC-001-100-D00-0
 62
     7
370
    50
100
AcDbLine
 10
-742.80268
 20
573.15014
 30
0.0
 11
-742.80268
 21
533.65014
 31
0.0
  0
LINE
  5
68A
330
1F
100
AcDbEntity
  8
LC-001-100-D00-0
 62
     7
370
    50
100
AcDbLine
 10
457.19732
 20
573.15014
 30
0.0
 11
457.19732
 21
533.65014
 31
0.0
  0
DIMENSION
  5
68B
330
1F
100
AcDbEntity
  8
LC-001-100-D00-0
 62
     7
370
    25
100
AcDbDimension
  2
*D27
 10
-767.180748
 20
532.15014
 30
0.0
 11
-822.180748
 21
420.495626
 31
0.0
 70
   160
  1
46
 71
     5
 42
46.0
 53
90.0
  3
LC-DIM-L-0100-02-02
100
AcDbAlignedDimension
 13
-737.80268
 23
578.15014
 33
0.0
 14
-742.80268
 24
532.15014
 34
0.0
 50
90.0
100
AcDbRotatedDimension
  0
DIMENSION
  5
699
330
1F
100
AcDbEntity
  8
LC-001-100-D00-0
 62
     7
370
    25
100
AcDbDimension
  2
*D28
 10
457.19732
 20
687.795626
 30
0.0
 11
-144.432541
 21
742.795626
 31
0.0
 70
   160
  1
1200
 71
     5
 42
1200.0
  3
LC-DIM-L-0100-02-02
100
AcDbAlignedDimension
 13
-742.80268
 23
573.15014
 33
0.0
 14
457.19732
 24
573.15014
 34
0.0
100
AcDbRotatedDimension
  0
DIMENSION
  5
6A6
330
1F
100
AcDbEntity
  8
LC-001-100-D00-0
 62
     7
370
    25
100
AcDbDimension
  2
*D29
 10
407.19732
 20
604.728291
 30
0.0
 11
-147.447653
 21
659.728291
 31
0.0
 70
   160
  1
1100
 71
     5
 42
1100.0
  3
LC-DIM-L-0100-02-02
100
AcDbAlignedDimension
 13
-692.80268
 23
529.15014
 33
0.0
 14
407.19732
 24
529.15014
 34
0.0
100
AcDbRotatedDimension
  0
DIMENSION
  5
6B3
330
1F
100
AcDbEntity
  8
LC-001-100-D00-0
 62
     7
370
    25
100
AcDbDimension
  2
*D30
 10
-277.403688
 20
490.65014
 30
0.0
 11
-332.403688
 21
390.795626
 31
0.0
 70
   160
  1
30
 71
     5
 42
30.0
 53
90.0
  3
LC-DIM-L-0100-02-02
100
AcDbAlignedDimension
 13
-171.80268
 23
460.65014
 33
0.0
 14
-175.755114
 24
490.65014
 34
0.0
 50
90.0
100
AcDbRotatedDimension
  0
DIMENSION
  5
6C1
330
1F
100
AcDbEntity
  8
LC-001-100-D00-0
 62
     7
370
    25
100
AcDbDimension
  2
*D31
 10
66.697117
 20
356.640626
 30
0.0
 11
-93.460268
 21
411.640626
 31
0.0
 70
   160
  1
284
 71
     5
 42
283.499797
  3
LC-DIM-L-0100-02-02
100
AcDbAlignedDimension
 13
-216.80268
 23
461.15014
 33
0.0
 14
66.697117
 24
450.587962
 34
0.0
100
AcDbRotatedDimension
  0
DIMENSION
  5
6CE
330
1F
100
AcDbEntity
  8
LC-001-100-D00-0
 62
     7
370
    25
100
AcDbDimension
  2
*D32
 10
573.611654
 20
449.65014
 30
0.0
 11
518.611654
 21
560.085626
 31
0.0
 70
   160
  1
DN50
 71
     5
 42
50.0
 53
90.0
  3
LC-DIM-L-0100-02-02
100
AcDbAlignedDimension
 13
63.197117
 23
499.65014
 33
0.0
 14
63.197117
 24
449.65014
 34
0.0
 50
90.0
100
AcDbRotatedDimension
  0
DIMENSION
  5
6DC
330
1F
100
AcDbEntity
  8
LC-001-100-D00-0
 62
     7
370
    25
100
AcDbDimension
  2
*D33
 10
668.907643
 20
474.65014
 30
0.0
 11
613.907643
 21
506.625626
 31
0.0
 70
   160
  1
57,5
 71
     5
 42
57.5
 53
90.0
  3
LC-DIM-L-0100-02-02
100
AcDbAlignedDimension
 13
457.19732
 23
532.15014
 33
0.0
 14
75.197117
 24
474.65014
 34
0.0
 50
90.0
100
AcDbRotatedDimension
  0
DIMENSION
  5
6EB
330
1F
100
AcDbEntity
  8
LC-001-100-D00-0
 62
     7
370
    25
100
AcDbDimension
  2
*D34
 10
757.555075
 20
442.15014
 30
0.0
 11
702.555075
 21
470.985626
 31
0.0
 70
   160
  1
90
 71
     5
 42
90.0
 53
90.0
  3
LC-DIM-L-0100-02-02
100
AcDbAlignedDimension
 13
457.19732
 23
532.15014
 33
0.0
 14
-88.7848
 24
442.15014
 34
0.0
 50
90.0
100
AcDbRotatedDimension
  0
INSERT
  5
714
330
1F
100
AcDbEntity
  8
LC-001-100-D00-0
 62
     7
370
    25
100
AcDbBlockReference
  2
KLON23
 10
0.0
 20
0.0
 30
0.0
  0
INSERT
  5
730
330
1F
100
AcDbEntity
  8
LC-001-100-D00-0
 62
     7
370
    25
100
AcDbBlockReference
  2
KLON24
 10
0.0
 20
0.0
 30
0.0
  0
INSERT
  5
737
330
1F
100
AcDbEntity
  8
LC-001-100-D00-0
 62
     7
370
    25
100
AcDbBlockReference
  2
KLON25
 10
0.0
 20
0.0
 30
0.0
  0
INSERT
  5
73E
330
1F
100
AcDbEntity
  8
LC-001-100-D00-0
 62
     7
370
    25
100
AcDbBlockReference
  2
KLON26
 10
0.0
 20
0.0
 30
0.0
  0
INSERT
  5
745
330
1F
100
AcDbEntity
  8
LC-001-100-D00-0
 62
     7
370
    25
100
AcDbBlockReference
  2
KLON27
 10
0.0
 20
0.0
 30
0.0
  0
INSERT
  5
74B
330
1F
100
AcDbEntity
  8
LC-001-100-D00-0
 62
     7
370
    25
100
AcDbBlockReference
  2
KLON28
 10
0.0
 20
0.0
 30
0.0
  0
INSERT
  5
757
330
1F
100
AcDbEntity
  8
LC-001-100-D00-0
 62
     7
370
    25
100
AcDbBlockReference
  2
KLON29
 10
0.0
 20
0.0
 30
0.0
  0
INSERT
  5
764
330
1F
100
AcDbEntity
  8
LC-001-100-D00-0
 62
     7
370
    25
100
AcDbBlockReference
  2
KLON30
 10
0.0
 20
0.0
 30
0.0
  0
INSERT
  5
76A
330
1F
100
AcDbEntity
  8
LC-001-100-D00-0
 62
     7
370
    25
100
AcDbBlockReference
  2
KLON31
 10
0.0
 20
0.0
 30
0.0
  0
LINE
  5
76B
330
1F
100
AcDbEntity
  8
LC-001-100-D00-0
 62
     7
370
    50
100
AcDbLine
 10
-78.837311
 20
501.15014
 30
0.0
 11
-77.80268
 21
502.184772
 31
0.0
  0
INSERT
  5
771
330
1F
100
AcDbEntity
  8
LC-001-100-D00-0
 62
     7
370
    25
100
AcDbBlockReference
  2
KLON32
 10
0.0
 20
0.0
 30
0.0
  0
LINE
  5
772
330
1F
100
AcDbEntity
  8
LC-001-100-D00-0
 62
     7
370
    25
100
AcDbLine
 10
-212.541148
 20
502.15014
 30
0.0
 11
-209.541149
 21
505.15014
 31
0.0
  0
LINE
  5
773
330
1F
100
AcDbEntity
  8
LC-001-100-D00-0
 62
     7
370
    25
100
AcDbLine
 10
-515.886013
 20
522.094485
 30
0.0
 11
-510.036013
 21
527.944485
 31
0.0
  0
LINE
  5
774
330
1F
100
AcDbEntity
  8
LC-001-100-D00-0
 62
     7
370
    25
100
AcDbLine
 10
-497.88959
 20
513.15014
 30
0.0
 11
-496.386013
 21
514.653717
 31
0.0
  0
LINE
  5
775
330
1F
100
AcDbEntity
  8
LC-001-100-D00-0
 62
     7
370
    25
100
AcDbLine
 10
104.113987
 20
522.456835
 30
0.0
 11
109.963987
 21
528.306836
 31
0.0
  0
LINE
  5
776
330
1F
100
AcDbEntity
  8
LC-001-100-D00-0
 62
     7
370
    25
100
AcDbLine
 10
121.748059
 20
513.15014
 30
0.0
 11
123.613987
 21
515.016067
 31
0.0
  0
LINE
  5
777
330
1F
100
AcDbEntity
  8
LC-001-100-D00-0
 62
     7
370
    25
100
AcDbLine
 10
210.780653
 20
521.360432
 30
0.0
 11
216.630653
 21
527.210433
 31
0.0
  0
LINE
  5
778
330
1F
100
AcDbEntity
  8
LC-001-100-D00-0
 62
     7
370
    50
100
AcDbLine
 10
229.547348
 20
513.186359
 30
0.0
 11
230.244434
 21
513.883446
 31
0.0
  0
LINE
  5
779
330
1F
100
AcDbEntity
  8
LC-001-100-D00-0
 62
     7
370
    25
100
AcDbLine
 10
-409.219347
 20
520.998082
 30
0.0
 11
-403.369347
 21
526.848083
 31
0.0
  0
INSERT
  5
77F
330
1F
100
AcDbEntity
  8
LC-001-100-D00-0
 62
     7
370
    25
100
AcDbBlockReference
  2
KLON33
 10
0.0
 20
0.0
 30
0.0
  0
LINE
  5
780
330
1F
100
AcDbEntity
  8
LC-001-100-D00-0
 62
     7
370
    25
100
AcDbLine
 10
-238.90268
 20
529.670145
 30
0.0
 11
-236.422685
 21
532.15014
 31
0.0
  0
LINE
  5
781
330
1F
100
AcDbEntity
  8
LC-001-100-D00-0
 62
     7
370
    50
100
AcDbLine
 10
-249.153533
 20
519.419291
 30
0.0
 11
-247.422685
 21
521.15014
 31
0.0
  0
LINE
  5
782
330
1F
100
AcDbEntity
  8
LC-001-100-D00-0
 62
     7
370
    25
100
AcDbLine
 10
-672.55268
 20
527.072423
 30
0.0
 11
-667.474963
 21
532.15014
 31
0.0
  0
INSERT
  5
788
330
1F
100
AcDbEntity
  8
LC-001-100-D00-0
 62
     7
370
    25
100
AcDbBlockReference
  2
KLON34
 10
0.0
 20
0.0
 30
0.0
  0
LINE
  5
789
330
1F
100
AcDbEntity
  8
LC-001-100-D00-0
 62
     7
370
    50
100
AcDbLine
 10
-658.968437
 20
513.715897
 30
0.0
 11
-657.291397
 21
515.392938
 31
0.0
  0
LINE
  5
78A
330
1F
100
AcDbEntity
  8
LC-001-100-D00-0
 62
     7
370
    25
100
AcDbLine
 10
-52.55268
 20
527.434773
 30
0.0
 11
-47.837314
 21
532.15014
 31
0.0
  0
INSERT
  5
790
330
1F
100
AcDbEntity
  8
LC-001-100-D00-0
 62
     7
370
    25
100
AcDbBlockReference
  2
KLON35
 10
0.0
 20
0.0
 30
0.0
  0
LINE
  5
791
330
1F
100
AcDbEntity
  8
LC-001-100-D00-0
 62
     7
370
    50
100
AcDbLine
 10
-39.149613
 20
513.897073
 30
0.0
 11
-37.484857
 21
515.561828
 31
0.0
  0
INSERT
  5
797
330
1F
100
AcDbEntity
  8
LC-001-100-D00-0
 62
     7
370
    25
100
AcDbBlockReference
  2
KLON36
 10
0.0
 20
0.0
 30
0.0
  0
LINE
  5
798
330
1F
100
AcDbEntity
  8
LC-001-100-D00-0
 62
     7
370
    25
100
AcDbLine
 10
381.09732
 20
530.032496
 30
0.0
 11
383.214964
 21
532.15014
 31
0.0
  0
LINE
  5
799
330
1F
100
AcDbEntity
  8
LC-001-100-D00-0
 62
     7
370
    50
100
AcDbLine
 10
370.846467
 20
519.781642
 30
0.0
 11
372.214965
 21
521.15014
 31
0.0
  0
LINE
  5
79A
330
1F
100
AcDbEntity
  8
LC-001-100-D00-0
  6
DASHDOT
 62
     7
370
    25
100
AcDbLine
 10
75.197117
 20
474.65014
 30
0.0
 11
-31.827899
 21
474.65014
 31
0.0
  0
LINE
  5
79B
330
1F
100
AcDbEntity
  8
LC-001-100-D00-0
  6
DASHDOT
 62
     7
370
    25
100
AcDbLine
 10
-142.80268
 20
578.15014
 30
0.0
 11
-142.80268
 21
437.65014
 31
0.0
  0
LINE
  5
79C
330
1F
100
AcDbEntity
  8
LC-001-100-D00-0
  6
DASHDOT
 62
     7
370
    25
100
AcDbLine
 10
377.19732
 20
502.15014
 30
0.0
 11
377.19732
 21
540.15014
 31
0.0
  0
LINE
  5
79D
330
1F
100
AcDbEntity
  8
LC-001-100-D00-0
  6
DASHDOT
 62
     7
370
    25
100
AcDbLine
 10
220.530653
 20
502.15014
 30
0.0
 11
220.530653
 21
540.15014
 31
0.0
  0
LINE
  5
79E
330
1F
100
AcDbEntity
  8
LC-001-100-D00-0
  6
DASHDOT
 62
     7
370
    25
100
AcDbLine
 10
113.863987
 20
502.15014
 30
0.0
 11
113.863987
 21
540.15014
 31
0.0
  0
LINE
  5
79F
330
1F
100
AcDbEntity
  8
LC-001-100-D00-0
  6
DASHDOT
 62
     7
370
    25
100
AcDbLine
 10
-42.80268
 20
502.15014
 30
0.0
 11
-42.80268
 21
540.15014
 31
0.0
  0
LINE
  5
7A0
330
1F
100
AcDbEntity
  8
LC-001-100-D00-0
  6
DASHDOT
 62
     7
370
    25
100
AcDbLine
 10
-242.80268
 20
502.15014
 30
0.0
 11
-242.80268
 21
540.15014
 31
0.0
  0
LINE
  5
7A1
330
1F
100
AcDbEntity
  8
LC-001-100-D00-0
  6
DASHDOT
 62
     7
370
    25
100
AcDbLine
 10
-399.469347
 20
502.15014
 30
0.0
 11
-399.469347
 21
540.15014
 31
0.0
  0
LINE
  5
7A2
330
1F
100
AcDbEntity
  8
LC-001-100-D00-0
  6
DASHDOT
 62
     7
370
    25
100
AcDbLine
 10
-506.136013
 20
502.15014
 30
0.0
 11
-506.136013
 21
540.15014
 31
0.0
  0
LINE
  5
7A3
330
1F
100
AcDbEntity
  8
LC-001-100-D00-0
  6
DASHDOT
 62
     7
370
    25
100
AcDbLine
 10
-662.80268
 20
502.15014
 30
0.0
 11
-662.80268
 21
540.15014
 31
0.0
  0
ENDSEC
  0
SECTION
  2
OBJECTS
  0
DICTIONARY
  5
C
330
0
100
AcDbDictionary
281
     1
  3
ACAD_GROUP
350
D
  3
ACAD_LAYOUT
350
1A
  3
ACAD_MLINESTYLE
350
17
  3
ACAD_PLOTSETTINGS
350
19
  3
ACAD_PLOTSTYLENAME
350
E
  0
DICTIONARY
  5
D
102
{ACAD_REACTORS
330
C
102
}
330
C
100
AcDbDictionary
281
     1
  0
DICTIONARY
  5
1A
102
{ACAD_REACTORS
330
C
102
}
330
C
100
AcDbDictionary
281
     1
  3
Layout1
350
1E
  3
Layout2
350
26
  3
Model
350
22
  0
DICTIONARY
  5
17
102
{ACAD_REACTORS
330
C
102
}
330
C
100
AcDbDictionary
281
     1
  3
Standard
350
18
  0
DICTIONARY
  5
19
102
{ACAD_REACTORS
330
C
102
}
330
C
100
AcDbDictionary
281
     1
  0
ACDBDICTIONARYWDFLT
  5
E
102
{ACAD_REACTORS
330
C
102
}
330
C
100
AcDbDictionary
281
     1
  3
Normal
350
F
100
AcDbDictionaryWithDefault
340
F
  0
LAYOUT
  5
1E
102
{ACAD_REACTORS
330
1A
102
}
330
1A
100
AcDbPlotSettings
  1

  2

  4

  6

 40
0.0
 41
0.0
 42
0.0
 43
0.0
 44
0.0
 45
0.0
 46
0.0
 47
0.0
 48
0.0
 49
0.0
140
0.0
141
0.0
142
1.0
143
1.0
 70
   688
 72
     0
 73
     0
 74
     5
  7

 75
    16
147
1.0
148
0.0
149
0.0
100
AcDbLayout
  1
Layout1
 70
     1
 71
     1
 10
-859.788487
 20
-614.549374
 11
1240.211513
 21
870.450626
 12
0.0
 22
0.0
 32
0.0
 14
-859.788487
 24
-614.549374
 34
0.0
 15
1240.211513
 25
870.450626
 35
0.0
146
0.0
 13
0.0
 23
0.0
 33
0.0
 16
1.0
 26
0.0
 36
0.0
 17
0.0
 27
1.0
 37
0.0
 76
     0
330
1B
  0
LAYOUT
  5
26
102
{ACAD_REACTORS
330
1A
102
}
330
1A
100
AcDbPlotSettings
  1

  2

  4

  6

 40
0.0
 41
0.0
 42
0.0
 43
0.0
 44
0.0
 45
0.0
 46
0.0
 47
0.0
 48
0.0
 49
0.0
140
0.0
141
0.0
142
1.0
143
1.0
 70
   688
 72
     0
 73
     0
 74
     5
  7

 75
    16
147
1.0
148
0.0
149
0.0
100
AcDbLayout
  1
Layout2
 70
     1
 71
     2
 10
0.0
 20
0.0
 11
0.0
 21
0.0
 12
0.0
 22
0.0
 32
0.0
 14
0.0
 24
0.0
 34
0.0
 15
0.0
 25
0.0
 35
0.0
146
0.0
 13
0.0
 23
0.0
 33
0.0
 16
1.0
 26
0.0
 36
0.0
 17
0.0
 27
1.0
 37
0.0
 76
     0
330
23
  0
LAYOUT
  5
22
102
{ACAD_REACTORS
330
1A
102
}
330
1A
100
AcDbPlotSettings
  1

  2

  4

  6

 40
0.0
 41
0.0
 42
0.0
 43
0.0
 44
0.0
 45
0.0
 46
0.0
 47
0.0
 48
0.0
 49
0.0
140
0.0
141
0.0
142
1.0
143
1.0
 70
  1776
 72
     0
 73
     0
 74
     0
  7

 75
     0
147
1.0
148
0.0
149
0.0
100
AcDbLayout
  1
Model
 70
     1
 71
     0
 10
-859.788487
 20
-614.549374
 11
1240.211513
 21
870.450626
 12
0.0
 22
0.0
 32
0.0
 14
-859.788487
 24
-614.549374
 34
0.0
 15
1240.211513
 25
870.450626
 35
0.0
146
0.0
 13
0.0
 23
0.0
 33
0.0
 16
1.0
 26
0.0
 36
0.0
 17
0.0
 27
1.0
 37
0.0
 76
     0
330
1F
  0
MLINESTYLE
  5
18
102
{ACAD_REACTORS
330
17
102
}
330
17
100
AcDbMlineStyle
  2
Standard
 70
     0
  3

 62
   256
 51
90.0
 52
90.0
 71
     2
 49
0.5
 62
   256
  6
BYLAYER
 49
-0.5
 62
   256
  6
BYLAYER
  0
ACDBPLACEHOLDER
  5
F
102
{ACAD_REACTORS
330
E
102
}
330
E
  0
ENDSEC
  0
EOF
