  0
SECTION
  2
HEADER
  9
$ACADVER
  1
AC1015
  9
$ACADMAINTVER
 70
     6
  9
$DWGCODEPAGE
  3
ANSI_1252
  9
$INSBASE
 10
0.0
 20
0.0
 30
0.0
  9
$EXTMIN
 10
-858.444151
 20
-612.994775
 30
0.0
  9
$EXTMAX
 10
1241.555849
 20
872.005225
 30
0.0
  9
$LIMMIN
 10
-858.444151
 20
-612.994775
  9
$LIMMAX
 10
1241.555849
 20
872.005225
  9
$ORTHOMODE
 70
     0
  9
$REGENMODE
 70
     1
  9
$FILLMODE
 70
     1
  9
$QTEXTMODE
 70
     0
  9
$MIRRTEXT
 70
     1
  9
$LTSCALE
 40
5.0
  9
$ATTMODE
 70
     1
  9
$TEXTSIZE
 40
2.5
  9
$TRACEWID
 40
1.0
  9
$TEXTSTYLE
  7
Standard
  9
$CLAYER
  8
0
  9
$CELTYPE
  6
ByLayer
  9
$CECOLOR
 62
     7
  9
$CELTSCALE
 40
1.0
  9
$DISPSILH
 70
     0
  9
$DIMSCALE
 40
5.0
  9
$DIMASZ
 40
3.5
  9
$DIMEXO
 40
0.625
  9
$DIMDLI
 40
3.75
  9
$DIMRND
 40
0.0
  9
$DIMDLE
 40
0.0
  9
$DIMEXE
 40
1.25
  9
$DIMTP
 40
0.0
  9
$DIMTM
 40
0.0
  9
$DIMTXT
 40
3.5
  9
$DIMCEN
 40
2.5
  9
$DIMTSZ
 40
0.0
  9
$DIMTOL
 70
     0
  9
$DIMLIM
 70
     0
  9
$DIMTIH
 70
     0
  9
$DIMTOH
 70
     0
  9
$DIMSE1
 70
     0
  9
$DIMSE2
 70
     0
  9
$DIMTAD
 70
     1
  9
$DIMZIN
 70
     8
  9
$DIMBLK
  1

  9
$DIMASO
 70
     1
  9
$DIMSHO
 70
     1
  9
$DIMPOST
  1

  9
$DIMAPOST
  1

  9
$DIMALT
 70
     0
  9
$DIMALTD
 70
     3
  9
$DIMALTF
 40
0.03937
  9
$DIMLFAC
 40
1.0
  9
$DIMTOFL
 70
     1
  9
$DIMTVP
 40
0.0
  9
$DIMTIX
 70
     0
  9
$DIMSOXD
 70
     0
  9
$DIMSAH
 70
     0
  9
$DIMBLK1
  1

  9
$DIMBLK2
  1

  9
$DIMSTYLE
  2
ISO-25
  9
$DIMCLRD
 70
     0
  9
$DIMCLRE
 70
     0
  9
$DIMCLRT
 70
     0
  9
$DIMTFAC
 40
1.0
  9
$DIMGAP
 40
0.625
  9
$DIMJUST
 70
     0
  9
$DIMSD1
 70
     0
  9
$DIMSD2
 70
     0
  9
$DIMTOLJ
 70
     0
  9
$DIMTZIN
 70
     8
  9
$DIMALTZ
 70
     0
  9
$DIMALTTZ
 70
     0
  9
$DIMUPT
 70
     0
  9
$DIMDEC
 70
     2
  9
$DIMTDEC
 70
     2
  9
$DIMALTU
 70
     2
  9
$DIMALTTD
 70
     3
  9
$DIMTXSTY
  7
Standard
  9
$DIMAUNIT
 70
     0
  9
$DIMADEC
 70
     0
  9
$DIMALTRND
 40
0.0
  9
$DIMAZIN
 70
     0
  9
$DIMDSEP
 70
    44
  9
$DIMATFIT
 70
     3
  9
$DIMFRAC
 70
     0
  9
$DIMLDRBLK
  1

  9
$DIMLUNIT
 70
     2
  9
$DIMLWD
 70
    -2
  9
$DIMLWE
 70
    -2
  9
$DIMTMOVE
 70
     0
  9
$LUNITS
 70
     2
  9
$LUPREC
 70
     4
  9
$SKETCHINC
 40
1.0
  9
$FILLETRAD
 40
10.0
  9
$AUNITS
 70
     0
  9
$AUPREC
 70
     0
  9
$MENU
  1
.
  9
$ELEVATION
 40
0.0
  9
$PELEVATION
 40
0.0
  9
$THICKNESS
 40
0.0
  9
$LIMCHECK
 70
     0
  9
$CHAMFERA
 40
10.0
  9
$CHAMFERB
 40
10.0
  9
$CHAMFERC
 40
20.0
  9
$CHAMFERD
 40
0.0
  9
$SKPOLY
 70
     0
  9
$TDCREATE
 40
2455421.484173403
  9
$TDUCREATE
 40
2455421.40084007
  9
$TDUPDATE
 40
2455421.484173414
  9
$TDUUPDATE
 40
2455421.400840081
  9
$TDINDWG
 40
0.0000000116
  9
$TDUSRTIMER
 40
0.0000000116
  9
$USRTIMER
 70
     1
  9
$ANGBASE
 50
0.0
  9
$ANGDIR
 70
     0
  9
$PDMODE
 70
     0
  9
$PDSIZE
 40
0.0
  9
$PLINEWID
 40
0.0
  9
$SPLFRAME
 70
     0
  9
$SPLINETYPE
 70
     6
  9
$SPLINESEGS
 70
     8
  9
$HANDSEED
  5
6FA
  9
$SURFTAB1
 70
     6
  9
$SURFTAB2
 70
     6
  9
$SURFTYPE
 70
     6
  9
$SURFU
 70
     6
  9
$SURFV
 70
     6
  9
$UCSBASE
  2

  9
$UCSNAME
  2

  9
$UCSORG
 10
0.0
 20
0.0
 30
0.0
  9
$UCSXDIR
 10
1.0
 20
0.0
 30
0.0
  9
$UCSYDIR
 10
0.0
 20
1.0
 30
0.0
  9
$UCSORTHOREF
  2

  9
$UCSORTHOVIEW
 70
     0
  9
$UCSORGTOP
 10
0.0
 20
0.0
 30
0.0
  9
$UCSORGBOTTOM
 10
0.0
 20
0.0
 30
0.0
  9
$UCSORGLEFT
 10
0.0
 20
0.0
 30
0.0
  9
$UCSORGRIGHT
 10
0.0
 20
0.0
 30
0.0
  9
$UCSORGFRONT
 10
0.0
 20
0.0
 30
0.0
  9
$UCSORGBACK
 10
0.0
 20
0.0
 30
0.0
  9
$PUCSBASE
  2

  9
$PUCSNAME
  2

  9
$PUCSORG
 10
0.0
 20
0.0
 30
0.0
  9
$PUCSXDIR
 10
1.0
 20
0.0
 30
0.0
  9
$PUCSYDIR
 10
0.0
 20
1.0
 30
0.0
  9
$PUCSORTHOREF
  2

  9
$PUCSORTHOVIEW
 70
     0
  9
$PUCSORGTOP
 10
0.0
 20
0.0
 30
0.0
  9
$PUCSORGBOTTOM
 10
0.0
 20
0.0
 30
0.0
  9
$PUCSORGLEFT
 10
0.0
 20
0.0
 30
0.0
  9
$PUCSORGRIGHT
 10
0.0
 20
0.0
 30
0.0
  9
$PUCSORGFRONT
 10
0.0
 20
0.0
 30
0.0
  9
$PUCSORGBACK
 10
0.0
 20
0.0
 30
0.0
  9
$USERI1
 70
     0
  9
$USERI2
 70
     0
  9
$USERI3
 70
     0
  9
$USERI4
 70
     0
  9
$USERI5
 70
     0
  9
$USERR1
 40
0.0
  9
$USERR2
 40
0.0
  9
$USERR3
 40
0.0
  9
$USERR4
 40
0.0
  9
$USERR5
 40
0.0
  9
$WORLDVIEW
 70
     1
  9
$SHADEDGE
 70
     3
  9
$SHADEDIF
 70
    70
  9
$TILEMODE
 70
     1
  9
$MAXACTVP
 70
    64
  9
$PINSBASE
 10
0.0
 20
0.0
 30
0.0
  9
$PLIMCHECK
 70
     0
  9
$PEXTMIN
 10
-858.444151
 20
-612.994775
 30
0.0
  9
$PEXTMAX
 10
1241.555849
 20
872.005225
 30
0.0
  9
$PLIMMIN
 10
-858.444151
 20
-612.994775
  9
$PLIMMAX
 10
1241.555849
 20
872.005225
  9
$UNITMODE
 70
     0
  9
$VISRETAIN
 70
     1
  9
$PLINEGEN
 70
     0
  9
$PSLTSCALE
 70
     1
  9
$TREEDEPTH
 70
  3020
  9
$CMLSTYLE
  2
Standard
  9
$CMLJUST
 70
     0
  9
$CMLSCALE
 40
20.0
  9
$PROXYGRAPHICS
 70
     1
  9
$MEASUREMENT
 70
     1
  9
$CELWEIGHT
370
    -1
  9
$ENDCAPS
280
     0
  9
$JOINSTYLE
280
     0
  9
$LWDISPLAY
290
     0
  9
$INSUNITS
 70
     4
  9
$HYPERLINKBASE
  1

  9
$STYLESHEET
  1

  9
$XEDIT
290
     1
  9
$CEPSNTYPE
380
     0
  9
$PSTYLEMODE
290
     1
  9
$FINGERPRINTGUID
  2
{FAEB1C30-E019-11D5-929B-00C0DF256EC4}
  9
$VERSIONGUID
  2
{FAEB1C32-E019-11D5-929B-00C0DF256EC4}
  9
$EXTNAMES
290
     1
  9
$PSVPSCALE
 40
0.0
  9
$OLESTARTUP
290
     0
  0
ENDSEC
  0
SECTION
  2
CLASSES
  0
CLASS
  1
ACDBDICTIONARYWDFLT
  2
AcDbDictionaryWithDefault
  3
ObjectDBX Classes
 90
        0
280
     0
281
     0
  0
CLASS
  1
ACDBPLACEHOLDER
  2
AcDbPlaceHolder
  3
ObjectDBX Classes
 90
        0
280
     0
281
     0
  0
CLASS
  1
LAYOUT
  2
AcDbLayout
  3
ObjectDBX Classes
 90
        0
280
     0
281
     0
  0
ENDSEC
  0
SECTION
  2
TABLES
  0
TABLE
  2
VPORT
  5
8
330
0
100
AcDbSymbolTable
 70
     2
  0
VPORT
  5
29
330
8
100
AcDbSymbolTableRecord
100
AcDbViewportTableRecord
  2
*ACTIVE
 70
     0
 10
0.0
 20
0.0
 11
1.0
 21
1.0
 12
191.555849
 22
129.505225
 13
0.0
 23
0.0
 14
1.0
 24
1.0
 15
0.0
 25
0.0
 16
0.0
 26
0.0
 36
1.0
 17
0.0
 27
0.0
 37
0.0
 40
1485.0
 41
1.414141
 42
50.0
 43
0.0
 44
0.0
 50
0.0
 51
0.0
 71
    16
 72
   100
 73
     1
 74
     0
 75
     0
 76
     0
 77
     0
 78
     0
281
     0
 65
     0
110
0.0
120
0.0
130
0.0
111
1.0
121
0.0
131
0.0
112
0.0
122
1.0
132
0.0
 79
     0
146
0.0
  0
ENDTAB
  0
TABLE
  2
LTYPE
  5
5
330
0
100
AcDbSymbolTable
 70
     3
  0
LTYPE
  5
14
330
5
100
AcDbSymbolTableRecord
100
AcDbLinetypeTableRecord
  2
ByBlock
 70
     0
  3

 72
    65
 73
     0
 40
0.0
  0
LTYPE
  5
15
330
5
100
AcDbSymbolTableRecord
100
AcDbLinetypeTableRecord
  2
ByLayer
 70
     0
  3

 72
    65
 73
     0
 40
0.0
  0
LTYPE
  5
16
330
5
100
AcDbSymbolTableRecord
100
AcDbLinetypeTableRecord
  2
Continuous
 70
     0
  3
Solid line
 72
    65
 73
     0
 40
0.0
  0
LTYPE
  5
2A
330
5
100
AcDbSymbolTableRecord
100
AcDbLinetypeTableRecord
  2
DASHED
 70
     0
  3
__ __ __ __ __
 72
    65
 73
     2
 40
6.25
 49
5.0
 74
     4
 75
     0
340
0
 46
1.0
 50
0.0
 44
0.0
 45
0.0
 49
-1.25
 74
     4
 75
     0
340
0
 46
1.0
 50
0.0
 44
0.0
 45
0.0
  0
LTYPE
  5
E6
330
5
100
AcDbSymbolTableRecord
100
AcDbLinetypeTableRecord
  2
DASHDOT
 70
     0
  3
__ . __ . __ . __ . __
 72
    65
 73
     4
 40
7.5
 49
5.0
 74
     4
 75
     0
340
0
 46
1.0
 50
0.0
 44
0.0
 45
0.0
 49
-1.25
 74
     4
 75
     0
340
0
 46
1.0
 50
0.0
 44
0.0
 45
0.0
 49
0.0
 74
     4
 75
     0
340
0
 46
1.0
 50
0.0
 44
0.0
 45
0.0
 49
-1.25
 74
     4
 75
     0
340
0
 46
1.0
 50
0.0
 44
0.0
 45
0.0
  0
ENDTAB
  0
TABLE
  2
LAYER
  5
2
330
0
100
AcDbSymbolTable
 70
     7
  0
LAYER
  5
10
330
2
100
AcDbSymbolTableRecord
100
AcDbLayerTableRecord
  2
0
 70
     0
 62
     7
  6
Continuous
370
    -3
390
F
  0
LAYER
  5
2B
330
2
100
AcDbSymbolTableRecord
100
AcDbLayerTableRecord
  2
LC-INFO-1-5-mm-A3-0
 70
     1
 62
     7
  6
ByBlock
370
    -3
390
F
  0
LAYER
  5
2C
330
2
100
AcDbSymbolTableRecord
100
AcDbLayerTableRecord
  2
LC-CUT-HIDDEN
 70
     0
 62
     7
  6
DASHED
370
    -3
390
F
  0
LAYER
  5
2D
330
2
100
AcDbSymbolTableRecord
100
AcDbLayerTableRecord
  2
LC-VIEWPORT
 70
     0
 62
     7
  6
ByBlock
370
    -3
390
F
  0
LAYER
  5
2E
330
2
100
AcDbSymbolTableRecord
100
AcDbLayerTableRecord
  2
LC-3D-HIDDEN
 70
     0
 62
     9
  6
DASHED
370
    -3
390
F
  0
LAYER
  5
30
330
2
100
AcDbSymbolTableRecord
100
AcDbLayerTableRecord
  2
LC-001-100-D00-0
 70
     0
 62
     1
  6
ByBlock
370
    -3
390
F
  0
LAYER
  5
D7
330
2
100
AcDbSymbolTableRecord
100
AcDbLayerTableRecord
  2
Defpoints
 70
     0
 62
     7
  6
Continuous
290
     0
370
    -3
390
F
  0
ENDTAB
  0
TABLE
  2
STYLE
  5
3
330
0
100
AcDbSymbolTable
 70
     3
  0
STYLE
  5
11
330
3
100
AcDbSymbolTableRecord
100
AcDbTextStyleTableRecord
  2
Standard
 70
     0
 40
0.0
 41
1.0
 50
0.0
 71
     0
 42
2.5
  3
txt
  4

  0
STYLE
  5
2F
330
3
100
AcDbSymbolTableRecord
100
AcDbTextStyleTableRecord
  2
LCTX15-400-0-0-Arial
 70
     0
 40
0.0
 41
0.8
 50
0.0
 71
     0
 42
3.5
  3

  4

1001
ACAD
1000
Arial
1071
 16777218
  0
STYLE
  5
D4
330
3
100
AcDbSymbolTableRecord
100
AcDbTextStyleTableRecord
  2
LCTX15-400-0-0pDIN-Schrift
 70
     0
 40
2.5
 41
0.8
 50
15.0
 71
     0
 42
3.5
  3
STANDARD
  4

  0
ENDTAB
  0
TABLE
  2
VIEW
  5
6
330
0
100
AcDbSymbolTable
 70
     0
  0
ENDTAB
  0
TABLE
  2
UCS
  5
7
330
0
100
AcDbSymbolTable
 70
     0
  0
ENDTAB
  0
TABLE
  2
APPID
  5
9
330
0
100
AcDbSymbolTable
 70
     1
  0
APPID
  5
12
330
9
100
AcDbSymbolTableRecord
100
AcDbRegAppTableRecord
  2
ACAD
 70
     0
  0
ENDTAB
  0
TABLE
  2
DIMSTYLE
  5
A
330
0
100
AcDbSymbolTable
 70
     2
100
AcDbDimStyleTable
  0
DIMSTYLE
105
27
330
A
100
AcDbSymbolTableRecord
100
AcDbDimStyleTableRecord
  2
ISO-25
 70
     0
 41
2.5
 42
0.625
 43
3.75
 44
1.25
 73
     0
 74
     0
 77
     1
 78
     8
140
2.5
141
2.5
143
0.03937
147
0.625
171
     3
172
     1
271
     2
272
     2
274
     3
278
    44
283
     0
284
     8
340
11
  0
DIMSTYLE
105
D5
102
{ACAD_REACTORS
330
D6
330
212
330
220
330
22E
330
5D2
330
5E0
330
5EF
330
5FD
330
60A
330
617
330
624
330
632
102
}
330
A
100
AcDbSymbolTableRecord
100
AcDbDimStyleTableRecord
  2
LC-DIM-L-0100-02-02
 70
     0
 40
5.0
 41
10.0
 42
0.0
 43
7.5
 44
1.8
 73
     0
 74
     0
 77
     1
 78
     8
 79
     2
140
10.0
141
0.0
146
0.71
147
1.5
176
     2
177
     2
178
     2
179
     2
271
     2
278
    44
289
     1
340
D4
  0
ENDTAB
  0
TABLE
  2
BLOCK_RECORD
  5
1
330
0
100
AcDbSymbolTable
 70
    51
  0
BLOCK_RECORD
  5
1F
330
1
100
AcDbSymbolTableRecord
100
AcDbBlockTableRecord
  2
*Model_Space
340
22
  0
BLOCK_RECORD
  5
1B
330
1
100
AcDbSymbolTableRecord
100
AcDbBlockTableRecord
  2
*Paper_Space
340
1E
  0
BLOCK_RECORD
  5
23
330
1
100
AcDbSymbolTableRecord
100
AcDbBlockTableRecord
  2
*Paper_Space0
340
26
  0
BLOCK_RECORD
  5
D8
330
1
100
AcDbSymbolTableRecord
100
AcDbBlockTableRecord
  2
*D1
340
0
  0
BLOCK_RECORD
  5
108
330
1
100
AcDbSymbolTableRecord
100
AcDbBlockTableRecord
  2
KLON1
340
0
102
{BLKREFS
331
10F
102
}
  0
BLOCK_RECORD
  5
111
330
1
100
AcDbSymbolTableRecord
100
AcDbBlockTableRecord
  2
KLON2
340
0
102
{BLKREFS
331
116
102
}
  0
BLOCK_RECORD
  5
117
330
1
100
AcDbSymbolTableRecord
100
AcDbBlockTableRecord
  2
KLON3
340
0
102
{BLKREFS
331
11C
102
}
  0
BLOCK_RECORD
  5
11D
330
1
100
AcDbSymbolTableRecord
100
AcDbBlockTableRecord
  2
KLON4
340
0
102
{BLKREFS
331
122
102
}
  0
BLOCK_RECORD
  5
123
330
1
100
AcDbSymbolTableRecord
100
AcDbBlockTableRecord
  2
KLON5
340
0
102
{BLKREFS
331
128
102
}
  0
BLOCK_RECORD
  5
12A
330
1
100
AcDbSymbolTableRecord
100
AcDbBlockTableRecord
  2
KLON6
340
0
102
{BLKREFS
331
131
102
}
  0
BLOCK_RECORD
  5
141
330
1
100
AcDbSymbolTableRecord
100
AcDbBlockTableRecord
  2
KLON7
340
0
102
{BLKREFS
331
146
102
}
  0
BLOCK_RECORD
  5
147
330
1
100
AcDbSymbolTableRecord
100
AcDbBlockTableRecord
  2
KLON8
340
0
102
{BLKREFS
331
14C
102
}
  0
BLOCK_RECORD
  5
14E
330
1
100
AcDbSymbolTableRecord
100
AcDbBlockTableRecord
  2
KLON9
340
0
102
{BLKREFS
331
154
102
}
  0
BLOCK_RECORD
  5
155
330
1
100
AcDbSymbolTableRecord
100
AcDbBlockTableRecord
  2
KLON10
340
0
102
{BLKREFS
331
15A
102
}
  0
BLOCK_RECORD
  5
15B
330
1
100
AcDbSymbolTableRecord
100
AcDbBlockTableRecord
  2
KLON11
340
0
102
{BLKREFS
331
161
102
}
  0
BLOCK_RECORD
  5
162
330
1
100
AcDbSymbolTableRecord
100
AcDbBlockTableRecord
  2
KLON12
340
0
102
{BLKREFS
331
168
102
}
  0
BLOCK_RECORD
  5
169
330
1
100
AcDbSymbolTableRecord
100
AcDbBlockTableRecord
  2
KLON13
340
0
102
{BLKREFS
331
16F
102
}
  0
BLOCK_RECORD
  5
170
330
1
100
AcDbSymbolTableRecord
100
AcDbBlockTableRecord
  2
KLON14
340
0
102
{BLKREFS
331
175
102
}
  0
BLOCK_RECORD
  5
213
330
1
100
AcDbSymbolTableRecord
100
AcDbBlockTableRecord
  2
*D16
340
0
  0
BLOCK_RECORD
  5
221
330
1
100
AcDbSymbolTableRecord
100
AcDbBlockTableRecord
  2
*D17
340
0
  0
BLOCK_RECORD
  5
22F
330
1
100
AcDbSymbolTableRecord
100
AcDbBlockTableRecord
  2
*D18
340
0
  0
BLOCK_RECORD
  5
41D
330
1
100
AcDbSymbolTableRecord
100
AcDbBlockTableRecord
  2
KLON15
340
0
102
{BLKREFS
331
42D
102
}
  0
BLOCK_RECORD
  5
42E
330
1
100
AcDbSymbolTableRecord
100
AcDbBlockTableRecord
  2
KLON16
340
0
102
{BLKREFS
331
441
102
}
  0
BLOCK_RECORD
  5
445
330
1
100
AcDbSymbolTableRecord
100
AcDbBlockTableRecord
  2
KLON17
340
0
102
{BLKREFS
331
44A
102
}
  0
BLOCK_RECORD
  5
573
330
1
100
AcDbSymbolTableRecord
100
AcDbBlockTableRecord
  2
KLON18
340
0
102
{BLKREFS
331
57C
102
}
  0
BLOCK_RECORD
  5
57D
330
1
100
AcDbSymbolTableRecord
100
AcDbBlockTableRecord
  2
KLON19
340
0
102
{BLKREFS
331
586
102
}
  0
BLOCK_RECORD
  5
59F
330
1
100
AcDbSymbolTableRecord
100
AcDbBlockTableRecord
  2
KLON20
340
0
102
{BLKREFS
331
5A7
102
}
  0
BLOCK_RECORD
  5
5A8
330
1
100
AcDbSymbolTableRecord
100
AcDbBlockTableRecord
  2
KLON21
340
0
102
{BLKREFS
331
5B4
102
}
  0
BLOCK_RECORD
  5
5B5
330
1
100
AcDbSymbolTableRecord
100
AcDbBlockTableRecord
  2
KLON22
340
0
102
{BLKREFS
331
5C1
102
}
  0
BLOCK_RECORD
  5
5D3
330
1
100
AcDbSymbolTableRecord
100
AcDbBlockTableRecord
  2
*D27
340
0
  0
BLOCK_RECORD
  5
5E1
330
1
100
AcDbSymbolTableRecord
100
AcDbBlockTableRecord
  2
*D28
340
0
  0
BLOCK_RECORD
  5
5F0
330
1
100
AcDbSymbolTableRecord
100
AcDbBlockTableRecord
  2
*D29
340
0
  0
BLOCK_RECORD
  5
5FE
330
1
100
AcDbSymbolTableRecord
100
AcDbBlockTableRecord
  2
*D30
340
0
  0
BLOCK_RECORD
  5
60B
330
1
100
AcDbSymbolTableRecord
100
AcDbBlockTableRecord
  2
*D31
340
0
  0
BLOCK_RECORD
  5
618
330
1
100
AcDbSymbolTableRecord
100
AcDbBlockTableRecord
  2
*D32
340
0
  0
BLOCK_RECORD
  5
625
330
1
100
AcDbSymbolTableRecord
100
AcDbBlockTableRecord
  2
*D33
340
0
  0
BLOCK_RECORD
  5
633
330
1
100
AcDbSymbolTableRecord
100
AcDbBlockTableRecord
  2
*D34
340
0
  0
BLOCK_RECORD
  5
641
330
1
100
AcDbSymbolTableRecord
100
AcDbBlockTableRecord
  2
KLON23
340
0
102
{BLKREFS
331
65D
102
}
  0
BLOCK_RECORD
  5
65E
330
1
100
AcDbSymbolTableRecord
100
AcDbBlockTableRecord
  2
KLON24
340
0
102
{BLKREFS
331
67A
102
}
  0
BLOCK_RECORD
  5
67B
330
1
100
AcDbSymbolTableRecord
100
AcDbBlockTableRecord
  2
KLON25
340
0
102
{BLKREFS
331
688
102
}
  0
BLOCK_RECORD
  5
689
330
1
100
AcDbSymbolTableRecord
100
AcDbBlockTableRecord
  2
KLON26
340
0
102
{BLKREFS
331
68E
102
}
  0
BLOCK_RECORD
  5
691
330
1
100
AcDbSymbolTableRecord
100
AcDbBlockTableRecord
  2
KLON27
340
0
102
{BLKREFS
331
697
102
}
  0
BLOCK_RECORD
  5
698
330
1
100
AcDbSymbolTableRecord
100
AcDbBlockTableRecord
  2
KLON28
340
0
102
{BLKREFS
331
69F
102
}
  0
BLOCK_RECORD
  5
6A0
330
1
100
AcDbSymbolTableRecord
100
AcDbBlockTableRecord
  2
KLON29
340
0
102
{BLKREFS
331
6AC
102
}
  0
BLOCK_RECORD
  5
6AD
330
1
100
AcDbSymbolTableRecord
100
AcDbBlockTableRecord
  2
KLON30
340
0
102
{BLKREFS
331
6B3
102
}
  0
BLOCK_RECORD
  5
6B4
330
1
100
AcDbSymbolTableRecord
100
AcDbBlockTableRecord
  2
KLON31
340
0
102
{BLKREFS
331
6BA
102
}
  0
BLOCK_RECORD
  5
6BB
330
1
100
AcDbSymbolTableRecord
100
AcDbBlockTableRecord
  2
KLON32
340
0
102
{BLKREFS
331
6C0
102
}
  0
BLOCK_RECORD
  5
6C4
330
1
100
AcDbSymbolTableRecord
100
AcDbBlockTableRecord
  2
KLON33
340
0
102
{BLKREFS
331
6C9
102
}
  0
BLOCK_RECORD
  5
6CC
330
1
100
AcDbSymbolTableRecord
100
AcDbBlockTableRecord
  2
KLON34
340
0
102
{BLKREFS
331
6D1
102
}
  0
BLOCK_RECORD
  5
6D4
330
1
100
AcDbSymbolTableRecord
100
AcDbBlockTableRecord
  2
KLON35
340
0
102
{BLKREFS
331
6D9
102
}
  0
BLOCK_RECORD
  5
6DB
330
1
100
AcDbSymbolTableRecord
100
AcDbBlockTableRecord
  2
KLON36
340
0
102
{BLKREFS
331
6E0
102
}
  0
BLOCK_RECORD
  5
6E3
330
1
100
AcDbSymbolTableRecord
100
AcDbBlockTableRecord
  2
KLON37
340
0
102
{BLKREFS
331
6EA
102
}
  0
BLOCK_RECORD
  5
6EC
330
1
100
AcDbSymbolTableRecord
100
AcDbBlockTableRecord
  2
KLON38
340
0
102
{BLKREFS
331
6F1
102
}
  0
ENDTAB
  0
ENDSEC
  0
SECTION
  2
BLOCKS
  0
BLOCK
  5
20
330
1F
100
AcDbEntity
  8
0
100
AcDbBlockBegin
  2
*Model_Space
 70
     0
 71
     0
 10
0.0
 20
0.0
 30
0.0
  3
*Model_Space
  1

  0
ENDBLK
  5
21
330
1F
100
AcDbEntity
  8
0
100
AcDbBlockEnd
  0
BLOCK
  5
1C
330
1B
100
AcDbEntity
 67
     1
  8
0
100
AcDbBlockBegin
  2
*Paper_Space
 70
     0
 71
     0
 10
0.0
 20
0.0
 30
0.0
  3
*Paper_Space
  1

  0
ENDBLK
  5
1D
330
1B
100
AcDbEntity
 67
     1
  8
0
100
AcDbBlockEnd
  0
BLOCK
  5
24
330
23
100
AcDbEntity
  8
0
100
AcDbBlockBegin
  2
*Paper_Space0
 70
     0
 71
     0
 10
0.0
 20
0.0
 30
0.0
  3
*Paper_Space0
  1

  0
ENDBLK
  5
25
330
23
100
AcDbEntity
  8
0
100
AcDbBlockEnd
  0
BLOCK
  5
E3
330
D8
100
AcDbEntity
  8
0
100
AcDbBlockBegin
  2
*D1
 70
     1
 71
     0
 10
0.0
 20
0.0
 30
0.0
  3
*D1
  1

  0
LINE
  5
D9
330
D8
100
AcDbEntity
  8
LC-001-100-D00-0
 62
     2
370
    -2
100
AcDbLine
 10
739.771363
 20
441.608523
 30
0.0
 11
739.771363
 21
350.680225
 31
0.0
  0
LINE
  5
DA
330
D8
100
AcDbEntity
  8
LC-001-100-D00-0
 62
     2
370
    -2
100
AcDbLine
 10
820.771363
 20
441.608523
 30
0.0
 11
820.771363
 21
350.680225
 31
0.0
  0
LINE
  5
DB
330
D8
100
AcDbEntity
  8
LC-001-100-D00-0
 62
     2
370
    -2
100
AcDbLine
 10
689.771363
 20
359.680225
 30
0.0
 11
639.771363
 21
359.680225
 31
0.0
  0
LINE
  5
DC
330
D8
100
AcDbEntity
  8
LC-001-100-D00-0
 62
     2
370
    -2
100
AcDbLine
 10
870.771363
 20
359.680225
 30
0.0
 11
960.270422
 21
359.680225
 31
0.0
  0
SOLID
  5
DD
330
D8
100
AcDbEntity
  8
LC-001-100-D00-0
 62
     2
100
AcDbTrace
 10
689.771363
 20
351.346892
 30
0.0
 11
689.771363
 21
368.013559
 31
0.0
 12
739.771363
 22
359.680225
 32
0.0
 13
739.771363
 23
359.680225
 33
0.0
  0
SOLID
  5
DE
330
D8
100
AcDbEntity
  8
LC-001-100-D00-0
 62
     2
100
AcDbTrace
 10
870.771363
 20
368.013559
 30
0.0
 11
870.771363
 21
351.346892
 31
0.0
 12
820.771363
 22
359.680225
 32
0.0
 13
820.771363
 23
359.680225
 33
0.0
  0
MTEXT
  5
DF
330
D8
100
AcDbEntity
  8
LC-001-100-D00-0
 62
     2
100
AcDbMText
 10
920.680974
 20
414.680225
 30
0.0
 40
50.0
 41
0.0
 71
     5
 72
     1
  1
\A1;81
  7
LCTX15-400-0-0pDIN-Schrift
 73
     1
 44
1.0
  0
POINT
  5
E0
330
D8
100
AcDbEntity
  8
Defpoints
 62
     0
100
AcDbPoint
 10
739.771363
 20
441.608523
 30
0.0
  0
POINT
  5
E1
330
D8
100
AcDbEntity
  8
Defpoints
 62
     0
100
AcDbPoint
 10
820.771363
 20
441.608523
 30
0.0
  0
POINT
  5
E2
330
D8
100
AcDbEntity
  8
Defpoints
 62
     0
100
AcDbPoint
 10
820.771363
 20
359.680225
 30
0.0
  0
ENDBLK
  5
E4
330
D8
100
AcDbEntity
  8
0
100
AcDbBlockEnd
  0
BLOCK
  5
109
330
108
100
AcDbEntity
  8
0
100
AcDbBlockBegin
  2
KLON1
 70
     0
 71
     0
 10
0.0
 20
0.0
 30
0.0
  3
KLON1
  1

  4
KLON1
  0
LINE
  5
10B
330
108
100
AcDbEntity
  8
LC-001-100-D00-0
 62
     7
370
    15
100
AcDbLine
 10
391.379067
 20
150.772894
 30
0.0
 11
391.391703
 21
150.692013
 31
0.0
  0
LINE
  5
10C
330
108
100
AcDbEntity
  8
LC-001-100-D00-0
 62
     7
370
    15
100
AcDbLine
 10
391.391703
 20
150.692013
 30
0.0
 11
391.400495
 21
150.635804
 31
0.0
  0
LINE
  5
10D
330
108
100
AcDbEntity
  8
LC-001-100-D00-0
 62
     7
370
    15
100
AcDbLine
 10
391.400495
 20
150.635804
 30
0.0
 11
391.403028
 21
150.619706
 31
0.0
  0
LINE
  5
10E
330
108
100
AcDbEntity
  8
LC-001-100-D00-0
 62
     7
370
    15
100
AcDbLine
 10
391.403028
 20
150.619706
 30
0.0
 11
391.405263
 21
150.60542
 31
0.0
  0
ENDBLK
  5
10A
330
108
100
AcDbEntity
  8
0
100
AcDbBlockEnd
  0
BLOCK
  5
112
330
111
100
AcDbEntity
  8
0
100
AcDbBlockBegin
  2
KLON2
 70
     0
 71
     0
 10
0.0
 20
0.0
 30
0.0
  3
KLON2
  1

  4
KLON2
  0
LINE
  5
114
330
111
100
AcDbEntity
  8
LC-001-100-D00-0
 62
     7
370
    15
100
AcDbLine
 10
391.379067
 20
161.935586
 30
0.0
 11
391.389647
 21
161.941496
 31
0.0
  0
LINE
  5
115
330
111
100
AcDbEntity
  8
LC-001-100-D00-0
 62
     7
370
    15
100
AcDbLine
 10
391.389647
 20
161.941496
 30
0.0
 11
391.405263
 21
161.950224
 31
0.0
  0
ENDBLK
  5
113
330
111
100
AcDbEntity
  8
0
100
AcDbBlockEnd
  0
BLOCK
  5
118
330
117
100
AcDbEntity
  8
0
100
AcDbBlockBegin
  2
KLON3
 70
     0
 71
     0
 10
0.0
 20
0.0
 30
0.0
  3
KLON3
  1

  4
KLON3
  0
LINE
  5
11A
330
117
100
AcDbEntity
  8
LC-001-100-D00-0
 62
     7
370
    15
100
AcDbLine
 10
391.379067
 20
114.950226
 30
0.0
 11
391.386488
 21
114.912053
 31
0.0
  0
LINE
  5
11B
330
117
100
AcDbEntity
  8
LC-001-100-D00-0
 62
     7
370
    15
100
AcDbLine
 10
391.386488
 20
114.912053
 30
0.0
 11
391.405263
 21
114.879568
 31
0.0
  0
ENDBLK
  5
119
330
117
100
AcDbEntity
  8
0
100
AcDbBlockEnd
  0
BLOCK
  5
11E
330
11D
100
AcDbEntity
  8
0
100
AcDbBlockBegin
  2
KLON4
 70
     0
 71
     0
 10
0.0
 20
0.0
 30
0.0
  3
KLON4
  1

  4
KLON4
  0
LINE
  5
120
330
11D
100
AcDbEntity
  8
LC-001-100-D00-0
 62
     7
370
    15
100
AcDbLine
 10
-592.568568
 20
114.950226
 30
0.0
 11
-592.575988
 21
114.912053
 31
0.0
  0
LINE
  5
121
330
11D
100
AcDbEntity
  8
LC-001-100-D00-0
 62
     7
370
    15
100
AcDbLine
 10
-592.575988
 20
114.912053
 30
0.0
 11
-592.594764
 21
114.879568
 31
0.0
  0
ENDBLK
  5
11F
330
11D
100
AcDbEntity
  8
0
100
AcDbBlockEnd
  0
BLOCK
  5
124
330
123
100
AcDbEntity
  8
0
100
AcDbBlockBegin
  2
KLON5
 70
     0
 71
     0
 10
0.0
 20
0.0
 30
0.0
  3
KLON5
  1

  4
KLON5
  0
LINE
  5
126
330
123
100
AcDbEntity
  8
LC-001-100-D00-0
 62
     7
370
    15
100
AcDbLine
 10
-592.568568
 20
161.935586
 30
0.0
 11
-592.579147
 21
161.941496
 31
0.0
  0
LINE
  5
127
330
123
100
AcDbEntity
  8
LC-001-100-D00-0
 62
     7
370
    15
100
AcDbLine
 10
-592.579147
 20
161.941496
 30
0.0
 11
-592.594764
 21
161.950224
 31
0.0
  0
ENDBLK
  5
125
330
123
100
AcDbEntity
  8
0
100
AcDbBlockEnd
  0
BLOCK
  5
12B
330
12A
100
AcDbEntity
  8
0
100
AcDbBlockBegin
  2
KLON6
 70
     0
 71
     0
 10
0.0
 20
0.0
 30
0.0
  3
KLON6
  1

  4
KLON6
  0
LINE
  5
12D
330
12A
100
AcDbEntity
  8
LC-001-100-D00-0
 62
     7
370
    15
100
AcDbLine
 10
-592.568568
 20
150.772894
 30
0.0
 11
-592.581204
 21
150.692013
 31
0.0
  0
LINE
  5
12E
330
12A
100
AcDbEntity
  8
LC-001-100-D00-0
 62
     7
370
    15
100
AcDbLine
 10
-592.581204
 20
150.692013
 30
0.0
 11
-592.589995
 21
150.635804
 31
0.0
  0
LINE
  5
12F
330
12A
100
AcDbEntity
  8
LC-001-100-D00-0
 62
     7
370
    15
100
AcDbLine
 10
-592.589995
 20
150.635804
 30
0.0
 11
-592.592529
 21
150.619706
 31
0.0
  0
LINE
  5
130
330
12A
100
AcDbEntity
  8
LC-001-100-D00-0
 62
     7
370
    15
100
AcDbLine
 10
-592.592529
 20
150.619706
 30
0.0
 11
-592.594764
 21
150.60542
 31
0.0
  0
ENDBLK
  5
12C
330
12A
100
AcDbEntity
  8
0
100
AcDbBlockEnd
  0
BLOCK
  5
142
330
141
100
AcDbEntity
  8
0
100
AcDbBlockBegin
  2
KLON7
 70
     0
 71
     0
 10
0.0
 20
0.0
 30
0.0
  3
KLON7
  1

  4
KLON7
  0
LINE
  5
144
330
141
100
AcDbEntity
  8
LC-001-100-D00-0
 62
     7
370
    15
100
AcDbLine
 10
391.350546
 20
126.116816
 30
0.0
 11
391.366699
 21
126.122901
 31
0.0
  0
LINE
  5
145
330
141
100
AcDbEntity
  8
LC-001-100-D00-0
 62
     7
370
    15
100
AcDbLine
 10
391.366699
 20
126.122901
 30
0.0
 11
391.379067
 21
126.127556
 31
0.0
  0
ENDBLK
  5
143
330
141
100
AcDbEntity
  8
0
100
AcDbBlockEnd
  0
BLOCK
  5
148
330
147
100
AcDbEntity
  8
0
100
AcDbBlockBegin
  2
KLON8
 70
     0
 71
     0
 10
0.0
 20
0.0
 30
0.0
  3
KLON8
  1

  4
KLON8
  0
LINE
  5
14A
330
147
100
AcDbEntity
  8
LC-001-100-D00-0
 62
     7
370
    15
100
AcDbLine
 10
-592.540047
 20
126.116816
 30
0.0
 11
-592.5562
 21
126.122901
 31
0.0
  0
LINE
  5
14B
330
147
100
AcDbEntity
  8
LC-001-100-D00-0
 62
     7
370
    15
100
AcDbLine
 10
-592.5562
 20
126.122901
 30
0.0
 11
-592.568568
 21
126.127556
 31
0.0
  0
ENDBLK
  5
149
330
147
100
AcDbEntity
  8
0
100
AcDbBlockEnd
  0
BLOCK
  5
14F
330
14E
100
AcDbEntity
  8
0
100
AcDbBlockBegin
  2
KLON9
 70
     0
 71
     0
 10
0.0
 20
0.0
 30
0.0
  3
KLON9
  1

  4
KLON9
  0
LINE
  5
151
330
14E
100
AcDbEntity
  8
LC-001-100-D00-0
 62
     7
370
    15
100
AcDbLine
 10
254.392186
 20
132.591008
 30
0.0
 11
254.4036
 21
133.004482
 31
0.0
  0
LINE
  5
152
330
14E
100
AcDbEntity
  8
LC-001-100-D00-0
 62
     7
370
    15
100
AcDbLine
 10
254.4036
 20
133.004482
 30
0.0
 11
254.415253
 21
133.42774
 31
0.0
  0
LINE
  5
153
330
14E
100
AcDbEntity
  8
LC-001-100-D00-0
 62
     7
370
    15
100
AcDbLine
 10
254.415253
 20
133.42774
 30
0.0
 11
254.427054
 21
133.855919
 31
0.0
  0
ENDBLK
  5
150
330
14E
100
AcDbEntity
  8
0
100
AcDbBlockEnd
  0
BLOCK
  5
156
330
155
100
AcDbEntity
  8
0
100
AcDbBlockBegin
  2
KLON10
 70
     0
 71
     0
 10
0.0
 20
0.0
 30
0.0
  3
KLON10
  1

  4
KLON10
  0
LINE
  5
158
330
155
100
AcDbEntity
  8
LC-001-100-D00-0
 62
     7
370
    15
100
AcDbLine
 10
391.350546
 20
150.783634
 30
0.0
 11
391.366699
 21
150.77755
 31
0.0
  0
LINE
  5
159
330
155
100
AcDbEntity
  8
LC-001-100-D00-0
 62
     7
370
    15
100
AcDbLine
 10
391.366699
 20
150.77755
 30
0.0
 11
391.379067
 21
150.772894
 31
0.0
  0
ENDBLK
  5
157
330
155
100
AcDbEntity
  8
0
100
AcDbBlockEnd
  0
BLOCK
  5
15C
330
15B
100
AcDbEntity
  8
0
100
AcDbBlockBegin
  2
KLON11
 70
     0
 71
     0
 10
0.0
 20
0.0
 30
0.0
  3
KLON11
  1

  4
KLON11
  0
LINE
  5
15E
330
15B
100
AcDbEntity
  8
LC-001-100-D00-0
 62
     7
370
    15
100
AcDbLine
 10
254.427054
 20
143.044531
 30
0.0
 11
254.415253
 21
143.47271
 31
0.0
  0
LINE
  5
15F
330
15B
100
AcDbEntity
  8
LC-001-100-D00-0
 62
     7
370
    15
100
AcDbLine
 10
254.415253
 20
143.47271
 30
0.0
 11
254.4036
 21
143.895968
 31
0.0
  0
LINE
  5
160
330
15B
100
AcDbEntity
  8
LC-001-100-D00-0
 62
     7
370
    15
100
AcDbLine
 10
254.4036
 20
143.895968
 30
0.0
 11
254.392186
 21
144.309442
 31
0.0
  0
ENDBLK
  5
15D
330
15B
100
AcDbEntity
  8
0
100
AcDbBlockEnd
  0
BLOCK
  5
163
330
162
100
AcDbEntity
  8
0
100
AcDbBlockBegin
  2
KLON12
 70
     0
 71
     0
 10
0.0
 20
0.0
 30
0.0
  3
KLON12
  1

  4
KLON12
  0
LINE
  5
165
330
162
100
AcDbEntity
  8
LC-001-100-D00-0
 62
     7
370
    15
100
AcDbLine
 10
-455.581686
 20
132.591008
 30
0.0
 11
-455.5931
 21
133.004482
 31
0.0
  0
LINE
  5
166
330
162
100
AcDbEntity
  8
LC-001-100-D00-0
 62
     7
370
    15
100
AcDbLine
 10
-455.5931
 20
133.004482
 30
0.0
 11
-455.604753
 21
133.42774
 31
0.0
  0
LINE
  5
167
330
162
100
AcDbEntity
  8
LC-001-100-D00-0
 62
     7
370
    15
100
AcDbLine
 10
-455.604753
 20
133.42774
 30
0.0
 11
-455.616555
 21
133.855919
 31
0.0
  0
ENDBLK
  5
164
330
162
100
AcDbEntity
  8
0
100
AcDbBlockEnd
  0
BLOCK
  5
16A
330
169
100
AcDbEntity
  8
0
100
AcDbBlockBegin
  2
KLON13
 70
     0
 71
     0
 10
0.0
 20
0.0
 30
0.0
  3
KLON13
  1

  4
KLON13
  0
LINE
  5
16C
330
169
100
AcDbEntity
  8
LC-001-100-D00-0
 62
     7
370
    15
100
AcDbLine
 10
-455.616555
 20
143.044531
 30
0.0
 11
-455.604753
 21
143.47271
 31
0.0
  0
LINE
  5
16D
330
169
100
AcDbEntity
  8
LC-001-100-D00-0
 62
     7
370
    15
100
AcDbLine
 10
-455.604753
 20
143.47271
 30
0.0
 11
-455.5931
 21
143.895968
 31
0.0
  0
LINE
  5
16E
330
169
100
AcDbEntity
  8
LC-001-100-D00-0
 62
     7
370
    15
100
AcDbLine
 10
-455.5931
 20
143.895968
 30
0.0
 11
-455.581686
 21
144.309442
 31
0.0
  0
ENDBLK
  5
16B
330
169
100
AcDbEntity
  8
0
100
AcDbBlockEnd
  0
BLOCK
  5
171
330
170
100
AcDbEntity
  8
0
100
AcDbBlockBegin
  2
KLON14
 70
     0
 71
     0
 10
0.0
 20
0.0
 30
0.0
  3
KLON14
  1

  4
KLON14
  0
LINE
  5
173
330
170
100
AcDbEntity
  8
LC-001-100-D00-0
 62
     7
370
    15
100
AcDbLine
 10
-592.540047
 20
150.783634
 30
0.0
 11
-592.5562
 21
150.77755
 31
0.0
  0
LINE
  5
174
330
170
100
AcDbEntity
  8
LC-001-100-D00-0
 62
     7
370
    15
100
AcDbLine
 10
-592.5562
 20
150.77755
 30
0.0
 11
-592.568568
 21
150.772894
 31
0.0
  0
ENDBLK
  5
172
330
170
100
AcDbEntity
  8
0
100
AcDbBlockEnd
  0
BLOCK
  5
21E
330
213
100
AcDbEntity
  8
0
100
AcDbBlockBegin
  2
*D16
 70
     1
 71
     0
 10
0.0
 20
0.0
 30
0.0
  3
*D16
  1

  0
LINE
  5
214
330
213
100
AcDbEntity
  8
LC-001-100-D00-0
 62
     2
370
    -2
100
AcDbLine
 10
444.40525
 20
184.450225
 30
0.0
 11
530.767532
 21
184.450225
 31
0.0
  0
LINE
  5
215
330
213
100
AcDbEntity
  8
LC-001-100-D00-0
 62
     2
370
    -2
100
AcDbLine
 10
444.40525
 20
182.950225
 30
0.0
 11
530.767532
 21
182.950225
 31
0.0
  0
LINE
  5
216
330
213
100
AcDbEntity
  8
LC-001-100-D00-0
 62
     2
370
    -2
100
AcDbLine
 10
521.767532
 20
234.450225
 30
0.0
 11
521.767532
 21
284.450225
 31
0.0
  0
LINE
  5
217
330
213
100
AcDbEntity
  8
LC-001-100-D00-0
 62
     2
370
    -2
100
AcDbLine
 10
521.767532
 20
132.950225
 30
0.0
 11
521.767532
 21
99.260543
 31
0.0
  0
SOLID
  5
218
330
213
100
AcDbEntity
  8
LC-001-100-D00-0
 62
     2
100
AcDbTrace
 10
513.434198
 20
234.450225
 30
0.0
 11
530.100865
 21
234.450225
 31
0.0
 12
521.767532
 22
184.450225
 32
0.0
 13
521.767532
 23
184.450225
 33
0.0
  0
SOLID
  5
219
330
213
100
AcDbEntity
  8
LC-001-100-D00-0
 62
     2
100
AcDbTrace
 10
530.100865
 20
132.950225
 30
0.0
 11
513.434198
 21
132.950225
 31
0.0
 12
521.767532
 22
182.950225
 32
0.0
 13
521.767532
 23
182.950225
 33
0.0
  0
MTEXT
  5
21A
330
213
100
AcDbEntity
  8
LC-001-100-D00-0
 62
     2
100
AcDbMText
 10
466.767532
 20
145.840225
 30
0.0
 40
50.0
 41
0.0
 71
     5
 72
     1
  1
\A1;1,5
  7
LCTX15-400-0-0pDIN-Schrift
 11
6.123031769111886E-17
 21
1.0
 31
0.0
 73
     1
 44
1.0
  0
POINT
  5
21B
330
213
100
AcDbEntity
  8
Defpoints
 62
     0
100
AcDbPoint
 10
444.40525
 20
184.450225
 30
0.0
  0
POINT
  5
21C
330
213
100
AcDbEntity
  8
Defpoints
 62
     0
100
AcDbPoint
 10
444.40525
 20
182.950225
 30
0.0
  0
POINT
  5
21D
330
213
100
AcDbEntity
  8
Defpoints
 62
     0
100
AcDbPoint
 10
521.767532
 20
182.950225
 30
0.0
  0
ENDBLK
  5
21F
330
213
100
AcDbEntity
  8
0
100
AcDbBlockEnd
  0
BLOCK
  5
22C
330
221
100
AcDbEntity
  8
0
100
AcDbBlockBegin
  2
*D17
 70
     1
 71
     0
 10
0.0
 20
0.0
 30
0.0
  3
*D17
  1

  0
LINE
  5
222
330
221
100
AcDbEntity
  8
LC-001-100-D00-0
 62
     2
370
    -2
100
AcDbLine
 10
444.40525
 20
184.450225
 30
0.0
 11
685.900537
 21
184.450225
 31
0.0
  0
LINE
  5
223
330
221
100
AcDbEntity
  8
LC-001-100-D00-0
 62
     2
370
    -2
100
AcDbLine
 10
444.40525
 20
60.950225
 30
0.0
 11
685.900537
 21
60.950225
 31
0.0
  0
LINE
  5
224
330
221
100
AcDbEntity
  8
LC-001-100-D00-0
 62
     2
370
    -2
100
AcDbLine
 10
676.900537
 20
134.450225
 30
0.0
 11
676.900537
 21
110.950225
 31
0.0
  0
LINE
  5
225
330
221
100
AcDbEntity
  8
LC-001-100-D00-0
 62
     2
370
    -2
100
AcDbLine
 10
676.900537
 20
60.950225
 30
0.0
 11
676.900537
 21
-45.754695
 31
0.0
  0
SOLID
  5
226
330
221
100
AcDbEntity
  8
LC-001-100-D00-0
 62
     2
100
AcDbTrace
 10
685.23387
 20
134.450225
 30
0.0
 11
668.567204
 21
134.450225
 31
0.0
 12
676.900537
 22
184.450225
 32
0.0
 13
676.900537
 23
184.450225
 33
0.0
  0
SOLID
  5
227
330
221
100
AcDbEntity
  8
LC-001-100-D00-0
 62
     2
100
AcDbTrace
 10
668.567204
 20
110.950225
 30
0.0
 11
685.23387
 21
110.950225
 31
0.0
 12
676.900537
 22
60.950225
 32
0.0
 13
676.900537
 23
60.950225
 33
0.0
  0
MTEXT
  5
228
330
221
100
AcDbEntity
  8
LC-001-100-D00-0
 62
     2
100
AcDbMText
 10
621.900537
 20
38.920225
 30
0.0
 40
50.0
 41
0.0
 71
     5
 72
     1
  1
\A1;123,5
  7
LCTX15-400-0-0pDIN-Schrift
 11
6.123031769111886E-17
 21
1.0
 31
0.0
 73
     1
 44
1.0
  0
POINT
  5
229
330
221
100
AcDbEntity
  8
Defpoints
 62
     0
100
AcDbPoint
 10
444.40525
 20
184.450225
 30
0.0
  0
POINT
  5
22A
330
221
100
AcDbEntity
  8
Defpoints
 62
     0
100
AcDbPoint
 10
444.40525
 20
60.950225
 30
0.0
  0
POINT
  5
22B
330
221
100
AcDbEntity
  8
Defpoints
 62
     0
100
AcDbPoint
 10
676.900537
 20
60.950225
 30
0.0
  0
ENDBLK
  5
22D
330
221
100
AcDbEntity
  8
0
100
AcDbBlockEnd
  0
BLOCK
  5
23A
330
22F
100
AcDbEntity
  8
0
100
AcDbBlockBegin
  2
*D18
 70
     1
 71
     0
 10
0.0
 20
0.0
 30
0.0
  3
*D18
  1

  0
LINE
  5
230
330
22F
100
AcDbEntity
  8
LC-001-100-D00-0
 62
     2
370
    -2
100
AcDbLine
 10
444.40525
 20
182.950225
 30
0.0
 11
608.334034
 21
182.950225
 31
0.0
  0
LINE
  5
231
330
22F
100
AcDbEntity
  8
LC-001-100-D00-0
 62
     2
370
    -2
100
AcDbLine
 10
396.90525
 20
164.450225
 30
0.0
 11
608.334034
 21
164.450225
 31
0.0
  0
LINE
  5
232
330
22F
100
AcDbEntity
  8
LC-001-100-D00-0
 62
     2
370
    -2
100
AcDbLine
 10
599.334034
 20
232.950225
 30
0.0
 11
599.334034
 21
282.950225
 31
0.0
  0
LINE
  5
233
330
22F
100
AcDbEntity
  8
LC-001-100-D00-0
 62
     2
370
    -2
100
AcDbLine
 10
599.334034
 20
114.450225
 30
0.0
 11
599.334034
 21
11.902924
 31
0.0
  0
SOLID
  5
234
330
22F
100
AcDbEntity
  8
LC-001-100-D00-0
 62
     2
100
AcDbTrace
 10
591.000701
 20
232.950225
 30
0.0
 11
607.667368
 21
232.950225
 31
0.0
 12
599.334034
 22
182.950225
 32
0.0
 13
599.334034
 23
182.950225
 33
0.0
  0
SOLID
  5
235
330
22F
100
AcDbEntity
  8
LC-001-100-D00-0
 62
     2
100
AcDbTrace
 10
607.667368
 20
114.450225
 30
0.0
 11
591.000701
 21
114.450225
 31
0.0
 12
599.334034
 22
164.450225
 32
0.0
 13
599.334034
 23
164.450225
 33
0.0
  0
MTEXT
  5
236
330
22F
100
AcDbEntity
  8
LC-001-100-D00-0
 62
     2
100
AcDbMText
 10
544.334034
 20
77.530225
 30
0.0
 40
50.0
 41
0.0
 71
     5
 72
     1
  1
\A1;18,5
  7
LCTX15-400-0-0pDIN-Schrift
 11
6.123031769111886E-17
 21
1.0
 31
0.0
 73
     1
 44
1.0
  0
POINT
  5
237
330
22F
100
AcDbEntity
  8
Defpoints
 62
     0
100
AcDbPoint
 10
444.40525
 20
182.950225
 30
0.0
  0
POINT
  5
238
330
22F
100
AcDbEntity
  8
Defpoints
 62
     0
100
AcDbPoint
 10
396.90525
 20
164.450225
 30
0.0
  0
POINT
  5
239
330
22F
100
AcDbEntity
  8
Defpoints
 62
     0
100
AcDbPoint
 10
599.334034
 20
164.450225
 30
0.0
  0
ENDBLK
  5
23B
330
22F
100
AcDbEntity
  8
0
100
AcDbBlockEnd
  0
BLOCK
  5
41E
330
41D
100
AcDbEntity
  8
0
100
AcDbBlockBegin
  2
KLON15
 70
     0
 71
     0
 10
0.0
 20
0.0
 30
0.0
  3
KLON15
  1

  4
KLON15
  0
LINE
  5
420
330
41D
100
AcDbEntity
  8
LC-001-100-D00-0
 62
     7
370
    15
100
AcDbLine
 10
-26.594737
 20
432.108524
 30
0.0
 11
-26.597464
 21
432.108554
 31
0.0
  0
LINE
  5
421
330
41D
100
AcDbEntity
  8
LC-001-100-D00-0
 62
     7
370
    15
100
AcDbLine
 10
-26.597464
 20
432.108554
 30
0.0
 11
-26.602046
 21
432.108748
 31
0.0
  0
LINE
  5
422
330
41D
100
AcDbEntity
  8
LC-001-100-D00-0
 62
     7
370
    15
100
AcDbLine
 10
-26.602046
 20
432.108748
 30
0.0
 11
-26.61092
 21
432.109582
 31
0.0
  0
LINE
  5
423
330
41D
100
AcDbEntity
  8
LC-001-100-D00-0
 62
     7
370
    15
100
AcDbLine
 10
-26.61092
 20
432.109582
 30
0.0
 11
-26.6132
 21
432.109888
 31
0.0
  0
LINE
  5
424
330
41D
100
AcDbEntity
  8
LC-001-100-D00-0
 62
     7
370
    15
100
AcDbLine
 10
-26.6132
 20
432.109888
 30
0.0
 11
-26.613774
 21
432.10997
 31
0.0
  0
LINE
  5
425
330
41D
100
AcDbEntity
  8
LC-001-100-D00-0
 62
     7
370
    15
100
AcDbLine
 10
-26.613774
 20
432.10997
 30
0.0
 11
-26.613915
 21
432.109992
 31
0.0
  0
LINE
  5
426
330
41D
100
AcDbEntity
  8
LC-001-100-D00-0
 62
     7
370
    15
100
AcDbLine
 10
-26.613915
 20
432.109992
 30
0.0
 11
-26.733095
 21
432.159263
 31
0.0
  0
LINE
  5
427
330
41D
100
AcDbEntity
  8
LC-001-100-D00-0
 62
     7
370
    15
100
AcDbLine
 10
-26.733095
 20
432.159263
 30
0.0
 11
-27.573699
 21
432.972158
 31
0.0
  0
LINE
  5
428
330
41D
100
AcDbEntity
  8
LC-001-100-D00-0
 62
     7
370
    15
100
AcDbLine
 10
-27.573699
 20
432.972158
 30
0.0
 11
-28.662378
 21
434.29749
 31
0.0
  0
LINE
  5
429
330
41D
100
AcDbEntity
  8
LC-001-100-D00-0
 62
     7
370
    15
100
AcDbLine
 10
-28.662378
 20
434.29749
 30
0.0
 11
-30.08824
 21
436.200644
 31
0.0
  0
LINE
  5
42A
330
41D
100
AcDbEntity
  8
LC-001-100-D00-0
 62
     7
370
    15
100
AcDbLine
 10
-30.08824
 20
436.200644
 30
0.0
 11
-32.140584
 21
439.166303
 31
0.0
  0
LINE
  5
42B
330
41D
100
AcDbEntity
  8
LC-001-100-D00-0
 62
     7
370
    15
100
AcDbLine
 10
-32.140584
 20
439.166303
 30
0.0
 11
-34.511255
 21
442.807632
 31
0.0
  0
LINE
  5
42C
330
41D
100
AcDbEntity
  8
LC-001-100-D00-0
 62
     7
370
    15
100
AcDbLine
 10
-34.511255
 20
442.807632
 30
0.0
 11
-34.619445
 21
442.974019
 31
0.0
  0
ENDBLK
  5
41F
330
41D
100
AcDbEntity
  8
0
100
AcDbBlockEnd
  0
BLOCK
  5
42F
330
42E
100
AcDbEntity
  8
0
100
AcDbBlockBegin
  2
KLON16
 70
     0
 71
     0
 10
0.0
 20
0.0
 30
0.0
  3
KLON16
  1

  4
KLON16
  0
LINE
  5
431
330
42E
100
AcDbEntity
  8
LC-001-100-D00-0
 62
     7
370
    15
100
AcDbLine
 10
-34.619445
 20
442.974019
 30
0.0
 11
-35.361053
 21
445.352565
 31
0.0
  0
LINE
  5
432
330
42E
100
AcDbEntity
  8
LC-001-100-D00-0
 62
     7
370
    15
100
AcDbLine
 10
-35.361053
 20
445.352565
 30
0.0
 11
-35.995791
 21
447.932991
 31
0.0
  0
LINE
  5
433
330
42E
100
AcDbEntity
  8
LC-001-100-D00-0
 62
     7
370
    15
100
AcDbLine
 10
-35.995791
 20
447.932991
 30
0.0
 11
-36.514999
 21
451.065174
 31
0.0
  0
LINE
  5
434
330
42E
100
AcDbEntity
  8
LC-001-100-D00-0
 62
     7
370
    15
100
AcDbLine
 10
-36.514999
 20
451.065174
 30
0.0
 11
-36.751838
 21
454.402051
 31
0.0
  0
LINE
  5
435
330
42E
100
AcDbEntity
  8
LC-001-100-D00-0
 62
     7
370
    15
100
AcDbLine
 10
-36.751838
 20
454.402051
 30
0.0
 11
-36.660919
 21
457.67182
 31
0.0
  0
LINE
  5
436
330
42E
100
AcDbEntity
  8
LC-001-100-D00-0
 62
     7
370
    15
100
AcDbLine
 10
-36.660919
 20
457.67182
 30
0.0
 11
-36.249103
 21
460.963196
 31
0.0
  0
LINE
  5
437
330
42E
100
AcDbEntity
  8
LC-001-100-D00-0
 62
     7
370
    15
100
AcDbLine
 10
-36.249103
 20
460.963196
 30
0.0
 11
-35.605209
 21
463.955986
 31
0.0
  0
LINE
  5
438
330
42E
100
AcDbEntity
  8
LC-001-100-D00-0
 62
     7
370
    15
100
AcDbLine
 10
-35.605209
 20
463.955986
 30
0.0
 11
-34.766579
 21
466.805912
 31
0.0
  0
LINE
  5
439
330
42E
100
AcDbEntity
  8
LC-001-100-D00-0
 62
     7
370
    15
100
AcDbLine
 10
-34.766579
 20
466.805912
 30
0.0
 11
-33.698918
 21
469.716939
 31
0.0
  0
LINE
  5
43A
330
42E
100
AcDbEntity
  8
LC-001-100-D00-0
 62
     7
370
    15
100
AcDbLine
 10
-33.698918
 20
469.716939
 30
0.0
 11
-32.575043
 21
472.327041
 31
0.0
  0
LINE
  5
43B
330
42E
100
AcDbEntity
  8
LC-001-100-D00-0
 62
     7
370
    15
100
AcDbLine
 10
-32.575043
 20
472.327041
 30
0.0
 11
-31.426625
 21
474.703754
 31
0.0
  0
LINE
  5
43C
330
42E
100
AcDbEntity
  8
LC-001-100-D00-0
 62
     7
370
    15
100
AcDbLine
 10
-31.426625
 20
474.703754
 30
0.0
 11
-30.454809
 21
476.557865
 31
0.0
  0
LINE
  5
43D
330
42E
100
AcDbEntity
  8
LC-001-100-D00-0
 62
     7
370
    15
100
AcDbLine
 10
-30.454809
 20
476.557865
 30
0.0
 11
-29.91257
 21
477.544135
 31
0.0
  0
LINE
  5
43E
330
42E
100
AcDbEntity
  8
LC-001-100-D00-0
 62
     7
370
    15
100
AcDbLine
 10
-29.91257
 20
477.544135
 30
0.0
 11
-29.625872
 21
478.053662
 31
0.0
  0
LINE
  5
43F
330
42E
100
AcDbEntity
  8
LC-001-100-D00-0
 62
     7
370
    15
100
AcDbLine
 10
-29.625872
 20
478.053662
 30
0.0
 11
-29.595012
 21
478.10804
 31
0.0
  0
LINE
  5
440
330
42E
100
AcDbEntity
  8
LC-001-100-D00-0
 62
     7
370
    15
100
AcDbLine
 10
-29.595012
 20
478.10804
 30
0.0
 11
-29.594736
 21
478.108524
 31
0.0
  0
ENDBLK
  5
430
330
42E
100
AcDbEntity
  8
0
100
AcDbBlockEnd
  0
BLOCK
  5
446
330
445
100
AcDbEntity
  8
0
100
AcDbBlockBegin
  2
KLON17
 70
     0
 71
     0
 10
0.0
 20
0.0
 30
0.0
  3
KLON17
  1

  4
KLON17
  0
LINE
  5
448
330
445
100
AcDbEntity
  8
LC-001-100-D00-0
 62
     7
370
    15
100
AcDbLine
 10
-35.277286
 20
441.608521
 30
0.0
 11
-35.270506
 21
441.622804
 31
0.0
  0
LINE
  5
449
330
445
100
AcDbEntity
  8
LC-001-100-D00-0
 62
     7
370
    15
100
AcDbLine
 10
-35.270506
 20
441.622804
 30
0.0
 11
-34.619445
 21
442.974019
 31
0.0
  0
ENDBLK
  5
447
330
445
100
AcDbEntity
  8
0
100
AcDbBlockEnd
  0
BLOCK
  5
574
330
573
100
AcDbEntity
  8
0
100
AcDbBlockBegin
  2
KLON18
 70
     0
 71
     0
 10
0.0
 20
0.0
 30
0.0
  3
KLON18
  1

  4
KLON18
  0
LINE
  5
576
330
573
100
AcDbEntity
  8
LC-001-100-D00-0
 62
     7
370
    15
100
AcDbLine
 10
382.312944
 20
490.276688
 30
0.0
 11
384.869268
 21
490.369984
 31
0.0
  0
LINE
  5
577
330
573
100
AcDbEntity
  8
LC-001-100-D00-0
 62
     7
370
    15
100
AcDbLine
 10
384.869268
 20
490.369984
 30
0.0
 11
387.015065
 21
490.448297
 31
0.0
  0
LINE
  5
578
330
573
100
AcDbEntity
  8
LC-001-100-D00-0
 62
     7
370
    15
100
AcDbLine
 10
387.015065
 20
490.448297
 30
0.0
 11
388.74518
 21
490.511441
 31
0.0
  0
LINE
  5
579
330
573
100
AcDbEntity
  8
LC-001-100-D00-0
 62
     7
370
    15
100
AcDbLine
 10
388.74518
 20
490.511441
 30
0.0
 11
390.055528
 21
490.559262
 31
0.0
  0
LINE
  5
57A
330
573
100
AcDbEntity
  8
LC-001-100-D00-0
 62
     7
370
    15
100
AcDbLine
 10
390.055528
 20
490.559262
 30
0.0
 11
390.942922
 21
490.59165
 31
0.0
  0
LINE
  5
57B
330
573
100
AcDbEntity
  8
LC-001-100-D00-0
 62
     7
370
    15
100
AcDbLine
 10
390.942922
 20
490.59165
 30
0.0
 11
391.405275
 21
490.608524
 31
0.0
  0
ENDBLK
  5
575
330
573
100
AcDbEntity
  8
0
100
AcDbBlockEnd
  0
BLOCK
  5
57E
330
57D
100
AcDbEntity
  8
0
100
AcDbBlockBegin
  2
KLON19
 70
     0
 71
     0
 10
0.0
 20
0.0
 30
0.0
  3
KLON19
  1

  4
KLON19
  0
LINE
  5
580
330
57D
100
AcDbEntity
  8
LC-001-100-D00-0
 62
     7
370
    15
100
AcDbLine
 10
-583.502421
 20
490.276688
 30
0.0
 11
-586.058745
 21
490.369984
 31
0.0
  0
LINE
  5
581
330
57D
100
AcDbEntity
  8
LC-001-100-D00-0
 62
     7
370
    15
100
AcDbLine
 10
-586.058745
 20
490.369984
 30
0.0
 11
-588.204542
 21
490.448297
 31
0.0
  0
LINE
  5
582
330
57D
100
AcDbEntity
  8
LC-001-100-D00-0
 62
     7
370
    15
100
AcDbLine
 10
-588.204542
 20
490.448297
 30
0.0
 11
-589.934656
 21
490.511441
 31
0.0
  0
LINE
  5
583
330
57D
100
AcDbEntity
  8
LC-001-100-D00-0
 62
     7
370
    15
100
AcDbLine
 10
-589.934656
 20
490.511441
 30
0.0
 11
-591.245005
 21
490.559262
 31
0.0
  0
LINE
  5
584
330
57D
100
AcDbEntity
  8
LC-001-100-D00-0
 62
     7
370
    15
100
AcDbLine
 10
-591.245005
 20
490.559262
 30
0.0
 11
-592.132399
 21
490.59165
 31
0.0
  0
LINE
  5
585
330
57D
100
AcDbEntity
  8
LC-001-100-D00-0
 62
     7
370
    15
100
AcDbLine
 10
-592.132399
 20
490.59165
 30
0.0
 11
-592.594752
 21
490.608524
 31
0.0
  0
ENDBLK
  5
57F
330
57D
100
AcDbEntity
  8
0
100
AcDbBlockEnd
  0
BLOCK
  5
5A0
330
59F
100
AcDbEntity
  8
0
100
AcDbBlockBegin
  2
KLON20
 70
     0
 71
     0
 10
0.0
 20
0.0
 30
0.0
  3
KLON20
  1

  4
KLON20
  0
LINE
  5
5A2
330
59F
100
AcDbEntity
  8
LC-001-100-D00-0
 62
     7
370
    15
100
AcDbLine
 10
-146.714354
 20
478.608522
 30
0.0
 11
-146.700823
 21
478.449817
 31
0.0
  0
LINE
  5
5A3
330
59F
100
AcDbEntity
  8
LC-001-100-D00-0
 62
     7
370
    15
100
AcDbLine
 10
-146.700823
 20
478.449817
 30
0.0
 11
-146.5389
 21
477.865397
 31
0.0
  0
LINE
  5
5A4
330
59F
100
AcDbEntity
  8
LC-001-100-D00-0
 62
     7
370
    15
100
AcDbLine
 10
-146.5389
 20
477.865397
 30
0.0
 11
-146.289034
 21
477.419092
 31
0.0
  0
LINE
  5
5A5
330
59F
100
AcDbEntity
  8
LC-001-100-D00-0
 62
     7
370
    15
100
AcDbLine
 10
-146.289034
 20
477.419092
 30
0.0
 11
-145.977733
 21
477.160341
 31
0.0
  0
LINE
  5
5A6
330
59F
100
AcDbEntity
  8
LC-001-100-D00-0
 62
     7
370
    15
100
AcDbLine
 10
-145.977733
 20
477.160341
 30
0.0
 11
-145.84024
 21
477.116584
 31
0.0
  0
ENDBLK
  5
5A1
330
59F
100
AcDbEntity
  8
0
100
AcDbBlockEnd
  0
BLOCK
  5
5A9
330
5A8
100
AcDbEntity
  8
0
100
AcDbBlockBegin
  2
KLON21
 70
     0
 71
     0
 10
0.0
 20
0.0
 30
0.0
  3
KLON21
  1

  4
KLON21
  0
LINE
  5
5AB
330
5A8
100
AcDbEntity
  8
LC-001-100-D00-0
 62
     7
370
    15
100
AcDbLine
 10
391.377887
 20
492.108523
 30
0.0
 11
391.377202
 21
492.146504
 31
0.0
  0
LINE
  5
5AC
330
5A8
100
AcDbEntity
  8
LC-001-100-D00-0
 62
     7
370
    15
100
AcDbLine
 10
391.377202
 20
492.146504
 30
0.0
 11
391.375145
 21
492.259291
 31
0.0
  0
LINE
  5
5AD
330
5A8
100
AcDbEntity
  8
LC-001-100-D00-0
 62
     7
370
    15
100
AcDbLine
 10
391.375145
 20
492.259291
 30
0.0
 11
391.371777
 21
492.44346
 31
0.0
  0
LINE
  5
5AE
330
5A8
100
AcDbEntity
  8
LC-001-100-D00-0
 62
     7
370
    15
100
AcDbLine
 10
391.371777
 20
492.44346
 30
0.0
 11
391.367218
 21
492.693412
 31
0.0
  0
LINE
  5
5AF
330
5A8
100
AcDbEntity
  8
LC-001-100-D00-0
 62
     7
370
    15
100
AcDbLine
 10
391.367218
 20
492.693412
 30
0.0
 11
391.361615
 21
493.001555
 31
0.0
  0
LINE
  5
5B0
330
5A8
100
AcDbEntity
  8
LC-001-100-D00-0
 62
     7
370
    15
100
AcDbLine
 10
391.361615
 20
493.001555
 30
0.0
 11
391.355088
 21
493.358524
 31
0.0
  0
LINE
  5
5B1
330
5A8
100
AcDbEntity
  8
LC-001-100-D00-0
 62
     7
370
    15
100
AcDbLine
 10
391.355088
 20
493.358524
 30
0.0
 11
391.347906
 21
493.753473
 31
0.0
  0
LINE
  5
5B2
330
5A8
100
AcDbEntity
  8
LC-001-100-D00-0
 62
     7
370
    15
100
AcDbLine
 10
391.347906
 20
493.753473
 30
0.0
 11
391.340217
 21
494.174403
 31
0.0
  0
LINE
  5
5B3
330
5A8
100
AcDbEntity
  8
LC-001-100-D00-0
 62
     7
370
    15
100
AcDbLine
 10
391.340217
 20
494.174403
 30
0.0
 11
391.332289
 21
494.608524
 31
0.0
  0
ENDBLK
  5
5AA
330
5A8
100
AcDbEntity
  8
0
100
AcDbBlockEnd
  0
BLOCK
  5
5B6
330
5B5
100
AcDbEntity
  8
0
100
AcDbBlockBegin
  2
KLON22
 70
     0
 71
     0
 10
0.0
 20
0.0
 30
0.0
  3
KLON22
  1

  4
KLON22
  0
LINE
  5
5B8
330
5B5
100
AcDbEntity
  8
LC-001-100-D00-0
 62
     7
370
    15
100
AcDbLine
 10
-592.567364
 20
492.108523
 30
0.0
 11
-592.566678
 21
492.146504
 31
0.0
  0
LINE
  5
5B9
330
5B5
100
AcDbEntity
  8
LC-001-100-D00-0
 62
     7
370
    15
100
AcDbLine
 10
-592.566678
 20
492.146504
 30
0.0
 11
-592.564622
 21
492.259291
 31
0.0
  0
LINE
  5
5BA
330
5B5
100
AcDbEntity
  8
LC-001-100-D00-0
 62
     7
370
    15
100
AcDbLine
 10
-592.564622
 20
492.259291
 30
0.0
 11
-592.561254
 21
492.44346
 31
0.0
  0
LINE
  5
5BB
330
5B5
100
AcDbEntity
  8
LC-001-100-D00-0
 62
     7
370
    15
100
AcDbLine
 10
-592.561254
 20
492.44346
 30
0.0
 11
-592.556694
 21
492.693412
 31
0.0
  0
LINE
  5
5BC
330
5B5
100
AcDbEntity
  8
LC-001-100-D00-0
 62
     7
370
    15
100
AcDbLine
 10
-592.556694
 20
492.693412
 30
0.0
 11
-592.551091
 21
493.001555
 31
0.0
  0
LINE
  5
5BD
330
5B5
100
AcDbEntity
  8
LC-001-100-D00-0
 62
     7
370
    15
100
AcDbLine
 10
-592.551091
 20
493.001555
 30
0.0
 11
-592.544565
 21
493.358524
 31
0.0
  0
LINE
  5
5BE
330
5B5
100
AcDbEntity
  8
LC-001-100-D00-0
 62
     7
370
    15
100
AcDbLine
 10
-592.544565
 20
493.358524
 30
0.0
 11
-592.537382
 21
493.753473
 31
0.0
  0
LINE
  5
5BF
330
5B5
100
AcDbEntity
  8
LC-001-100-D00-0
 62
     7
370
    15
100
AcDbLine
 10
-592.537382
 20
493.753473
 30
0.0
 11
-592.529693
 21
494.174403
 31
0.0
  0
LINE
  5
5C0
330
5B5
100
AcDbEntity
  8
LC-001-100-D00-0
 62
     7
370
    15
100
AcDbLine
 10
-592.529693
 20
494.174403
 30
0.0
 11
-592.521766
 21
494.608524
 31
0.0
  0
ENDBLK
  5
5B7
330
5B5
100
AcDbEntity
  8
0
100
AcDbBlockEnd
  0
BLOCK
  5
5DE
330
5D3
100
AcDbEntity
  8
0
100
AcDbBlockBegin
  2
*D27
 70
     1
 71
     0
 10
0.0
 20
0.0
 30
0.0
  3
*D27
  1

  0
LINE
  5
5D4
330
5D3
100
AcDbEntity
  8
LC-001-100-D00-0
 62
     2
370
    -2
100
AcDbLine
 10
449.405262
 20
512.608523
 30
0.0
 11
608.334034
 21
512.608523
 31
0.0
  0
LINE
  5
5D5
330
5D3
100
AcDbEntity
  8
LC-001-100-D00-0
 62
     2
370
    -2
100
AcDbLine
 10
115.405059
 20
455.108523
 30
0.0
 11
608.334034
 21
455.108523
 31
0.0
  0
LINE
  5
5D6
330
5D3
100
AcDbEntity
  8
LC-001-100-D00-0
 62
     2
370
    -2
100
AcDbLine
 10
599.334034
 20
405.108523
 30
0.0
 11
599.334034
 21
355.108523
 31
0.0
  0
LINE
  5
5D7
330
5D3
100
AcDbEntity
  8
LC-001-100-D00-0
 62
     2
370
    -2
100
AcDbLine
 10
599.334034
 20
562.608523
 30
0.0
 11
599.334034
 21
586.090626
 31
0.0
  0
SOLID
  5
5D8
330
5D3
100
AcDbEntity
  8
LC-001-100-D00-0
 62
     2
100
AcDbTrace
 10
591.000701
 20
562.608523
 30
0.0
 11
607.667368
 21
562.608523
 31
0.0
 12
599.334034
 22
512.608523
 32
0.0
 13
599.334034
 23
512.608523
 33
0.0
  0
SOLID
  5
5D9
330
5D3
100
AcDbEntity
  8
LC-001-100-D00-0
 62
     2
100
AcDbTrace
 10
607.667368
 20
405.108523
 30
0.0
 11
591.000701
 21
405.108523
 31
0.0
 12
599.334034
 22
455.108523
 32
0.0
 13
599.334034
 23
455.108523
 33
0.0
  0
MTEXT
  5
5DA
330
5D3
100
AcDbEntity
  8
LC-001-100-D00-0
 62
     2
100
AcDbMText
 10
544.334034
 20
514.120225
 30
0.0
 40
50.0
 41
0.0
 71
     5
 72
     1
  1
\A1;57,5
  7
LCTX15-400-0-0pDIN-Schrift
 11
6.123031769111886E-17
 21
1.0
 31
0.0
 73
     1
 44
1.0
  0
POINT
  5
5DB
330
5D3
100
AcDbEntity
  8
Defpoints
 62
     0
100
AcDbPoint
 10
449.405262
 20
512.608523
 30
0.0
  0
POINT
  5
5DC
330
5D3
100
AcDbEntity
  8
Defpoints
 62
     0
100
AcDbPoint
 10
115.405059
 20
455.108523
 30
0.0
  0
POINT
  5
5DD
330
5D3
100
AcDbEntity
  8
Defpoints
 62
     0
100
AcDbPoint
 10
599.334034
 20
455.108523
 30
0.0
  0
ENDBLK
  5
5DF
330
5D3
100
AcDbEntity
  8
0
100
AcDbBlockEnd
  0
BLOCK
  5
5ED
330
5E1
100
AcDbEntity
  8
0
100
AcDbBlockBegin
  2
*D28
 70
     1
 71
     0
 10
0.0
 20
0.0
 30
0.0
  3
*D28
  1

  0
LINE
  5
5E2
330
5E1
100
AcDbEntity
  8
LC-001-100-D00-0
 62
     2
370
    -2
100
AcDbLine
 10
449.405262
 20
512.608523
 30
0.0
 11
679.25198
 21
512.608523
 31
0.0
  0
LINE
  5
5E3
330
5E1
100
AcDbEntity
  8
LC-001-100-D00-0
 62
     2
370
    -2
100
AcDbLine
 10
-46.576858
 20
422.608523
 30
0.0
 11
679.25198
 21
422.608523
 31
0.0
  0
LINE
  5
5E4
330
5E1
100
AcDbEntity
  8
LC-001-100-D00-0
 62
     2
370
    -2
100
AcDbLine
 10
670.25198
 20
562.608523
 30
0.0
 11
670.25198
 21
612.608523
 31
0.0
  0
LINE
  5
5E5
330
5E1
100
AcDbEntity
  8
LC-001-100-D00-0
 62
     2
370
    -2
100
AcDbLine
 10
670.25198
 20
372.608523
 30
0.0
 11
670.25198
 21
322.608523
 31
0.0
  0
LINE
  5
5E6
330
5E1
100
AcDbEntity
  8
LC-001-100-D00-0
 62
     2
370
    -2
100
AcDbLine
 10
670.25198
 20
512.608523
 30
0.0
 11
670.25198
 21
422.608523
 31
0.0
  0
SOLID
  5
5E7
330
5E1
100
AcDbEntity
  8
LC-001-100-D00-0
 62
     2
100
AcDbTrace
 10
661.918646
 20
562.608523
 30
0.0
 11
678.585313
 21
562.608523
 31
0.0
 12
670.25198
 22
512.608523
 32
0.0
 13
670.25198
 23
512.608523
 33
0.0
  0
SOLID
  5
5E8
330
5E1
100
AcDbEntity
  8
LC-001-100-D00-0
 62
     2
100
AcDbTrace
 10
678.585313
 20
372.608523
 30
0.0
 11
661.918646
 21
372.608523
 31
0.0
 12
670.25198
 22
422.608523
 32
0.0
 13
670.25198
 23
422.608523
 33
0.0
  0
MTEXT
  5
5E9
330
5E1
100
AcDbEntity
  8
LC-001-100-D00-0
 62
     2
100
AcDbMText
 10
615.25198
 20
462.145225
 30
0.0
 40
50.0
 41
0.0
 71
     5
 72
     1
  1
\A1;90
  7
LCTX15-400-0-0pDIN-Schrift
 11
6.123031769111886E-17
 21
1.0
 31
0.0
 73
     1
 44
1.0
  0
POINT
  5
5EA
330
5E1
100
AcDbEntity
  8
Defpoints
 62
     0
100
AcDbPoint
 10
449.405262
 20
512.608523
 30
0.0
  0
POINT
  5
5EB
330
5E1
100
AcDbEntity
  8
Defpoints
 62
     0
100
AcDbPoint
 10
-46.576858
 20
422.608523
 30
0.0
  0
POINT
  5
5EC
330
5E1
100
AcDbEntity
  8
Defpoints
 62
     0
100
AcDbPoint
 10
670.25198
 20
422.608523
 30
0.0
  0
ENDBLK
  5
5EE
330
5E1
100
AcDbEntity
  8
0
100
AcDbBlockEnd
  0
BLOCK
  5
5FB
330
5F0
100
AcDbEntity
  8
0
100
AcDbBlockBegin
  2
*D29
 70
     1
 71
     0
 10
0.0
 20
0.0
 30
0.0
  3
*D29
  1

  0
LINE
  5
5F1
330
5F0
100
AcDbEntity
  8
LC-001-100-D00-0
 62
     2
370
    -2
100
AcDbLine
 10
105.405059
 20
480.108523
 30
0.0
 11
530.767532
 21
480.108523
 31
0.0
  0
LINE
  5
5F2
330
5F0
100
AcDbEntity
  8
LC-001-100-D00-0
 62
     2
370
    -2
100
AcDbLine
 10
105.405059
 20
430.108523
 30
0.0
 11
530.767532
 21
430.108523
 31
0.0
  0
LINE
  5
5F3
330
5F0
100
AcDbEntity
  8
LC-001-100-D00-0
 62
     2
370
    -2
100
AcDbLine
 10
521.767532
 20
380.108523
 30
0.0
 11
521.767532
 21
330.108523
 31
0.0
  0
LINE
  5
5F4
330
5F0
100
AcDbEntity
  8
LC-001-100-D00-0
 62
     2
370
    -2
100
AcDbLine
 10
521.767532
 20
530.108523
 30
0.0
 11
521.767532
 21
604.411578
 31
0.0
  0
SOLID
  5
5F5
330
5F0
100
AcDbEntity
  8
LC-001-100-D00-0
 62
     2
100
AcDbTrace
 10
513.434198
 20
530.108523
 30
0.0
 11
530.100865
 21
530.108523
 31
0.0
 12
521.767532
 22
480.108523
 32
0.0
 13
521.767532
 23
480.108523
 33
0.0
  0
SOLID
  5
5F6
330
5F0
100
AcDbEntity
  8
LC-001-100-D00-0
 62
     2
100
AcDbTrace
 10
530.100865
 20
380.108523
 30
0.0
 11
513.434198
 21
380.108523
 31
0.0
 12
521.767532
 22
430.108523
 32
0.0
 13
521.767532
 23
430.108523
 33
0.0
  0
MTEXT
  5
5F7
330
5F0
100
AcDbEntity
  8
LC-001-100-D00-0
 62
     2
100
AcDbMText
 10
466.767532
 20
520.060225
 30
0.0
 40
50.0
 41
0.0
 71
     5
 72
     1
  1
\A1;DN50
  7
LCTX15-400-0-0pDIN-Schrift
 11
6.123031769111886E-17
 21
1.0
 31
0.0
 73
     1
 44
1.0
  0
POINT
  5
5F8
330
5F0
100
AcDbEntity
  8
Defpoints
 62
     0
100
AcDbPoint
 10
105.405059
 20
480.108523
 30
0.0
  0
POINT
  5
5F9
330
5F0
100
AcDbEntity
  8
Defpoints
 62
     0
100
AcDbPoint
 10
105.405059
 20
430.108523
 30
0.0
  0
POINT
  5
5FA
330
5F0
100
AcDbEntity
  8
Defpoints
 62
     0
100
AcDbPoint
 10
521.767532
 20
430.108523
 30
0.0
  0
ENDBLK
  5
5FC
330
5F0
100
AcDbEntity
  8
0
100
AcDbBlockEnd
  0
BLOCK
  5
608
330
5FE
100
AcDbEntity
  8
0
100
AcDbBlockBegin
  2
*D30
 70
     1
 71
     0
 10
0.0
 20
0.0
 30
0.0
  3
*D30
  1

  0
LINE
  5
5FF
330
5FE
100
AcDbEntity
  8
LC-001-100-D00-0
 62
     2
370
    -2
100
AcDbLine
 10
-650.594738
 20
552.608523
 30
0.0
 11
-650.594738
 21
658.255225
 31
0.0
  0
LINE
  5
600
330
5FE
100
AcDbEntity
  8
LC-001-100-D00-0
 62
     2
370
    -2
100
AcDbLine
 10
449.405262
 20
552.608523
 30
0.0
 11
449.405262
 21
658.255225
 31
0.0
  0
LINE
  5
601
330
5FE
100
AcDbEntity
  8
LC-001-100-D00-0
 62
     2
370
    -2
100
AcDbLine
 10
-600.594738
 20
649.255225
 30
0.0
 11
399.405262
 21
649.255225
 31
0.0
  0
SOLID
  5
602
330
5FE
100
AcDbEntity
  8
LC-001-100-D00-0
 62
     2
100
AcDbTrace
 10
-600.594738
 20
657.588559
 30
0.0
 11
-600.594738
 21
640.921892
 31
0.0
 12
-650.594738
 22
649.255225
 32
0.0
 13
-650.594738
 23
649.255225
 33
0.0
  0
SOLID
  5
603
330
5FE
100
AcDbEntity
  8
LC-001-100-D00-0
 62
     2
100
AcDbTrace
 10
399.405262
 20
640.921892
 30
0.0
 11
399.405262
 21
657.588559
 31
0.0
 12
449.405262
 22
649.255225
 32
0.0
 13
449.405262
 23
649.255225
 33
0.0
  0
MTEXT
  5
604
330
5FE
100
AcDbEntity
  8
LC-001-100-D00-0
 62
     2
100
AcDbMText
 10
-98.764489
 20
704.255225
 30
0.0
 40
50.0
 41
0.0
 71
     5
 72
     1
  1
\A1;1100
  7
LCTX15-400-0-0pDIN-Schrift
 73
     1
 44
1.0
  0
POINT
  5
605
330
5FE
100
AcDbEntity
  8
Defpoints
 62
     0
100
AcDbPoint
 10
-650.594738
 20
552.608523
 30
0.0
  0
POINT
  5
606
330
5FE
100
AcDbEntity
  8
Defpoints
 62
     0
100
AcDbPoint
 10
449.405262
 20
552.608523
 30
0.0
  0
POINT
  5
607
330
5FE
100
AcDbEntity
  8
Defpoints
 62
     0
100
AcDbPoint
 10
449.405262
 20
649.255225
 30
0.0
  0
ENDBLK
  5
609
330
5FE
100
AcDbEntity
  8
0
100
AcDbBlockEnd
  0
BLOCK
  5
615
330
60B
100
AcDbEntity
  8
0
100
AcDbBlockBegin
  2
*D31
 70
     1
 71
     0
 10
0.0
 20
0.0
 30
0.0
  3
*D31
  1

  0
LINE
  5
60C
330
60B
100
AcDbEntity
  8
LC-001-100-D00-0
 62
     2
370
    -2
100
AcDbLine
 10
-600.594738
 20
509.608523
 30
0.0
 11
-600.594738
 21
581.686386
 31
0.0
  0
LINE
  5
60D
330
60B
100
AcDbEntity
  8
LC-001-100-D00-0
 62
     2
370
    -2
100
AcDbLine
 10
399.405262
 20
509.608523
 30
0.0
 11
399.405262
 21
581.686386
 31
0.0
  0
LINE
  5
60E
330
60B
100
AcDbEntity
  8
LC-001-100-D00-0
 62
     2
370
    -2
100
AcDbLine
 10
-550.594738
 20
572.686386
 30
0.0
 11
349.405262
 21
572.686386
 31
0.0
  0
SOLID
  5
60F
330
60B
100
AcDbEntity
  8
LC-001-100-D00-0
 62
     2
100
AcDbTrace
 10
-550.594738
 20
581.019719
 30
0.0
 11
-550.594738
 21
564.353053
 31
0.0
 12
-600.594738
 22
572.686386
 32
0.0
 13
-600.594738
 23
572.686386
 33
0.0
  0
SOLID
  5
610
330
60B
100
AcDbEntity
  8
LC-001-100-D00-0
 62
     2
100
AcDbTrace
 10
349.405262
 20
564.353053
 30
0.0
 11
349.405262
 21
581.019719
 31
0.0
 12
399.405262
 22
572.686386
 32
0.0
 13
399.405262
 23
572.686386
 33
0.0
  0
MTEXT
  5
611
330
60B
100
AcDbEntity
  8
LC-001-100-D00-0
 62
     2
100
AcDbMText
 10
-102.811112
 20
627.686386
 30
0.0
 40
50.0
 41
0.0
 71
     5
 72
     1
  1
\A1;1000
  7
LCTX15-400-0-0pDIN-Schrift
 73
     1
 44
1.0
  0
POINT
  5
612
330
60B
100
AcDbEntity
  8
Defpoints
 62
     0
100
AcDbPoint
 10
-600.594738
 20
509.608523
 30
0.0
  0
POINT
  5
613
330
60B
100
AcDbEntity
  8
Defpoints
 62
     0
100
AcDbPoint
 10
399.405262
 20
509.608523
 30
0.0
  0
POINT
  5
614
330
60B
100
AcDbEntity
  8
Defpoints
 62
     0
100
AcDbPoint
 10
399.405262
 20
572.686386
 30
0.0
  0
ENDBLK
  5
616
330
60B
100
AcDbEntity
  8
0
100
AcDbBlockEnd
  0
BLOCK
  5
622
330
618
100
AcDbEntity
  8
0
100
AcDbBlockBegin
  2
*D32
 70
     1
 71
     0
 10
0.0
 20
0.0
 30
0.0
  3
*D32
  1

  0
LINE
  5
619
330
618
100
AcDbEntity
  8
LC-001-100-D00-0
 62
     2
370
    -2
100
AcDbLine
 10
-174.594738
 20
441.608523
 30
0.0
 11
-174.594738
 21
322.465225
 31
0.0
  0
LINE
  5
61A
330
618
100
AcDbEntity
  8
LC-001-100-D00-0
 62
     2
370
    -2
100
AcDbLine
 10
108.905059
 20
431.046346
 30
0.0
 11
108.905059
 21
322.465225
 31
0.0
  0
LINE
  5
61B
330
618
100
AcDbEntity
  8
LC-001-100-D00-0
 62
     2
370
    -2
100
AcDbLine
 10
-124.594738
 20
331.465225
 30
0.0
 11
58.905059
 21
331.465225
 31
0.0
  0
SOLID
  5
61C
330
618
100
AcDbEntity
  8
LC-001-100-D00-0
 62
     2
100
AcDbTrace
 10
-124.594738
 20
339.798559
 30
0.0
 11
-124.594738
 21
323.131892
 31
0.0
 12
-174.594738
 22
331.465225
 32
0.0
 13
-174.594738
 23
331.465225
 33
0.0
  0
SOLID
  5
61D
330
618
100
AcDbEntity
  8
LC-001-100-D00-0
 62
     2
100
AcDbTrace
 10
58.905059
 20
323.131892
 30
0.0
 11
58.905059
 21
339.798559
 31
0.0
 12
108.905059
 22
331.465225
 32
0.0
 13
108.905059
 23
331.465225
 33
0.0
  0
MTEXT
  5
61E
330
618
100
AcDbEntity
  8
LC-001-100-D00-0
 62
     2
100
AcDbMText
 10
-50.008402
 20
386.465225
 30
0.0
 40
50.0
 41
0.0
 71
     5
 72
     1
  1
\A1;284
  7
LCTX15-400-0-0pDIN-Schrift
 73
     1
 44
1.0
  0
POINT
  5
61F
330
618
100
AcDbEntity
  8
Defpoints
 62
     0
100
AcDbPoint
 10
-174.594738
 20
441.608523
 30
0.0
  0
POINT
  5
620
330
618
100
AcDbEntity
  8
Defpoints
 62
     0
100
AcDbPoint
 10
108.905059
 20
431.046346
 30
0.0
  0
POINT
  5
621
330
618
100
AcDbEntity
  8
Defpoints
 62
     0
100
AcDbPoint
 10
108.905059
 20
331.465225
 30
0.0
  0
ENDBLK
  5
623
330
618
100
AcDbEntity
  8
0
100
AcDbBlockEnd
  0
BLOCK
  5
630
330
625
100
AcDbEntity
  8
0
100
AcDbBlockBegin
  2
*D33
 70
     1
 71
     0
 10
0.0
 20
0.0
 30
0.0
  3
*D33
  1

  0
LINE
  5
626
330
625
100
AcDbEntity
  8
LC-001-100-D00-0
 62
     2
370
    -2
100
AcDbLine
 10
-129.594738
 20
441.108523
 30
0.0
 11
-238.51945
 21
441.108523
 31
0.0
  0
LINE
  5
627
330
625
100
AcDbEntity
  8
LC-001-100-D00-0
 62
     2
370
    -2
100
AcDbLine
 10
-133.547172
 20
471.108523
 30
0.0
 11
-238.51945
 21
471.108523
 31
0.0
  0
LINE
  5
628
330
625
100
AcDbEntity
  8
LC-001-100-D00-0
 62
     2
370
    -2
100
AcDbLine
 10
-229.51945
 20
521.108523
 30
0.0
 11
-229.51945
 21
571.108523
 31
0.0
  0
LINE
  5
629
330
625
100
AcDbEntity
  8
LC-001-100-D00-0
 62
     2
370
    -2
100
AcDbLine
 10
-229.51945
 20
391.108523
 30
0.0
 11
-229.51945
 21
341.849821
 31
0.0
  0
SOLID
  5
62A
330
625
100
AcDbEntity
  8
LC-001-100-D00-0
 62
     2
100
AcDbTrace
 10
-221.186117
 20
391.108523
 30
0.0
 11
-237.852784
 21
391.108523
 31
0.0
 12
-229.51945
 22
441.108523
 32
0.0
 13
-229.51945
 23
441.108523
 33
0.0
  0
SOLID
  5
62B
330
625
100
AcDbEntity
  8
LC-001-100-D00-0
 62
     2
100
AcDbTrace
 10
-237.852784
 20
521.108523
 30
0.0
 11
-221.186117
 21
521.108523
 31
0.0
 12
-229.51945
 22
471.108523
 32
0.0
 13
-229.51945
 23
471.108523
 33
0.0
  0
MTEXT
  5
62C
330
625
100
AcDbEntity
  8
LC-001-100-D00-0
 62
     2
100
AcDbMText
 10
-284.51945
 20
384.925225
 30
0.0
 40
50.0
 41
0.0
 71
     5
 72
     1
  1
\A1;30
  7
LCTX15-400-0-0pDIN-Schrift
 11
6.123031769111886E-17
 21
1.0
 31
0.0
 73
     1
 44
1.0
  0
POINT
  5
62D
330
625
100
AcDbEntity
  8
Defpoints
 62
     0
100
AcDbPoint
 10
-129.594738
 20
441.108523
 30
0.0
  0
POINT
  5
62E
330
625
100
AcDbEntity
  8
Defpoints
 62
     0
100
AcDbPoint
 10
-133.547172
 20
471.108523
 30
0.0
  0
POINT
  5
62F
330
625
100
AcDbEntity
  8
Defpoints
 62
     0
100
AcDbPoint
 10
-229.51945
 20
471.108523
 30
0.0
  0
ENDBLK
  5
631
330
625
100
AcDbEntity
  8
0
100
AcDbBlockEnd
  0
BLOCK
  5
63F
330
633
100
AcDbEntity
  8
0
100
AcDbBlockBegin
  2
*D34
 70
     1
 71
     0
 10
0.0
 20
0.0
 30
0.0
  3
*D34
  1

  0
LINE
  5
634
330
633
100
AcDbEntity
  8
LC-001-100-D00-0
 62
     2
370
    -2
100
AcDbLine
 10
-650.594738
 20
512.608523
 30
0.0
 11
-697.068192
 21
512.608523
 31
0.0
  0
LINE
  5
635
330
633
100
AcDbEntity
  8
LC-001-100-D00-0
 62
     2
370
    -2
100
AcDbLine
 10
-645.594738
 20
557.608523
 30
0.0
 11
-697.068192
 21
557.608523
 31
0.0
  0
LINE
  5
636
330
633
100
AcDbEntity
  8
LC-001-100-D00-0
 62
     2
370
    -2
100
AcDbLine
 10
-688.068192
 20
462.608523
 30
0.0
 11
-688.068192
 21
412.608523
 31
0.0
  0
LINE
  5
637
330
633
100
AcDbEntity
  8
LC-001-100-D00-0
 62
     2
370
    -2
100
AcDbLine
 10
-688.068192
 20
607.608523
 30
0.0
 11
-688.068192
 21
657.608523
 31
0.0
  0
LINE
  5
638
330
633
100
AcDbEntity
  8
LC-001-100-D00-0
 62
     2
370
    -2
100
AcDbLine
 10
-688.068192
 20
512.608523
 30
0.0
 11
-688.068192
 21
557.608523
 31
0.0
  0
SOLID
  5
639
330
633
100
AcDbEntity
  8
LC-001-100-D00-0
 62
     2
100
AcDbTrace
 10
-679.734859
 20
462.608523
 30
0.0
 11
-696.401526
 21
462.608523
 31
0.0
 12
-688.068192
 22
512.608523
 32
0.0
 13
-688.068192
 23
512.608523
 33
0.0
  0
SOLID
  5
63A
330
633
100
AcDbEntity
  8
LC-001-100-D00-0
 62
     2
100
AcDbTrace
 10
-696.401526
 20
607.608523
 30
0.0
 11
-679.734859
 21
607.608523
 31
0.0
 12
-688.068192
 22
557.608523
 32
0.0
 13
-688.068192
 23
557.608523
 33
0.0
  0
MTEXT
  5
63B
330
633
100
AcDbEntity
  8
LC-001-100-D00-0
 62
     2
100
AcDbMText
 10
-743.068192
 20
536.266224
 30
0.0
 40
50.0
 41
0.0
 71
     5
 72
     1
  1
\A1;46
  7
LCTX15-400-0-0pDIN-Schrift
 11
6.123031769111886E-17
 21
1.0
 31
0.0
 73
     1
 44
1.0
  0
POINT
  5
63C
330
633
100
AcDbEntity
  8
Defpoints
 62
     0
100
AcDbPoint
 10
-650.594738
 20
512.608523
 30
0.0
  0
POINT
  5
63D
330
633
100
AcDbEntity
  8
Defpoints
 62
     0
100
AcDbPoint
 10
-645.594738
 20
557.608523
 30
0.0
  0
POINT
  5
63E
330
633
100
AcDbEntity
  8
Defpoints
 62
     0
100
AcDbPoint
 10
-688.068192
 20
557.608523
 30
0.0
  0
ENDBLK
  5
640
330
633
100
AcDbEntity
  8
0
100
AcDbBlockEnd
  0
BLOCK
  5
642
330
641
100
AcDbEntity
  8
0
100
AcDbBlockBegin
  2
KLON23
 70
     0
 71
     0
 10
0.0
 20
0.0
 30
0.0
  3
KLON23
  1

  4
KLON23
  0
LINE
  5
644
330
641
100
AcDbEntity
  8
LC-001-100-D00-0
 62
     7
370
    50
100
AcDbLine
 10
437.628029
 20
511.108523
 30
0.0
 11
439.128029
 21
512.608523
 31
0.0
  0
LINE
  5
645
330
641
100
AcDbEntity
  8
LC-001-100-D00-0
 62
     7
370
    50
100
AcDbLine
 10
395.707297
 20
491.63843
 30
0.0
 11
399.875356
 21
495.806488
 31
0.0
  0
LINE
  5
646
330
641
100
AcDbEntity
  8
LC-001-100-D00-0
 62
     7
370
    50
100
AcDbLine
 10
415.17739
 20
511.108523
 30
0.0
 11
416.67739
 21
512.608523
 31
0.0
  0
LINE
  5
647
330
641
100
AcDbEntity
  8
LC-001-100-D00-0
 62
     7
370
    50
100
AcDbLine
 10
372.226752
 20
490.608523
 30
0.0
 11
373.905262
 21
492.287034
 31
0.0
  0
LINE
  5
648
330
641
100
AcDbEntity
  8
LC-001-100-D00-0
 62
     7
370
    50
100
AcDbLine
 10
349.776112
 20
490.608523
 30
0.0
 11
351.276112
 21
492.108523
 31
0.0
  0
LINE
  5
649
330
641
100
AcDbEntity
  8
LC-001-100-D00-0
 62
     7
370
    50
100
AcDbLine
 10
365.405262
 20
506.237674
 30
0.0
 11
371.276111
 21
512.108523
 31
0.0
  0
LINE
  5
64A
330
641
100
AcDbEntity
  8
LC-001-100-D00-0
 62
     7
370
    50
100
AcDbLine
 10
327.325473
 20
490.608523
 30
0.0
 11
328.825473
 21
492.108523
 31
0.0
  0
LINE
  5
64B
330
641
100
AcDbEntity
  8
LC-001-100-D00-0
 62
     7
370
    50
100
AcDbLine
 10
304.874833
 20
490.608523
 30
0.0
 11
306.374833
 21
492.108523
 31
0.0
  0
LINE
  5
64C
330
641
100
AcDbEntity
  8
LC-001-100-D00-0
 62
     7
370
    50
100
AcDbLine
 10
282.424194
 20
490.608523
 30
0.0
 11
283.924194
 21
492.108523
 31
0.0
  0
LINE
  5
64D
330
641
100
AcDbEntity
  8
LC-001-100-D00-0
 62
     7
370
    50
100
AcDbLine
 10
259.973554
 20
490.608523
 30
0.0
 11
261.473554
 21
492.108523
 31
0.0
  0
LINE
  5
64E
330
641
100
AcDbEntity
  8
LC-001-100-D00-0
 62
     7
370
    50
100
AcDbLine
 10
237.522915
 20
490.608523
 30
0.0
 11
239.022915
 21
492.108523
 31
0.0
  0
LINE
  5
64F
330
641
100
AcDbEntity
  8
LC-001-100-D00-0
 62
     7
370
    50
100
AcDbLine
 10
215.072275
 20
490.608523
 30
0.0
 11
216.572275
 21
492.108523
 31
0.0
  0
LINE
  5
650
330
641
100
AcDbEntity
  8
LC-001-100-D00-0
 62
     7
370
    50
100
AcDbLine
 10
192.621636
 20
490.608523
 30
0.0
 11
194.121636
 21
492.108523
 31
0.0
  0
LINE
  5
651
330
641
100
AcDbEntity
  8
LC-001-100-D00-0
 62
     7
370
    50
100
AcDbLine
 10
170.170996
 20
490.608523
 30
0.0
 11
171.670996
 21
492.108523
 31
0.0
  0
LINE
  5
652
330
641
100
AcDbEntity
  8
LC-001-100-D00-0
 62
     7
370
    50
100
AcDbLine
 10
180.405262
 20
500.842789
 30
0.0
 11
188.405262
 21
508.84279
 31
0.0
  0
LINE
  5
653
330
641
100
AcDbEntity
  8
LC-001-100-D00-0
 62
     7
370
    50
100
AcDbLine
 10
147.720357
 20
490.608523
 30
0.0
 11
149.220357
 21
492.108523
 31
0.0
  0
LINE
  5
654
330
641
100
AcDbEntity
  8
LC-001-100-D00-0
 62
     7
370
    50
100
AcDbLine
 10
125.269717
 20
490.608523
 30
0.0
 11
126.769717
 21
492.108523
 31
0.0
  0
LINE
  5
655
330
641
100
AcDbEntity
  8
LC-001-100-D00-0
 62
     7
370
    50
100
AcDbLine
 10
102.819078
 20
490.608523
 30
0.0
 11
104.319078
 21
492.108523
 31
0.0
  0
LINE
  5
656
330
641
100
AcDbEntity
  8
LC-001-100-D00-0
 62
     7
370
    50
100
AcDbLine
 10
80.368439
 20
490.608523
 30
0.0
 11
81.868438
 21
492.108523
 31
0.0
  0
LINE
  5
657
330
641
100
AcDbEntity
  8
LC-001-100-D00-0
 62
     7
370
    50
100
AcDbLine
 10
57.917799
 20
490.608523
 30
0.0
 11
59.417799
 21
492.108523
 31
0.0
  0
LINE
  5
658
330
641
100
AcDbEntity
  8
LC-001-100-D00-0
 62
     7
370
    50
100
AcDbLine
 10
35.46716
 20
490.608523
 30
0.0
 11
36.967159
 21
492.108523
 31
0.0
  0
LINE
  5
659
330
641
100
AcDbEntity
  8
LC-001-100-D00-0
 62
     7
370
    50
100
AcDbLine
 10
13.01652
 20
490.608523
 30
0.0
 11
14.51652
 21
492.108523
 31
0.0
  0
LINE
  5
65A
330
641
100
AcDbEntity
  8
LC-001-100-D00-0
 62
     7
370
    50
100
AcDbLine
 10
-10.349049
 20
489.693593
 30
0.0
 11
-8.227729
 21
491.814914
 31
0.0
  0
LINE
  5
65B
330
641
100
AcDbEntity
  8
LC-001-100-D00-0
 62
     7
370
    50
100
AcDbLine
 10
-4.070875
 20
495.971768
 30
0.0
 11
3.405262
 21
503.447905
 31
0.0
  0
LINE
  5
65C
330
641
100
AcDbEntity
  8
LC-001-100-D00-0
 62
     7
370
    50
100
AcDbLine
 10
-36.884759
 20
485.608523
 30
0.0
 11
-35.384759
 21
487.108523
 31
0.0
  0
ENDBLK
  5
643
330
641
100
AcDbEntity
  8
0
100
AcDbBlockEnd
  0
BLOCK
  5
65F
330
65E
100
AcDbEntity
  8
0
100
AcDbBlockBegin
  2
KLON24
 70
     0
 71
     0
 10
0.0
 20
0.0
 30
0.0
  3
KLON24
  1

  4
KLON24
  0
LINE
  5
661
330
65E
100
AcDbEntity
  8
LC-001-100-D00-0
 62
     7
370
    50
100
AcDbLine
 10
-171.588595
 20
485.608523
 30
0.0
 11
-170.088596
 21
487.108523
 31
0.0
  0
LINE
  5
662
330
65E
100
AcDbEntity
  8
LC-001-100-D00-0
 62
     7
370
    50
100
AcDbLine
 10
-190.141454
 20
489.506304
 30
0.0
 11
-188.91671
 21
490.731049
 31
0.0
  0
LINE
  5
663
330
65E
100
AcDbEntity
  8
LC-001-100-D00-0
 62
     7
370
    50
100
AcDbLine
 10
-211.489875
 20
490.608523
 30
0.0
 11
-209.989875
 21
492.108523
 31
0.0
  0
LINE
  5
664
330
65E
100
AcDbEntity
  8
LC-001-100-D00-0
 62
     7
370
    50
100
AcDbLine
 10
-204.594738
 20
497.50366
 30
0.0
 11
-196.594738
 21
505.503661
 31
0.0
  0
LINE
  5
665
330
65E
100
AcDbEntity
  8
LC-001-100-D00-0
 62
     7
370
    50
100
AcDbLine
 10
-233.940514
 20
490.608523
 30
0.0
 11
-232.440514
 21
492.108523
 31
0.0
  0
LINE
  5
666
330
65E
100
AcDbEntity
  8
LC-001-100-D00-0
 62
     7
370
    50
100
AcDbLine
 10
-256.391154
 20
490.608523
 30
0.0
 11
-254.891154
 21
492.108523
 31
0.0
  0
LINE
  5
667
330
65E
100
AcDbEntity
  8
LC-001-100-D00-0
 62
     7
370
    50
100
AcDbLine
 10
-278.841793
 20
490.608523
 30
0.0
 11
-277.341793
 21
492.108523
 31
0.0
  0
LINE
  5
668
330
65E
100
AcDbEntity
  8
LC-001-100-D00-0
 62
     7
370
    50
100
AcDbLine
 10
-301.292433
 20
490.608523
 30
0.0
 11
-299.792433
 21
492.108523
 31
0.0
  0
LINE
  5
669
330
65E
100
AcDbEntity
  8
LC-001-100-D00-0
 62
     7
370
    50
100
AcDbLine
 10
-323.743072
 20
490.608523
 30
0.0
 11
-322.243072
 21
492.108523
 31
0.0
  0
LINE
  5
66A
330
65E
100
AcDbEntity
  8
LC-001-100-D00-0
 62
     7
370
    50
100
AcDbLine
 10
-346.193712
 20
490.608523
 30
0.0
 11
-344.693712
 21
492.108523
 31
0.0
  0
LINE
  5
66B
330
65E
100
AcDbEntity
  8
LC-001-100-D00-0
 62
     7
370
    50
100
AcDbLine
 10
-368.644351
 20
490.608523
 30
0.0
 11
-367.144351
 21
492.108523
 31
0.0
  0
LINE
  5
66C
330
65E
100
AcDbEntity
  8
LC-001-100-D00-0
 62
     7
370
    50
100
AcDbLine
 10
-391.094991
 20
490.608523
 30
0.0
 11
-381.594738
 21
500.108776
 31
0.0
  0
LINE
  5
66D
330
65E
100
AcDbEntity
  8
LC-001-100-D00-0
 62
     7
370
    50
100
AcDbLine
 10
-413.54563
 20
490.608523
 30
0.0
 11
-412.04563
 21
492.108523
 31
0.0
  0
LINE
  5
66E
330
65E
100
AcDbEntity
  8
LC-001-100-D00-0
 62
     7
370
    50
100
AcDbLine
 10
-435.99627
 20
490.608523
 30
0.0
 11
-434.49627
 21
492.108523
 31
0.0
  0
LINE
  5
66F
330
65E
100
AcDbEntity
  8
LC-001-100-D00-0
 62
     7
370
    50
100
AcDbLine
 10
-458.446909
 20
490.608523
 30
0.0
 11
-456.946909
 21
492.108523
 31
0.0
  0
LINE
  5
670
330
65E
100
AcDbEntity
  8
LC-001-100-D00-0
 62
     7
370
    50
100
AcDbLine
 10
-480.897549
 20
490.608523
 30
0.0
 11
-479.397549
 21
492.108523
 31
0.0
  0
LINE
  5
671
330
65E
100
AcDbEntity
  8
LC-001-100-D00-0
 62
     7
370
    50
100
AcDbLine
 10
-503.348188
 20
490.608523
 30
0.0
 11
-501.848188
 21
492.108523
 31
0.0
  0
LINE
  5
672
330
65E
100
AcDbEntity
  8
LC-001-100-D00-0
 62
     7
370
    50
100
AcDbLine
 10
-525.798827
 20
490.608523
 30
0.0
 11
-524.298828
 21
492.108523
 31
0.0
  0
LINE
  5
673
330
65E
100
AcDbEntity
  8
LC-001-100-D00-0
 62
     7
370
    50
100
AcDbLine
 10
-548.249467
 20
490.608523
 30
0.0
 11
-546.749467
 21
492.108523
 31
0.0
  0
LINE
  5
674
330
65E
100
AcDbEntity
  8
LC-001-100-D00-0
 62
     7
370
    50
100
AcDbLine
 10
-570.700106
 20
490.608523
 30
0.0
 11
-567.172418
 21
494.136212
 31
0.0
  0
LINE
  5
675
330
65E
100
AcDbEntity
  8
LC-001-100-D00-0
 62
     7
370
    50
100
AcDbLine
 10
-593.135351
 20
490.623918
 30
0.0
 11
-591.650746
 21
492.108523
 31
0.0
  0
LINE
  5
676
330
65E
100
AcDbEntity
  8
LC-001-100-D00-0
 62
     7
370
    50
100
AcDbLine
 10
-574.594738
 20
509.164532
 30
0.0
 11
-571.650747
 21
512.108523
 31
0.0
  0
LINE
  5
677
330
65E
100
AcDbEntity
  8
LC-001-100-D00-0
 62
     7
370
    50
100
AcDbLine
 10
-602.094738
 20
504.115172
 30
0.0
 11
-600.594738
 21
505.615172
 31
0.0
  0
LINE
  5
678
330
65E
100
AcDbEntity
  8
LC-001-100-D00-0
 62
     7
370
    50
100
AcDbLine
 10
-617.552026
 20
511.108523
 30
0.0
 11
-616.052026
 21
512.608523
 31
0.0
  0
LINE
  5
679
330
65E
100
AcDbEntity
  8
LC-001-100-D00-0
 62
     7
370
    50
100
AcDbLine
 10
-640.002666
 20
511.108523
 30
0.0
 11
-638.502666
 21
512.608523
 31
0.0
  0
ENDBLK
  5
660
330
65E
100
AcDbEntity
  8
0
100
AcDbBlockEnd
  0
BLOCK
  5
67C
330
67B
100
AcDbEntity
  8
0
100
AcDbBlockBegin
  2
KLON25
 70
     0
 71
     0
 10
0.0
 20
0.0
 30
0.0
  3
KLON25
  1

  4
KLON25
  0
LINE
  5
67E
330
67B
100
AcDbEntity
  8
LC-001-100-D00-0
 62
     7
370
    50
100
AcDbLine
 10
-6.035028
 20
426.655691
 30
0.0
 11
-0.582197
 21
432.108523
 31
0.0
  0
LINE
  5
67F
330
67B
100
AcDbEntity
  8
LC-001-100-D00-0
 62
     7
370
    50
100
AcDbLine
 10
-26.032836
 20
429.108523
 30
0.0
 11
-23.032836
 21
432.108523
 31
0.0
  0
LINE
  5
680
330
67B
100
AcDbEntity
  8
LC-001-100-D00-0
 62
     7
370
    50
100
AcDbLine
 10
-54.983475
 20
422.608523
 30
0.0
 11
-51.983475
 21
425.608523
 31
0.0
  0
LINE
  5
681
330
67B
100
AcDbEntity
  8
LC-001-100-D00-0
 62
     7
370
    50
100
AcDbLine
 10
-77.434114
 20
422.608523
 30
0.0
 11
-74.434115
 21
425.608523
 31
0.0
  0
LINE
  5
682
330
67B
100
AcDbEntity
  8
LC-001-100-D00-0
 62
     7
370
    50
100
AcDbLine
 10
-99.884754
 20
422.608523
 30
0.0
 11
-96.884754
 21
425.608523
 31
0.0
  0
LINE
  5
683
330
67B
100
AcDbEntity
  8
LC-001-100-D00-0
 62
     7
370
    50
100
AcDbLine
 10
-122.335393
 20
422.608523
 30
0.0
 11
-119.335394
 21
425.608523
 31
0.0
  0
LINE
  5
684
330
67B
100
AcDbEntity
  8
LC-001-100-D00-0
 62
     7
370
    50
100
AcDbLine
 10
-144.786033
 20
422.608523
 30
0.0
 11
-141.786033
 21
425.608523
 31
0.0
  0
LINE
  5
685
330
67B
100
AcDbEntity
  8
LC-001-100-D00-0
 62
     7
370
    50
100
AcDbLine
 10
-161.498035
 20
428.347161
 30
0.0
 11
-158.603628
 21
431.241568
 31
0.0
  0
LINE
  5
686
330
67B
100
AcDbEntity
  8
LC-001-100-D00-0
 62
     7
370
    50
100
AcDbLine
 10
-174.115462
 20
438.180375
 30
0.0
 11
-171.555027
 21
440.740809
 31
0.0
  0
LINE
  5
687
330
67B
100
AcDbEntity
  8
LC-001-100-D00-0
 62
     7
370
    50
100
AcDbLine
 10
-174.594738
 20
460.151739
 30
0.0
 11
-171.594738
 21
463.151739
 31
0.0
  0
ENDBLK
  5
67D
330
67B
100
AcDbEntity
  8
0
100
AcDbBlockEnd
  0
BLOCK
  5
68A
330
689
100
AcDbEntity
  8
0
100
AcDbBlockBegin
  2
KLON26
 70
     0
 71
     0
 10
0.0
 20
0.0
 30
0.0
  3
KLON26
  1

  4
KLON26
  0
LINE
  5
68C
330
689
100
AcDbEntity
  8
LC-001-100-D00-0
 62
     7
370
    50
100
AcDbLine
 10
0.516521
 20
478.108523
 30
0.0
 11
6.820186
 21
484.412189
 31
0.0
  0
LINE
  5
68D
330
689
100
AcDbEntity
  8
LC-001-100-D00-0
 62
     7
370
    50
100
AcDbLine
 10
-21.934118
 20
478.108523
 30
0.0
 11
-18.934119
 21
481.108523
 31
0.0
  0
ENDBLK
  5
68B
330
689
100
AcDbEntity
  8
0
100
AcDbBlockEnd
  0
BLOCK
  5
692
330
691
100
AcDbEntity
  8
0
100
AcDbBlockBegin
  2
KLON27
 70
     0
 71
     0
 10
0.0
 20
0.0
 30
0.0
  3
KLON27
  1

  4
KLON27
  0
LINE
  5
694
330
691
100
AcDbEntity
  8
LC-001-100-D00-0
 62
     7
370
    50
100
AcDbLine
 10
-73.094738
 20
449.398541
 30
0.0
 11
-71.594738
 21
450.898541
 31
0.0
  0
LINE
  5
695
330
691
100
AcDbEntity
  8
LC-001-100-D00-0
 62
     7
370
    50
100
AcDbLine
 10
-73.094738
 20
471.849182
 30
0.0
 11
-71.034091
 21
473.90983
 31
0.0
  0
LINE
  5
696
330
691
100
AcDbEntity
  8
LC-001-100-D00-0
 62
     7
370
    50
100
AcDbLine
 10
-64.896045
 20
480.047876
 30
0.0
 11
-58.335398
 21
486.608523
 31
0.0
  0
ENDBLK
  5
693
330
691
100
AcDbEntity
  8
0
100
AcDbBlockEnd
  0
BLOCK
  5
699
330
698
100
AcDbEntity
  8
0
100
AcDbBlockBegin
  2
KLON28
 70
     0
 71
     0
 10
0.0
 20
0.0
 30
0.0
  3
KLON28
  1

  4
KLON28
  0
LINE
  5
69B
330
698
100
AcDbEntity
  8
LC-001-100-D00-0
 62
     7
370
    50
100
AcDbLine
 10
-129.594738
 20
460.25046
 30
0.0
 11
-128.094738
 21
461.75046
 31
0.0
  0
LINE
  5
69C
330
698
100
AcDbEntity
  8
LC-001-100-D00-0
 62
     7
370
    50
100
AcDbLine
 10
-133.647796
 20
478.648043
 30
0.0
 11
-128.094738
 21
484.201101
 31
0.0
  0
LINE
  5
69D
330
698
100
AcDbEntity
  8
LC-001-100-D00-0
 62
     7
370
    50
100
AcDbLine
 10
-154.137956
 20
480.608523
 30
0.0
 11
-153.137956
 21
481.608523
 31
0.0
  0
LINE
  5
69E
330
698
100
AcDbEntity
  8
LC-001-100-D00-0
 62
     7
370
    50
100
AcDbLine
 10
-153.094738
 20
481.651741
 30
0.0
 11
-148.137956
 21
486.608523
 31
0.0
  0
ENDBLK
  5
69A
330
698
100
AcDbEntity
  8
0
100
AcDbBlockEnd
  0
BLOCK
  5
6A1
330
6A0
100
AcDbEntity
  8
0
100
AcDbBlockBegin
  2
KLON29
 70
     0
 71
     0
 10
0.0
 20
0.0
 30
0.0
  3
KLON29
  1

  4
KLON29
  0
LINE
  5
6A3
330
6A0
100
AcDbEntity
  8
LC-001-100-D00-0
 62
     7
370
    50
100
AcDbLine
 10
-74.934115
 20
425.108523
 30
0.0
 11
-73.434115
 21
426.608523
 31
0.0
  0
LINE
  5
6A4
330
6A0
100
AcDbEntity
  8
LC-001-100-D00-0
 62
     7
370
    50
100
AcDbLine
 10
-61.094738
 20
438.947901
 30
0.0
 11
-59.594738
 21
440.447901
 31
0.0
  0
LINE
  5
6A5
330
6A0
100
AcDbEntity
  8
LC-001-100-D00-0
 62
     7
370
    50
100
AcDbLine
 10
-97.384754
 20
425.108523
 30
0.0
 11
-95.884754
 21
426.608523
 31
0.0
  0
LINE
  5
6A6
330
6A0
100
AcDbEntity
  8
LC-001-100-D00-0
 62
     7
370
    50
100
AcDbLine
 10
-61.094738
 20
461.398542
 30
0.0
 11
-59.594738
 21
462.898542
 31
0.0
  0
LINE
  5
6A7
330
6A0
100
AcDbEntity
  8
LC-001-100-D00-0
 62
     7
370
    50
100
AcDbLine
 10
-119.835394
 20
425.108523
 30
0.0
 11
-118.335394
 21
426.608523
 31
0.0
  0
LINE
  5
6A8
330
6A0
100
AcDbEntity
  8
LC-001-100-D00-0
 62
     7
370
    50
100
AcDbLine
 10
-140.458983
 20
426.935573
 30
0.0
 11
-139.391004
 21
428.003553
 31
0.0
  0
LINE
  5
6A9
330
6A0
100
AcDbEntity
  8
LC-001-100-D00-0
 62
     7
370
    50
100
AcDbLine
 10
-141.594738
 20
448.250459
 30
0.0
 11
-140.094738
 21
449.750459
 31
0.0
  0
LINE
  5
6AA
330
6A0
100
AcDbEntity
  8
LC-001-100-D00-0
 62
     7
370
    50
100
AcDbLine
 10
-141.594738
 20
470.701101
 30
0.0
 11
-140.114737
 21
472.181102
 31
0.0
  0
LINE
  5
6AB
330
6A0
100
AcDbEntity
  8
LC-001-100-D00-0
 62
     7
370
    50
100
AcDbLine
 10
-155.694738
 20
479.051741
 30
0.0
 11
-154.137956
 21
480.608523
 31
0.0
  0
ENDBLK
  5
6A2
330
6A0
100
AcDbEntity
  8
0
100
AcDbBlockEnd
  0
BLOCK
  5
6AE
330
6AD
100
AcDbEntity
  8
0
100
AcDbBlockBegin
  2
KLON30
 70
     0
 71
     0
 10
0.0
 20
0.0
 30
0.0
  3
KLON30
  1

  4
KLON30
  0
LINE
  5
6B0
330
6AD
100
AcDbEntity
  8
LC-001-100-D00-0
 62
     7
370
    50
100
AcDbLine
 10
90.069079
 20
477.858523
 30
0.0
 11
92.319079
 21
480.108523
 31
0.0
  0
LINE
  5
6B1
330
6AD
100
AcDbEntity
  8
LC-001-100-D00-0
 62
     7
370
    50
100
AcDbLine
 10
6.701913
 20
484.293914
 30
0.0
 11
8.858943
 21
486.450945
 31
0.0
  0
LINE
  5
6B2
330
6AD
100
AcDbEntity
  8
LC-001-100-D00-0
 62
     7
370
    50
100
AcDbLine
 10
22.717142
 20
477.858523
 30
0.0
 11
24.967142
 21
480.108523
 31
0.0
  0
ENDBLK
  5
6AF
330
6AD
100
AcDbEntity
  8
0
100
AcDbBlockEnd
  0
BLOCK
  5
6B5
330
6B4
100
AcDbEntity
  8
0
100
AcDbBlockBegin
  2
KLON31
 70
     0
 71
     0
 10
0.0
 20
0.0
 30
0.0
  3
KLON31
  1

  4
KLON31
  0
LINE
  5
6B7
330
6B4
100
AcDbEntity
  8
LC-001-100-D00-0
 62
     7
370
    50
100
AcDbLine
 10
42.319082
 20
430.108523
 30
0.0
 11
44.569082
 21
432.358523
 31
0.0
  0
LINE
  5
6B8
330
6B4
100
AcDbEntity
  8
LC-001-100-D00-0
 62
     7
370
    50
100
AcDbLine
 10
64.769722
 20
430.108523
 30
0.0
 11
67.019722
 21
432.358523
 31
0.0
  0
LINE
  5
6B9
330
6B4
100
AcDbEntity
  8
LC-001-100-D00-0
 62
     7
370
    50
100
AcDbLine
 10
87.220362
 20
430.108523
 30
0.0
 11
89.470362
 21
432.358523
 31
0.0
  0
ENDBLK
  5
6B6
330
6B4
100
AcDbEntity
  8
0
100
AcDbBlockEnd
  0
BLOCK
  5
6BC
330
6BB
100
AcDbEntity
  8
0
100
AcDbBlockBegin
  2
KLON32
 70
     0
 71
     0
 10
0.0
 20
0.0
 30
0.0
  3
KLON32
  1

  4
KLON32
  0
LINE
  5
6BE
330
6BB
100
AcDbEntity
  8
LC-001-100-D00-0
 62
     7
370
    50
100
AcDbLine
 10
-16.88476
 20
505.608523
 30
0.0
 11
-15.844738
 21
506.648545
 31
0.0
  0
LINE
  5
6BF
330
6BB
100
AcDbEntity
  8
LC-001-100-D00-0
 62
     7
370
    50
100
AcDbLine
 10
-12.88476
 20
509.608523
 30
0.0
 11
-9.884761
 21
512.608523
 31
0.0
  0
ENDBLK
  5
6BD
330
6BB
100
AcDbEntity
  8
0
100
AcDbBlockEnd
  0
BLOCK
  5
6C5
330
6C4
100
AcDbEntity
  8
0
100
AcDbBlockBegin
  2
KLON33
 70
     0
 71
     0
 10
0.0
 20
0.0
 30
0.0
  3
KLON33
  1

  4
KLON33
  0
LINE
  5
6C7
330
6C4
100
AcDbEntity
  8
LC-001-100-D00-0
 62
     7
370
    50
100
AcDbLine
 10
375.756115
 20
494.137887
 30
0.0
 11
379.155262
 21
497.537034
 31
0.0
  0
LINE
  5
6C8
330
6C4
100
AcDbEntity
  8
LC-001-100-D00-0
 62
     7
370
    50
100
AcDbLine
 10
387.226751
 20
505.608523
 30
0.0
 11
387.655262
 21
506.037035
 31
0.0
  0
ENDBLK
  5
6C6
330
6C4
100
AcDbEntity
  8
0
100
AcDbBlockEnd
  0
BLOCK
  5
6CD
330
6CC
100
AcDbEntity
  8
0
100
AcDbBlockBegin
  2
KLON34
 70
     0
 71
     0
 10
0.0
 20
0.0
 30
0.0
  3
KLON34
  1

  4
KLON34
  0
LINE
  5
6CF
330
6CC
100
AcDbEntity
  8
LC-001-100-D00-0
 62
     7
370
    50
100
AcDbLine
 10
-380.094991
 20
501.608523
 30
0.0
 11
-375.844738
 21
505.858777
 31
0.0
  0
LINE
  5
6D0
330
6CC
100
AcDbEntity
  8
LC-001-100-D00-0
 62
     7
370
    50
100
AcDbLine
 10
-372.094992
 20
509.608523
 30
0.0
 11
-369.094992
 21
512.608523
 31
0.0
  0
ENDBLK
  5
6CE
330
6CC
100
AcDbEntity
  8
0
100
AcDbBlockEnd
  0
BLOCK
  5
6D5
330
6D4
100
AcDbEntity
  8
0
100
AcDbBlockBegin
  2
KLON35
 70
     0
 71
     0
 10
0.0
 20
0.0
 30
0.0
  3
KLON35
  1

  4
KLON35
  0
LINE
  5
6D7
330
6D4
100
AcDbEntity
  8
LC-001-100-D00-0
 62
     7
370
    50
100
AcDbLine
 10
-565.366307
 20
495.942323
 30
0.0
 11
-560.844738
 21
500.463892
 31
0.0
  0
LINE
  5
6D8
330
6D4
100
AcDbEntity
  8
LC-001-100-D00-0
 62
     7
370
    50
100
AcDbLine
 10
-555.344738
 20
505.963893
 30
0.0
 11
-552.344738
 21
508.963893
 31
0.0
  0
ENDBLK
  5
6D6
330
6D4
100
AcDbEntity
  8
0
100
AcDbBlockEnd
  0
BLOCK
  5
6DC
330
6DB
100
AcDbEntity
  8
0
100
AcDbBlockBegin
  2
KLON36
 70
     0
 71
     0
 10
0.0
 20
0.0
 30
0.0
  3
KLON36
  1

  4
KLON36
  0
LINE
  5
6DE
330
6DB
100
AcDbEntity
  8
LC-001-100-D00-0
 62
     7
370
    50
100
AcDbLine
 10
174.655262
 20
495.092789
 30
0.0
 11
179.041267
 21
499.478794
 31
0.0
  0
LINE
  5
6DF
330
6DB
100
AcDbEntity
  8
LC-001-100-D00-0
 62
     7
370
    50
100
AcDbLine
 10
166.155262
 20
509.04343
 30
0.0
 11
169.720355
 21
512.608523
 31
0.0
  0
ENDBLK
  5
6DD
330
6DB
100
AcDbEntity
  8
0
100
AcDbBlockEnd
  0
BLOCK
  5
6E4
330
6E3
100
AcDbEntity
  8
0
100
AcDbBlockBegin
  2
KLON37
 70
     0
 71
     0
 10
0.0
 20
0.0
 30
0.0
  3
KLON37
  1

  4
KLON37
  0
LINE
  5
6E6
330
6E3
100
AcDbEntity
  8
LC-001-100-D00-0
 62
     7
370
    50
100
AcDbLine
 10
-208.489875
 20
493.608523
 30
0.0
 11
-206.945591
 21
495.152807
 31
0.0
  0
LINE
  5
6E7
330
6E3
100
AcDbEntity
  8
LC-001-100-D00-0
 62
     7
370
    50
100
AcDbLine
 10
-206.489875
 20
495.608523
 30
0.0
 11
-205.794738
 21
496.30366
 31
0.0
  0
LINE
  5
6E8
330
6E3
100
AcDbEntity
  8
LC-001-100-D00-0
 62
     7
370
    50
100
AcDbLine
 10
-218.844738
 20
505.7043
 30
0.0
 11
-215.844738
 21
508.704301
 31
0.0
  0
LINE
  5
6E9
330
6E3
100
AcDbEntity
  8
LC-001-100-D00-0
 62
     7
370
    50
100
AcDbLine
 10
-214.940516
 20
509.608523
 30
0.0
 11
-211.940516
 21
512.608523
 31
0.0
  0
ENDBLK
  5
6E5
330
6E3
100
AcDbEntity
  8
0
100
AcDbBlockEnd
  0
BLOCK
  5
6ED
330
6EC
100
AcDbEntity
  8
0
100
AcDbBlockBegin
  2
KLON38
 70
     0
 71
     0
 10
0.0
 20
0.0
 30
0.0
  3
KLON38
  1

  4
KLON38
  0
LINE
  5
6EF
330
6EC
100
AcDbEntity
  8
LC-001-100-D00-0
 62
     7
370
    50
100
AcDbLine
 10
-206.945591
 20
495.152807
 30
0.0
 11
-206.323071
 21
495.775327
 31
0.0
  0
LINE
  5
6F0
330
6EC
100
AcDbEntity
  8
LC-001-100-D00-0
 62
     7
370
    50
100
AcDbLine
 10
-205.799939
 20
496.298459
 30
0.0
 11
-203.994738
 21
498.10366
 31
0.0
  0
ENDBLK
  5
6EE
330
6EC
100
AcDbEntity
  8
0
100
AcDbBlockEnd
  0
ENDSEC
  0
SECTION
  2
ENTITIES
  0
LINE
  5
31
330
1F
100
AcDbEntity
  8
LC-001-100-D00-0
 62
     7
370
    50
100
AcDbLine
 10
810.771364
 20
511.108523
 30
0.0
 11
810.771363
 21
509.708523
 31
0.0
  0
LINE
  5
32
330
1F
100
AcDbEntity
  8
LC-001-100-D00-0
 62
     7
370
    50
100
AcDbLine
 10
819.771363
 20
509.708523
 30
0.0
 11
819.771365
 21
511.108523
 31
0.0
  0
LINE
  5
33
330
1F
100
AcDbEntity
  8
LC-001-100-D00-0
 62
     7
370
    50
100
AcDbLine
 10
740.771362
 20
511.108523
 30
0.0
 11
740.771363
 21
509.708523
 31
0.0
  0
LINE
  5
34
330
1F
100
AcDbEntity
  8
LC-001-100-D00-0
 62
     7
370
    50
100
AcDbLine
 10
749.771363
 20
509.708523
 30
0.0
 11
749.771363
 21
511.108523
 31
0.0
  0
LINE
  5
35
330
1F
100
AcDbEntity
  8
LC-001-100-D00-0
 62
     7
370
    50
100
AcDbLine
 10
811.271363
 20
509.708523
 30
0.0
 11
811.271363
 21
496.108523
 31
0.0
  0
LINE
  5
36
330
1F
100
AcDbEntity
  8
LC-001-100-D00-0
 62
     7
370
    50
100
AcDbLine
 10
819.271363
 20
496.108523
 30
0.0
 11
819.271364
 21
509.708523
 31
0.0
  0
LINE
  5
37
330
1F
100
AcDbEntity
  8
LC-001-100-D00-0
 62
     7
370
    50
100
AcDbLine
 10
741.271363
 20
509.708523
 30
0.0
 11
741.271363
 21
496.108523
 31
0.0
  0
LINE
  5
38
330
1F
100
AcDbEntity
  8
LC-001-100-D00-0
 62
     7
370
    50
100
AcDbLine
 10
749.271363
 20
496.108523
 30
0.0
 11
749.271364
 21
509.708523
 31
0.0
  0
ARC
  5
39
330
1F
100
AcDbEntity
  8
LC-001-100-D00-0
 62
     7
370
    50
100
AcDbCircle
 10
835.771363
 20
385.608523
 30
0.0
 40
0.5
100
AcDbArc
 50
90.0
 51
180.0
  0
ARC
  5
3A
330
1F
100
AcDbEntity
  8
LC-001-100-D00-0
 62
     7
370
    50
100
AcDbCircle
 10
853.771363
 20
385.608523
 30
0.0
 40
0.4999999999997726
100
AcDbArc
 50
0.0
 51
90.0
  0
LINE
  5
3B
330
1F
100
AcDbEntity
  8
LC-001-100-D00-0
 62
     7
370
    50
100
AcDbLine
 10
835.271363
 20
385.608523
 30
0.0
 11
835.271363
 21
378.108523
 31
0.0
  0
LINE
  5
3C
330
1F
100
AcDbEntity
  8
LC-001-100-D00-0
 62
     7
370
    50
100
AcDbLine
 10
854.271363
 20
378.108523
 30
0.0
 11
854.271363
 21
385.608523
 31
0.0
  0
LINE
  5
3D
330
1F
100
AcDbEntity
  8
LC-001-100-D00-0
 62
     7
370
    50
100
AcDbLine
 10
834.771362
 20
455.108522
 30
0.0
 11
834.771363
 21
401.108523
 31
0.0
  0
LINE
  5
3E
330
1F
100
AcDbEntity
  8
LC-001-100-D00-0
 62
     7
370
    50
100
AcDbLine
 10
854.771363
 20
401.108523
 30
0.0
 11
854.771365
 21
455.108522
 31
0.0
  0
LINE
  5
3F
330
1F
100
AcDbEntity
  8
LC-001-100-D00-0
 62
     7
370
    50
100
AcDbLine
 10
834.771363
 20
387.108523
 30
0.0
 11
835.771363
 21
386.108523
 31
0.0
  0
LINE
  5
40
330
1F
100
AcDbEntity
  8
LC-001-100-D00-0
 62
     7
370
    50
100
AcDbLine
 10
853.771363
 20
386.108523
 30
0.0
 11
854.771363
 21
387.108523
 31
0.0
  0
LINE
  5
41
330
1F
100
AcDbEntity
  8
LC-001-100-D00-0
 62
     7
370
    50
100
AcDbLine
 10
834.771363
 20
397.608523
 30
0.0
 11
834.771363
 21
387.108523
 31
0.0
  0
LINE
  5
42
330
1F
100
AcDbEntity
  8
LC-001-100-D00-0
 62
     7
370
    50
100
AcDbLine
 10
854.771363
 20
387.108523
 30
0.0
 11
854.771363
 21
397.608523
 31
0.0
  0
LINE
  5
43
330
1F
100
AcDbEntity
  8
LC-001-100-D00-0
 62
     7
370
    50
100
AcDbLine
 10
836.871364
 20
401.108521
 30
0.0
 11
836.871364
 21
397.608521
 31
0.0
  0
LINE
  5
44
330
1F
100
AcDbEntity
  8
LC-001-100-D00-0
 62
     7
370
    50
100
AcDbLine
 10
852.671367
 20
397.608521
 30
0.0
 11
852.671367
 21
401.108521
 31
0.0
  0
ARC
  5
45
330
1F
100
AcDbEntity
  8
LC-001-100-D00-0
 62
     7
370
    50
100
AcDbCircle
 10
819.671363
 20
486.708523
 30
0.0
 40
0.6000000000001364
100
AcDbArc
 50
270.0
 51
0.0
  0
ARC
  5
46
330
1F
100
AcDbEntity
  8
LC-001-100-D00-0
 62
     7
370
    50
100
AcDbCircle
 10
810.871363
 20
486.708523
 30
0.0
 40
0.6000000000001364
100
AcDbArc
 50
180.0
 51
270.0
  0
LINE
  5
47
330
1F
100
AcDbEntity
  8
LC-001-100-D00-0
 62
     7
370
    50
100
AcDbLine
 10
820.271363
 20
486.708523
 30
0.0
 11
820.271363
 21
490.108523
 31
0.0
  0
LINE
  5
48
330
1F
100
AcDbEntity
  8
LC-001-100-D00-0
 62
     7
370
    50
100
AcDbLine
 10
810.271363
 20
490.108523
 30
0.0
 11
810.271363
 21
486.708523
 31
0.0
  0
LINE
  5
49
330
1F
100
AcDbEntity
  8
LC-001-100-D00-0
 62
     7
370
    50
100
AcDbLine
 10
818.271362
 20
495.108523
 30
0.0
 11
818.271362
 21
496.108524
 31
0.0
  0
LINE
  5
4A
330
1F
100
AcDbEntity
  8
LC-001-100-D00-0
 62
     7
370
    50
100
AcDbLine
 10
812.271365
 20
496.108524
 30
0.0
 11
812.271365
 21
495.108523
 31
0.0
  0
ARC
  5
4B
330
1F
100
AcDbEntity
  8
LC-001-100-D00-0
 62
     7
370
    50
100
AcDbCircle
 10
749.671363
 20
486.708523
 30
0.0
 40
0.6000000000003638
100
AcDbArc
 50
270.0
 51
0.0
  0
ARC
  5
4C
330
1F
100
AcDbEntity
  8
LC-001-100-D00-0
 62
     7
370
    50
100
AcDbCircle
 10
740.871363
 20
486.708523
 30
0.0
 40
0.6000000000001364
100
AcDbArc
 50
180.0
 51
270.0
  0
LINE
  5
4D
330
1F
100
AcDbEntity
  8
LC-001-100-D00-0
 62
     7
370
    50
100
AcDbLine
 10
750.271363
 20
486.708523
 30
0.0
 11
750.271364
 21
490.108523
 31
0.0
  0
LINE
  5
4E
330
1F
100
AcDbEntity
  8
LC-001-100-D00-0
 62
     7
370
    50
100
AcDbLine
 10
740.271364
 20
490.108523
 30
0.0
 11
740.271363
 21
486.708523
 31
0.0
  0
LINE
  5
4F
330
1F
100
AcDbEntity
  8
LC-001-100-D00-0
 62
     7
370
    50
100
AcDbLine
 10
748.271362
 20
495.108523
 30
0.0
 11
748.271362
 21
496.108524
 31
0.0
  0
LINE
  5
50
330
1F
100
AcDbEntity
  8
LC-001-100-D00-0
 62
     7
370
    50
100
AcDbLine
 10
742.271365
 20
496.108524
 30
0.0
 11
742.271365
 21
495.108523
 31
0.0
  0
LINE
  5
51
330
1F
100
AcDbEntity
  8
LC-001-100-D00-0
 62
     7
370
    50
100
AcDbLine
 10
820.771363
 20
490.108523
 30
0.0
 11
820.771363
 21
492.108523
 31
0.0
  0
LINE
  5
52
330
1F
100
AcDbEntity
  8
LC-001-100-D00-0
 62
     7
370
    50
100
AcDbLine
 10
809.771364
 20
492.108523
 30
0.0
 11
809.771363
 21
490.108523
 31
0.0
  0
LINE
  5
53
330
1F
100
AcDbEntity
  8
LC-001-100-D00-0
 62
     7
370
    50
100
AcDbLine
 10
750.771363
 20
490.108523
 30
0.0
 11
750.771363
 21
492.108523
 31
0.0
  0
LINE
  5
54
330
1F
100
AcDbEntity
  8
LC-001-100-D00-0
 62
     7
370
    50
100
AcDbLine
 10
739.771363
 20
492.108523
 30
0.0
 11
739.771363
 21
490.108523
 31
0.0
  0
LINE
  5
55
330
1F
100
AcDbEntity
  8
LC-001-100-D00-0
 62
     7
370
    50
100
AcDbLine
 10
852.771363
 20
512.608523
 30
0.0
 11
857.771363
 21
512.608523
 31
0.0
  0
LINE
  5
56
330
1F
100
AcDbEntity
  8
LC-001-100-D00-0
 62
     7
370
    50
100
AcDbLine
 10
857.771363
 20
512.608523
 30
0.0
 11
857.771363
 21
511.108523
 31
0.0
  0
LINE
  5
57
330
1F
100
AcDbEntity
  8
LC-001-100-D00-0
 62
     7
370
    50
100
AcDbLine
 10
857.771363
 20
511.108523
 30
0.0
 11
852.771363
 21
511.108523
 31
0.0
  0
ARC
  5
58
330
1F
100
AcDbEntity
  8
LC-001-100-D00-0
 62
     7
370
    50
100
AcDbCircle
 10
737.271363
 20
514.108523
 30
0.0
 40
1.500000000000455
100
AcDbArc
 50
180.0
 51
270.0
  0
LINE
  5
59
330
1F
100
AcDbEntity
  8
LC-001-100-D00-0
 62
     7
370
    50
100
AcDbLine
 10
737.271363
 20
512.608523
 30
0.0
 11
852.771363
 21
512.608523
 31
0.0
  0
LINE
  5
5A
330
1F
100
AcDbEntity
  8
LC-001-100-D00-0
 62
     7
370
    50
100
AcDbLine
 10
736.771363
 20
511.108523
 30
0.0
 11
852.771363
 21
511.108523
 31
0.0
  0
ARC
  5
5B
330
1F
100
AcDbEntity
  8
LC-001-100-D00-0
 62
     7
370
    50
100
AcDbCircle
 10
736.771363
 20
513.608523
 30
0.0
 40
2.5
100
AcDbArc
 50
180.0
 51
270.0
  0
LINE
  5
5C
330
1F
100
AcDbEntity
  8
LC-001-100-D00-0
 62
     7
370
    50
100
AcDbLine
 10
734.271363
 20
513.608523
 30
0.0
 11
734.271363
 21
557.608523
 31
0.0
  0
LINE
  5
5D
330
1F
100
AcDbEntity
  8
LC-001-100-D00-0
 62
     7
370
    50
100
AcDbLine
 10
735.771363
 20
557.608523
 30
0.0
 11
735.771363
 21
514.108523
 31
0.0
  0
LINE
  5
5E
330
1F
100
AcDbEntity
  8
LC-001-100-D00-0
 62
     7
370
    50
100
AcDbLine
 10
734.271363
 20
562.608523
 30
0.0
 11
735.771363
 21
562.608523
 31
0.0
  0
LINE
  5
5F
330
1F
100
AcDbEntity
  8
LC-001-100-D00-0
 62
     7
370
    50
100
AcDbLine
 10
734.271363
 20
557.608523
 30
0.0
 11
734.271363
 21
562.608523
 31
0.0
  0
LINE
  5
60
330
1F
100
AcDbEntity
  8
LC-001-100-D00-0
 62
     7
370
    50
100
AcDbLine
 10
735.771363
 20
562.608523
 30
0.0
 11
735.771363
 21
557.608523
 31
0.0
  0
ARC
  5
61
330
1F
100
AcDbEntity
  8
LC-001-100-D00-0
 62
     7
370
    50
100
AcDbCircle
 10
809.271363
 20
509.608523
 30
0.0
 40
1.5
100
AcDbArc
 50
90.0
 51
180.0
  0
ARC
  5
62
330
1F
100
AcDbEntity
  8
LC-001-100-D00-0
 62
     7
370
    50
100
AcDbCircle
 10
751.271363
 20
509.608523
 30
0.0
 40
1.5
100
AcDbArc
 50
0.0
 51
90.0
  0
LINE
  5
63
330
1F
100
AcDbEntity
  8
LC-001-100-D00-0
 62
     7
370
    50
100
AcDbLine
 10
792.604772
 20
490.608524
 30
0.0
 11
803.771363
 21
490.608523
 31
0.0
  0
LINE
  5
64
330
1F
100
AcDbEntity
  8
LC-001-100-D00-0
 62
     7
370
    50
100
AcDbLine
 10
792.426558
 20
490.608524
 30
0.0
 11
792.604772
 21
490.608524
 31
0.0
  0
LINE
  5
65
330
1F
100
AcDbEntity
  8
LC-001-100-D00-0
 62
     7
370
    50
100
AcDbLine
 10
792.426558
 20
490.608524
 30
0.0
 11
768.116169
 21
490.608524
 31
0.0
  0
LINE
  5
66
330
1F
100
AcDbEntity
  8
LC-001-100-D00-0
 62
     7
370
    50
100
AcDbLine
 10
767.937954
 20
490.608524
 30
0.0
 11
768.116169
 21
490.608524
 31
0.0
  0
LINE
  5
67
330
1F
100
AcDbEntity
  8
LC-001-100-D00-0
 62
     7
370
    50
100
AcDbLine
 10
756.771363
 20
490.608523
 30
0.0
 11
767.937954
 21
490.608524
 31
0.0
  0
LINE
  5
68
330
1F
100
AcDbEntity
  8
LC-001-100-D00-0
 62
     7
370
    50
100
AcDbLine
 10
752.771363
 20
500.108523
 30
0.0
 11
752.771363
 21
509.608523
 31
0.0
  0
LINE
  5
69
330
1F
100
AcDbEntity
  8
LC-001-100-D00-0
 62
     7
370
    50
100
AcDbLine
 10
807.771363
 20
509.608523
 30
0.0
 11
807.771363
 21
500.108523
 31
0.0
  0
ARC
  5
6A
330
1F
100
AcDbEntity
  8
LC-001-100-D00-0
 62
     7
370
    50
100
AcDbCircle
 10
756.771363
 20
494.608523
 30
0.0
 40
4.0
100
AcDbArc
 50
180.0
 51
270.0
  0
LINE
  5
6B
330
1F
100
AcDbEntity
  8
LC-001-100-D00-0
 62
     7
370
    50
100
AcDbLine
 10
752.771363
 20
500.108523
 30
0.0
 11
752.771363
 21
494.608523
 31
0.0
  0
ARC
  5
6C
330
1F
100
AcDbEntity
  8
LC-001-100-D00-0
 62
     7
370
    50
100
AcDbCircle
 10
803.771363
 20
494.608523
 30
0.0
 40
4.000000000014552
100
AcDbArc
 50
270.0
 51
0.0
  0
LINE
  5
6D
330
1F
100
AcDbEntity
  8
LC-001-100-D00-0
 62
     7
370
    50
100
AcDbLine
 10
807.771363
 20
494.608523
 30
0.0
 11
807.771363
 21
500.108523
 31
0.0
  0
ARC
  5
6E
330
1F
100
AcDbEntity
  8
LC-001-100-D00-0
 62
     7
370
    50
100
AcDbCircle
 10
803.771363
 20
489.608523
 30
0.0
 40
4.0
100
AcDbArc
 50
270.0
 51
0.0
  0
LINE
  5
6F
330
1F
100
AcDbEntity
  8
LC-001-100-D00-0
 62
     7
370
    50
100
AcDbLine
 10
807.771363
 20
494.608523
 30
0.0
 11
807.771363
 21
489.608523
 31
0.0
  0
LINE
  5
70
330
1F
100
AcDbEntity
  8
LC-001-100-D00-0
 62
     7
370
    50
100
AcDbLine
 10
803.771363
 20
485.608523
 30
0.0
 11
800.922331
 21
485.608523
 31
0.0
  0
ARC
  5
71
330
1F
100
AcDbEntity
  8
LC-001-100-D00-0
 62
     7
370
    50
100
AcDbCircle
 10
775.677058
 20
488.108523
 30
0.0
 40
2.5
100
AcDbArc
 50
90.0
 51
108.434949
  0
LINE
  5
72
330
1F
100
AcDbEntity
  8
LC-001-100-D00-0
 62
     7
370
    50
100
AcDbLine
 10
774.886488
 20
490.480232
 30
0.0
 11
774.885404
 21
490.479871
 31
0.0
  0
LINE
  5
73
330
1F
100
AcDbEntity
  8
LC-001-100-D00-0
 62
     7
370
    50
100
AcDbLine
 10
759.620395
 20
485.608523
 30
0.0
 11
756.771364
 21
485.608523
 31
0.0
  0
LINE
  5
74
330
1F
100
AcDbEntity
  8
LC-001-100-D00-0
 62
     7
370
    50
100
AcDbLine
 10
785.657322
 20
490.479871
 30
0.0
 11
785.656239
 21
490.480232
 31
0.0
  0
ARC
  5
75
330
1F
100
AcDbEntity
  8
LC-001-100-D00-0
 62
     7
370
    50
100
AcDbCircle
 10
784.865669
 20
488.108523
 30
0.0
 40
2.499999999999917
100
AcDbArc
 50
71.565051
 51
90.0
  0
ARC
  5
76
330
1F
100
AcDbEntity
  8
LC-001-100-D00-0
 62
     7
370
    50
100
AcDbCircle
 10
756.771363
 20
489.608523
 30
0.0
 40
4.000000000047066
100
AcDbArc
 50
180.0
 51
270.0
  0
LINE
  5
77
330
1F
100
AcDbEntity
  8
LC-001-100-D00-0
 62
     7
370
    50
100
AcDbLine
 10
752.771364
 20
489.608523
 30
0.0
 11
752.771363
 21
494.608523
 31
0.0
  0
LINE
  5
78
330
1F
100
AcDbEntity
  8
LC-001-100-D00-0
 62
     7
370
    50
100
AcDbLine
 10
800.922331
 20
485.608523
 30
0.0
 11
800.920474
 21
485.608523
 31
0.0
  0
LINE
  5
79
330
1F
100
AcDbEntity
  8
LC-001-100-D00-0
 62
     7
370
    50
100
AcDbLine
 10
800.920474
 20
485.608523
 30
0.0
 11
799.655563
 21
485.81379
 31
0.0
  0
LINE
  5
7A
330
1F
100
AcDbEntity
  8
LC-001-100-D00-0
 62
     7
370
    50
100
AcDbLine
 10
799.655563
 20
485.81379
 30
0.0
 11
799.653483
 21
485.814483
 31
0.0
  0
LINE
  5
7B
330
1F
100
AcDbEntity
  8
LC-001-100-D00-0
 62
     7
370
    50
100
AcDbLine
 10
759.622253
 20
485.608523
 30
0.0
 11
760.887164
 21
485.81379
 31
0.0
  0
LINE
  5
7C
330
1F
100
AcDbEntity
  8
LC-001-100-D00-0
 62
     7
370
    50
100
AcDbLine
 10
759.622253
 20
485.608523
 30
0.0
 11
759.620395
 21
485.608523
 31
0.0
  0
LINE
  5
7D
330
1F
100
AcDbEntity
  8
LC-001-100-D00-0
 62
     7
370
    50
100
AcDbLine
 10
760.889244
 20
485.814483
 30
0.0
 11
760.887164
 21
485.81379
 31
0.0
  0
LINE
  5
7E
330
1F
100
AcDbEntity
  8
LC-001-100-D00-0
 62
     7
370
    50
100
AcDbLine
 10
799.653483
 20
485.814483
 30
0.0
 11
785.657322
 21
490.479871
 31
0.0
  0
LINE
  5
7F
330
1F
100
AcDbEntity
  8
LC-001-100-D00-0
 62
     7
370
    50
100
AcDbLine
 10
774.885404
 20
490.479871
 30
0.0
 11
760.889244
 21
485.814483
 31
0.0
  0
LINE
  5
80
330
1F
100
AcDbEntity
  8
LC-001-100-D00-0
 62
     7
370
    50
100
AcDbLine
 10
831.771363
 20
509.108523
 30
0.0
 11
857.771363
 21
509.108523
 31
0.0
  0
LINE
  5
81
330
1F
100
AcDbEntity
  8
LC-001-100-D00-0
 62
     7
370
    50
100
AcDbLine
 10
831.771363
 20
511.108523
 30
0.0
 11
831.771363
 21
509.108523
 31
0.0
  0
LINE
  5
82
330
1F
100
AcDbEntity
  8
LC-001-100-D00-0
 62
     7
370
    50
100
AcDbLine
 10
857.771363
 20
511.108523
 30
0.0
 11
857.771363
 21
509.108523
 31
0.0
  0
LINE
  5
83
330
1F
100
AcDbEntity
  8
LC-001-100-D00-0
 62
     7
370
    50
100
AcDbLine
 10
831.771363
 20
507.108523
 30
0.0
 11
831.771363
 21
509.108523
 31
0.0
  0
LINE
  5
84
330
1F
100
AcDbEntity
  8
LC-001-100-D00-0
 62
     7
370
    50
100
AcDbLine
 10
857.771363
 20
509.108523
 30
0.0
 11
857.771363
 21
507.108523
 31
0.0
  0
LINE
  5
85
330
1F
100
AcDbEntity
  8
LC-001-100-D00-0
 62
     7
370
    50
100
AcDbLine
 10
857.771363
 20
482.008523
 30
0.0
 11
855.330971
 21
482.008523
 31
0.0
  0
LINE
  5
86
330
1F
100
AcDbEntity
  8
LC-001-100-D00-0
 62
     7
370
    50
100
AcDbLine
 10
834.211756
 20
482.008523
 30
0.0
 11
831.771363
 21
482.008523
 31
0.0
  0
LINE
  5
87
330
1F
100
AcDbEntity
  8
LC-001-100-D00-0
 62
     7
370
    50
100
AcDbLine
 10
831.771363
 20
482.008523
 30
0.0
 11
831.771363
 21
486.008523
 31
0.0
  0
LINE
  5
88
330
1F
100
AcDbEntity
  8
LC-001-100-D00-0
 62
     7
370
    50
100
AcDbLine
 10
857.771363
 20
486.008523
 30
0.0
 11
857.771363
 21
482.008523
 31
0.0
  0
LINE
  5
89
330
1F
100
AcDbEntity
  8
LC-001-100-D00-0
 62
     7
370
    50
100
AcDbLine
 10
831.771363
 20
507.108523
 30
0.0
 11
831.771363
 21
486.008523
 31
0.0
  0
LINE
  5
8A
330
1F
100
AcDbEntity
  8
LC-001-100-D00-0
 62
     7
370
    50
100
AcDbLine
 10
857.771363
 20
507.108523
 30
0.0
 11
857.771363
 21
486.008523
 31
0.0
  0
LINE
  5
8B
330
1F
100
AcDbEntity
  8
LC-001-100-D00-0
 62
     7
370
    50
100
AcDbLine
 10
800.920474
 20
485.608523
 30
0.0
 11
799.201223
 21
485.608523
 31
0.0
  0
LINE
  5
8C
330
1F
100
AcDbEntity
  8
LC-001-100-D00-0
 62
     7
370
    50
100
AcDbLine
 10
761.341504
 20
485.608523
 30
0.0
 11
759.622253
 21
485.608523
 31
0.0
  0
LINE
  5
8D
330
1F
100
AcDbEntity
  8
LC-001-100-D00-0
 62
     7
370
    50
100
AcDbLine
 10
799.201223
 20
485.608523
 30
0.0
 11
761.341504
 21
485.608523
 31
0.0
  0
LINE
  5
8E
330
1F
100
AcDbEntity
  8
LC-001-100-D00-0
 62
     7
370
    50
100
AcDbLine
 10
819.771363
 20
509.708523
 30
0.0
 11
810.771363
 21
509.708523
 31
0.0
  0
LINE
  5
8F
330
1F
100
AcDbEntity
  8
LC-001-100-D00-0
 62
     7
370
    50
100
AcDbLine
 10
740.771363
 20
509.708523
 30
0.0
 11
749.771363
 21
509.708523
 31
0.0
  0
LINE
  5
90
330
1F
100
AcDbEntity
  8
LC-001-100-D00-0
 62
     7
370
    50
100
AcDbLine
 10
819.271363
 20
496.108523
 30
0.0
 11
811.271363
 21
496.108523
 31
0.0
  0
LINE
  5
91
330
1F
100
AcDbEntity
  8
LC-001-100-D00-0
 62
     7
370
    50
100
AcDbLine
 10
741.271363
 20
496.108523
 30
0.0
 11
749.271363
 21
496.108523
 31
0.0
  0
LINE
  5
92
330
1F
100
AcDbEntity
  8
LC-001-100-D00-0
 62
     7
370
    50
100
AcDbLine
 10
835.929439
 20
386.108528
 30
0.0
 11
853.639257
 21
386.108528
 31
0.0
  0
LINE
  5
93
330
1F
100
AcDbEntity
  8
LC-001-100-D00-0
 62
     7
370
    50
100
AcDbLine
 10
846.709083
 20
378.108523
 30
0.0
 11
835.271363
 21
378.108523
 31
0.0
  0
LINE
  5
94
330
1F
100
AcDbEntity
  8
LC-001-100-D00-0
 62
     7
370
    50
100
AcDbLine
 10
854.271363
 20
378.108523
 30
0.0
 11
846.709083
 21
378.108523
 31
0.0
  0
LINE
  5
95
330
1F
100
AcDbEntity
  8
LC-001-100-D00-0
 62
     7
370
    50
100
AcDbLine
 10
832.771363
 20
480.108523
 30
0.0
 11
832.771362
 21
482.008523
 31
0.0
  0
LINE
  5
96
330
1F
100
AcDbEntity
  8
LC-001-100-D00-0
 62
     7
370
    50
100
AcDbLine
 10
835.156504
 20
482.108523
 30
0.0
 11
838.771363
 21
482.108523
 31
0.0
  0
LINE
  5
97
330
1F
100
AcDbEntity
  8
LC-001-100-D00-0
 62
     7
370
    50
100
AcDbLine
 10
838.771363
 20
480.108523
 30
0.0
 11
832.771363
 21
480.108523
 31
0.0
  0
LINE
  5
98
330
1F
100
AcDbEntity
  8
LC-001-100-D00-0
 62
     7
370
    50
100
AcDbLine
 10
850.771363
 20
482.108523
 30
0.0
 11
838.771363
 21
482.108523
 31
0.0
  0
LINE
  5
99
330
1F
100
AcDbEntity
  8
LC-001-100-D00-0
 62
     7
370
    50
100
AcDbLine
 10
850.771363
 20
480.108523
 30
0.0
 11
838.771363
 21
480.108523
 31
0.0
  0
LINE
  5
9A
330
1F
100
AcDbEntity
  8
LC-001-100-D00-0
 62
     7
370
    50
100
AcDbLine
 10
856.771362
 20
482.008523
 30
0.0
 11
856.771363
 21
480.108523
 31
0.0
  0
LINE
  5
9B
330
1F
100
AcDbEntity
  8
LC-001-100-D00-0
 62
     7
370
    50
100
AcDbLine
 10
856.771363
 20
480.108523
 30
0.0
 11
850.771363
 21
480.108523
 31
0.0
  0
LINE
  5
9C
330
1F
100
AcDbEntity
  8
LC-001-100-D00-0
 62
     7
370
    50
100
AcDbLine
 10
850.771363
 20
482.108523
 30
0.0
 11
854.386223
 21
482.108523
 31
0.0
  0
LINE
  5
9D
330
1F
100
AcDbEntity
  8
LC-001-100-D00-0
 62
     7
370
    50
100
AcDbLine
 10
848.271363
 20
455.108523
 30
0.0
 11
841.271363
 21
455.108523
 31
0.0
  0
LINE
  5
9E
330
1F
100
AcDbEntity
  8
LC-001-100-D00-0
 62
     7
370
    50
100
AcDbLine
 10
853.271363
 20
455.108523
 30
0.0
 11
848.271363
 21
455.108523
 31
0.0
  0
LINE
  5
9F
330
1F
100
AcDbEntity
  8
LC-001-100-D00-0
 62
     7
370
    50
100
AcDbLine
 10
841.271363
 20
455.108523
 30
0.0
 11
836.271363
 21
455.108523
 31
0.0
  0
LINE
  5
A0
330
1F
100
AcDbEntity
  8
LC-001-100-D00-0
 62
     7
370
    50
100
AcDbLine
 10
832.771363
 20
455.108523
 30
0.0
 11
832.771363
 21
480.108523
 31
0.0
  0
LINE
  5
A1
330
1F
100
AcDbEntity
  8
LC-001-100-D00-0
 62
     7
370
    50
100
AcDbLine
 10
836.271363
 20
455.108523
 30
0.0
 11
832.771363
 21
455.108523
 31
0.0
  0
LINE
  5
A2
330
1F
100
AcDbEntity
  8
LC-001-100-D00-0
 62
     7
370
    50
100
AcDbLine
 10
856.771363
 20
480.108523
 30
0.0
 11
856.771363
 21
455.108523
 31
0.0
  0
LINE
  5
A3
330
1F
100
AcDbEntity
  8
LC-001-100-D00-0
 62
     7
370
    50
100
AcDbLine
 10
856.771363
 20
455.108523
 30
0.0
 11
853.271363
 21
455.108523
 31
0.0
  0
LINE
  5
A4
330
1F
100
AcDbEntity
  8
LC-001-100-D00-0
 62
     7
370
    50
100
AcDbLine
 10
834.771363
 20
401.108523
 30
0.0
 11
854.771363
 21
401.108523
 31
0.0
  0
LINE
  5
A5
330
1F
100
AcDbEntity
  8
LC-001-100-D00-0
 62
     7
370
    50
100
AcDbLine
 10
846.811068
 20
387.108523
 30
0.0
 11
854.771363
 21
387.108523
 31
0.0
  0
LINE
  5
A6
330
1F
100
AcDbEntity
  8
LC-001-100-D00-0
 62
     7
370
    50
100
AcDbLine
 10
834.771363
 20
387.108523
 30
0.0
 11
846.811068
 21
387.108523
 31
0.0
  0
LINE
  5
A7
330
1F
100
AcDbEntity
  8
LC-001-100-D00-0
 62
     7
370
    50
100
AcDbLine
 10
846.607098
 20
386.108523
 30
0.0
 11
835.771363
 21
386.108523
 31
0.0
  0
LINE
  5
A8
330
1F
100
AcDbEntity
  8
LC-001-100-D00-0
 62
     7
370
    50
100
AcDbLine
 10
853.771363
 20
386.108523
 30
0.0
 11
846.607098
 21
386.108523
 31
0.0
  0
LINE
  5
A9
330
1F
100
AcDbEntity
  8
LC-001-100-D00-0
 62
     7
370
    50
100
AcDbLine
 10
834.771363
 20
397.608523
 30
0.0
 11
854.771363
 21
397.608523
 31
0.0
  0
LINE
  5
AA
330
1F
100
AcDbEntity
  8
LC-001-100-D00-0
 62
     7
370
    50
100
AcDbLine
 10
815.271363
 20
486.108523
 30
0.0
 11
810.871363
 21
486.108523
 31
0.0
  0
LINE
  5
AB
330
1F
100
AcDbEntity
  8
LC-001-100-D00-0
 62
     7
370
    50
100
AcDbLine
 10
819.671363
 20
486.108523
 30
0.0
 11
815.271363
 21
486.108523
 31
0.0
  0
LINE
  5
AC
330
1F
100
AcDbEntity
  8
LC-001-100-D00-0
 62
     7
370
    50
100
AcDbLine
 10
745.271363
 20
486.108523
 30
0.0
 11
740.871363
 21
486.108523
 31
0.0
  0
LINE
  5
AD
330
1F
100
AcDbEntity
  8
LC-001-100-D00-0
 62
     7
370
    50
100
AcDbLine
 10
749.671363
 20
486.108523
 30
0.0
 11
745.271363
 21
486.108523
 31
0.0
  0
LINE
  5
AE
330
1F
100
AcDbEntity
  8
LC-001-100-D00-0
 62
     7
370
    50
100
AcDbLine
 10
744.771363
 20
492.108523
 30
0.0
 11
739.771363
 21
492.108523
 31
0.0
  0
LINE
  5
AF
330
1F
100
AcDbEntity
  8
LC-001-100-D00-0
 62
     7
370
    50
100
AcDbLine
 10
739.771363
 20
492.108523
 30
0.0
 11
739.771363
 21
495.108523
 31
0.0
  0
LINE
  5
B0
330
1F
100
AcDbEntity
  8
LC-001-100-D00-0
 62
     7
370
    50
100
AcDbLine
 10
739.771363
 20
495.108523
 30
0.0
 11
744.771363
 21
495.108523
 31
0.0
  0
LINE
  5
B1
330
1F
100
AcDbEntity
  8
LC-001-100-D00-0
 62
     7
370
    50
100
AcDbLine
 10
820.771363
 20
495.108523
 30
0.0
 11
820.771363
 21
492.108523
 31
0.0
  0
LINE
  5
B2
330
1F
100
AcDbEntity
  8
LC-001-100-D00-0
 62
     7
370
    50
100
AcDbLine
 10
820.771363
 20
492.108523
 30
0.0
 11
815.771363
 21
492.108523
 31
0.0
  0
LINE
  5
B3
330
1F
100
AcDbEntity
  8
LC-001-100-D00-0
 62
     7
370
    50
100
AcDbLine
 10
815.771363
 20
495.108523
 30
0.0
 11
820.771363
 21
495.108523
 31
0.0
  0
LINE
  5
B4
330
1F
100
AcDbEntity
  8
LC-001-100-D00-0
 62
     7
370
    50
100
AcDbLine
 10
807.771363
 20
495.108523
 30
0.0
 11
815.771363
 21
495.108523
 31
0.0
  0
LINE
  5
B5
330
1F
100
AcDbEntity
  8
LC-001-100-D00-0
 62
     7
370
    50
100
AcDbLine
 10
807.771363
 20
492.108523
 30
0.0
 11
815.771363
 21
492.108523
 31
0.0
  0
LINE
  5
B6
330
1F
100
AcDbEntity
  8
LC-001-100-D00-0
 62
     7
370
    50
100
AcDbLine
 10
744.771363
 20
492.108523
 30
0.0
 11
752.771364
 21
492.108523
 31
0.0
  0
LINE
  5
B7
330
1F
100
AcDbEntity
  8
LC-001-100-D00-0
 62
     7
370
    50
100
AcDbLine
 10
744.771363
 20
495.108523
 30
0.0
 11
752.771364
 21
495.108523
 31
0.0
  0
LINE
  5
B8
330
1F
100
AcDbEntity
  8
LC-001-100-D00-0
 62
     7
370
    50
100
AcDbLine
 10
818.218172
 20
481.858523
 30
0.0
 11
742.324555
 21
481.858523
 31
0.0
  0
LINE
  5
B9
330
1F
100
AcDbEntity
  8
LC-001-100-D00-0
 62
     7
370
    50
100
AcDbLine
 10
820.771364
 20
496.108524
 30
0.0
 11
820.771363
 21
495.108523
 31
0.0
  0
LINE
  5
BA
330
1F
100
AcDbEntity
  8
LC-001-100-D00-0
 62
     7
370
    50
100
AcDbLine
 10
739.771363
 20
495.108523
 30
0.0
 11
739.771363
 21
496.108524
 31
0.0
  0
LINE
  5
BB
330
1F
100
AcDbEntity
  8
LC-001-100-D00-0
 62
     7
370
    50
100
AcDbLine
 10
739.771363
 20
496.108524
 30
0.0
 11
739.771363
 21
511.108523
 31
0.0
  0
LINE
  5
BC
330
1F
100
AcDbEntity
  8
LC-001-100-D00-0
 62
     7
370
    50
100
AcDbLine
 10
820.771363
 20
490.108523
 30
0.0
 11
820.771363
 21
481.858523
 31
0.0
  0
LINE
  5
BD
330
1F
100
AcDbEntity
  8
LC-001-100-D00-0
 62
     7
370
    50
100
AcDbLine
 10
820.771363
 20
481.858523
 30
0.0
 11
818.218172
 21
481.858523
 31
0.0
  0
LINE
  5
BE
330
1F
100
AcDbEntity
  8
LC-001-100-D00-0
 62
     7
370
    50
100
AcDbLine
 10
820.771364
 20
511.108523
 30
0.0
 11
820.771364
 21
496.108524
 31
0.0
  0
LINE
  5
BF
330
1F
100
AcDbEntity
  8
LC-001-100-D00-0
 62
     7
370
    50
100
AcDbLine
 10
739.771363
 20
481.858523
 30
0.0
 11
739.771363
 21
490.108523
 31
0.0
  0
LINE
  5
C0
330
1F
100
AcDbEntity
  8
LC-001-100-D00-0
 62
     7
370
    50
100
AcDbLine
 10
742.324555
 20
481.858523
 30
0.0
 11
739.771363
 21
481.858523
 31
0.0
  0
LINE
  5
C1
330
1F
100
AcDbEntity
  8
LC-001-100-D00-0
 62
     7
370
    50
100
AcDbLine
 10
742.324555
 20
481.858523
 30
0.0
 11
818.218172
 21
481.858523
 31
0.0
  0
LINE
  5
C2
330
1F
100
AcDbEntity
  8
LC-001-100-D00-0
 62
     7
370
    50
100
AcDbLine
 10
807.313917
 20
429.108523
 30
0.0
 11
753.22881
 21
429.108523
 31
0.0
  0
LINE
  5
C3
330
1F
100
AcDbEntity
  8
LC-001-100-D00-0
 62
     7
370
    50
100
AcDbLine
 10
800.786961
 20
422.608523
 30
0.0
 11
759.755766
 21
422.608523
 31
0.0
  0
LINE
  5
C4
330
1F
100
AcDbEntity
  8
LC-001-100-D00-0
 62
     7
370
    50
100
AcDbLine
 10
820.771363
 20
481.858523
 30
0.0
 11
820.771363
 21
441.608523
 31
0.0
  0
LINE
  5
C5
330
1F
100
AcDbEntity
  8
LC-001-100-D00-0
 62
     7
370
    50
100
AcDbLine
 10
818.218172
 20
481.858523
 30
0.0
 11
820.771363
 21
481.858523
 31
0.0
  0
ARC
  5
C6
330
1F
100
AcDbEntity
  8
LC-001-100-D00-0
 62
     7
370
    50
100
AcDbCircle
 10
808.271363
 20
441.608523
 30
0.0
 40
12.50000000000023
100
AcDbArc
 50
270.0
 51
0.0
  0
LINE
  5
C7
330
1F
100
AcDbEntity
  8
LC-001-100-D00-0
 62
     7
370
    50
100
AcDbLine
 10
808.271363
 20
429.108523
 30
0.0
 11
807.313917
 21
429.108523
 31
0.0
  0
ARC
  5
C8
330
1F
100
AcDbEntity
  8
LC-001-100-D00-0
 62
     7
370
    50
100
AcDbCircle
 10
752.271363
 20
441.608523
 30
0.0
 40
12.50000000000023
100
AcDbArc
 50
180.0
 51
270.0
  0
LINE
  5
C9
330
1F
100
AcDbEntity
  8
LC-001-100-D00-0
 62
     7
370
    50
100
AcDbLine
 10
753.22881
 20
429.108523
 30
0.0
 11
752.271363
 21
429.108523
 31
0.0
  0
LINE
  5
CA
330
1F
100
AcDbEntity
  8
LC-001-100-D00-0
 62
     7
370
    50
100
AcDbLine
 10
739.771363
 20
441.608523
 30
0.0
 11
739.771363
 21
481.858523
 31
0.0
  0
LINE
  5
CB
330
1F
100
AcDbEntity
  8
LC-001-100-D00-0
 62
     7
370
    50
100
AcDbLine
 10
739.771363
 20
481.858523
 30
0.0
 11
742.324555
 21
481.858523
 31
0.0
  0
ARC
  5
CC
330
1F
100
AcDbEntity
  8
LC-001-100-D00-0
 62
     7
370
    50
100
AcDbCircle
 10
759.753483
 20
429.608523
 30
0.0
 40
7.000000000000109
100
AcDbArc
 50
184.096044
 51
270.0
  0
LINE
  5
CD
330
1F
100
AcDbEntity
  8
LC-001-100-D00-0
 62
     7
370
    50
100
AcDbLine
 10
759.755766
 20
422.608523
 30
0.0
 11
759.753483
 21
422.608523
 31
0.0
  0
ARC
  5
CE
330
1F
100
AcDbEntity
  8
LC-001-100-D00-0
 62
     7
370
    50
100
AcDbCircle
 10
800.789243
 20
429.608523
 30
0.0
 40
7.0
100
AcDbArc
 50
270.0
 51
355.903956
  0
LINE
  5
CF
330
1F
100
AcDbEntity
  8
LC-001-100-D00-0
 62
     7
370
    50
100
AcDbLine
 10
800.789243
 20
422.608523
 30
0.0
 11
800.786961
 21
422.608523
 31
0.0
  0
LINE
  5
D0
330
1F
100
AcDbEntity
  8
LC-001-100-D00-0
 62
     7
370
    50
100
AcDbLine
 10
815.271363
 20
490.108523
 30
0.0
 11
820.771363
 21
490.108523
 31
0.0
  0
LINE
  5
D1
330
1F
100
AcDbEntity
  8
LC-001-100-D00-0
 62
     7
370
    50
100
AcDbLine
 10
809.771363
 20
490.108523
 30
0.0
 11
815.271363
 21
490.108523
 31
0.0
  0
LINE
  5
D2
330
1F
100
AcDbEntity
  8
LC-001-100-D00-0
 62
     7
370
    50
100
AcDbLine
 10
745.271363
 20
490.108523
 30
0.0
 11
750.771363
 21
490.108523
 31
0.0
  0
LINE
  5
D3
330
1F
100
AcDbEntity
  8
LC-001-100-D00-0
 62
     7
370
    50
100
AcDbLine
 10
739.771363
 20
490.108523
 30
0.0
 11
745.271363
 21
490.108523
 31
0.0
  0
DIMENSION
  5
D6
330
1F
100
AcDbEntity
  8
LC-001-100-D00-0
 62
     7
370
    25
100
AcDbDimension
  2
*D1
 10
820.771363
 20
359.680225
 30
0.0
 11
920.680974
 21
414.680225
 31
0.0
 70
   160
  1
81
 71
     5
 42
81.0
  3
LC-DIM-L-0100-02-02
100
AcDbAlignedDimension
 13
739.771363
 23
441.608523
 33
0.0
 14
820.771363
 24
441.608523
 34
0.0
100
AcDbRotatedDimension
  0
LINE
  5
E5
330
1F
100
AcDbEntity
  8
LC-001-100-D00-0
 62
     7
370
    50
100
AcDbLine
 10
780.271363
 20
422.608523
 30
0.0
 11
780.271363
 21
512.608523
 31
0.0
  0
LINE
  5
E7
330
1F
100
AcDbEntity
  8
LC-001-100-D00-0
  6
DASHDOT
 62
     7
370
    25
100
AcDbLine
 10
780.271363
 20
521.108523
 30
0.0
 11
780.271363
 21
419.608523
 31
0.0
  0
LINE
  5
E8
330
1F
100
AcDbEntity
  8
LC-001-100-D00-0
  6
DASHDOT
 62
     7
370
    25
100
AcDbLine
 10
844.771363
 20
516.108523
 30
0.0
 11
844.771363
 21
368.108523
 31
0.0
  0
LINE
  5
E9
330
1F
100
AcDbEntity
  8
LC-001-100-D00-0
 62
     7
370
    50
100
AcDbLine
 10
449.40525
 20
184.450225
 30
0.0
 11
449.40525
 21
182.950225
 31
0.0
  0
LINE
  5
EA
330
1F
100
AcDbEntity
  8
LC-001-100-D00-0
 62
     7
370
    50
100
AcDbLine
 10
449.40525
 20
182.950225
 30
0.0
 11
444.40525
 21
182.950225
 31
0.0
  0
LINE
  5
EB
330
1F
100
AcDbEntity
  8
LC-001-100-D00-0
 62
     7
370
    50
100
AcDbLine
 10
444.40525
 20
184.450225
 30
0.0
 11
449.40525
 21
184.450225
 31
0.0
  0
LINE
  5
EC
330
1F
100
AcDbEntity
  8
LC-001-100-D00-0
 62
     7
370
    50
100
AcDbLine
 10
-645.59475
 20
182.950225
 30
0.0
 11
444.40525
 21
182.950225
 31
0.0
  0
LINE
  5
ED
330
1F
100
AcDbEntity
  8
LC-001-100-D00-0
 62
     7
370
    50
100
AcDbLine
 10
-645.59475
 20
184.450225
 30
0.0
 11
444.40525
 21
184.450225
 31
0.0
  0
LINE
  5
EE
330
1F
100
AcDbEntity
  8
LC-001-100-D00-0
 62
     7
370
    50
100
AcDbLine
 10
-650.59475
 20
182.950225
 30
0.0
 11
-650.59475
 21
184.450225
 31
0.0
  0
LINE
  5
EF
330
1F
100
AcDbEntity
  8
LC-001-100-D00-0
 62
     7
370
    50
100
AcDbLine
 10
-645.59475
 20
182.950225
 30
0.0
 11
-650.59475
 21
182.950225
 31
0.0
  0
LINE
  5
F0
330
1F
100
AcDbEntity
  8
LC-001-100-D00-0
 62
     7
370
    50
100
AcDbLine
 10
-650.59475
 20
184.450225
 30
0.0
 11
-645.59475
 21
184.450225
 31
0.0
  0
LINE
  5
F1
330
1F
100
AcDbEntity
  8
LC-001-100-D00-0
 62
     7
370
    50
100
AcDbLine
 10
-650.59475
 20
181.450225
 30
0.0
 11
-650.59475
 21
182.950225
 31
0.0
  0
LINE
  5
F2
330
1F
100
AcDbEntity
  8
LC-001-100-D00-0
 62
     7
370
    50
100
AcDbLine
 10
449.40525
 20
182.950225
 30
0.0
 11
449.40525
 21
181.450225
 31
0.0
  0
ARC
  5
F3
330
1F
100
AcDbEntity
  8
LC-001-100-D00-0
 62
     7
370
    50
100
AcDbCircle
 10
396.90525
 20
114.950225
 30
0.0
 40
2.5
100
AcDbArc
 50
270.0
 51
0.0
  0
ARC
  5
F4
330
1F
100
AcDbEntity
  8
LC-001-100-D00-0
 62
     7
370
    50
100
AcDbCircle
 10
396.90525
 20
161.950225
 30
0.0
 40
2.5
100
AcDbArc
 50
0.0
 51
90.0
  0
LINE
  5
F5
330
1F
100
AcDbEntity
  8
LC-001-100-D00-0
 62
     7
370
    50
100
AcDbLine
 10
399.40525
 20
114.950225
 30
0.0
 11
399.40525
 21
161.950225
 31
0.0
  0
LINE
  5
F6
330
1F
100
AcDbEntity
  8
LC-001-100-D00-0
 62
     7
370
    50
100
AcDbLine
 10
396.90525
 20
112.450225
 30
0.0
 11
-598.09475
 21
112.450225
 31
0.0
  0
LINE
  5
F7
330
1F
100
AcDbEntity
  8
LC-001-100-D00-0
 62
     7
370
    50
100
AcDbLine
 10
-598.09475
 20
164.450225
 30
0.0
 11
396.90525
 21
164.450225
 31
0.0
  0
ARC
  5
F8
330
1F
100
AcDbEntity
  8
LC-001-100-D00-0
 62
     7
370
    50
100
AcDbCircle
 10
-598.09475
 20
161.950225
 30
0.0
 40
2.5
100
AcDbArc
 50
90.0
 51
180.0
  0
ARC
  5
F9
330
1F
100
AcDbEntity
  8
LC-001-100-D00-0
 62
     7
370
    50
100
AcDbCircle
 10
-598.09475
 20
114.950225
 30
0.0
 40
2.5
100
AcDbArc
 50
180.0
 51
270.0
  0
LINE
  5
FA
330
1F
100
AcDbEntity
  8
LC-001-100-D00-0
 62
     7
370
    50
100
AcDbLine
 10
-600.59475
 20
114.950225
 30
0.0
 11
-600.59475
 21
161.950225
 31
0.0
  0
ARC
  5
FB
330
1F
100
AcDbEntity
  8
LC-001-100-D00-0
 62
     7
370
    50
100
AcDbCircle
 10
444.40525
 20
65.950225
 30
0.0
 40
5.0
100
AcDbArc
 50
270.0
 51
0.0
  0
LINE
  5
FC
330
1F
100
AcDbEntity
  8
LC-001-100-D00-0
 62
     7
370
    50
100
AcDbLine
 10
-645.59475
 20
60.950225
 30
0.0
 11
444.40525
 21
60.950225
 31
0.0
  0
ARC
  5
FD
330
1F
100
AcDbEntity
  8
LC-001-100-D00-0
 62
     7
370
    50
100
AcDbCircle
 10
-645.59475
 20
65.950225
 30
0.0
 40
5.0
100
AcDbArc
 50
180.0
 51
270.0
  0
LINE
  5
FE
330
1F
100
AcDbEntity
  8
LC-001-100-D00-0
 62
     7
370
    50
100
AcDbLine
 10
-650.59475
 20
181.450225
 30
0.0
 11
-650.59475
 21
65.950225
 31
0.0
  0
LINE
  5
FF
330
1F
100
AcDbEntity
  8
LC-001-100-D00-0
 62
     7
370
    50
100
AcDbLine
 10
449.40525
 20
181.450225
 30
0.0
 11
449.40525
 21
65.950225
 31
0.0
  0
CIRCLE
  5
100
330
1F
100
AcDbEntity
  8
LC-001-100-D00-0
 62
     7
370
    50
100
AcDbCircle
 10
369.40525
 20
138.450225
 30
0.0
 40
2.999999999999886
  0
CIRCLE
  5
101
330
1F
100
AcDbEntity
  8
LC-001-100-D00-0
 62
     7
370
    50
100
AcDbCircle
 10
184.40525
 20
138.450225
 30
0.0
 40
2.999999999999886
  0
CIRCLE
  5
102
330
1F
100
AcDbEntity
  8
LC-001-100-D00-0
 62
     7
370
    50
100
AcDbCircle
 10
-0.59475
 20
138.450225
 30
0.0
 40
2.999999999999886
  0
CIRCLE
  5
103
330
1F
100
AcDbEntity
  8
LC-001-100-D00-0
 62
     7
370
    50
100
AcDbCircle
 10
-200.59475
 20
138.450225
 30
0.0
 40
2.999999999999886
  0
CIRCLE
  5
104
330
1F
100
AcDbEntity
  8
LC-001-100-D00-0
 62
     7
370
    50
100
AcDbCircle
 10
-385.59475
 20
138.450225
 30
0.0
 40
2.999999999999886
  0
CIRCLE
  5
105
330
1F
100
AcDbEntity
  8
LC-001-100-D00-0
 62
     7
370
    50
100
AcDbCircle
 10
-570.59475
 20
138.450225
 30
0.0
 40
2.999999999999886
  0
LINE
  5
106
330
1F
100
AcDbEntity
  8
LC-001-100-D00-0
 62
     7
370
    50
100
AcDbLine
 10
391.379067
 20
126.127556
 30
0.0
 11
391.379067
 21
114.950226
 31
0.0
  0
ARC
  5
107
330
1F
100
AcDbEntity
  8
LC-001-100-D00-0
 62
     7
370
    50
100
AcDbCircle
 10
1395.385703
 20
-30.832985
 30
0.0
 40
1016.201720355475
100
AcDbArc
 50
171.105076
 51
171.114633
  0
INSERT
  5
10F
330
1F
100
AcDbEntity
  8
LC-001-100-D00-0
 62
     7
370
    50
100
AcDbBlockReference
  2
KLON1
 10
0.0
 20
0.0
 30
0.0
  0
LINE
  5
110
330
1F
100
AcDbEntity
  8
LC-001-100-D00-0
 62
     7
370
    50
100
AcDbLine
 10
391.379067
 20
161.935586
 30
0.0
 11
391.379067
 21
150.772894
 31
0.0
  0
INSERT
  5
116
330
1F
100
AcDbEntity
  8
LC-001-100-D00-0
 62
     7
370
    50
100
AcDbBlockReference
  2
KLON2
 10
0.0
 20
0.0
 30
0.0
  0
INSERT
  5
11C
330
1F
100
AcDbEntity
  8
LC-001-100-D00-0
 62
     7
370
    50
100
AcDbBlockReference
  2
KLON3
 10
0.0
 20
0.0
 30
0.0
  0
INSERT
  5
122
330
1F
100
AcDbEntity
  8
LC-001-100-D00-0
 62
     7
370
    50
100
AcDbBlockReference
  2
KLON4
 10
0.0
 20
0.0
 30
0.0
  0
INSERT
  5
128
330
1F
100
AcDbEntity
  8
LC-001-100-D00-0
 62
     7
370
    50
100
AcDbBlockReference
  2
KLON5
 10
0.0
 20
0.0
 30
0.0
  0
LINE
  5
129
330
1F
100
AcDbEntity
  8
LC-001-100-D00-0
 62
     7
370
    50
100
AcDbLine
 10
-592.568568
 20
161.935586
 30
0.0
 11
-592.568568
 21
150.772894
 31
0.0
  0
INSERT
  5
131
330
1F
100
AcDbEntity
  8
LC-001-100-D00-0
 62
     7
370
    50
100
AcDbBlockReference
  2
KLON6
 10
0.0
 20
0.0
 30
0.0
  0
ARC
  5
132
330
1F
100
AcDbEntity
  8
LC-001-100-D00-0
 62
     7
370
    50
100
AcDbCircle
 10
-1596.575239
 20
-30.83299
 30
0.0
 40
1016.201755852291
100
AcDbArc
 50
8.885367
 51
8.894924
  0
LINE
  5
133
330
1F
100
AcDbEntity
  8
LC-001-100-D00-0
 62
     7
370
    50
100
AcDbLine
 10
-592.568568
 20
126.127556
 30
0.0
 11
-592.568568
 21
114.950226
 31
0.0
  0
ELLIPSE
  5
134
330
1F
100
AcDbEntity
  8
LC-001-100-D00-0
 62
     7
370
    50
100
AcDbEllipse
 10
391.332281
 20
114.950225
 30
0.0
 11
0.0
 21
-2.500000015258789
 31
0.0
210
0.0
220
0.0
230
1.0
 40
0.018242
 41
3.141592653588547
 42
4.712388980377374
  0
ELLIPSE
  5
135
330
1F
100
AcDbEntity
  8
LC-001-100-D00-0
 62
     7
370
    50
100
AcDbEllipse
 10
459.877887
 20
114.950225
 30
0.0
 11
68.50000000655784
 21
0.0
 31
0.0
210
0.0
220
0.0
230
1.0
 40
0.036496
 41
3.141592653597439
 42
3.169858841660793
  0
ELLIPSE
  5
136
330
1F
100
AcDbEntity
  8
LC-001-100-D00-0
 62
     7
370
    50
100
AcDbEllipse
 10
254.332281
 20
114.950225
 30
0.0
 11
0.0
 21
-2.499999031066707
 31
0.0
210
0.0
220
0.0
230
1.0
 40
0.018242
 41
3.141592653579198
 42
4.712388980381006
  0
ELLIPSE
  5
137
330
1F
100
AcDbEntity
  8
LC-001-100-D00-0
 62
     7
370
    50
100
AcDbEllipse
 10
-592.521782
 20
114.950225
 30
0.0
 11
0.0
 21
-2.499999725341782
 31
0.0
210
0.0
220
0.0
230
1.0
 40
0.018242
 41
1.570796326802269
 42
3.141592653594779
  0
ELLIPSE
  5
138
330
1F
100
AcDbEntity
  8
LC-001-100-D00-0
 62
     7
370
    50
100
AcDbEllipse
 10
-455.521782
 20
114.950225
 30
0.0
 11
0.0
 21
-2.500000015258789
 31
0.0
210
0.0
220
0.0
230
1.0
 40
0.018242
 41
1.570796326798586
 42
3.141592653591039
  0
ELLIPSE
  5
139
330
1F
100
AcDbEntity
  8
LC-001-100-D00-0
 62
     7
370
    50
100
AcDbEllipse
 10
-661.067387
 20
114.950225
 30
0.0
 11
68.49999999183356
 21
0.0
 31
0.0
210
0.0
220
0.0
230
1.0
 40
0.036496
 41
6.254919119109349
 42
6.283185307179541
  0
ELLIPSE
  5
13A
330
1F
100
AcDbEntity
  8
LC-001-100-D00-0
 62
     7
370
    50
100
AcDbEllipse
 10
459.877887
 20
161.950225
 30
0.0
 11
68.49999999999949
 21
0.0
 31
0.0
210
0.0
220
0.0
230
1.0
 40
0.036496
 41
3.141592653589804
 42
3.147448628039555
  0
ELLIPSE
  5
13B
330
1F
100
AcDbEntity
  8
LC-001-100-D00-0
 62
     7
370
    50
100
AcDbEllipse
 10
391.332281
 20
161.950225
 30
0.0
 11
0.0
 21
-2.500000030517578
 31
0.0
210
0.0
220
0.0
230
1.0
 40
0.018242
 41
4.71238898038469
 42
6.283185335740112
  0
ELLIPSE
  5
13C
330
1F
100
AcDbEntity
  8
LC-001-100-D00-0
 62
     7
370
    50
100
AcDbEllipse
 10
-661.067387
 20
161.950225
 30
0.0
 11
68.50000000086706
 21
0.0
 31
0.0
210
0.0
220
0.0
230
1.0
 40
0.036496
 41
6.277329332730531
 42
6.283185307179484
  0
ELLIPSE
  5
13D
330
1F
100
AcDbEntity
  8
LC-001-100-D00-0
 62
     7
370
    50
100
AcDbEllipse
 10
-592.521782
 20
161.950225
 30
0.0
 11
0.0
 21
-2.500000061035156
 31
0.0
210
0.0
220
0.0
230
1.0
 40
0.018242
 41
6.283185278616568
 42
7.853981633974483
  0
ELLIPSE
  5
13E
330
1F
100
AcDbEntity
  8
LC-001-100-D00-0
 62
     7
370
    50
100
AcDbEllipse
 10
254.332281
 20
161.950225
 30
0.0
 11
0.0
 21
-2.499999511718702
 31
0.0
210
0.0
220
0.0
230
1.0
 40
0.018242
 41
4.712388980388453
 42
6.283185319339687
  0
ELLIPSE
  5
13F
330
1F
100
AcDbEntity
  8
LC-001-100-D00-0
 62
     7
370
    50
100
AcDbEllipse
 10
-455.521782
 20
161.950225
 30
0.0
 11
0.0
 21
-2.5
 31
0.0
210
0.0
220
0.0
230
1.0
 40
0.018242
 41
6.28318529501201
 42
7.853981633970834
  0
LINE
  5
140
330
1F
100
AcDbEntity
  8
LC-001-100-D00-0
 62
     7
370
    50
100
AcDbLine
 10
254.377881
 20
114.950226
 30
0.0
 11
254.377881
 21
117.800742
 31
0.0
  0
INSERT
  5
146
330
1F
100
AcDbEntity
  8
LC-001-100-D00-0
 62
     7
370
    50
100
AcDbBlockReference
  2
KLON7
 10
0.0
 20
0.0
 30
0.0
  0
INSERT
  5
14C
330
1F
100
AcDbEntity
  8
LC-001-100-D00-0
 62
     7
370
    50
100
AcDbBlockReference
  2
KLON8
 10
0.0
 20
0.0
 30
0.0
  0
LINE
  5
14D
330
1F
100
AcDbEntity
  8
LC-001-100-D00-0
 62
     7
370
    50
100
AcDbLine
 10
-455.567381
 20
114.950226
 30
0.0
 11
-455.567381
 21
117.800742
 31
0.0
  0
INSERT
  5
154
330
1F
100
AcDbEntity
  8
LC-001-100-D00-0
 62
     7
370
    50
100
AcDbBlockReference
  2
KLON9
 10
0.0
 20
0.0
 30
0.0
  0
INSERT
  5
15A
330
1F
100
AcDbEntity
  8
LC-001-100-D00-0
 62
     7
370
    50
100
AcDbBlockReference
  2
KLON10
 10
0.0
 20
0.0
 30
0.0
  0
INSERT
  5
161
330
1F
100
AcDbEntity
  8
LC-001-100-D00-0
 62
     7
370
    50
100
AcDbBlockReference
  2
KLON11
 10
0.0
 20
0.0
 30
0.0
  0
INSERT
  5
168
330
1F
100
AcDbEntity
  8
LC-001-100-D00-0
 62
     7
370
    50
100
AcDbBlockReference
  2
KLON12
 10
0.0
 20
0.0
 30
0.0
  0
INSERT
  5
16F
330
1F
100
AcDbEntity
  8
LC-001-100-D00-0
 62
     7
370
    50
100
AcDbBlockReference
  2
KLON13
 10
0.0
 20
0.0
 30
0.0
  0
INSERT
  5
175
330
1F
100
AcDbEntity
  8
LC-001-100-D00-0
 62
     7
370
    50
100
AcDbBlockReference
  2
KLON14
 10
0.0
 20
0.0
 30
0.0
  0
LINE
  5
176
330
1F
100
AcDbEntity
  8
LC-001-100-D00-0
 62
     7
370
    50
100
AcDbLine
 10
254.377881
 20
159.099709
 30
0.0
 11
254.377881
 21
161.950224
 31
0.0
  0
LINE
  5
177
330
1F
100
AcDbEntity
  8
LC-001-100-D00-0
 62
     7
370
    50
100
AcDbLine
 10
-455.567381
 20
159.099709
 30
0.0
 11
-455.567381
 21
161.950224
 31
0.0
  0
LINE
  5
178
330
1F
100
AcDbEntity
  8
LC-001-100-D00-0
 62
     7
370
    50
100
AcDbLine
 10
254.392156
 20
118.594547
 30
0.0
 11
254.392156
 21
132.589274
 31
0.0
  0
ELLIPSE
  5
179
330
1F
100
AcDbEntity
  8
LC-001-100-D00-0
 62
     7
370
    15
100
AcDbEllipse
 10
185.29651
 20
188.337738
 30
0.0
 11
28.64933024162407
 21
1.713494944297306
 31
0.0
210
0.0
220
0.0
230
1.0
 40
0.016531
 41
6.280994665938748
 42
6.282196627516473
  0
ELLIPSE
  5
17A
330
1F
100
AcDbEntity
  8
LC-001-100-D00-0
 62
     7
370
    15
100
AcDbEllipse
 10
185.29651
 20
199.706061
 30
0.0
 11
28.64933027441062
 21
-1.713494946258245
 31
0.0
210
0.0
220
0.0
230
1.0
 40
0.016531
 41
0.0009886796596391
 42
0.0021906412367749
  0
LINE
  5
17B
330
1F
100
AcDbEntity
  8
LC-001-100-D00-0
 62
     7
370
    50
100
AcDbLine
 10
254.392156
 20
144.311176
 30
0.0
 11
254.392156
 21
158.305903
 31
0.0
  0
ELLIPSE
  5
17C
330
1F
100
AcDbEntity
  8
LC-001-100-D00-0
 62
     7
370
    15
100
AcDbEllipse
 10
100.600435
 20
188.337738
 30
0.0
 11
28.64933024333185
 21
-1.713494944399383
 31
0.0
210
0.0
220
0.0
230
1.0
 40
0.016531
 41
3.142581333258799
 42
3.143783294836546
  0
LINE
  5
17D
330
1F
100
AcDbEntity
  8
LC-001-100-D00-0
 62
     7
370
    50
100
AcDbLine
 10
-455.581656
 20
118.594547
 30
0.0
 11
-455.581656
 21
132.589274
 31
0.0
  0
ELLIPSE
  5
17E
330
1F
100
AcDbEntity
  8
LC-001-100-D00-0
 62
     7
370
    15
100
AcDbEllipse
 10
100.600435
 20
199.706061
 30
0.0
 11
28.64933021737568
 21
1.71349494284697
 31
0.0
210
0.0
220
0.0
230
0.9999999999999999
 40
0.016531
 41
3.13940201234661
 42
3.140603973923817
  0
LINE
  5
17F
330
1F
100
AcDbEntity
  8
LC-001-100-D00-0
 62
     7
370
    50
100
AcDbLine
 10
-455.581656
 20
144.311176
 30
0.0
 11
-455.581656
 21
158.305903
 31
0.0
  0
LINE
  5
180
330
1F
100
AcDbEntity
  8
LC-001-100-D00-0
 62
     7
370
    50
100
AcDbLine
 10
254.377881
 20
117.801114
 30
0.0
 11
254.392066
 21
118.591684
 31
0.0
  0
LINE
  5
181
330
1F
100
AcDbEntity
  8
LC-001-100-D00-0
 62
     7
370
    50
100
AcDbLine
 10
254.377881
 20
159.099336
 30
0.0
 11
254.392066
 21
158.308766
 31
0.0
  0
LINE
  5
182
330
1F
100
AcDbEntity
  8
LC-001-100-D00-0
 62
     7
370
    50
100
AcDbLine
 10
-455.567381
 20
117.801114
 30
0.0
 11
-455.581567
 21
118.591684
 31
0.0
  0
LINE
  5
183
330
1F
100
AcDbEntity
  8
LC-001-100-D00-0
 62
     7
370
    50
100
AcDbLine
 10
-455.567381
 20
159.099336
 30
0.0
 11
-455.581567
 21
158.308766
 31
0.0
  0
ARC
  5
184
330
1F
100
AcDbEntity
  8
LC-001-100-D00-0
 62
     7
370
    50
100
AcDbCircle
 10
-70.094758
 20
138.450246
 30
0.0
 40
24.80002105913763
100
AcDbArc
 50
270.0
 51
300.592807
  0
ARC
  5
185
330
1F
100
AcDbEntity
  8
LC-001-100-D00-0
 62
     7
370
    50
100
AcDbCircle
 10
-131.094742
 20
138.450246
 30
0.0
 40
24.80002105913738
100
AcDbArc
 50
239.407193
 51
270.0
  0
ARC
  5
186
330
1F
100
AcDbEntity
  8
LC-001-100-D00-0
 62
     7
370
    50
100
AcDbCircle
 10
-70.094756
 20
138.450212
 30
0.0
 40
24.80001358063626
100
AcDbArc
 50
59.407188
 51
90.0
  0
ARC
  5
187
330
1F
100
AcDbEntity
  8
LC-001-100-D00-0
 62
     7
370
    50
100
AcDbCircle
 10
-131.094744
 20
138.450212
 30
0.0
 40
24.80001358063646
100
AcDbArc
 50
90.0
 51
120.592812
  0
LINE
  5
188
330
1F
100
AcDbEntity
  8
LC-001-100-D00-0
 62
     7
370
    50
100
AcDbLine
 10
-131.094751
 20
163.250226
 30
0.0
 11
-70.09475
 21
163.250226
 31
0.0
  0
LINE
  5
189
330
1F
100
AcDbEntity
  8
LC-001-100-D00-0
 62
     7
370
    50
100
AcDbLine
 10
-70.09475
 20
113.650224
 30
0.0
 11
-131.094751
 21
113.650224
 31
0.0
  0
LINE
  5
18A
330
1F
100
AcDbEntity
  8
LC-001-100-D00-0
 62
     7
370
    50
100
AcDbLine
 10
-167.427583
 20
141.889128
 30
0.0
 11
-167.41944
 21
141.521236
 31
0.0
  0
LINE
  5
18B
330
1F
100
AcDbEntity
  8
LC-001-100-D00-0
 62
     7
370
    50
100
AcDbLine
 10
-168.53886
 20
142.682097
 30
0.0
 11
-167.427583
 21
141.889128
 31
0.0
  0
LINE
  5
18C
330
1F
100
AcDbEntity
  8
LC-001-100-D00-0
 62
     7
370
    50
100
AcDbLine
 10
-167.427583
 20
143.475066
 30
0.0
 11
-168.53886
 21
142.682097
 31
0.0
  0
LINE
  5
18D
330
1F
100
AcDbEntity
  8
LC-001-100-D00-0
 62
     7
370
    50
100
AcDbLine
 10
-167.427583
 20
143.848764
 30
0.0
 11
-167.427583
 21
143.475066
 31
0.0
  0
LINE
  5
18E
330
1F
100
AcDbEntity
  8
LC-001-100-D00-0
 62
     7
370
    50
100
AcDbLine
 10
-168.801083
 20
142.869296
 30
0.0
 11
-167.427583
 21
143.848764
 31
0.0
  0
LINE
  5
18F
330
1F
100
AcDbEntity
  8
LC-001-100-D00-0
 62
     7
370
    50
100
AcDbLine
 10
-169.985278
 20
143.714148
 30
0.0
 11
-168.801083
 21
142.869296
 31
0.0
  0
LINE
  5
190
330
1F
100
AcDbEntity
  8
LC-001-100-D00-0
 62
     7
370
    50
100
AcDbLine
 10
-169.985278
 20
143.34045
 30
0.0
 11
-169.985278
 21
143.714148
 31
0.0
  0
LINE
  5
191
330
1F
100
AcDbEntity
  8
LC-001-100-D00-0
 62
     7
370
    50
100
AcDbLine
 10
-169.062598
 20
142.682097
 30
0.0
 11
-169.985278
 21
143.34045
 31
0.0
  0
LINE
  5
192
330
1F
100
AcDbEntity
  8
LC-001-100-D00-0
 62
     7
370
    50
100
AcDbLine
 10
-169.985278
 20
142.023744
 30
0.0
 11
-169.062598
 21
142.682097
 31
0.0
  0
LINE
  5
193
330
1F
100
AcDbEntity
  8
LC-001-100-D00-0
 62
     7
370
    50
100
AcDbLine
 10
-169.985278
 20
141.650046
 30
0.0
 11
-169.985278
 21
142.023744
 31
0.0
  0
LINE
  5
194
330
1F
100
AcDbEntity
  8
LC-001-100-D00-0
 62
     7
370
    50
100
AcDbLine
 10
-168.801083
 20
142.495599
 30
0.0
 11
-169.985278
 21
141.650046
 31
0.0
  0
LINE
  5
195
330
1F
100
AcDbEntity
  8
LC-001-100-D00-0
 62
     7
370
    50
100
AcDbLine
 10
-167.41944
 20
141.521236
 30
0.0
 11
-168.801083
 21
142.495599
 31
0.0
  0
LINE
  5
196
330
1F
100
AcDbEntity
  8
LC-001-100-D00-0
 62
     7
370
    50
100
AcDbLine
 10
-167.427583
 20
137.222461
 30
0.0
 11
-167.41944
 21
136.85457
 31
0.0
  0
LINE
  5
197
330
1F
100
AcDbEntity
  8
LC-001-100-D00-0
 62
     7
370
    50
100
AcDbLine
 10
-168.53886
 20
138.01543
 30
0.0
 11
-167.427583
 21
137.222461
 31
0.0
  0
LINE
  5
198
330
1F
100
AcDbEntity
  8
LC-001-100-D00-0
 62
     7
370
    50
100
AcDbLine
 10
-167.427583
 20
138.808399
 30
0.0
 11
-168.53886
 21
138.01543
 31
0.0
  0
LINE
  5
199
330
1F
100
AcDbEntity
  8
LC-001-100-D00-0
 62
     7
370
    50
100
AcDbLine
 10
-167.427583
 20
139.182097
 30
0.0
 11
-167.427583
 21
138.808399
 31
0.0
  0
LINE
  5
19A
330
1F
100
AcDbEntity
  8
LC-001-100-D00-0
 62
     7
370
    50
100
AcDbLine
 10
-168.801083
 20
138.20263
 30
0.0
 11
-167.427583
 21
139.182097
 31
0.0
  0
LINE
  5
19B
330
1F
100
AcDbEntity
  8
LC-001-100-D00-0
 62
     7
370
    50
100
AcDbLine
 10
-169.985278
 20
139.047482
 30
0.0
 11
-168.801083
 21
138.20263
 31
0.0
  0
LINE
  5
19C
330
1F
100
AcDbEntity
  8
LC-001-100-D00-0
 62
     7
370
    50
100
AcDbLine
 10
-169.985278
 20
138.673784
 30
0.0
 11
-169.985278
 21
139.047482
 31
0.0
  0
LINE
  5
19D
330
1F
100
AcDbEntity
  8
LC-001-100-D00-0
 62
     7
370
    50
100
AcDbLine
 10
-169.062598
 20
138.01543
 30
0.0
 11
-169.985278
 21
138.673784
 31
0.0
  0
LINE
  5
19E
330
1F
100
AcDbEntity
  8
LC-001-100-D00-0
 62
     7
370
    50
100
AcDbLine
 10
-169.985278
 20
137.357077
 30
0.0
 11
-169.062598
 21
138.01543
 31
0.0
  0
LINE
  5
19F
330
1F
100
AcDbEntity
  8
LC-001-100-D00-0
 62
     7
370
    50
100
AcDbLine
 10
-169.985278
 20
136.983379
 30
0.0
 11
-169.985278
 21
137.357077
 31
0.0
  0
LINE
  5
1A0
330
1F
100
AcDbEntity
  8
LC-001-100-D00-0
 62
     7
370
    50
100
AcDbLine
 10
-168.801083
 20
137.828932
 30
0.0
 11
-169.985278
 21
136.983379
 31
0.0
  0
LINE
  5
1A1
330
1F
100
AcDbEntity
  8
LC-001-100-D00-0
 62
     7
370
    50
100
AcDbLine
 10
-167.41944
 20
136.85457
 30
0.0
 11
-168.801083
 21
137.828932
 31
0.0
  0
LINE
  5
1A2
330
1F
100
AcDbEntity
  8
LC-001-100-D00-0
 62
     7
370
    50
100
AcDbLine
 10
-167.427583
 20
132.555795
 30
0.0
 11
-167.41944
 21
132.187903
 31
0.0
  0
LINE
  5
1A3
330
1F
100
AcDbEntity
  8
LC-001-100-D00-0
 62
     7
370
    50
100
AcDbLine
 10
-168.53886
 20
133.348764
 30
0.0
 11
-167.427583
 21
132.555795
 31
0.0
  0
LINE
  5
1A4
330
1F
100
AcDbEntity
  8
LC-001-100-D00-0
 62
     7
370
    50
100
AcDbLine
 10
-167.427583
 20
134.141732
 30
0.0
 11
-168.53886
 21
133.348764
 31
0.0
  0
LINE
  5
1A5
330
1F
100
AcDbEntity
  8
LC-001-100-D00-0
 62
     7
370
    50
100
AcDbLine
 10
-167.427583
 20
134.51543
 30
0.0
 11
-167.427583
 21
134.141732
 31
0.0
  0
LINE
  5
1A6
330
1F
100
AcDbEntity
  8
LC-001-100-D00-0
 62
     7
370
    50
100
AcDbLine
 10
-168.801083
 20
133.535963
 30
0.0
 11
-167.427583
 21
134.51543
 31
0.0
  0
LINE
  5
1A7
330
1F
100
AcDbEntity
  8
LC-001-100-D00-0
 62
     7
370
    50
100
AcDbLine
 10
-169.985278
 20
134.380815
 30
0.0
 11
-168.801083
 21
133.535963
 31
0.0
  0
LINE
  5
1A8
330
1F
100
AcDbEntity
  8
LC-001-100-D00-0
 62
     7
370
    50
100
AcDbLine
 10
-169.985278
 20
134.007117
 30
0.0
 11
-169.985278
 21
134.380815
 31
0.0
  0
LINE
  5
1A9
330
1F
100
AcDbEntity
  8
LC-001-100-D00-0
 62
     7
370
    50
100
AcDbLine
 10
-169.062598
 20
133.348764
 30
0.0
 11
-169.985278
 21
134.007117
 31
0.0
  0
LINE
  5
1AA
330
1F
100
AcDbEntity
  8
LC-001-100-D00-0
 62
     7
370
    50
100
AcDbLine
 10
-169.985278
 20
132.69041
 30
0.0
 11
-169.062598
 21
133.348764
 31
0.0
  0
LINE
  5
1AB
330
1F
100
AcDbEntity
  8
LC-001-100-D00-0
 62
     7
370
    50
100
AcDbLine
 10
-169.985278
 20
132.316712
 30
0.0
 11
-169.985278
 21
132.69041
 31
0.0
  0
LINE
  5
1AC
330
1F
100
AcDbEntity
  8
LC-001-100-D00-0
 62
     7
370
    50
100
AcDbLine
 10
-168.801083
 20
133.162265
 30
0.0
 11
-169.985278
 21
132.316712
 31
0.0
  0
LINE
  5
1AD
330
1F
100
AcDbEntity
  8
LC-001-100-D00-0
 62
     7
370
    50
100
AcDbLine
 10
-167.41944
 20
132.187903
 30
0.0
 11
-168.801083
 21
133.162265
 31
0.0
  0
LINE
  5
1AE
330
1F
100
AcDbEntity
  8
LC-001-100-D00-0
 62
     7
370
    50
100
AcDbLine
 10
-167.427583
 20
130.222462
 30
0.0
 11
-167.427583
 21
129.848764
 31
0.0
  0
LINE
  5
1AF
330
1F
100
AcDbEntity
  8
LC-001-100-D00-0
 62
     7
370
    50
100
AcDbLine
 10
-168.53886
 20
131.01543
 30
0.0
 11
-167.427583
 21
130.222462
 31
0.0
  0
LINE
  5
1B0
330
1F
100
AcDbEntity
  8
LC-001-100-D00-0
 62
     7
370
    50
100
AcDbLine
 10
-167.427583
 20
131.808399
 30
0.0
 11
-168.53886
 21
131.01543
 31
0.0
  0
LINE
  5
1B1
330
1F
100
AcDbEntity
  8
LC-001-100-D00-0
 62
     7
370
    50
100
AcDbLine
 10
-167.427583
 20
132.182097
 30
0.0
 11
-167.427583
 21
131.808399
 31
0.0
  0
LINE
  5
1B2
330
1F
100
AcDbEntity
  8
LC-001-100-D00-0
 62
     7
370
    50
100
AcDbLine
 10
-168.801083
 20
131.20263
 30
0.0
 11
-167.427583
 21
132.182097
 31
0.0
  0
LINE
  5
1B3
330
1F
100
AcDbEntity
  8
LC-001-100-D00-0
 62
     7
370
    50
100
AcDbLine
 10
-169.985278
 20
132.047482
 30
0.0
 11
-168.801083
 21
131.20263
 31
0.0
  0
LINE
  5
1B4
330
1F
100
AcDbEntity
  8
LC-001-100-D00-0
 62
     7
370
    50
100
AcDbLine
 10
-169.985278
 20
131.673784
 30
0.0
 11
-169.985278
 21
132.047482
 31
0.0
  0
LINE
  5
1B5
330
1F
100
AcDbEntity
  8
LC-001-100-D00-0
 62
     7
370
    50
100
AcDbLine
 10
-169.062598
 20
131.01543
 30
0.0
 11
-169.985278
 21
131.673784
 31
0.0
  0
LINE
  5
1B6
330
1F
100
AcDbEntity
  8
LC-001-100-D00-0
 62
     7
370
    50
100
AcDbLine
 10
-169.985278
 20
130.357077
 30
0.0
 11
-169.062598
 21
131.01543
 31
0.0
  0
LINE
  5
1B7
330
1F
100
AcDbEntity
  8
LC-001-100-D00-0
 62
     7
370
    50
100
AcDbLine
 10
-169.985278
 20
129.983379
 30
0.0
 11
-169.985278
 21
130.357077
 31
0.0
  0
LINE
  5
1B8
330
1F
100
AcDbEntity
  8
LC-001-100-D00-0
 62
     7
370
    50
100
AcDbLine
 10
-168.801083
 20
130.828932
 30
0.0
 11
-169.985278
 21
129.983379
 31
0.0
  0
LINE
  5
1B9
330
1F
100
AcDbEntity
  8
LC-001-100-D00-0
 62
     7
370
    50
100
AcDbLine
 10
-167.427583
 20
129.848764
 30
0.0
 11
-168.801083
 21
130.828932
 31
0.0
  0
LINE
  5
1BA
330
1F
100
AcDbEntity
  8
LC-001-100-D00-0
 62
     7
370
    50
100
AcDbLine
 10
-167.427583
 20
134.889128
 30
0.0
 11
-167.41944
 21
134.521237
 31
0.0
  0
LINE
  5
1BB
330
1F
100
AcDbEntity
  8
LC-001-100-D00-0
 62
     7
370
    50
100
AcDbLine
 10
-168.53886
 20
135.682097
 30
0.0
 11
-167.427583
 21
134.889128
 31
0.0
  0
LINE
  5
1BC
330
1F
100
AcDbEntity
  8
LC-001-100-D00-0
 62
     7
370
    50
100
AcDbLine
 10
-167.427583
 20
136.475066
 30
0.0
 11
-168.53886
 21
135.682097
 31
0.0
  0
LINE
  5
1BD
330
1F
100
AcDbEntity
  8
LC-001-100-D00-0
 62
     7
370
    50
100
AcDbLine
 10
-167.427583
 20
136.848764
 30
0.0
 11
-167.427583
 21
136.475066
 31
0.0
  0
LINE
  5
1BE
330
1F
100
AcDbEntity
  8
LC-001-100-D00-0
 62
     7
370
    50
100
AcDbLine
 10
-168.801083
 20
135.869297
 30
0.0
 11
-167.427583
 21
136.848764
 31
0.0
  0
LINE
  5
1BF
330
1F
100
AcDbEntity
  8
LC-001-100-D00-0
 62
     7
370
    50
100
AcDbLine
 10
-169.985278
 20
136.714148
 30
0.0
 11
-168.801083
 21
135.869297
 31
0.0
  0
LINE
  5
1C0
330
1F
100
AcDbEntity
  8
LC-001-100-D00-0
 62
     7
370
    50
100
AcDbLine
 10
-169.985278
 20
136.34045
 30
0.0
 11
-169.985278
 21
136.714148
 31
0.0
  0
LINE
  5
1C1
330
1F
100
AcDbEntity
  8
LC-001-100-D00-0
 62
     7
370
    50
100
AcDbLine
 10
-169.062598
 20
135.682097
 30
0.0
 11
-169.985278
 21
136.34045
 31
0.0
  0
LINE
  5
1C2
330
1F
100
AcDbEntity
  8
LC-001-100-D00-0
 62
     7
370
    50
100
AcDbLine
 10
-169.985278
 20
135.023744
 30
0.0
 11
-169.062598
 21
135.682097
 31
0.0
  0
LINE
  5
1C3
330
1F
100
AcDbEntity
  8
LC-001-100-D00-0
 62
     7
370
    50
100
AcDbLine
 10
-169.985278
 20
134.650046
 30
0.0
 11
-169.985278
 21
135.023744
 31
0.0
  0
LINE
  5
1C4
330
1F
100
AcDbEntity
  8
LC-001-100-D00-0
 62
     7
370
    50
100
AcDbLine
 10
-168.801083
 20
135.495599
 30
0.0
 11
-169.985278
 21
134.650046
 31
0.0
  0
LINE
  5
1C5
330
1F
100
AcDbEntity
  8
LC-001-100-D00-0
 62
     7
370
    50
100
AcDbLine
 10
-167.41944
 20
134.521237
 30
0.0
 11
-168.801083
 21
135.495599
 31
0.0
  0
LINE
  5
1C6
330
1F
100
AcDbEntity
  8
LC-001-100-D00-0
 62
     7
370
    50
100
AcDbLine
 10
-167.427583
 20
139.555795
 30
0.0
 11
-167.41944
 21
139.187903
 31
0.0
  0
LINE
  5
1C7
330
1F
100
AcDbEntity
  8
LC-001-100-D00-0
 62
     7
370
    50
100
AcDbLine
 10
-168.53886
 20
140.348764
 30
0.0
 11
-167.427583
 21
139.555795
 31
0.0
  0
LINE
  5
1C8
330
1F
100
AcDbEntity
  8
LC-001-100-D00-0
 62
     7
370
    50
100
AcDbLine
 10
-167.427583
 20
141.141732
 30
0.0
 11
-168.53886
 21
140.348764
 31
0.0
  0
LINE
  5
1C9
330
1F
100
AcDbEntity
  8
LC-001-100-D00-0
 62
     7
370
    50
100
AcDbLine
 10
-167.427583
 20
141.51543
 30
0.0
 11
-167.427583
 21
141.141732
 31
0.0
  0
LINE
  5
1CA
330
1F
100
AcDbEntity
  8
LC-001-100-D00-0
 62
     7
370
    50
100
AcDbLine
 10
-168.801083
 20
140.535963
 30
0.0
 11
-167.427583
 21
141.51543
 31
0.0
  0
LINE
  5
1CB
330
1F
100
AcDbEntity
  8
LC-001-100-D00-0
 62
     7
370
    50
100
AcDbLine
 10
-169.985278
 20
141.380815
 30
0.0
 11
-168.801083
 21
140.535963
 31
0.0
  0
LINE
  5
1CC
330
1F
100
AcDbEntity
  8
LC-001-100-D00-0
 62
     7
370
    50
100
AcDbLine
 10
-169.985278
 20
141.007117
 30
0.0
 11
-169.985278
 21
141.380815
 31
0.0
  0
LINE
  5
1CD
330
1F
100
AcDbEntity
  8
LC-001-100-D00-0
 62
     7
370
    50
100
AcDbLine
 10
-169.062598
 20
140.348764
 30
0.0
 11
-169.985278
 21
141.007117
 31
0.0
  0
LINE
  5
1CE
330
1F
100
AcDbEntity
  8
LC-001-100-D00-0
 62
     7
370
    50
100
AcDbLine
 10
-169.985278
 20
139.69041
 30
0.0
 11
-169.062598
 21
140.348764
 31
0.0
  0
LINE
  5
1CF
330
1F
100
AcDbEntity
  8
LC-001-100-D00-0
 62
     7
370
    50
100
AcDbLine
 10
-169.985278
 20
139.316712
 30
0.0
 11
-169.985278
 21
139.69041
 31
0.0
  0
LINE
  5
1D0
330
1F
100
AcDbEntity
  8
LC-001-100-D00-0
 62
     7
370
    50
100
AcDbLine
 10
-168.801083
 20
140.162265
 30
0.0
 11
-169.985278
 21
139.316712
 31
0.0
  0
LINE
  5
1D1
330
1F
100
AcDbEntity
  8
LC-001-100-D00-0
 62
     7
370
    50
100
AcDbLine
 10
-167.41944
 20
139.187903
 30
0.0
 11
-168.801083
 21
140.162265
 31
0.0
  0
ARC
  5
1D2
330
1F
100
AcDbEntity
  8
LC-001-100-D00-0
 62
     7
370
    50
100
AcDbCircle
 10
-70.09475
 20
138.450225
 30
0.0
 40
24.79999999999465
100
AcDbArc
 50
300.592814
 51
59.407186
  0
ARC
  5
1D3
330
1F
100
AcDbEntity
  8
LC-001-100-D00-0
 62
     7
370
    50
100
AcDbCircle
 10
-131.09475
 20
138.450225
 30
0.0
 40
24.79999999999465
100
AcDbArc
 50
120.592814
 51
239.407186
  0
LINE
  5
1D4
330
1F
100
AcDbEntity
  8
LC-001-100-D00-0
 62
     7
370
    50
100
AcDbLine
 10
-552.34475
 20
151.700225
 30
0.0
 11
-552.34475
 21
125.200225
 31
0.0
  0
ARC
  5
1D5
330
1F
100
AcDbEntity
  8
LC-001-100-D00-0
 62
     7
370
    50
100
AcDbCircle
 10
-557.34475
 20
151.700225
 30
0.0
 40
5.0
100
AcDbArc
 50
0.0
 51
90.0
  0
ARC
  5
1D6
330
1F
100
AcDbEntity
  8
LC-001-100-D00-0
 62
     7
370
    50
100
AcDbCircle
 10
-557.34475
 20
125.200225
 30
0.0
 40
5.0
100
AcDbArc
 50
270.0
 51
0.0
  0
CIRCLE
  5
1D7
330
1F
100
AcDbEntity
  8
LC-001-100-D00-0
 62
     7
370
    50
100
AcDbCircle
 10
-570.59475
 20
138.450225
 30
0.0
 40
3.900000000000205
  0
LINE
  5
1D8
330
1F
100
AcDbEntity
  8
LC-001-100-D00-0
 62
     7
370
    50
100
AcDbLine
 10
-583.84475
 20
156.700225
 30
0.0
 11
-557.34475
 21
156.700225
 31
0.0
  0
LINE
  5
1D9
330
1F
100
AcDbEntity
  8
LC-001-100-D00-0
 62
     7
370
    50
100
AcDbLine
 10
-557.34475
 20
120.200225
 30
0.0
 11
-583.84475
 21
120.200225
 31
0.0
  0
ARC
  5
1DA
330
1F
100
AcDbEntity
  8
LC-001-100-D00-0
 62
     7
370
    50
100
AcDbCircle
 10
-583.84475
 20
125.200225
 30
0.0
 40
5.0
100
AcDbArc
 50
180.0
 51
270.0
  0
ARC
  5
1DB
330
1F
100
AcDbEntity
  8
LC-001-100-D00-0
 62
     7
370
    50
100
AcDbCircle
 10
-583.84475
 20
151.700225
 30
0.0
 40
5.0
100
AcDbArc
 50
90.0
 51
180.0
  0
LINE
  5
1DC
330
1F
100
AcDbEntity
  8
LC-001-100-D00-0
 62
     7
370
    50
100
AcDbLine
 10
-588.84475
 20
125.200225
 30
0.0
 11
-588.84475
 21
151.700225
 31
0.0
  0
ARC
  5
1DD
330
1F
100
AcDbEntity
  8
LC-001-100-D00-0
 62
     7
370
    50
100
AcDbCircle
 10
382.65525
 20
125.200225
 30
0.0
 40
5.0
100
AcDbArc
 50
270.0
 51
0.0
  0
ARC
  5
1DE
330
1F
100
AcDbEntity
  8
LC-001-100-D00-0
 62
     7
370
    50
100
AcDbCircle
 10
382.65525
 20
151.700225
 30
0.0
 40
5.0
100
AcDbArc
 50
0.0
 51
90.0
  0
LINE
  5
1DF
330
1F
100
AcDbEntity
  8
LC-001-100-D00-0
 62
     7
370
    50
100
AcDbLine
 10
387.65525
 20
151.700225
 30
0.0
 11
387.65525
 21
125.200225
 31
0.0
  0
CIRCLE
  5
1E0
330
1F
100
AcDbEntity
  8
LC-001-100-D00-0
 62
     7
370
    50
100
AcDbCircle
 10
369.40525
 20
138.450225
 30
0.0
 40
3.900000000000205
  0
LINE
  5
1E1
330
1F
100
AcDbEntity
  8
LC-001-100-D00-0
 62
     7
370
    50
100
AcDbLine
 10
382.65525
 20
120.200225
 30
0.0
 11
356.15525
 21
120.200225
 31
0.0
  0
LINE
  5
1E2
330
1F
100
AcDbEntity
  8
LC-001-100-D00-0
 62
     7
370
    50
100
AcDbLine
 10
356.15525
 20
156.700225
 30
0.0
 11
382.65525
 21
156.700225
 31
0.0
  0
ARC
  5
1E3
330
1F
100
AcDbEntity
  8
LC-001-100-D00-0
 62
     7
370
    50
100
AcDbCircle
 10
356.15525
 20
151.700225
 30
0.0
 40
5.0
100
AcDbArc
 50
90.0
 51
180.0
  0
ARC
  5
1E4
330
1F
100
AcDbEntity
  8
LC-001-100-D00-0
 62
     7
370
    50
100
AcDbCircle
 10
356.15525
 20
125.200225
 30
0.0
 40
5.0
100
AcDbArc
 50
180.0
 51
270.0
  0
LINE
  5
1E5
330
1F
100
AcDbEntity
  8
LC-001-100-D00-0
 62
     7
370
    50
100
AcDbLine
 10
351.15525
 20
125.200225
 30
0.0
 11
351.15525
 21
151.700225
 31
0.0
  0
ARC
  5
1E6
330
1F
100
AcDbEntity
  8
LC-001-100-D00-0
 62
     7
370
    50
100
AcDbCircle
 10
197.65525
 20
125.200225
 30
0.0
 40
5.0
100
AcDbArc
 50
270.0
 51
0.0
  0
ARC
  5
1E7
330
1F
100
AcDbEntity
  8
LC-001-100-D00-0
 62
     7
370
    50
100
AcDbCircle
 10
197.65525
 20
151.700225
 30
0.0
 40
5.0
100
AcDbArc
 50
0.0
 51
90.0
  0
LINE
  5
1E8
330
1F
100
AcDbEntity
  8
LC-001-100-D00-0
 62
     7
370
    50
100
AcDbLine
 10
202.65525
 20
151.700225
 30
0.0
 11
202.65525
 21
125.200225
 31
0.0
  0
CIRCLE
  5
1E9
330
1F
100
AcDbEntity
  8
LC-001-100-D00-0
 62
     7
370
    50
100
AcDbCircle
 10
184.40525
 20
138.450225
 30
0.0
 40
3.900000000000205
  0
LINE
  5
1EA
330
1F
100
AcDbEntity
  8
LC-001-100-D00-0
 62
     7
370
    50
100
AcDbLine
 10
197.65525
 20
120.200225
 30
0.0
 11
171.15525
 21
120.200225
 31
0.0
  0
LINE
  5
1EB
330
1F
100
AcDbEntity
  8
LC-001-100-D00-0
 62
     7
370
    50
100
AcDbLine
 10
171.15525
 20
156.700225
 30
0.0
 11
197.65525
 21
156.700225
 31
0.0
  0
ARC
  5
1EC
330
1F
100
AcDbEntity
  8
LC-001-100-D00-0
 62
     7
370
    50
100
AcDbCircle
 10
171.15525
 20
151.700225
 30
0.0
 40
5.0
100
AcDbArc
 50
90.0
 51
180.0
  0
ARC
  5
1ED
330
1F
100
AcDbEntity
  8
LC-001-100-D00-0
 62
     7
370
    50
100
AcDbCircle
 10
171.15525
 20
125.200225
 30
0.0
 40
5.0
100
AcDbArc
 50
180.0
 51
270.0
  0
LINE
  5
1EE
330
1F
100
AcDbEntity
  8
LC-001-100-D00-0
 62
     7
370
    50
100
AcDbLine
 10
166.15525
 20
125.200225
 30
0.0
 11
166.15525
 21
151.700225
 31
0.0
  0
ARC
  5
1EF
330
1F
100
AcDbEntity
  8
LC-001-100-D00-0
 62
     7
370
    50
100
AcDbCircle
 10
-372.34475
 20
151.700225
 30
0.0
 40
5.0
100
AcDbArc
 50
0.0
 51
90.0
  0
LINE
  5
1F0
330
1F
100
AcDbEntity
  8
LC-001-100-D00-0
 62
     7
370
    50
100
AcDbLine
 10
-367.34475
 20
151.700225
 30
0.0
 11
-367.34475
 21
125.200225
 31
0.0
  0
ARC
  5
1F1
330
1F
100
AcDbEntity
  8
LC-001-100-D00-0
 62
     7
370
    50
100
AcDbCircle
 10
-372.34475
 20
125.200225
 30
0.0
 40
5.0
100
AcDbArc
 50
270.0
 51
0.0
  0
CIRCLE
  5
1F2
330
1F
100
AcDbEntity
  8
LC-001-100-D00-0
 62
     7
370
    50
100
AcDbCircle
 10
-385.59475
 20
138.450225
 30
0.0
 40
3.900000000000205
  0
LINE
  5
1F3
330
1F
100
AcDbEntity
  8
LC-001-100-D00-0
 62
     7
370
    50
100
AcDbLine
 10
-398.84475
 20
156.700225
 30
0.0
 11
-372.34475
 21
156.700225
 31
0.0
  0
LINE
  5
1F4
330
1F
100
AcDbEntity
  8
LC-001-100-D00-0
 62
     7
370
    50
100
AcDbLine
 10
-372.34475
 20
120.200225
 30
0.0
 11
-398.84475
 21
120.200225
 31
0.0
  0
ARC
  5
1F5
330
1F
100
AcDbEntity
  8
LC-001-100-D00-0
 62
     7
370
    50
100
AcDbCircle
 10
-398.84475
 20
125.200225
 30
0.0
 40
5.0
100
AcDbArc
 50
180.0
 51
270.0
  0
ARC
  5
1F6
330
1F
100
AcDbEntity
  8
LC-001-100-D00-0
 62
     7
370
    50
100
AcDbCircle
 10
-398.84475
 20
151.700225
 30
0.0
 40
5.0
100
AcDbArc
 50
90.0
 51
180.0
  0
LINE
  5
1F7
330
1F
100
AcDbEntity
  8
LC-001-100-D00-0
 62
     7
370
    50
100
AcDbLine
 10
-403.84475
 20
125.200225
 30
0.0
 11
-403.84475
 21
151.700225
 31
0.0
  0
ARC
  5
1F8
330
1F
100
AcDbEntity
  8
LC-001-100-D00-0
 62
     7
370
    50
100
AcDbCircle
 10
12.65525
 20
125.200225
 30
0.0
 40
5.0
100
AcDbArc
 50
270.0
 51
0.0
  0
ARC
  5
1F9
330
1F
100
AcDbEntity
  8
LC-001-100-D00-0
 62
     7
370
    50
100
AcDbCircle
 10
12.65525
 20
151.700225
 30
0.0
 40
5.0
100
AcDbArc
 50
0.0
 51
90.0
  0
LINE
  5
1FA
330
1F
100
AcDbEntity
  8
LC-001-100-D00-0
 62
     7
370
    50
100
AcDbLine
 10
17.65525
 20
151.700225
 30
0.0
 11
17.65525
 21
125.200225
 31
0.0
  0
CIRCLE
  5
1FB
330
1F
100
AcDbEntity
  8
LC-001-100-D00-0
 62
     7
370
    50
100
AcDbCircle
 10
-0.59475
 20
138.450225
 30
0.0
 40
3.900000000000205
  0
LINE
  5
1FC
330
1F
100
AcDbEntity
  8
LC-001-100-D00-0
 62
     7
370
    50
100
AcDbLine
 10
-13.84475
 20
156.700225
 30
0.0
 11
12.65525
 21
156.700225
 31
0.0
  0
LINE
  5
1FD
330
1F
100
AcDbEntity
  8
LC-001-100-D00-0
 62
     7
370
    50
100
AcDbLine
 10
12.65525
 20
120.200225
 30
0.0
 11
-13.84475
 21
120.200225
 31
0.0
  0
ARC
  5
1FE
330
1F
100
AcDbEntity
  8
LC-001-100-D00-0
 62
     7
370
    50
100
AcDbCircle
 10
-13.84475
 20
125.200225
 30
0.0
 40
5.0
100
AcDbArc
 50
180.0
 51
270.0
  0
ARC
  5
1FF
330
1F
100
AcDbEntity
  8
LC-001-100-D00-0
 62
     7
370
    50
100
AcDbCircle
 10
-13.84475
 20
151.700225
 30
0.0
 40
5.0
100
AcDbArc
 50
90.0
 51
180.0
  0
LINE
  5
200
330
1F
100
AcDbEntity
  8
LC-001-100-D00-0
 62
     7
370
    50
100
AcDbLine
 10
-18.84475
 20
125.200225
 30
0.0
 11
-18.84475
 21
151.700225
 31
0.0
  0
ARC
  5
201
330
1F
100
AcDbEntity
  8
LC-001-100-D00-0
 62
     7
370
    50
100
AcDbCircle
 10
-187.34475
 20
151.700225
 30
0.0
 40
5.0
100
AcDbArc
 50
0.0
 51
90.0
  0
ARC
  5
202
330
1F
100
AcDbEntity
  8
LC-001-100-D00-0
 62
     7
370
    50
100
AcDbCircle
 10
-187.34475
 20
125.200225
 30
0.0
 40
5.0
100
AcDbArc
 50
270.0
 51
0.0
  0
LINE
  5
203
330
1F
100
AcDbEntity
  8
LC-001-100-D00-0
 62
     7
370
    50
100
AcDbLine
 10
-182.34475
 20
151.700225
 30
0.0
 11
-182.34475
 21
125.200225
 31
0.0
  0
CIRCLE
  5
204
330
1F
100
AcDbEntity
  8
LC-001-100-D00-0
 62
     7
370
    50
100
AcDbCircle
 10
-200.59475
 20
138.450225
 30
0.0
 40
3.900000000000205
  0
LINE
  5
205
330
1F
100
AcDbEntity
  8
LC-001-100-D00-0
 62
     7
370
    50
100
AcDbLine
 10
-213.84475
 20
156.700225
 30
0.0
 11
-187.34475
 21
156.700225
 31
0.0
  0
LINE
  5
206
330
1F
100
AcDbEntity
  8
LC-001-100-D00-0
 62
     7
370
    50
100
AcDbLine
 10
-187.34475
 20
120.200225
 30
0.0
 11
-213.84475
 21
120.200225
 31
0.0
  0
ARC
  5
207
330
1F
100
AcDbEntity
  8
LC-001-100-D00-0
 62
     7
370
    50
100
AcDbCircle
 10
-213.84475
 20
151.700225
 30
0.0
 40
5.0
100
AcDbArc
 50
90.0
 51
180.0
  0
ARC
  5
208
330
1F
100
AcDbEntity
  8
LC-001-100-D00-0
 62
     7
370
    50
100
AcDbCircle
 10
-213.84475
 20
125.200225
 30
0.0
 40
5.0
100
AcDbArc
 50
180.0
 51
270.0
  0
LINE
  5
209
330
1F
100
AcDbEntity
  8
LC-001-100-D00-0
 62
     7
370
    50
100
AcDbLine
 10
-218.84475
 20
125.200225
 30
0.0
 11
-218.84475
 21
151.700225
 31
0.0
  0
LINE
  5
20A
330
1F
100
AcDbEntity
  8
LC-001-100-D00-0
 62
     7
370
    50
100
AcDbLine
 10
-131.09475
 20
114.450225
 30
0.0
 11
-70.09475
 21
114.450225
 31
0.0
  0
ARC
  5
20B
330
1F
100
AcDbEntity
  8
LC-001-100-D00-0
 62
     7
370
    50
100
AcDbCircle
 10
-131.09475
 20
138.450225
 30
0.0
 40
24.00000000000034
100
AcDbArc
 50
90.0
 51
270.0
  0
LINE
  5
20C
330
1F
100
AcDbEntity
  8
LC-001-100-D00-0
 62
     7
370
    50
100
AcDbLine
 10
-70.09475
 20
162.450225
 30
0.0
 11
-131.09475
 21
162.450225
 31
0.0
  0
ARC
  5
20D
330
1F
100
AcDbEntity
  8
LC-001-100-D00-0
 62
     7
370
    50
100
AcDbCircle
 10
-70.09475
 20
138.450225
 30
0.0
 40
24.00000000000034
100
AcDbArc
 50
270.0
 51
90.0
  0
ARC
  5
20E
330
1F
100
AcDbEntity
  8
LC-001-100-D00-0
 62
     7
370
    50
100
AcDbCircle
 10
-89.09475
 20
138.450225
 30
0.0
 40
16.00000000000023
100
AcDbArc
 50
270.0
 51
90.0
  0
LINE
  5
20F
330
1F
100
AcDbEntity
  8
LC-001-100-D00-0
 62
     7
370
    50
100
AcDbLine
 10
-112.09475
 20
122.450225
 30
0.0
 11
-89.09475
 21
122.450225
 31
0.0
  0
LINE
  5
210
330
1F
100
AcDbEntity
  8
LC-001-100-D00-0
 62
     7
370
    50
100
AcDbLine
 10
-89.09475
 20
154.450225
 30
0.0
 11
-112.09475
 21
154.450225
 31
0.0
  0
ARC
  5
211
330
1F
100
AcDbEntity
  8
LC-001-100-D00-0
 62
     7
370
    50
100
AcDbCircle
 10
-112.09475
 20
138.450225
 30
0.0
 40
16.00000000000023
100
AcDbArc
 50
90.0
 51
270.0
  0
DIMENSION
  5
212
330
1F
100
AcDbEntity
  8
LC-001-100-D00-0
 62
     7
370
    25
100
AcDbDimension
  2
*D16
 10
521.767532
 20
182.950225
 30
0.0
 11
466.767532
 21
145.840225
 31
0.0
 70
   160
  1
1,5
 71
     5
 42
1.5
 53
90.0
  3
LC-DIM-L-0100-02-02
100
AcDbAlignedDimension
 13
444.40525
 23
184.450225
 33
0.0
 14
444.40525
 24
182.950225
 34
0.0
 50
90.0
100
AcDbRotatedDimension
  0
DIMENSION
  5
220
330
1F
100
AcDbEntity
  8
LC-001-100-D00-0
 62
     7
370
    25
100
AcDbDimension
  2
*D17
 10
676.900537
 20
60.950225
 30
0.0
 11
621.900537
 21
38.920225
 31
0.0
 70
   160
  1
123,5
 71
     5
 42
123.5
 53
90.0
  3
LC-DIM-L-0100-02-02
100
AcDbAlignedDimension
 13
444.40525
 23
184.450225
 33
0.0
 14
444.40525
 24
60.950225
 34
0.0
 50
90.0
100
AcDbRotatedDimension
  0
DIMENSION
  5
22E
330
1F
100
AcDbEntity
  8
LC-001-100-D00-0
 62
     7
370
    25
100
AcDbDimension
  2
*D18
 10
599.334034
 20
164.450225
 30
0.0
 11
544.334034
 21
77.530225
 31
0.0
 70
   160
  1
18,5
 71
     5
 42
18.5
 53
90.0
  3
LC-DIM-L-0100-02-02
100
AcDbAlignedDimension
 13
444.40525
 23
182.950225
 33
0.0
 14
396.90525
 24
164.450225
 34
0.0
 50
90.0
100
AcDbRotatedDimension
  0
LINE
  5
23C
330
1F
100
AcDbEntity
  8
LC-001-100-D00-0
  6
DASHDOT
 62
     7
370
    25
100
AcDbLine
 10
406.90525
 20
138.450225
 30
0.0
 11
-608.09475
 21
138.450225
 31
0.0
  0
LINE
  5
23D
330
1F
100
AcDbEntity
  8
LC-001-100-D00-0
  6
DASHDOT
 62
     7
370
    25
100
AcDbLine
 10
-100.59475
 20
194.450225
 30
0.0
 11
-100.59475
 21
55.950225
 31
0.0
  0
LINE
  5
23E
330
1F
100
AcDbEntity
  8
LC-001-100-D00-0
 62
     7
370
    50
100
AcDbLine
 10
12.653058
 20
428.108523
 30
0.0
 11
12.653058
 21
429.891444
 31
0.0
  0
LINE
  5
23F
330
1F
100
AcDbEntity
  8
LC-001-100-D00-0
 62
     7
370
    50
100
AcDbLine
 10
12.653058
 20
480.325602
 30
0.0
 11
12.653058
 21
482.108523
 31
0.0
  0
LINE
  5
240
330
1F
100
AcDbEntity
  8
LC-001-100-D00-0
 62
     7
370
    50
100
AcDbLine
 10
8.653058
 20
482.108523
 30
0.0
 11
8.653058
 21
480.325602
 31
0.0
  0
LINE
  5
241
330
1F
100
AcDbEntity
  8
LC-001-100-D00-0
 62
     7
370
    50
100
AcDbLine
 10
8.653058
 20
429.891444
 30
0.0
 11
8.653058
 21
428.108523
 31
0.0
  0
LINE
  5
242
330
1F
100
AcDbEntity
  8
LC-001-100-D00-0
 62
     7
370
    50
100
AcDbLine
 10
-60.880323
 20
478.608523
 30
0.0
 11
-60.880323
 21
477.108523
 31
0.0
  0
LINE
  5
243
330
1F
100
AcDbEntity
  8
LC-001-100-D00-0
 62
     7
370
    50
100
AcDbLine
 10
-140.309153
 20
477.108523
 30
0.0
 11
-140.309153
 21
478.608523
 31
0.0
  0
LINE
  5
244
330
1F
100
AcDbEntity
  8
LC-001-100-D00-0
 62
     7
370
    50
100
AcDbLine
 10
-3.994735
 20
500.608523
 30
0.0
 11
-4.994737
 21
501.608523
 31
0.0
  0
LINE
  5
245
330
1F
100
AcDbEntity
  8
LC-001-100-D00-0
 62
     7
370
    50
100
AcDbLine
 10
-3.994735
 20
500.608523
 30
0.0
 11
-3.994738
 21
494.608523
 31
0.0
  0
LINE
  5
246
330
1F
100
AcDbEntity
  8
LC-001-100-D00-0
 62
     7
370
    50
100
AcDbLine
 10
-4.994738
 20
493.608523
 30
0.0
 11
-3.994738
 21
494.608523
 31
0.0
  0
LINE
  5
247
330
1F
100
AcDbEntity
  8
LC-001-100-D00-0
 62
     7
370
    50
100
AcDbLine
 10
-6.945589
 20
495.608523
 30
0.0
 11
-6.945589
 21
493.608524
 31
0.0
  0
LINE
  5
248
330
1F
100
AcDbEntity
  8
LC-001-100-D00-0
 62
     7
370
    50
100
AcDbLine
 10
-6.239447
 20
495.797734
 30
0.0
 11
-6.945589
 21
495.608523
 31
0.0
  0
ARC
  5
249
330
1F
100
AcDbEntity
  8
LC-001-100-D00-0
 62
     7
370
    50
100
AcDbCircle
 10
-6.394738
 20
496.37729
 30
0.0
 40
0.6000000000003376
100
AcDbArc
 50
285.0
 51
0.0
  0
LINE
  5
24A
330
1F
100
AcDbEntity
  8
LC-001-100-D00-0
 62
     7
370
    50
100
AcDbLine
 10
-5.794738
 20
498.839757
 30
0.0
 11
-5.794738
 21
496.37729
 31
0.0
  0
ARC
  5
24B
330
1F
100
AcDbEntity
  8
LC-001-100-D00-0
 62
     7
370
    50
100
AcDbCircle
 10
-6.394738
 20
498.839757
 30
0.0
 40
0.6000000000002501
100
AcDbArc
 50
0.0
 51
75.0
  0
LINE
  5
24C
330
1F
100
AcDbEntity
  8
LC-001-100-D00-0
 62
     7
370
    50
100
AcDbLine
 10
-6.945589
 20
499.608523
 30
0.0
 11
-6.239447
 21
499.419313
 31
0.0
  0
LINE
  5
24D
330
1F
100
AcDbEntity
  8
LC-001-100-D00-0
 62
     7
370
    50
100
AcDbLine
 10
-6.945589
 20
501.608523
 30
0.0
 11
-6.945589
 21
499.608523
 31
0.0
  0
LINE
  5
24E
330
1F
100
AcDbEntity
  8
LC-001-100-D00-0
 62
     7
370
    50
100
AcDbLine
 10
-6.945589
 20
493.608524
 30
0.0
 11
-4.994738
 21
493.608523
 31
0.0
  0
LINE
  5
24F
330
1F
100
AcDbEntity
  8
LC-001-100-D00-0
 62
     7
370
    50
100
AcDbLine
 10
-6.945589
 20
501.608523
 30
0.0
 11
-4.994737
 21
501.608523
 31
0.0
  0
LINE
  5
250
330
1F
100
AcDbEntity
  8
LC-001-100-D00-0
 62
     7
370
    50
100
AcDbLine
 10
4.605262
 20
496.37729
 30
0.0
 11
4.605262
 21
498.839757
 31
0.0
  0
ARC
  5
251
330
1F
100
AcDbEntity
  8
LC-001-100-D00-0
 62
     7
370
    50
100
AcDbCircle
 10
5.205262
 20
496.37729
 30
0.0
 40
0.6000000000001364
100
AcDbArc
 50
180.0
 51
255.0
  0
LINE
  5
252
330
1F
100
AcDbEntity
  8
LC-001-100-D00-0
 62
     7
370
    50
100
AcDbLine
 10
5.756116
 20
495.608523
 30
0.0
 11
5.04997
 21
495.797734
 31
0.0
  0
LINE
  5
253
330
1F
100
AcDbEntity
  8
LC-001-100-D00-0
 62
     7
370
    50
100
AcDbLine
 10
5.756116
 20
495.608523
 30
0.0
 11
5.756116
 21
493.608524
 31
0.0
  0
LINE
  5
254
330
1F
100
AcDbEntity
  8
LC-001-100-D00-0
 62
     7
370
    50
100
AcDbLine
 10
2.805262
 20
494.608523
 30
0.0
 11
3.805262
 21
493.608523
 31
0.0
  0
LINE
  5
255
330
1F
100
AcDbEntity
  8
LC-001-100-D00-0
 62
     7
370
    50
100
AcDbLine
 10
2.805262
 20
494.608523
 30
0.0
 11
2.805261
 21
500.608523
 31
0.0
  0
LINE
  5
256
330
1F
100
AcDbEntity
  8
LC-001-100-D00-0
 62
     7
370
    50
100
AcDbLine
 10
3.805263
 20
501.608523
 30
0.0
 11
2.805261
 21
500.608523
 31
0.0
  0
LINE
  5
257
330
1F
100
AcDbEntity
  8
LC-001-100-D00-0
 62
     7
370
    50
100
AcDbLine
 10
5.756116
 20
501.608523
 30
0.0
 11
5.756116
 21
499.608523
 31
0.0
  0
LINE
  5
258
330
1F
100
AcDbEntity
  8
LC-001-100-D00-0
 62
     7
370
    50
100
AcDbLine
 10
5.04997
 20
499.419313
 30
0.0
 11
5.756116
 21
499.608523
 31
0.0
  0
ARC
  5
259
330
1F
100
AcDbEntity
  8
LC-001-100-D00-0
 62
     7
370
    50
100
AcDbCircle
 10
5.205262
 20
498.839757
 30
0.0
 40
0.6000000000001474
100
AcDbArc
 50
105.0
 51
180.0
  0
LINE
  5
25A
330
1F
100
AcDbEntity
  8
LC-001-100-D00-0
 62
     7
370
    50
100
AcDbLine
 10
3.805262
 20
493.608523
 30
0.0
 11
5.756116
 21
493.608524
 31
0.0
  0
LINE
  5
25B
330
1F
100
AcDbEntity
  8
LC-001-100-D00-0
 62
     7
370
    50
100
AcDbLine
 10
3.805263
 20
501.608523
 30
0.0
 11
5.756116
 21
501.608523
 31
0.0
  0
LINE
  5
25C
330
1F
100
AcDbEntity
  8
LC-001-100-D00-0
 62
     7
370
    50
100
AcDbLine
 10
-3.994738
 20
494.608523
 30
0.0
 11
-3.836899
 21
494.608523
 31
0.0
  0
LINE
  5
25D
330
1F
100
AcDbEntity
  8
LC-001-100-D00-0
 62
     7
370
    50
100
AcDbLine
 10
2.647422
 20
494.608523
 30
0.0
 11
2.805262
 21
494.608523
 31
0.0
  0
LINE
  5
25E
330
1F
100
AcDbEntity
  8
LC-001-100-D00-0
 62
     7
370
    50
100
AcDbLine
 10
3.805262
 20
493.608523
 30
0.0
 11
3.26948
 21
493.608523
 31
0.0
  0
LINE
  5
25F
330
1F
100
AcDbEntity
  8
LC-001-100-D00-0
 62
     7
370
    50
100
AcDbLine
 10
-4.458957
 20
493.608523
 30
0.0
 11
-4.994738
 21
493.608523
 31
0.0
  0
LINE
  5
260
330
1F
100
AcDbEntity
  8
LC-001-100-D00-0
 62
     7
370
    50
100
AcDbLine
 10
5.756116
 20
501.608523
 30
0.0
 11
3.305262
 21
501.608523
 31
0.0
  0
LINE
  5
261
330
1F
100
AcDbEntity
  8
LC-001-100-D00-0
 62
     7
370
    50
100
AcDbLine
 10
3.305262
 20
501.608523
 30
0.0
 11
3.305262
 21
512.608523
 31
0.0
  0
LINE
  5
262
330
1F
100
AcDbEntity
  8
LC-001-100-D00-0
 62
     7
370
    50
100
AcDbLine
 10
3.305262
 20
512.608523
 30
0.0
 11
16.655262
 21
512.608523
 31
0.0
  0
ARC
  5
263
330
1F
100
AcDbEntity
  8
LC-001-100-D00-0
 62
     7
370
    50
100
AcDbCircle
 10
16.655262
 20
511.608523
 30
0.0
 40
0.9999999999998863
100
AcDbArc
 50
0.0
 51
90.0
  0
LINE
  5
264
330
1F
100
AcDbEntity
  8
LC-001-100-D00-0
 62
     7
370
    50
100
AcDbLine
 10
17.655262
 20
511.608523
 30
0.0
 11
17.655259
 21
505.608523
 31
0.0
  0
LINE
  5
265
330
1F
100
AcDbEntity
  8
LC-001-100-D00-0
 62
     7
370
    50
100
AcDbLine
 10
14.655262
 20
505.608523
 30
0.0
 11
17.655259
 21
505.608523
 31
0.0
  0
LINE
  5
266
330
1F
100
AcDbEntity
  8
LC-001-100-D00-0
 62
     7
370
    50
100
AcDbLine
 10
14.655262
 20
505.608523
 30
0.0
 11
14.655261
 21
509.608523
 31
0.0
  0
LINE
  5
267
330
1F
100
AcDbEntity
  8
LC-001-100-D00-0
 62
     7
370
    50
100
AcDbLine
 10
10.155262
 20
509.608523
 30
0.0
 11
14.655261
 21
509.608523
 31
0.0
  0
ARC
  5
268
330
1F
100
AcDbEntity
  8
LC-001-100-D00-0
 62
     7
370
    50
100
AcDbCircle
 10
10.155262
 20
508.608523
 30
0.0
 40
1.000000000000227
100
AcDbArc
 50
90.0
 51
180.0
  0
LINE
  5
269
330
1F
100
AcDbEntity
  8
LC-001-100-D00-0
 62
     7
370
    50
100
AcDbLine
 10
9.155262
 20
494.608523
 30
0.0
 11
9.155262
 21
508.608523
 31
0.0
  0
ARC
  5
26A
330
1F
100
AcDbEntity
  8
LC-001-100-D00-0
 62
     7
370
    50
100
AcDbCircle
 10
8.155262
 20
494.608523
 30
0.0
 40
1.000000000000227
100
AcDbArc
 50
270.0
 51
0.0
  0
LINE
  5
26B
330
1F
100
AcDbEntity
  8
LC-001-100-D00-0
 62
     7
370
    50
100
AcDbLine
 10
8.155262
 20
493.608523
 30
0.0
 11
5.756116
 21
493.608524
 31
0.0
  0
LINE
  5
26C
330
1F
100
AcDbEntity
  8
LC-001-100-D00-0
 62
     7
370
    50
100
AcDbLine
 10
5.756116
 20
495.608523
 30
0.0
 11
5.756116
 21
493.608524
 31
0.0
  0
LINE
  5
26D
330
1F
100
AcDbEntity
  8
LC-001-100-D00-0
 62
     7
370
    50
100
AcDbLine
 10
5.105262
 20
495.608523
 30
0.0
 11
5.756116
 21
495.608523
 31
0.0
  0
ARC
  5
26E
330
1F
100
AcDbEntity
  8
LC-001-100-D00-0
 62
     7
370
    50
100
AcDbCircle
 10
5.105262
 20
496.108523
 30
0.0
 40
0.5
100
AcDbArc
 50
180.0
 51
270.0
  0
LINE
  5
26F
330
1F
100
AcDbEntity
  8
LC-001-100-D00-0
 62
     7
370
    50
100
AcDbLine
 10
4.605262
 20
499.108523
 30
0.0
 11
4.605262
 21
496.108523
 31
0.0
  0
ARC
  5
270
330
1F
100
AcDbEntity
  8
LC-001-100-D00-0
 62
     7
370
    50
100
AcDbCircle
 10
5.105262
 20
499.108523
 30
0.0
 40
0.4999999999997726
100
AcDbArc
 50
90.0
 51
180.0
  0
LINE
  5
271
330
1F
100
AcDbEntity
  8
LC-001-100-D00-0
 62
     7
370
    50
100
AcDbLine
 10
5.756116
 20
499.608523
 30
0.0
 11
5.105262
 21
499.608523
 31
0.0
  0
LINE
  5
272
330
1F
100
AcDbEntity
  8
LC-001-100-D00-0
 62
     7
370
    50
100
AcDbLine
 10
5.756116
 20
501.608523
 30
0.0
 11
5.756116
 21
499.608523
 31
0.0
  0
ARC
  5
273
330
1F
100
AcDbEntity
  8
LC-001-100-D00-0
 62
     7
370
    50
100
AcDbCircle
 10
-11.344738
 20
508.608523
 30
0.0
 40
1.000000000000227
100
AcDbArc
 50
0.0
 51
90.0
  0
LINE
  5
274
330
1F
100
AcDbEntity
  8
LC-001-100-D00-0
 62
     7
370
    50
100
AcDbLine
 10
-10.344738
 20
508.608523
 30
0.0
 11
-10.344738
 21
494.608523
 31
0.0
  0
ARC
  5
275
330
1F
100
AcDbEntity
  8
LC-001-100-D00-0
 62
     7
370
    50
100
AcDbCircle
 10
-9.344738
 20
494.608523
 30
0.0
 40
1.000000000000227
100
AcDbArc
 50
180.0
 51
270.0
  0
LINE
  5
276
330
1F
100
AcDbEntity
  8
LC-001-100-D00-0
 62
     7
370
    50
100
AcDbLine
 10
-5.794738
 20
496.108523
 30
0.0
 11
-5.794738
 21
499.108523
 31
0.0
  0
LINE
  5
277
330
1F
100
AcDbEntity
  8
LC-001-100-D00-0
 62
     7
370
    50
100
AcDbLine
 10
-4.494738
 20
512.608523
 30
0.0
 11
-4.494736
 21
501.608523
 31
0.0
  0
LINE
  5
278
330
1F
100
AcDbEntity
  8
LC-001-100-D00-0
 62
     7
370
    50
100
AcDbLine
 10
-4.494738
 20
512.608523
 30
0.0
 11
3.305262
 21
512.608523
 31
0.0
  0
LINE
  5
279
330
1F
100
AcDbEntity
  8
LC-001-100-D00-0
 62
     7
370
    50
100
AcDbLine
 10
-6.945589
 20
495.608523
 30
0.0
 11
-6.945589
 21
493.608524
 31
0.0
  0
LINE
  5
27A
330
1F
100
AcDbEntity
  8
LC-001-100-D00-0
 62
     7
370
    50
100
AcDbLine
 10
-6.945589
 20
501.608523
 30
0.0
 11
-6.945589
 21
499.608523
 31
0.0
  0
ARC
  5
27B
330
1F
100
AcDbEntity
  8
LC-001-100-D00-0
 62
     7
370
    50
100
AcDbCircle
 10
-6.294738
 20
496.108523
 30
0.0
 40
0.5
100
AcDbArc
 50
270.0
 51
0.0
  0
LINE
  5
27C
330
1F
100
AcDbEntity
  8
LC-001-100-D00-0
 62
     7
370
    50
100
AcDbLine
 10
-6.945589
 20
495.608523
 30
0.0
 11
-6.294738
 21
495.608523
 31
0.0
  0
LINE
  5
27D
330
1F
100
AcDbEntity
  8
LC-001-100-D00-0
 62
     7
370
    50
100
AcDbLine
 10
-15.844742
 20
509.608523
 30
0.0
 11
-15.844738
 21
505.608523
 31
0.0
  0
LINE
  5
27E
330
1F
100
AcDbEntity
  8
LC-001-100-D00-0
 62
     7
370
    50
100
AcDbLine
 10
-18.84474
 20
505.608523
 30
0.0
 11
-18.844738
 21
511.608523
 31
0.0
  0
ARC
  5
27F
330
1F
100
AcDbEntity
  8
LC-001-100-D00-0
 62
     7
370
    50
100
AcDbCircle
 10
-17.844738
 20
511.608523
 30
0.0
 40
0.9999999999997726
100
AcDbArc
 50
90.0
 51
180.0
  0
LINE
  5
280
330
1F
100
AcDbEntity
  8
LC-001-100-D00-0
 62
     7
370
    50
100
AcDbLine
 10
-6.294738
 20
499.608523
 30
0.0
 11
-6.945589
 21
499.608523
 31
0.0
  0
ARC
  5
281
330
1F
100
AcDbEntity
  8
LC-001-100-D00-0
 62
     7
370
    50
100
AcDbCircle
 10
-6.294738
 20
499.108523
 30
0.0
 40
0.5000000000001137
100
AcDbArc
 50
0.0
 51
90.0
  0
LINE
  5
282
330
1F
100
AcDbEntity
  8
LC-001-100-D00-0
 62
     7
370
    50
100
AcDbLine
 10
-4.494736
 20
501.608523
 30
0.0
 11
-6.945589
 21
501.608523
 31
0.0
  0
LINE
  5
283
330
1F
100
AcDbEntity
  8
LC-001-100-D00-0
 62
     7
370
    50
100
AcDbLine
 10
-6.945589
 20
493.608524
 30
0.0
 11
-9.344738
 21
493.608523
 31
0.0
  0
LINE
  5
284
330
1F
100
AcDbEntity
  8
LC-001-100-D00-0
 62
     7
370
    50
100
AcDbLine
 10
-15.844742
 20
509.608523
 30
0.0
 11
-11.344738
 21
509.608523
 31
0.0
  0
LINE
  5
285
330
1F
100
AcDbEntity
  8
LC-001-100-D00-0
 62
     7
370
    50
100
AcDbLine
 10
-17.844738
 20
512.608523
 30
0.0
 11
-4.494738
 21
512.608523
 31
0.0
  0
LINE
  5
286
330
1F
100
AcDbEntity
  8
LC-001-100-D00-0
 62
     7
370
    50
100
AcDbLine
 10
-18.84474
 20
505.608523
 30
0.0
 11
-15.844738
 21
505.608523
 31
0.0
  0
LINE
  5
287
330
1F
100
AcDbEntity
  8
LC-001-100-D00-0
 62
     7
370
    50
100
AcDbLine
 10
12.655262
 20
505.608523
 30
0.0
 11
14.655262
 21
505.608523
 31
0.0
  0
LINE
  5
288
330
1F
100
AcDbEntity
  8
LC-001-100-D00-0
 62
     7
370
    50
100
AcDbLine
 10
-15.844738
 20
505.608523
 30
0.0
 11
-13.844738
 21
505.608523
 31
0.0
  0
LINE
  5
289
330
1F
100
AcDbEntity
  8
LC-001-100-D00-0
 62
     7
370
    50
100
AcDbLine
 10
-13.844738
 20
505.608523
 30
0.0
 11
-10.344738
 21
505.608523
 31
0.0
  0
LINE
  5
28A
330
1F
100
AcDbEntity
  8
LC-001-100-D00-0
 62
     7
370
    50
100
AcDbLine
 10
9.155264
 20
505.608523
 30
0.0
 11
12.655262
 21
505.608523
 31
0.0
  0
LINE
  5
28B
330
1F
100
AcDbEntity
  8
LC-001-100-D00-0
 62
     7
370
    50
100
AcDbLine
 10
-203.994738
 20
500.608523
 30
0.0
 11
-204.99474
 21
501.608523
 31
0.0
  0
LINE
  5
28C
330
1F
100
AcDbEntity
  8
LC-001-100-D00-0
 62
     7
370
    50
100
AcDbLine
 10
-203.994738
 20
500.608523
 30
0.0
 11
-203.994738
 21
494.608523
 31
0.0
  0
LINE
  5
28D
330
1F
100
AcDbEntity
  8
LC-001-100-D00-0
 62
     7
370
    50
100
AcDbLine
 10
-204.994738
 20
493.608523
 30
0.0
 11
-203.994738
 21
494.608523
 31
0.0
  0
LINE
  5
28E
330
1F
100
AcDbEntity
  8
LC-001-100-D00-0
 62
     7
370
    50
100
AcDbLine
 10
-206.945592
 20
495.608523
 30
0.0
 11
-206.945592
 21
493.608524
 31
0.0
  0
LINE
  5
28F
330
1F
100
AcDbEntity
  8
LC-001-100-D00-0
 62
     7
370
    50
100
AcDbLine
 10
-206.239447
 20
495.797734
 30
0.0
 11
-206.945592
 21
495.608523
 31
0.0
  0
ARC
  5
290
330
1F
100
AcDbEntity
  8
LC-001-100-D00-0
 62
     7
370
    50
100
AcDbCircle
 10
-206.394738
 20
496.37729
 30
0.0
 40
0.5999999999998983
100
AcDbArc
 50
285.0
 51
0.0
  0
LINE
  5
291
330
1F
100
AcDbEntity
  8
LC-001-100-D00-0
 62
     7
370
    50
100
AcDbLine
 10
-205.794738
 20
498.839757
 30
0.0
 11
-205.794738
 21
496.37729
 31
0.0
  0
ARC
  5
292
330
1F
100
AcDbEntity
  8
LC-001-100-D00-0
 62
     7
370
    50
100
AcDbCircle
 10
-206.394738
 20
498.839757
 30
0.0
 40
0.6000000000003638
100
AcDbArc
 50
0.0
 51
75.0
  0
LINE
  5
293
330
1F
100
AcDbEntity
  8
LC-001-100-D00-0
 62
     7
370
    50
100
AcDbLine
 10
-206.945592
 20
499.608523
 30
0.0
 11
-206.239447
 21
499.419313
 31
0.0
  0
LINE
  5
294
330
1F
100
AcDbEntity
  8
LC-001-100-D00-0
 62
     7
370
    50
100
AcDbLine
 10
-206.945592
 20
501.608523
 30
0.0
 11
-206.945592
 21
499.608523
 31
0.0
  0
LINE
  5
295
330
1F
100
AcDbEntity
  8
LC-001-100-D00-0
 62
     7
370
    50
100
AcDbLine
 10
-206.945592
 20
493.608524
 30
0.0
 11
-204.994738
 21
493.608523
 31
0.0
  0
LINE
  5
296
330
1F
100
AcDbEntity
  8
LC-001-100-D00-0
 62
     7
370
    50
100
AcDbLine
 10
-206.945592
 20
501.608523
 30
0.0
 11
-204.99474
 21
501.608523
 31
0.0
  0
LINE
  5
297
330
1F
100
AcDbEntity
  8
LC-001-100-D00-0
 62
     7
370
    50
100
AcDbLine
 10
-195.394738
 20
496.37729
 30
0.0
 11
-195.394738
 21
498.839757
 31
0.0
  0
ARC
  5
298
330
1F
100
AcDbEntity
  8
LC-001-100-D00-0
 62
     7
370
    50
100
AcDbCircle
 10
-194.794738
 20
496.37729
 30
0.0
 40
0.6000000000000227
100
AcDbArc
 50
180.0
 51
255.0
  0
LINE
  5
299
330
1F
100
AcDbEntity
  8
LC-001-100-D00-0
 62
     7
370
    50
100
AcDbLine
 10
-194.243887
 20
495.608523
 30
0.0
 11
-194.95003
 21
495.797734
 31
0.0
  0
LINE
  5
29A
330
1F
100
AcDbEntity
  8
LC-001-100-D00-0
 62
     7
370
    50
100
AcDbLine
 10
-194.243887
 20
495.608523
 30
0.0
 11
-194.243887
 21
493.608524
 31
0.0
  0
LINE
  5
29B
330
1F
100
AcDbEntity
  8
LC-001-100-D00-0
 62
     7
370
    50
100
AcDbLine
 10
-197.194738
 20
494.608523
 30
0.0
 11
-196.194738
 21
493.608523
 31
0.0
  0
LINE
  5
29C
330
1F
100
AcDbEntity
  8
LC-001-100-D00-0
 62
     7
370
    50
100
AcDbLine
 10
-197.194738
 20
494.608523
 30
0.0
 11
-197.194742
 21
500.608523
 31
0.0
  0
LINE
  5
29D
330
1F
100
AcDbEntity
  8
LC-001-100-D00-0
 62
     7
370
    50
100
AcDbLine
 10
-196.19474
 20
501.608523
 30
0.0
 11
-197.194742
 21
500.608523
 31
0.0
  0
LINE
  5
29E
330
1F
100
AcDbEntity
  8
LC-001-100-D00-0
 62
     7
370
    50
100
AcDbLine
 10
-194.243887
 20
501.608523
 30
0.0
 11
-194.243887
 21
499.608523
 31
0.0
  0
LINE
  5
29F
330
1F
100
AcDbEntity
  8
LC-001-100-D00-0
 62
     7
370
    50
100
AcDbLine
 10
-194.95003
 20
499.419313
 30
0.0
 11
-194.243887
 21
499.608523
 31
0.0
  0
ARC
  5
2A0
330
1F
100
AcDbEntity
  8
LC-001-100-D00-0
 62
     7
370
    50
100
AcDbCircle
 10
-194.794738
 20
498.839757
 30
0.0
 40
0.600000000000118
100
AcDbArc
 50
105.0
 51
180.0
  0
LINE
  5
2A1
330
1F
100
AcDbEntity
  8
LC-001-100-D00-0
 62
     7
370
    50
100
AcDbLine
 10
-196.194738
 20
493.608523
 30
0.0
 11
-194.243887
 21
493.608524
 31
0.0
  0
LINE
  5
2A2
330
1F
100
AcDbEntity
  8
LC-001-100-D00-0
 62
     7
370
    50
100
AcDbLine
 10
-196.19474
 20
501.608523
 30
0.0
 11
-194.243887
 21
501.608523
 31
0.0
  0
LINE
  5
2A3
330
1F
100
AcDbEntity
  8
LC-001-100-D00-0
 62
     7
370
    50
100
AcDbLine
 10
-203.994738
 20
494.608523
 30
0.0
 11
-203.836899
 21
494.608523
 31
0.0
  0
LINE
  5
2A4
330
1F
100
AcDbEntity
  8
LC-001-100-D00-0
 62
     7
370
    50
100
AcDbLine
 10
-197.352578
 20
494.608523
 30
0.0
 11
-197.194738
 21
494.608523
 31
0.0
  0
LINE
  5
2A5
330
1F
100
AcDbEntity
  8
LC-001-100-D00-0
 62
     7
370
    50
100
AcDbLine
 10
-196.194738
 20
493.608523
 30
0.0
 11
-196.73052
 21
493.608523
 31
0.0
  0
LINE
  5
2A6
330
1F
100
AcDbEntity
  8
LC-001-100-D00-0
 62
     7
370
    50
100
AcDbLine
 10
-204.458957
 20
493.608523
 30
0.0
 11
-204.994738
 21
493.608523
 31
0.0
  0
LINE
  5
2A7
330
1F
100
AcDbEntity
  8
LC-001-100-D00-0
 62
     7
370
    50
100
AcDbLine
 10
-194.243887
 20
501.608523
 30
0.0
 11
-196.694741
 21
501.608523
 31
0.0
  0
LINE
  5
2A8
330
1F
100
AcDbEntity
  8
LC-001-100-D00-0
 62
     7
370
    50
100
AcDbLine
 10
-196.694741
 20
501.608523
 30
0.0
 11
-196.694738
 21
512.608523
 31
0.0
  0
LINE
  5
2A9
330
1F
100
AcDbEntity
  8
LC-001-100-D00-0
 62
     7
370
    50
100
AcDbLine
 10
-196.694738
 20
512.608523
 30
0.0
 11
-183.344738
 21
512.608523
 31
0.0
  0
ARC
  5
2AA
330
1F
100
AcDbEntity
  8
LC-001-100-D00-0
 62
     7
370
    50
100
AcDbCircle
 10
-183.344738
 20
511.608523
 30
0.0
 40
1.0
100
AcDbArc
 50
0.0
 51
90.0
  0
LINE
  5
2AB
330
1F
100
AcDbEntity
  8
LC-001-100-D00-0
 62
     7
370
    50
100
AcDbLine
 10
-182.344738
 20
511.608523
 30
0.0
 11
-182.344736
 21
505.608523
 31
0.0
  0
LINE
  5
2AC
330
1F
100
AcDbEntity
  8
LC-001-100-D00-0
 62
     7
370
    50
100
AcDbLine
 10
-185.344738
 20
505.608523
 30
0.0
 11
-182.344736
 21
505.608523
 31
0.0
  0
LINE
  5
2AD
330
1F
100
AcDbEntity
  8
LC-001-100-D00-0
 62
     7
370
    50
100
AcDbLine
 10
-185.344738
 20
505.608523
 30
0.0
 11
-185.344735
 21
509.608523
 31
0.0
  0
LINE
  5
2AE
330
1F
100
AcDbEntity
  8
LC-001-100-D00-0
 62
     7
370
    50
100
AcDbLine
 10
-189.844738
 20
509.608523
 30
0.0
 11
-185.344735
 21
509.608523
 31
0.0
  0
ARC
  5
2AF
330
1F
100
AcDbEntity
  8
LC-001-100-D00-0
 62
     7
370
    50
100
AcDbCircle
 10
-189.844738
 20
508.608523
 30
0.0
 40
1.000000000000227
100
AcDbArc
 50
90.0
 51
180.0
  0
LINE
  5
2B0
330
1F
100
AcDbEntity
  8
LC-001-100-D00-0
 62
     7
370
    50
100
AcDbLine
 10
-190.844738
 20
494.608523
 30
0.0
 11
-190.844738
 21
508.608523
 31
0.0
  0
ARC
  5
2B1
330
1F
100
AcDbEntity
  8
LC-001-100-D00-0
 62
     7
370
    50
100
AcDbCircle
 10
-191.844738
 20
494.608523
 30
0.0
 40
1.000000000000227
100
AcDbArc
 50
270.0
 51
0.0
  0
LINE
  5
2B2
330
1F
100
AcDbEntity
  8
LC-001-100-D00-0
 62
     7
370
    50
100
AcDbLine
 10
-191.844738
 20
493.608523
 30
0.0
 11
-194.243887
 21
493.608524
 31
0.0
  0
LINE
  5
2B3
330
1F
100
AcDbEntity
  8
LC-001-100-D00-0
 62
     7
370
    50
100
AcDbLine
 10
-194.243887
 20
495.608523
 30
0.0
 11
-194.243887
 21
493.608524
 31
0.0
  0
LINE
  5
2B4
330
1F
100
AcDbEntity
  8
LC-001-100-D00-0
 62
     7
370
    50
100
AcDbLine
 10
-194.894738
 20
495.608523
 30
0.0
 11
-194.243887
 21
495.608523
 31
0.0
  0
ARC
  5
2B5
330
1F
100
AcDbEntity
  8
LC-001-100-D00-0
 62
     7
370
    50
100
AcDbCircle
 10
-194.894738
 20
496.108523
 30
0.0
 40
0.5
100
AcDbArc
 50
180.0
 51
270.0
  0
LINE
  5
2B6
330
1F
100
AcDbEntity
  8
LC-001-100-D00-0
 62
     7
370
    50
100
AcDbLine
 10
-195.394738
 20
499.108523
 30
0.0
 11
-195.394738
 21
496.108523
 31
0.0
  0
ARC
  5
2B7
330
1F
100
AcDbEntity
  8
LC-001-100-D00-0
 62
     7
370
    50
100
AcDbCircle
 10
-194.894738
 20
499.108523
 30
0.0
 40
0.4999999999997726
100
AcDbArc
 50
90.0
 51
180.0
  0
LINE
  5
2B8
330
1F
100
AcDbEntity
  8
LC-001-100-D00-0
 62
     7
370
    50
100
AcDbLine
 10
-194.243887
 20
499.608523
 30
0.0
 11
-194.894738
 21
499.608523
 31
0.0
  0
LINE
  5
2B9
330
1F
100
AcDbEntity
  8
LC-001-100-D00-0
 62
     7
370
    50
100
AcDbLine
 10
-194.243887
 20
501.608523
 30
0.0
 11
-194.243887
 21
499.608523
 31
0.0
  0
ARC
  5
2BA
330
1F
100
AcDbEntity
  8
LC-001-100-D00-0
 62
     7
370
    50
100
AcDbCircle
 10
-211.344738
 20
508.608523
 30
0.0
 40
1.000000000000227
100
AcDbArc
 50
0.0
 51
90.0
  0
ARC
  5
2BB
330
1F
100
AcDbEntity
  8
LC-001-100-D00-0
 62
     7
370
    50
100
AcDbCircle
 10
-209.344738
 20
494.608523
 30
0.0
 40
1.000000000000227
100
AcDbArc
 50
180.0
 51
270.0
  0
LINE
  5
2BC
330
1F
100
AcDbEntity
  8
LC-001-100-D00-0
 62
     7
370
    50
100
AcDbLine
 10
-210.344738
 20
508.608523
 30
0.0
 11
-210.344738
 21
494.608523
 31
0.0
  0
LINE
  5
2BD
330
1F
100
AcDbEntity
  8
LC-001-100-D00-0
 62
     7
370
    50
100
AcDbLine
 10
-205.794738
 20
496.108523
 30
0.0
 11
-205.794738
 21
499.108523
 31
0.0
  0
LINE
  5
2BE
330
1F
100
AcDbEntity
  8
LC-001-100-D00-0
 62
     7
370
    50
100
AcDbLine
 10
-204.494738
 20
512.608523
 30
0.0
 11
-204.494739
 21
501.608523
 31
0.0
  0
LINE
  5
2BF
330
1F
100
AcDbEntity
  8
LC-001-100-D00-0
 62
     7
370
    50
100
AcDbLine
 10
-204.494738
 20
512.608523
 30
0.0
 11
-196.694738
 21
512.608523
 31
0.0
  0
LINE
  5
2C0
330
1F
100
AcDbEntity
  8
LC-001-100-D00-0
 62
     7
370
    50
100
AcDbLine
 10
-206.945592
 20
501.608523
 30
0.0
 11
-206.945592
 21
499.608523
 31
0.0
  0
LINE
  5
2C1
330
1F
100
AcDbEntity
  8
LC-001-100-D00-0
 62
     7
370
    50
100
AcDbLine
 10
-206.945592
 20
495.608523
 30
0.0
 11
-206.945592
 21
493.608524
 31
0.0
  0
ARC
  5
2C2
330
1F
100
AcDbEntity
  8
LC-001-100-D00-0
 62
     7
370
    50
100
AcDbCircle
 10
-206.294738
 20
496.108523
 30
0.0
 40
0.5
100
AcDbArc
 50
270.0
 51
0.0
  0
LINE
  5
2C3
330
1F
100
AcDbEntity
  8
LC-001-100-D00-0
 62
     7
370
    50
100
AcDbLine
 10
-206.945592
 20
495.608523
 30
0.0
 11
-206.294738
 21
495.608523
 31
0.0
  0
LINE
  5
2C4
330
1F
100
AcDbEntity
  8
LC-001-100-D00-0
 62
     7
370
    50
100
AcDbLine
 10
-215.844737
 20
509.608523
 30
0.0
 11
-215.844738
 21
505.608523
 31
0.0
  0
LINE
  5
2C5
330
1F
100
AcDbEntity
  8
LC-001-100-D00-0
 62
     7
370
    50
100
AcDbLine
 10
-218.844736
 20
505.608523
 30
0.0
 11
-218.844738
 21
511.608523
 31
0.0
  0
ARC
  5
2C6
330
1F
100
AcDbEntity
  8
LC-001-100-D00-0
 62
     7
370
    50
100
AcDbCircle
 10
-217.844738
 20
511.608523
 30
0.0
 40
0.9999999999997726
100
AcDbArc
 50
90.0
 51
180.0
  0
LINE
  5
2C7
330
1F
100
AcDbEntity
  8
LC-001-100-D00-0
 62
     7
370
    50
100
AcDbLine
 10
-206.294738
 20
499.608523
 30
0.0
 11
-206.945592
 21
499.608523
 31
0.0
  0
ARC
  5
2C8
330
1F
100
AcDbEntity
  8
LC-001-100-D00-0
 62
     7
370
    50
100
AcDbCircle
 10
-206.294738
 20
499.108523
 30
0.0
 40
0.5
100
AcDbArc
 50
0.0
 51
90.0
  0
LINE
  5
2C9
330
1F
100
AcDbEntity
  8
LC-001-100-D00-0
 62
     7
370
    50
100
AcDbLine
 10
-204.494739
 20
501.608523
 30
0.0
 11
-206.945592
 21
501.608523
 31
0.0
  0
LINE
  5
2CA
330
1F
100
AcDbEntity
  8
LC-001-100-D00-0
 62
     7
370
    50
100
AcDbLine
 10
-206.945592
 20
493.608524
 30
0.0
 11
-209.344738
 21
493.608523
 31
0.0
  0
LINE
  5
2CB
330
1F
100
AcDbEntity
  8
LC-001-100-D00-0
 62
     7
370
    50
100
AcDbLine
 10
-215.844737
 20
509.608523
 30
0.0
 11
-211.344738
 21
509.608523
 31
0.0
  0
LINE
  5
2CC
330
1F
100
AcDbEntity
  8
LC-001-100-D00-0
 62
     7
370
    50
100
AcDbLine
 10
-217.844738
 20
512.608523
 30
0.0
 11
-204.494738
 21
512.608523
 31
0.0
  0
LINE
  5
2CD
330
1F
100
AcDbEntity
  8
LC-001-100-D00-0
 62
     7
370
    50
100
AcDbLine
 10
-218.844736
 20
505.608523
 30
0.0
 11
-215.844738
 21
505.608523
 31
0.0
  0
LINE
  5
2CE
330
1F
100
AcDbEntity
  8
LC-001-100-D00-0
 62
     7
370
    50
100
AcDbLine
 10
-187.344738
 20
505.608523
 30
0.0
 11
-185.344738
 21
505.608523
 31
0.0
  0
LINE
  5
2CF
330
1F
100
AcDbEntity
  8
LC-001-100-D00-0
 62
     7
370
    50
100
AcDbLine
 10
-215.844738
 20
505.608523
 30
0.0
 11
-213.844738
 21
505.608523
 31
0.0
  0
LINE
  5
2D0
330
1F
100
AcDbEntity
  8
LC-001-100-D00-0
 62
     7
370
    50
100
AcDbLine
 10
-213.844738
 20
505.608523
 30
0.0
 11
-210.344741
 21
505.608523
 31
0.0
  0
LINE
  5
2D1
330
1F
100
AcDbEntity
  8
LC-001-100-D00-0
 62
     7
370
    50
100
AcDbLine
 10
-190.844739
 20
505.608523
 30
0.0
 11
-187.344738
 21
505.608523
 31
0.0
  0
LINE
  5
2D2
330
1F
100
AcDbEntity
  8
LC-001-100-D00-0
 62
     7
370
    50
100
AcDbLine
 10
366.005263
 20
500.608523
 30
0.0
 11
365.005275
 21
501.608523
 31
0.0
  0
LINE
  5
2D3
330
1F
100
AcDbEntity
  8
LC-001-100-D00-0
 62
     7
370
    50
100
AcDbLine
 10
366.005263
 20
500.608523
 30
0.0
 11
366.005262
 21
494.608523
 31
0.0
  0
LINE
  5
2D4
330
1F
100
AcDbEntity
  8
LC-001-100-D00-0
 62
     7
370
    50
100
AcDbLine
 10
365.005262
 20
493.608523
 30
0.0
 11
366.005262
 21
494.608523
 31
0.0
  0
LINE
  5
2D5
330
1F
100
AcDbEntity
  8
LC-001-100-D00-0
 62
     7
370
    50
100
AcDbLine
 10
363.054415
 20
495.608523
 30
0.0
 11
363.054415
 21
493.608524
 31
0.0
  0
LINE
  5
2D6
330
1F
100
AcDbEntity
  8
LC-001-100-D00-0
 62
     7
370
    50
100
AcDbLine
 10
363.760553
 20
495.797734
 30
0.0
 11
363.054415
 21
495.608523
 31
0.0
  0
ARC
  5
2D7
330
1F
100
AcDbEntity
  8
LC-001-100-D00-0
 62
     7
370
    50
100
AcDbCircle
 10
363.605262
 20
496.37729
 30
0.0
 40
0.5999999999998689
100
AcDbArc
 50
285.0
 51
0.0
  0
LINE
  5
2D8
330
1F
100
AcDbEntity
  8
LC-001-100-D00-0
 62
     7
370
    50
100
AcDbLine
 10
364.205262
 20
498.839757
 30
0.0
 11
364.205262
 21
496.37729
 31
0.0
  0
ARC
  5
2D9
330
1F
100
AcDbEntity
  8
LC-001-100-D00-0
 62
     7
370
    50
100
AcDbCircle
 10
363.605262
 20
498.839757
 30
0.0
 40
0.6000000000003638
100
AcDbArc
 50
0.0
 51
75.0
  0
LINE
  5
2DA
330
1F
100
AcDbEntity
  8
LC-001-100-D00-0
 62
     7
370
    50
100
AcDbLine
 10
363.054415
 20
499.608523
 30
0.0
 11
363.760553
 21
499.419313
 31
0.0
  0
LINE
  5
2DB
330
1F
100
AcDbEntity
  8
LC-001-100-D00-0
 62
     7
370
    50
100
AcDbLine
 10
363.054415
 20
501.608523
 30
0.0
 11
363.054415
 21
499.608523
 31
0.0
  0
LINE
  5
2DC
330
1F
100
AcDbEntity
  8
LC-001-100-D00-0
 62
     7
370
    50
100
AcDbLine
 10
363.054415
 20
493.608524
 30
0.0
 11
365.005262
 21
493.608523
 31
0.0
  0
LINE
  5
2DD
330
1F
100
AcDbEntity
  8
LC-001-100-D00-0
 62
     7
370
    50
100
AcDbLine
 10
363.054415
 20
501.608523
 30
0.0
 11
365.005275
 21
501.608523
 31
0.0
  0
LINE
  5
2DE
330
1F
100
AcDbEntity
  8
LC-001-100-D00-0
 62
     7
370
    50
100
AcDbLine
 10
374.605262
 20
496.37729
 30
0.0
 11
374.605262
 21
498.839757
 31
0.0
  0
ARC
  5
2DF
330
1F
100
AcDbEntity
  8
LC-001-100-D00-0
 62
     7
370
    50
100
AcDbCircle
 10
375.205262
 20
496.37729
 30
0.0
 40
0.6000000000001364
100
AcDbArc
 50
180.0
 51
255.0
  0
LINE
  5
2E0
330
1F
100
AcDbEntity
  8
LC-001-100-D00-0
 62
     7
370
    50
100
AcDbLine
 10
375.756106
 20
495.608523
 30
0.0
 11
375.04997
 21
495.797734
 31
0.0
  0
LINE
  5
2E1
330
1F
100
AcDbEntity
  8
LC-001-100-D00-0
 62
     7
370
    50
100
AcDbLine
 10
375.756106
 20
495.608523
 30
0.0
 11
375.756106
 21
493.608524
 31
0.0
  0
LINE
  5
2E2
330
1F
100
AcDbEntity
  8
LC-001-100-D00-0
 62
     7
370
    50
100
AcDbLine
 10
372.805262
 20
494.608523
 30
0.0
 11
373.805262
 21
493.608523
 31
0.0
  0
LINE
  5
2E3
330
1F
100
AcDbEntity
  8
LC-001-100-D00-0
 62
     7
370
    50
100
AcDbLine
 10
372.805262
 20
494.608523
 30
0.0
 11
372.805258
 21
500.608523
 31
0.0
  0
LINE
  5
2E4
330
1F
100
AcDbEntity
  8
LC-001-100-D00-0
 62
     7
370
    50
100
AcDbLine
 10
373.805275
 20
501.608523
 30
0.0
 11
372.805258
 21
500.608523
 31
0.0
  0
LINE
  5
2E5
330
1F
100
AcDbEntity
  8
LC-001-100-D00-0
 62
     7
370
    50
100
AcDbLine
 10
375.756106
 20
501.608523
 30
0.0
 11
375.756106
 21
499.608523
 31
0.0
  0
LINE
  5
2E6
330
1F
100
AcDbEntity
  8
LC-001-100-D00-0
 62
     7
370
    50
100
AcDbLine
 10
375.04997
 20
499.419313
 30
0.0
 11
375.756106
 21
499.608523
 31
0.0
  0
ARC
  5
2E7
330
1F
100
AcDbEntity
  8
LC-001-100-D00-0
 62
     7
370
    50
100
AcDbCircle
 10
375.205262
 20
498.839757
 30
0.0
 40
0.6000000000001474
100
AcDbArc
 50
105.0
 51
180.0
  0
LINE
  5
2E8
330
1F
100
AcDbEntity
  8
LC-001-100-D00-0
 62
     7
370
    50
100
AcDbLine
 10
373.805262
 20
493.608523
 30
0.0
 11
375.756106
 21
493.608524
 31
0.0
  0
LINE
  5
2E9
330
1F
100
AcDbEntity
  8
LC-001-100-D00-0
 62
     7
370
    50
100
AcDbLine
 10
373.805275
 20
501.608523
 30
0.0
 11
375.756106
 21
501.608523
 31
0.0
  0
LINE
  5
2EA
330
1F
100
AcDbEntity
  8
LC-001-100-D00-0
 62
     7
370
    50
100
AcDbLine
 10
366.005262
 20
494.608523
 30
0.0
 11
366.163101
 21
494.608523
 31
0.0
  0
LINE
  5
2EB
330
1F
100
AcDbEntity
  8
LC-001-100-D00-0
 62
     7
370
    50
100
AcDbLine
 10
372.647422
 20
494.608523
 30
0.0
 11
372.805262
 21
494.608523
 31
0.0
  0
LINE
  5
2EC
330
1F
100
AcDbEntity
  8
LC-001-100-D00-0
 62
     7
370
    50
100
AcDbLine
 10
373.805262
 20
493.608523
 30
0.0
 11
373.26948
 21
493.608523
 31
0.0
  0
LINE
  5
2ED
330
1F
100
AcDbEntity
  8
LC-001-100-D00-0
 62
     7
370
    50
100
AcDbLine
 10
365.541043
 20
493.608523
 30
0.0
 11
365.005262
 21
493.608523
 31
0.0
  0
LINE
  5
2EE
330
1F
100
AcDbEntity
  8
LC-001-100-D00-0
 62
     7
370
    50
100
AcDbLine
 10
375.756106
 20
501.608523
 30
0.0
 11
373.305252
 21
501.608523
 31
0.0
  0
LINE
  5
2EF
330
1F
100
AcDbEntity
  8
LC-001-100-D00-0
 62
     7
370
    50
100
AcDbLine
 10
373.305252
 20
501.608523
 30
0.0
 11
373.305262
 21
512.608523
 31
0.0
  0
LINE
  5
2F0
330
1F
100
AcDbEntity
  8
LC-001-100-D00-0
 62
     7
370
    50
100
AcDbLine
 10
373.305262
 20
512.608523
 30
0.0
 11
386.655262
 21
512.608523
 31
0.0
  0
ARC
  5
2F1
330
1F
100
AcDbEntity
  8
LC-001-100-D00-0
 62
     7
370
    50
100
AcDbCircle
 10
386.655262
 20
511.608523
 30
0.0
 40
1.0
100
AcDbArc
 50
0.0
 51
90.0
  0
LINE
  5
2F2
330
1F
100
AcDbEntity
  8
LC-001-100-D00-0
 62
     7
370
    50
100
AcDbLine
 10
387.655262
 20
511.608523
 30
0.0
 11
387.655249
 21
505.608523
 31
0.0
  0
LINE
  5
2F3
330
1F
100
AcDbEntity
  8
LC-001-100-D00-0
 62
     7
370
    50
100
AcDbLine
 10
384.655262
 20
505.608523
 30
0.0
 11
387.655249
 21
505.608523
 31
0.0
  0
LINE
  5
2F4
330
1F
100
AcDbEntity
  8
LC-001-100-D00-0
 62
     7
370
    50
100
AcDbLine
 10
384.655262
 20
505.608523
 30
0.0
 11
384.655258
 21
509.608523
 31
0.0
  0
LINE
  5
2F5
330
1F
100
AcDbEntity
  8
LC-001-100-D00-0
 62
     7
370
    50
100
AcDbLine
 10
380.155262
 20
509.608523
 30
0.0
 11
384.655258
 21
509.608523
 31
0.0
  0
ARC
  5
2F6
330
1F
100
AcDbEntity
  8
LC-001-100-D00-0
 62
     7
370
    50
100
AcDbCircle
 10
380.155262
 20
508.608523
 30
0.0
 40
1.000000000000227
100
AcDbArc
 50
90.0
 51
180.0
  0
LINE
  5
2F7
330
1F
100
AcDbEntity
  8
LC-001-100-D00-0
 62
     7
370
    50
100
AcDbLine
 10
379.155262
 20
494.608523
 30
0.0
 11
379.155262
 21
508.608523
 31
0.0
  0
ARC
  5
2F8
330
1F
100
AcDbEntity
  8
LC-001-100-D00-0
 62
     7
370
    50
100
AcDbCircle
 10
378.155262
 20
494.608523
 30
0.0
 40
1.000000000000227
100
AcDbArc
 50
270.0
 51
0.0
  0
LINE
  5
2F9
330
1F
100
AcDbEntity
  8
LC-001-100-D00-0
 62
     7
370
    50
100
AcDbLine
 10
378.155262
 20
493.608523
 30
0.0
 11
375.756106
 21
493.608524
 31
0.0
  0
LINE
  5
2FA
330
1F
100
AcDbEntity
  8
LC-001-100-D00-0
 62
     7
370
    50
100
AcDbLine
 10
375.756106
 20
495.608523
 30
0.0
 11
375.756106
 21
493.608524
 31
0.0
  0
LINE
  5
2FB
330
1F
100
AcDbEntity
  8
LC-001-100-D00-0
 62
     7
370
    50
100
AcDbLine
 10
375.105262
 20
495.608523
 30
0.0
 11
375.756106
 21
495.608523
 31
0.0
  0
ARC
  5
2FC
330
1F
100
AcDbEntity
  8
LC-001-100-D00-0
 62
     7
370
    50
100
AcDbCircle
 10
375.105262
 20
496.108523
 30
0.0
 40
0.4999999999997726
100
AcDbArc
 50
180.0
 51
270.0
  0
LINE
  5
2FD
330
1F
100
AcDbEntity
  8
LC-001-100-D00-0
 62
     7
370
    50
100
AcDbLine
 10
374.605262
 20
499.108523
 30
0.0
 11
374.605262
 21
496.108523
 31
0.0
  0
ARC
  5
2FE
330
1F
100
AcDbEntity
  8
LC-001-100-D00-0
 62
     7
370
    50
100
AcDbCircle
 10
375.105262
 20
499.108523
 30
0.0
 40
0.4999999999997726
100
AcDbArc
 50
90.0
 51
180.0
  0
LINE
  5
2FF
330
1F
100
AcDbEntity
  8
LC-001-100-D00-0
 62
     7
370
    50
100
AcDbLine
 10
375.756106
 20
499.608523
 30
0.0
 11
375.105262
 21
499.608523
 31
0.0
  0
LINE
  5
300
330
1F
100
AcDbEntity
  8
LC-001-100-D00-0
 62
     7
370
    50
100
AcDbLine
 10
375.756106
 20
501.608523
 30
0.0
 11
375.756106
 21
499.608523
 31
0.0
  0
ARC
  5
301
330
1F
100
AcDbEntity
  8
LC-001-100-D00-0
 62
     7
370
    50
100
AcDbCircle
 10
358.655262
 20
508.608523
 30
0.0
 40
1.0
100
AcDbArc
 50
0.0
 51
90.0
  0
ARC
  5
302
330
1F
100
AcDbEntity
  8
LC-001-100-D00-0
 62
     7
370
    50
100
AcDbCircle
 10
360.655262
 20
494.608523
 30
0.0
 40
1.000000000000227
100
AcDbArc
 50
180.0
 51
270.0
  0
LINE
  5
303
330
1F
100
AcDbEntity
  8
LC-001-100-D00-0
 62
     7
370
    50
100
AcDbLine
 10
359.655262
 20
508.608523
 30
0.0
 11
359.655262
 21
494.608523
 31
0.0
  0
LINE
  5
304
330
1F
100
AcDbEntity
  8
LC-001-100-D00-0
 62
     7
370
    50
100
AcDbLine
 10
364.205262
 20
496.108523
 30
0.0
 11
364.205262
 21
499.108523
 31
0.0
  0
LINE
  5
305
330
1F
100
AcDbEntity
  8
LC-001-100-D00-0
 62
     7
370
    50
100
AcDbLine
 10
365.505262
 20
512.608523
 30
0.0
 11
365.505269
 21
501.608523
 31
0.0
  0
LINE
  5
306
330
1F
100
AcDbEntity
  8
LC-001-100-D00-0
 62
     7
370
    50
100
AcDbLine
 10
365.505262
 20
512.608523
 30
0.0
 11
373.305262
 21
512.608523
 31
0.0
  0
LINE
  5
307
330
1F
100
AcDbEntity
  8
LC-001-100-D00-0
 62
     7
370
    50
100
AcDbLine
 10
363.054415
 20
501.608523
 30
0.0
 11
363.054415
 21
499.608523
 31
0.0
  0
LINE
  5
308
330
1F
100
AcDbEntity
  8
LC-001-100-D00-0
 62
     7
370
    50
100
AcDbLine
 10
363.054415
 20
495.608523
 30
0.0
 11
363.054415
 21
493.608524
 31
0.0
  0
ARC
  5
309
330
1F
100
AcDbEntity
  8
LC-001-100-D00-0
 62
     7
370
    50
100
AcDbCircle
 10
363.705262
 20
496.108523
 30
0.0
 40
0.4999999999997726
100
AcDbArc
 50
270.0
 51
0.0
  0
LINE
  5
30A
330
1F
100
AcDbEntity
  8
LC-001-100-D00-0
 62
     7
370
    50
100
AcDbLine
 10
363.054415
 20
495.608523
 30
0.0
 11
363.705262
 21
495.608523
 31
0.0
  0
LINE
  5
30B
330
1F
100
AcDbEntity
  8
LC-001-100-D00-0
 62
     7
370
    50
100
AcDbLine
 10
354.155263
 20
509.608523
 30
0.0
 11
354.155262
 21
505.608523
 31
0.0
  0
LINE
  5
30C
330
1F
100
AcDbEntity
  8
LC-001-100-D00-0
 62
     7
370
    50
100
AcDbLine
 10
351.155272
 20
505.608523
 30
0.0
 11
351.155262
 21
511.608523
 31
0.0
  0
ARC
  5
30D
330
1F
100
AcDbEntity
  8
LC-001-100-D00-0
 62
     7
370
    50
100
AcDbCircle
 10
352.155262
 20
511.608523
 30
0.0
 40
1.0
100
AcDbArc
 50
90.0
 51
180.0
  0
LINE
  5
30E
330
1F
100
AcDbEntity
  8
LC-001-100-D00-0
 62
     7
370
    50
100
AcDbLine
 10
363.705262
 20
499.608523
 30
0.0
 11
363.054415
 21
499.608523
 31
0.0
  0
ARC
  5
30F
330
1F
100
AcDbEntity
  8
LC-001-100-D00-0
 62
     7
370
    50
100
AcDbCircle
 10
363.705262
 20
499.108523
 30
0.0
 40
0.5
100
AcDbArc
 50
0.0
 51
90.0
  0
LINE
  5
310
330
1F
100
AcDbEntity
  8
LC-001-100-D00-0
 62
     7
370
    50
100
AcDbLine
 10
351.155272
 20
505.608523
 30
0.0
 11
354.155262
 21
505.608523
 31
0.0
  0
LINE
  5
311
330
1F
100
AcDbEntity
  8
LC-001-100-D00-0
 62
     7
370
    50
100
AcDbLine
 10
365.505269
 20
501.608523
 30
0.0
 11
363.054415
 21
501.608523
 31
0.0
  0
LINE
  5
312
330
1F
100
AcDbEntity
  8
LC-001-100-D00-0
 62
     7
370
    50
100
AcDbLine
 10
363.054415
 20
493.608524
 30
0.0
 11
360.655262
 21
493.608523
 31
0.0
  0
LINE
  5
313
330
1F
100
AcDbEntity
  8
LC-001-100-D00-0
 62
     7
370
    50
100
AcDbLine
 10
354.155263
 20
509.608523
 30
0.0
 11
358.655262
 21
509.608523
 31
0.0
  0
LINE
  5
314
330
1F
100
AcDbEntity
  8
LC-001-100-D00-0
 62
     7
370
    50
100
AcDbLine
 10
352.155262
 20
512.608523
 30
0.0
 11
365.505262
 21
512.608523
 31
0.0
  0
LINE
  5
315
330
1F
100
AcDbEntity
  8
LC-001-100-D00-0
 62
     7
370
    50
100
AcDbLine
 10
382.655262
 20
505.608523
 30
0.0
 11
384.655262
 21
505.608523
 31
0.0
  0
LINE
  5
316
330
1F
100
AcDbEntity
  8
LC-001-100-D00-0
 62
     7
370
    50
100
AcDbLine
 10
354.155262
 20
505.608523
 30
0.0
 11
356.155262
 21
505.608523
 31
0.0
  0
LINE
  5
317
330
1F
100
AcDbEntity
  8
LC-001-100-D00-0
 62
     7
370
    50
100
AcDbLine
 10
356.155262
 20
505.608523
 30
0.0
 11
359.655252
 21
505.608523
 31
0.0
  0
LINE
  5
318
330
1F
100
AcDbEntity
  8
LC-001-100-D00-0
 62
     7
370
    50
100
AcDbLine
 10
379.155269
 20
505.608523
 30
0.0
 11
382.655262
 21
505.608523
 31
0.0
  0
LINE
  5
319
330
1F
100
AcDbEntity
  8
LC-001-100-D00-0
 62
     7
370
    50
100
AcDbLine
 10
-388.994733
 20
500.608523
 30
0.0
 11
-389.99475
 21
501.608523
 31
0.0
  0
LINE
  5
31A
330
1F
100
AcDbEntity
  8
LC-001-100-D00-0
 62
     7
370
    50
100
AcDbLine
 10
-388.994733
 20
500.608523
 30
0.0
 11
-388.994738
 21
494.608523
 31
0.0
  0
LINE
  5
31B
330
1F
100
AcDbEntity
  8
LC-001-100-D00-0
 62
     7
370
    50
100
AcDbLine
 10
-389.994738
 20
493.608523
 30
0.0
 11
-388.994738
 21
494.608523
 31
0.0
  0
LINE
  5
31C
330
1F
100
AcDbEntity
  8
LC-001-100-D00-0
 62
     7
370
    50
100
AcDbLine
 10
-391.94558
 20
495.608523
 30
0.0
 11
-391.94558
 21
493.608524
 31
0.0
  0
LINE
  5
31D
330
1F
100
AcDbEntity
  8
LC-001-100-D00-0
 62
     7
370
    50
100
AcDbLine
 10
-391.239447
 20
495.797734
 30
0.0
 11
-391.94558
 21
495.608523
 31
0.0
  0
ARC
  5
31E
330
1F
100
AcDbEntity
  8
LC-001-100-D00-0
 62
     7
370
    50
100
AcDbCircle
 10
-391.394738
 20
496.37729
 30
0.0
 40
0.5999999999998836
100
AcDbArc
 50
285.0
 51
0.0
  0
LINE
  5
31F
330
1F
100
AcDbEntity
  8
LC-001-100-D00-0
 62
     7
370
    50
100
AcDbLine
 10
-390.794738
 20
498.839757
 30
0.0
 11
-390.794738
 21
496.37729
 31
0.0
  0
ARC
  5
320
330
1F
100
AcDbEntity
  8
LC-001-100-D00-0
 62
     7
370
    50
100
AcDbCircle
 10
-391.394738
 20
498.839757
 30
0.0
 40
0.600000000000307
100
AcDbArc
 50
0.0
 51
75.0
  0
LINE
  5
321
330
1F
100
AcDbEntity
  8
LC-001-100-D00-0
 62
     7
370
    50
100
AcDbLine
 10
-391.94558
 20
499.608523
 30
0.0
 11
-391.239447
 21
499.419313
 31
0.0
  0
LINE
  5
322
330
1F
100
AcDbEntity
  8
LC-001-100-D00-0
 62
     7
370
    50
100
AcDbLine
 10
-391.94558
 20
501.608523
 30
0.0
 11
-391.94558
 21
499.608523
 31
0.0
  0
LINE
  5
323
330
1F
100
AcDbEntity
  8
LC-001-100-D00-0
 62
     7
370
    50
100
AcDbLine
 10
-391.94558
 20
493.608524
 30
0.0
 11
-389.994738
 21
493.608523
 31
0.0
  0
LINE
  5
324
330
1F
100
AcDbEntity
  8
LC-001-100-D00-0
 62
     7
370
    50
100
AcDbLine
 10
-391.94558
 20
501.608523
 30
0.0
 11
-389.99475
 21
501.608523
 31
0.0
  0
LINE
  5
325
330
1F
100
AcDbEntity
  8
LC-001-100-D00-0
 62
     7
370
    50
100
AcDbLine
 10
-380.394738
 20
496.37729
 30
0.0
 11
-380.394738
 21
498.839757
 31
0.0
  0
ARC
  5
326
330
1F
100
AcDbEntity
  8
LC-001-100-D00-0
 62
     7
370
    50
100
AcDbCircle
 10
-379.794738
 20
496.37729
 30
0.0
 40
0.6000000000000227
100
AcDbArc
 50
180.0
 51
255.0
  0
LINE
  5
327
330
1F
100
AcDbEntity
  8
LC-001-100-D00-0
 62
     7
370
    50
100
AcDbLine
 10
-379.24389
 20
495.608523
 30
0.0
 11
-379.95003
 21
495.797734
 31
0.0
  0
LINE
  5
328
330
1F
100
AcDbEntity
  8
LC-001-100-D00-0
 62
     7
370
    50
100
AcDbLine
 10
-379.24389
 20
495.608523
 30
0.0
 11
-379.24389
 21
493.608524
 31
0.0
  0
LINE
  5
329
330
1F
100
AcDbEntity
  8
LC-001-100-D00-0
 62
     7
370
    50
100
AcDbLine
 10
-382.194738
 20
494.608523
 30
0.0
 11
-381.194738
 21
493.608523
 31
0.0
  0
LINE
  5
32A
330
1F
100
AcDbEntity
  8
LC-001-100-D00-0
 62
     7
370
    50
100
AcDbLine
 10
-382.194738
 20
494.608523
 30
0.0
 11
-382.194737
 21
500.608523
 31
0.0
  0
LINE
  5
32B
330
1F
100
AcDbEntity
  8
LC-001-100-D00-0
 62
     7
370
    50
100
AcDbLine
 10
-381.19475
 20
501.608523
 30
0.0
 11
-382.194737
 21
500.608523
 31
0.0
  0
LINE
  5
32C
330
1F
100
AcDbEntity
  8
LC-001-100-D00-0
 62
     7
370
    50
100
AcDbLine
 10
-379.24389
 20
501.608523
 30
0.0
 11
-379.24389
 21
499.608523
 31
0.0
  0
LINE
  5
32D
330
1F
100
AcDbEntity
  8
LC-001-100-D00-0
 62
     7
370
    50
100
AcDbLine
 10
-379.95003
 20
499.419313
 30
0.0
 11
-379.24389
 21
499.608523
 31
0.0
  0
ARC
  5
32E
330
1F
100
AcDbEntity
  8
LC-001-100-D00-0
 62
     7
370
    50
100
AcDbCircle
 10
-379.794738
 20
498.839757
 30
0.0
 40
0.600000000000118
100
AcDbArc
 50
105.0
 51
180.0
  0
LINE
  5
32F
330
1F
100
AcDbEntity
  8
LC-001-100-D00-0
 62
     7
370
    50
100
AcDbLine
 10
-381.194738
 20
493.608523
 30
0.0
 11
-379.24389
 21
493.608524
 31
0.0
  0
LINE
  5
330
330
1F
100
AcDbEntity
  8
LC-001-100-D00-0
 62
     7
370
    50
100
AcDbLine
 10
-381.19475
 20
501.608523
 30
0.0
 11
-379.24389
 21
501.608523
 31
0.0
  0
LINE
  5
331
330
1F
100
AcDbEntity
  8
LC-001-100-D00-0
 62
     7
370
    50
100
AcDbLine
 10
-388.994738
 20
494.608523
 30
0.0
 11
-388.836899
 21
494.608523
 31
0.0
  0
LINE
  5
332
330
1F
100
AcDbEntity
  8
LC-001-100-D00-0
 62
     7
370
    50
100
AcDbLine
 10
-382.352578
 20
494.608523
 30
0.0
 11
-382.194738
 21
494.608523
 31
0.0
  0
LINE
  5
333
330
1F
100
AcDbEntity
  8
LC-001-100-D00-0
 62
     7
370
    50
100
AcDbLine
 10
-381.194738
 20
493.608523
 30
0.0
 11
-381.73052
 21
493.608523
 31
0.0
  0
LINE
  5
334
330
1F
100
AcDbEntity
  8
LC-001-100-D00-0
 62
     7
370
    50
100
AcDbLine
 10
-389.458957
 20
493.608523
 30
0.0
 11
-389.994738
 21
493.608523
 31
0.0
  0
LINE
  5
335
330
1F
100
AcDbEntity
  8
LC-001-100-D00-0
 62
     7
370
    50
100
AcDbLine
 10
-379.24389
 20
501.608523
 30
0.0
 11
-381.694743
 21
501.608523
 31
0.0
  0
LINE
  5
336
330
1F
100
AcDbEntity
  8
LC-001-100-D00-0
 62
     7
370
    50
100
AcDbLine
 10
-381.694743
 20
501.608523
 30
0.0
 11
-381.694738
 21
512.608523
 31
0.0
  0
LINE
  5
337
330
1F
100
AcDbEntity
  8
LC-001-100-D00-0
 62
     7
370
    50
100
AcDbLine
 10
-381.694738
 20
512.608523
 30
0.0
 11
-368.344738
 21
512.608523
 31
0.0
  0
ARC
  5
338
330
1F
100
AcDbEntity
  8
LC-001-100-D00-0
 62
     7
370
    50
100
AcDbCircle
 10
-368.344738
 20
511.608523
 30
0.0
 40
1.000000000000057
100
AcDbArc
 50
0.0
 51
90.0
  0
LINE
  5
339
330
1F
100
AcDbEntity
  8
LC-001-100-D00-0
 62
     7
370
    50
100
AcDbLine
 10
-367.344738
 20
511.608523
 30
0.0
 11
-367.344746
 21
505.608523
 31
0.0
  0
LINE
  5
33A
330
1F
100
AcDbEntity
  8
LC-001-100-D00-0
 62
     7
370
    50
100
AcDbLine
 10
-370.344738
 20
505.608523
 30
0.0
 11
-367.344746
 21
505.608523
 31
0.0
  0
LINE
  5
33B
330
1F
100
AcDbEntity
  8
LC-001-100-D00-0
 62
     7
370
    50
100
AcDbLine
 10
-370.344738
 20
505.608523
 30
0.0
 11
-370.344737
 21
509.608523
 31
0.0
  0
LINE
  5
33C
330
1F
100
AcDbEntity
  8
LC-001-100-D00-0
 62
     7
370
    50
100
AcDbLine
 10
-374.844738
 20
509.608523
 30
0.0
 11
-370.344737
 21
509.608523
 31
0.0
  0
ARC
  5
33D
330
1F
100
AcDbEntity
  8
LC-001-100-D00-0
 62
     7
370
    50
100
AcDbCircle
 10
-374.844738
 20
508.608523
 30
0.0
 40
1.000000000000227
100
AcDbArc
 50
90.0
 51
180.0
  0
LINE
  5
33E
330
1F
100
AcDbEntity
  8
LC-001-100-D00-0
 62
     7
370
    50
100
AcDbLine
 10
-375.844738
 20
494.608523
 30
0.0
 11
-375.844738
 21
508.608523
 31
0.0
  0
ARC
  5
33F
330
1F
100
AcDbEntity
  8
LC-001-100-D00-0
 62
     7
370
    50
100
AcDbCircle
 10
-376.844738
 20
494.608523
 30
0.0
 40
1.000000000000227
100
AcDbArc
 50
270.0
 51
0.0
  0
LINE
  5
340
330
1F
100
AcDbEntity
  8
LC-001-100-D00-0
 62
     7
370
    50
100
AcDbLine
 10
-376.844738
 20
493.608523
 30
0.0
 11
-379.24389
 21
493.608524
 31
0.0
  0
LINE
  5
341
330
1F
100
AcDbEntity
  8
LC-001-100-D00-0
 62
     7
370
    50
100
AcDbLine
 10
-379.24389
 20
495.608523
 30
0.0
 11
-379.24389
 21
493.608524
 31
0.0
  0
LINE
  5
342
330
1F
100
AcDbEntity
  8
LC-001-100-D00-0
 62
     7
370
    50
100
AcDbLine
 10
-379.894738
 20
495.608523
 30
0.0
 11
-379.24389
 21
495.608523
 31
0.0
  0
ARC
  5
343
330
1F
100
AcDbEntity
  8
LC-001-100-D00-0
 62
     7
370
    50
100
AcDbCircle
 10
-379.894738
 20
496.108523
 30
0.0
 40
0.4999999999999432
100
AcDbArc
 50
180.0
 51
270.0
  0
LINE
  5
344
330
1F
100
AcDbEntity
  8
LC-001-100-D00-0
 62
     7
370
    50
100
AcDbLine
 10
-380.394738
 20
499.108523
 30
0.0
 11
-380.394738
 21
496.108523
 31
0.0
  0
ARC
  5
345
330
1F
100
AcDbEntity
  8
LC-001-100-D00-0
 62
     7
370
    50
100
AcDbCircle
 10
-379.894738
 20
499.108523
 30
0.0
 40
0.4999999999997726
100
AcDbArc
 50
90.0
 51
180.0
  0
LINE
  5
346
330
1F
100
AcDbEntity
  8
LC-001-100-D00-0
 62
     7
370
    50
100
AcDbLine
 10
-379.24389
 20
499.608523
 30
0.0
 11
-379.894738
 21
499.608523
 31
0.0
  0
LINE
  5
347
330
1F
100
AcDbEntity
  8
LC-001-100-D00-0
 62
     7
370
    50
100
AcDbLine
 10
-379.24389
 20
501.608523
 30
0.0
 11
-379.24389
 21
499.608523
 31
0.0
  0
ARC
  5
348
330
1F
100
AcDbEntity
  8
LC-001-100-D00-0
 62
     7
370
    50
100
AcDbCircle
 10
-396.344738
 20
508.608523
 30
0.0
 40
1.000000000000227
100
AcDbArc
 50
0.0
 51
90.0
  0
LINE
  5
349
330
1F
100
AcDbEntity
  8
LC-001-100-D00-0
 62
     7
370
    50
100
AcDbLine
 10
-395.344738
 20
508.608523
 30
0.0
 11
-395.344738
 21
494.608523
 31
0.0
  0
ARC
  5
34A
330
1F
100
AcDbEntity
  8
LC-001-100-D00-0
 62
     7
370
    50
100
AcDbCircle
 10
-394.344738
 20
494.608523
 30
0.0
 40
1.000000000000227
100
AcDbArc
 50
180.0
 51
270.0
  0
LINE
  5
34B
330
1F
100
AcDbEntity
  8
LC-001-100-D00-0
 62
     7
370
    50
100
AcDbLine
 10
-390.794738
 20
496.108523
 30
0.0
 11
-390.794738
 21
499.108523
 31
0.0
  0
LINE
  5
34C
330
1F
100
AcDbEntity
  8
LC-001-100-D00-0
 62
     7
370
    50
100
AcDbLine
 10
-389.494738
 20
512.608523
 30
0.0
 11
-389.494726
 21
501.608523
 31
0.0
  0
LINE
  5
34D
330
1F
100
AcDbEntity
  8
LC-001-100-D00-0
 62
     7
370
    50
100
AcDbLine
 10
-389.494738
 20
512.608523
 30
0.0
 11
-381.694738
 21
512.608523
 31
0.0
  0
LINE
  5
34E
330
1F
100
AcDbEntity
  8
LC-001-100-D00-0
 62
     7
370
    50
100
AcDbLine
 10
-391.94558
 20
501.608523
 30
0.0
 11
-391.94558
 21
499.608523
 31
0.0
  0
LINE
  5
34F
330
1F
100
AcDbEntity
  8
LC-001-100-D00-0
 62
     7
370
    50
100
AcDbLine
 10
-391.94558
 20
495.608523
 30
0.0
 11
-391.94558
 21
493.608524
 31
0.0
  0
ARC
  5
350
330
1F
100
AcDbEntity
  8
LC-001-100-D00-0
 62
     7
370
    50
100
AcDbCircle
 10
-391.294738
 20
496.108523
 30
0.0
 40
0.4999999999997726
100
AcDbArc
 50
270.0
 51
0.0
  0
LINE
  5
351
330
1F
100
AcDbEntity
  8
LC-001-100-D00-0
 62
     7
370
    50
100
AcDbLine
 10
-391.94558
 20
495.608523
 30
0.0
 11
-391.294738
 21
495.608523
 31
0.0
  0
LINE
  5
352
330
1F
100
AcDbEntity
  8
LC-001-100-D00-0
 62
     7
370
    50
100
AcDbLine
 10
-400.844732
 20
509.608523
 30
0.0
 11
-400.844738
 21
505.608523
 31
0.0
  0
LINE
  5
353
330
1F
100
AcDbEntity
  8
LC-001-100-D00-0
 62
     7
370
    50
100
AcDbLine
 10
-403.844753
 20
505.608523
 30
0.0
 11
-403.844738
 21
511.608523
 31
0.0
  0
ARC
  5
354
330
1F
100
AcDbEntity
  8
LC-001-100-D00-0
 62
     7
370
    50
100
AcDbCircle
 10
-402.844738
 20
511.608523
 30
0.0
 40
0.9999999999997726
100
AcDbArc
 50
90.0
 51
180.0
  0
LINE
  5
355
330
1F
100
AcDbEntity
  8
LC-001-100-D00-0
 62
     7
370
    50
100
AcDbLine
 10
-391.294738
 20
499.608523
 30
0.0
 11
-391.94558
 21
499.608523
 31
0.0
  0
ARC
  5
356
330
1F
100
AcDbEntity
  8
LC-001-100-D00-0
 62
     7
370
    50
100
AcDbCircle
 10
-391.294738
 20
499.108523
 30
0.0
 40
0.4999999999998863
100
AcDbArc
 50
0.0
 51
90.0
  0
LINE
  5
357
330
1F
100
AcDbEntity
  8
LC-001-100-D00-0
 62
     7
370
    50
100
AcDbLine
 10
-389.494726
 20
501.608523
 30
0.0
 11
-391.94558
 21
501.608523
 31
0.0
  0
LINE
  5
358
330
1F
100
AcDbEntity
  8
LC-001-100-D00-0
 62
     7
370
    50
100
AcDbLine
 10
-391.94558
 20
493.608524
 30
0.0
 11
-394.344738
 21
493.608523
 31
0.0
  0
LINE
  5
359
330
1F
100
AcDbEntity
  8
LC-001-100-D00-0
 62
     7
370
    50
100
AcDbLine
 10
-400.844732
 20
509.608523
 30
0.0
 11
-396.344738
 21
509.608523
 31
0.0
  0
LINE
  5
35A
330
1F
100
AcDbEntity
  8
LC-001-100-D00-0
 62
     7
370
    50
100
AcDbLine
 10
-403.844753
 20
505.608523
 30
0.0
 11
-400.844738
 21
505.608523
 31
0.0
  0
LINE
  5
35B
330
1F
100
AcDbEntity
  8
LC-001-100-D00-0
 62
     7
370
    50
100
AcDbLine
 10
-402.844738
 20
512.608523
 30
0.0
 11
-389.494738
 21
512.608523
 31
0.0
  0
LINE
  5
35C
330
1F
100
AcDbEntity
  8
LC-001-100-D00-0
 62
     7
370
    50
100
AcDbLine
 10
-372.344738
 20
505.608523
 30
0.0
 11
-370.344738
 21
505.608523
 31
0.0
  0
LINE
  5
35D
330
1F
100
AcDbEntity
  8
LC-001-100-D00-0
 62
     7
370
    50
100
AcDbLine
 10
-400.844738
 20
505.608523
 30
0.0
 11
-398.844738
 21
505.608523
 31
0.0
  0
LINE
  5
35E
330
1F
100
AcDbEntity
  8
LC-001-100-D00-0
 62
     7
370
    50
100
AcDbLine
 10
-398.844738
 20
505.608523
 30
0.0
 11
-395.344743
 21
505.608523
 31
0.0
  0
LINE
  5
35F
330
1F
100
AcDbEntity
  8
LC-001-100-D00-0
 62
     7
370
    50
100
AcDbLine
 10
-375.844726
 20
505.608523
 30
0.0
 11
-372.344738
 21
505.608523
 31
0.0
  0
LINE
  5
360
330
1F
100
AcDbEntity
  8
LC-001-100-D00-0
 62
     7
370
    50
100
AcDbLine
 10
-573.994735
 20
500.608523
 30
0.0
 11
-574.994752
 21
501.608523
 31
0.0
  0
LINE
  5
361
330
1F
100
AcDbEntity
  8
LC-001-100-D00-0
 62
     7
370
    50
100
AcDbLine
 10
-573.994735
 20
500.608523
 30
0.0
 11
-573.994738
 21
494.608523
 31
0.0
  0
LINE
  5
362
330
1F
100
AcDbEntity
  8
LC-001-100-D00-0
 62
     7
370
    50
100
AcDbLine
 10
-574.994738
 20
493.608523
 30
0.0
 11
-573.994738
 21
494.608523
 31
0.0
  0
LINE
  5
363
330
1F
100
AcDbEntity
  8
LC-001-100-D00-0
 62
     7
370
    50
100
AcDbLine
 10
-576.945582
 20
495.608523
 30
0.0
 11
-576.945582
 21
493.608524
 31
0.0
  0
LINE
  5
364
330
1F
100
AcDbEntity
  8
LC-001-100-D00-0
 62
     7
370
    50
100
AcDbLine
 10
-576.239447
 20
495.797734
 30
0.0
 11
-576.945582
 21
495.608523
 31
0.0
  0
ARC
  5
365
330
1F
100
AcDbEntity
  8
LC-001-100-D00-0
 62
     7
370
    50
100
AcDbCircle
 10
-576.394738
 20
496.37729
 30
0.0
 40
0.5999999999998983
100
AcDbArc
 50
285.0
 51
0.0
  0
LINE
  5
366
330
1F
100
AcDbEntity
  8
LC-001-100-D00-0
 62
     7
370
    50
100
AcDbLine
 10
-575.794738
 20
498.839757
 30
0.0
 11
-575.794738
 21
496.37729
 31
0.0
  0
ARC
  5
367
330
1F
100
AcDbEntity
  8
LC-001-100-D00-0
 62
     7
370
    50
100
AcDbCircle
 10
-576.394738
 20
498.839757
 30
0.0
 40
0.6000000000003638
100
AcDbArc
 50
0.0
 51
75.0
  0
LINE
  5
368
330
1F
100
AcDbEntity
  8
LC-001-100-D00-0
 62
     7
370
    50
100
AcDbLine
 10
-576.945582
 20
499.608523
 30
0.0
 11
-576.239447
 21
499.419313
 31
0.0
  0
LINE
  5
369
330
1F
100
AcDbEntity
  8
LC-001-100-D00-0
 62
     7
370
    50
100
AcDbLine
 10
-576.945582
 20
501.608523
 30
0.0
 11
-576.945582
 21
499.608523
 31
0.0
  0
LINE
  5
36A
330
1F
100
AcDbEntity
  8
LC-001-100-D00-0
 62
     7
370
    50
100
AcDbLine
 10
-576.945582
 20
493.608524
 30
0.0
 11
-574.994738
 21
493.608523
 31
0.0
  0
LINE
  5
36B
330
1F
100
AcDbEntity
  8
LC-001-100-D00-0
 62
     7
370
    50
100
AcDbLine
 10
-576.945582
 20
501.608523
 30
0.0
 11
-574.994752
 21
501.608523
 31
0.0
  0
LINE
  5
36C
330
1F
100
AcDbEntity
  8
LC-001-100-D00-0
 62
     7
370
    50
100
AcDbLine
 10
-565.394738
 20
496.37729
 30
0.0
 11
-565.394738
 21
498.839757
 31
0.0
  0
ARC
  5
36D
330
1F
100
AcDbEntity
  8
LC-001-100-D00-0
 62
     7
370
    50
100
AcDbCircle
 10
-564.794738
 20
496.37729
 30
0.0
 40
0.6000000000000227
100
AcDbArc
 50
180.0
 51
255.0
  0
LINE
  5
36E
330
1F
100
AcDbEntity
  8
LC-001-100-D00-0
 62
     7
370
    50
100
AcDbLine
 10
-564.243892
 20
495.608523
 30
0.0
 11
-564.95003
 21
495.797734
 31
0.0
  0
LINE
  5
36F
330
1F
100
AcDbEntity
  8
LC-001-100-D00-0
 62
     7
370
    50
100
AcDbLine
 10
-564.243892
 20
495.608523
 30
0.0
 11
-564.243892
 21
493.608524
 31
0.0
  0
LINE
  5
370
330
1F
100
AcDbEntity
  8
LC-001-100-D00-0
 62
     7
370
    50
100
AcDbLine
 10
-567.194738
 20
494.608523
 30
0.0
 11
-566.194738
 21
493.608523
 31
0.0
  0
LINE
  5
371
330
1F
100
AcDbEntity
  8
LC-001-100-D00-0
 62
     7
370
    50
100
AcDbLine
 10
-567.194738
 20
494.608523
 30
0.0
 11
-567.194739
 21
500.608523
 31
0.0
  0
LINE
  5
372
330
1F
100
AcDbEntity
  8
LC-001-100-D00-0
 62
     7
370
    50
100
AcDbLine
 10
-566.194752
 20
501.608523
 30
0.0
 11
-567.194739
 21
500.608523
 31
0.0
  0
LINE
  5
373
330
1F
100
AcDbEntity
  8
LC-001-100-D00-0
 62
     7
370
    50
100
AcDbLine
 10
-564.243892
 20
501.608523
 30
0.0
 11
-564.243892
 21
499.608523
 31
0.0
  0
LINE
  5
374
330
1F
100
AcDbEntity
  8
LC-001-100-D00-0
 62
     7
370
    50
100
AcDbLine
 10
-564.95003
 20
499.419313
 30
0.0
 11
-564.243892
 21
499.608523
 31
0.0
  0
ARC
  5
375
330
1F
100
AcDbEntity
  8
LC-001-100-D00-0
 62
     7
370
    50
100
AcDbCircle
 10
-564.794738
 20
498.839757
 30
0.0
 40
0.600000000000118
100
AcDbArc
 50
105.0
 51
180.0
  0
LINE
  5
376
330
1F
100
AcDbEntity
  8
LC-001-100-D00-0
 62
     7
370
    50
100
AcDbLine
 10
-566.194738
 20
493.608523
 30
0.0
 11
-564.243892
 21
493.608524
 31
0.0
  0
LINE
  5
377
330
1F
100
AcDbEntity
  8
LC-001-100-D00-0
 62
     7
370
    50
100
AcDbLine
 10
-566.194752
 20
501.608523
 30
0.0
 11
-564.243892
 21
501.608523
 31
0.0
  0
LINE
  5
378
330
1F
100
AcDbEntity
  8
LC-001-100-D00-0
 62
     7
370
    50
100
AcDbLine
 10
-573.994738
 20
494.608523
 30
0.0
 11
-573.836899
 21
494.608523
 31
0.0
  0
LINE
  5
379
330
1F
100
AcDbEntity
  8
LC-001-100-D00-0
 62
     7
370
    50
100
AcDbLine
 10
-567.352578
 20
494.608523
 30
0.0
 11
-567.194738
 21
494.608523
 31
0.0
  0
LINE
  5
37A
330
1F
100
AcDbEntity
  8
LC-001-100-D00-0
 62
     7
370
    50
100
AcDbLine
 10
-566.194738
 20
493.608523
 30
0.0
 11
-566.73052
 21
493.608523
 31
0.0
  0
LINE
  5
37B
330
1F
100
AcDbEntity
  8
LC-001-100-D00-0
 62
     7
370
    50
100
AcDbLine
 10
-574.458957
 20
493.608523
 30
0.0
 11
-574.994738
 21
493.608523
 31
0.0
  0
LINE
  5
37C
330
1F
100
AcDbEntity
  8
LC-001-100-D00-0
 62
     7
370
    50
100
AcDbLine
 10
-564.243892
 20
501.608523
 30
0.0
 11
-566.694746
 21
501.608523
 31
0.0
  0
LINE
  5
37D
330
1F
100
AcDbEntity
  8
LC-001-100-D00-0
 62
     7
370
    50
100
AcDbLine
 10
-566.694746
 20
501.608523
 30
0.0
 11
-566.694738
 21
512.608523
 31
0.0
  0
LINE
  5
37E
330
1F
100
AcDbEntity
  8
LC-001-100-D00-0
 62
     7
370
    50
100
AcDbLine
 10
-566.694738
 20
512.608523
 30
0.0
 11
-553.344738
 21
512.608523
 31
0.0
  0
ARC
  5
37F
330
1F
100
AcDbEntity
  8
LC-001-100-D00-0
 62
     7
370
    50
100
AcDbCircle
 10
-553.344738
 20
511.608523
 30
0.0
 40
1.0
100
AcDbArc
 50
0.0
 51
90.0
  0
LINE
  5
380
330
1F
100
AcDbEntity
  8
LC-001-100-D00-0
 62
     7
370
    50
100
AcDbLine
 10
-552.344738
 20
511.608523
 30
0.0
 11
-552.344749
 21
505.608523
 31
0.0
  0
LINE
  5
381
330
1F
100
AcDbEntity
  8
LC-001-100-D00-0
 62
     7
370
    50
100
AcDbLine
 10
-555.344738
 20
505.608523
 30
0.0
 11
-552.344749
 21
505.608523
 31
0.0
  0
LINE
  5
382
330
1F
100
AcDbEntity
  8
LC-001-100-D00-0
 62
     7
370
    50
100
AcDbLine
 10
-555.344738
 20
505.608523
 30
0.0
 11
-555.34474
 21
509.608523
 31
0.0
  0
LINE
  5
383
330
1F
100
AcDbEntity
  8
LC-001-100-D00-0
 62
     7
370
    50
100
AcDbLine
 10
-559.844738
 20
509.608523
 30
0.0
 11
-555.34474
 21
509.608523
 31
0.0
  0
ARC
  5
384
330
1F
100
AcDbEntity
  8
LC-001-100-D00-0
 62
     7
370
    50
100
AcDbCircle
 10
-559.844738
 20
508.608523
 30
0.0
 40
1.000000000000227
100
AcDbArc
 50
90.0
 51
180.0
  0
LINE
  5
385
330
1F
100
AcDbEntity
  8
LC-001-100-D00-0
 62
     7
370
    50
100
AcDbLine
 10
-560.844738
 20
494.608523
 30
0.0
 11
-560.844738
 21
508.608523
 31
0.0
  0
ARC
  5
386
330
1F
100
AcDbEntity
  8
LC-001-100-D00-0
 62
     7
370
    50
100
AcDbCircle
 10
-561.844738
 20
494.608523
 30
0.0
 40
1.000000000000227
100
AcDbArc
 50
270.0
 51
0.0
  0
LINE
  5
387
330
1F
100
AcDbEntity
  8
LC-001-100-D00-0
 62
     7
370
    50
100
AcDbLine
 10
-561.844738
 20
493.608523
 30
0.0
 11
-564.243892
 21
493.608524
 31
0.0
  0
LINE
  5
388
330
1F
100
AcDbEntity
  8
LC-001-100-D00-0
 62
     7
370
    50
100
AcDbLine
 10
-564.243892
 20
495.608523
 30
0.0
 11
-564.243892
 21
493.608524
 31
0.0
  0
LINE
  5
389
330
1F
100
AcDbEntity
  8
LC-001-100-D00-0
 62
     7
370
    50
100
AcDbLine
 10
-564.894738
 20
495.608523
 30
0.0
 11
-564.243892
 21
495.608523
 31
0.0
  0
ARC
  5
38A
330
1F
100
AcDbEntity
  8
LC-001-100-D00-0
 62
     7
370
    50
100
AcDbCircle
 10
-564.894738
 20
496.108523
 30
0.0
 40
0.5
100
AcDbArc
 50
180.0
 51
270.0
  0
LINE
  5
38B
330
1F
100
AcDbEntity
  8
LC-001-100-D00-0
 62
     7
370
    50
100
AcDbLine
 10
-565.394738
 20
499.108523
 30
0.0
 11
-565.394738
 21
496.108523
 31
0.0
  0
ARC
  5
38C
330
1F
100
AcDbEntity
  8
LC-001-100-D00-0
 62
     7
370
    50
100
AcDbCircle
 10
-564.894738
 20
499.108523
 30
0.0
 40
0.5
100
AcDbArc
 50
90.0
 51
180.0
  0
LINE
  5
38D
330
1F
100
AcDbEntity
  8
LC-001-100-D00-0
 62
     7
370
    50
100
AcDbLine
 10
-564.243892
 20
499.608523
 30
0.0
 11
-564.894738
 21
499.608523
 31
0.0
  0
LINE
  5
38E
330
1F
100
AcDbEntity
  8
LC-001-100-D00-0
 62
     7
370
    50
100
AcDbLine
 10
-564.243892
 20
501.608523
 30
0.0
 11
-564.243892
 21
499.608523
 31
0.0
  0
ARC
  5
38F
330
1F
100
AcDbEntity
  8
LC-001-100-D00-0
 62
     7
370
    50
100
AcDbCircle
 10
-581.344738
 20
508.608523
 30
0.0
 40
1.000000000000227
100
AcDbArc
 50
0.0
 51
90.0
  0
ARC
  5
390
330
1F
100
AcDbEntity
  8
LC-001-100-D00-0
 62
     7
370
    50
100
AcDbCircle
 10
-579.344738
 20
494.608523
 30
0.0
 40
1.000000000000227
100
AcDbArc
 50
180.0
 51
270.0
  0
LINE
  5
391
330
1F
100
AcDbEntity
  8
LC-001-100-D00-0
 62
     7
370
    50
100
AcDbLine
 10
-580.344738
 20
508.608523
 30
0.0
 11
-580.344738
 21
494.608523
 31
0.0
  0
LINE
  5
392
330
1F
100
AcDbEntity
  8
LC-001-100-D00-0
 62
     7
370
    50
100
AcDbLine
 10
-575.794738
 20
496.108523
 30
0.0
 11
-575.794738
 21
499.108523
 31
0.0
  0
LINE
  5
393
330
1F
100
AcDbEntity
  8
LC-001-100-D00-0
 62
     7
370
    50
100
AcDbLine
 10
-574.494738
 20
512.608523
 30
0.0
 11
-574.494729
 21
501.608523
 31
0.0
  0
LINE
  5
394
330
1F
100
AcDbEntity
  8
LC-001-100-D00-0
 62
     7
370
    50
100
AcDbLine
 10
-574.494738
 20
512.608523
 30
0.0
 11
-566.694738
 21
512.608523
 31
0.0
  0
LINE
  5
395
330
1F
100
AcDbEntity
  8
LC-001-100-D00-0
 62
     7
370
    50
100
AcDbLine
 10
-576.945582
 20
501.608523
 30
0.0
 11
-576.945582
 21
499.608523
 31
0.0
  0
LINE
  5
396
330
1F
100
AcDbEntity
  8
LC-001-100-D00-0
 62
     7
370
    50
100
AcDbLine
 10
-576.945582
 20
495.608523
 30
0.0
 11
-576.945582
 21
493.608524
 31
0.0
  0
ARC
  5
397
330
1F
100
AcDbEntity
  8
LC-001-100-D00-0
 62
     7
370
    50
100
AcDbCircle
 10
-576.294738
 20
496.108523
 30
0.0
 40
0.4999999999997726
100
AcDbArc
 50
270.0
 51
0.0
  0
LINE
  5
398
330
1F
100
AcDbEntity
  8
LC-001-100-D00-0
 62
     7
370
    50
100
AcDbLine
 10
-576.945582
 20
495.608523
 30
0.0
 11
-576.294738
 21
495.608523
 31
0.0
  0
LINE
  5
399
330
1F
100
AcDbEntity
  8
LC-001-100-D00-0
 62
     7
370
    50
100
AcDbLine
 10
-585.844734
 20
509.608523
 30
0.0
 11
-585.844738
 21
505.608523
 31
0.0
  0
LINE
  5
39A
330
1F
100
AcDbEntity
  8
LC-001-100-D00-0
 62
     7
370
    50
100
AcDbLine
 10
-588.844726
 20
505.608523
 30
0.0
 11
-588.844738
 21
511.608523
 31
0.0
  0
ARC
  5
39B
330
1F
100
AcDbEntity
  8
LC-001-100-D00-0
 62
     7
370
    50
100
AcDbCircle
 10
-587.844738
 20
511.608523
 30
0.0
 40
0.9999999999997726
100
AcDbArc
 50
90.0
 51
180.0
  0
LINE
  5
39C
330
1F
100
AcDbEntity
  8
LC-001-100-D00-0
 62
     7
370
    50
100
AcDbLine
 10
-576.294738
 20
499.608523
 30
0.0
 11
-576.945582
 21
499.608523
 31
0.0
  0
ARC
  5
39D
330
1F
100
AcDbEntity
  8
LC-001-100-D00-0
 62
     7
370
    50
100
AcDbCircle
 10
-576.294738
 20
499.108523
 30
0.0
 40
0.4999999999998863
100
AcDbArc
 50
0.0
 51
90.0
  0
LINE
  5
39E
330
1F
100
AcDbEntity
  8
LC-001-100-D00-0
 62
     7
370
    50
100
AcDbLine
 10
-588.844726
 20
505.608523
 30
0.0
 11
-585.844738
 21
505.608523
 31
0.0
  0
LINE
  5
39F
330
1F
100
AcDbEntity
  8
LC-001-100-D00-0
 62
     7
370
    50
100
AcDbLine
 10
-574.494729
 20
501.608523
 30
0.0
 11
-576.945582
 21
501.608523
 31
0.0
  0
LINE
  5
3A0
330
1F
100
AcDbEntity
  8
LC-001-100-D00-0
 62
     7
370
    50
100
AcDbLine
 10
-576.945582
 20
493.608524
 30
0.0
 11
-579.344738
 21
493.608523
 31
0.0
  0
LINE
  5
3A1
330
1F
100
AcDbEntity
  8
LC-001-100-D00-0
 62
     7
370
    50
100
AcDbLine
 10
-585.844734
 20
509.608523
 30
0.0
 11
-581.344738
 21
509.608523
 31
0.0
  0
LINE
  5
3A2
330
1F
100
AcDbEntity
  8
LC-001-100-D00-0
 62
     7
370
    50
100
AcDbLine
 10
-587.844738
 20
512.608523
 30
0.0
 11
-574.494738
 21
512.608523
 31
0.0
  0
LINE
  5
3A3
330
1F
100
AcDbEntity
  8
LC-001-100-D00-0
 62
     7
370
    50
100
AcDbLine
 10
-557.344738
 20
505.608523
 30
0.0
 11
-555.344738
 21
505.608523
 31
0.0
  0
LINE
  5
3A4
330
1F
100
AcDbEntity
  8
LC-001-100-D00-0
 62
     7
370
    50
100
AcDbLine
 10
-585.844738
 20
505.608523
 30
0.0
 11
-583.844738
 21
505.608523
 31
0.0
  0
LINE
  5
3A5
330
1F
100
AcDbEntity
  8
LC-001-100-D00-0
 62
     7
370
    50
100
AcDbLine
 10
-583.844738
 20
505.608523
 30
0.0
 11
-580.344746
 21
505.608523
 31
0.0
  0
LINE
  5
3A6
330
1F
100
AcDbEntity
  8
LC-001-100-D00-0
 62
     7
370
    50
100
AcDbLine
 10
-560.844729
 20
505.608523
 30
0.0
 11
-557.344738
 21
505.608523
 31
0.0
  0
LINE
  5
3A7
330
1F
100
AcDbEntity
  8
LC-001-100-D00-0
 62
     7
370
    50
100
AcDbLine
 10
181.00526
 20
500.608523
 30
0.0
 11
180.005273
 21
501.608523
 31
0.0
  0
LINE
  5
3A8
330
1F
100
AcDbEntity
  8
LC-001-100-D00-0
 62
     7
370
    50
100
AcDbLine
 10
181.00526
 20
500.608523
 30
0.0
 11
181.005262
 21
494.608523
 31
0.0
  0
LINE
  5
3A9
330
1F
100
AcDbEntity
  8
LC-001-100-D00-0
 62
     7
370
    50
100
AcDbLine
 10
180.005262
 20
493.608523
 30
0.0
 11
181.005262
 21
494.608523
 31
0.0
  0
LINE
  5
3AA
330
1F
100
AcDbEntity
  8
LC-001-100-D00-0
 62
     7
370
    50
100
AcDbLine
 10
178.054413
 20
495.608523
 30
0.0
 11
178.054413
 21
493.608524
 31
0.0
  0
LINE
  5
3AB
330
1F
100
AcDbEntity
  8
LC-001-100-D00-0
 62
     7
370
    50
100
AcDbLine
 10
178.760553
 20
495.797734
 30
0.0
 11
178.054413
 21
495.608523
 31
0.0
  0
ARC
  5
3AC
330
1F
100
AcDbEntity
  8
LC-001-100-D00-0
 62
     7
370
    50
100
AcDbCircle
 10
178.605262
 20
496.37729
 30
0.0
 40
0.5999999999998983
100
AcDbArc
 50
285.0
 51
0.0
  0
LINE
  5
3AD
330
1F
100
AcDbEntity
  8
LC-001-100-D00-0
 62
     7
370
    50
100
AcDbLine
 10
179.205262
 20
498.839757
 30
0.0
 11
179.205262
 21
496.37729
 31
0.0
  0
ARC
  5
3AE
330
1F
100
AcDbEntity
  8
LC-001-100-D00-0
 62
     7
370
    50
100
AcDbCircle
 10
178.605262
 20
498.839757
 30
0.0
 40
0.6000000000002501
100
AcDbArc
 50
0.0
 51
75.0
  0
LINE
  5
3AF
330
1F
100
AcDbEntity
  8
LC-001-100-D00-0
 62
     7
370
    50
100
AcDbLine
 10
178.054413
 20
499.608523
 30
0.0
 11
178.760553
 21
499.419313
 31
0.0
  0
LINE
  5
3B0
330
1F
100
AcDbEntity
  8
LC-001-100-D00-0
 62
     7
370
    50
100
AcDbLine
 10
178.054413
 20
501.608523
 30
0.0
 11
178.054413
 21
499.608523
 31
0.0
  0
LINE
  5
3B1
330
1F
100
AcDbEntity
  8
LC-001-100-D00-0
 62
     7
370
    50
100
AcDbLine
 10
178.054413
 20
493.608524
 30
0.0
 11
180.005262
 21
493.608523
 31
0.0
  0
LINE
  5
3B2
330
1F
100
AcDbEntity
  8
LC-001-100-D00-0
 62
     7
370
    50
100
AcDbLine
 10
178.054413
 20
501.608523
 30
0.0
 11
180.005273
 21
501.608523
 31
0.0
  0
LINE
  5
3B3
330
1F
100
AcDbEntity
  8
LC-001-100-D00-0
 62
     7
370
    50
100
AcDbLine
 10
189.605262
 20
496.37729
 30
0.0
 11
189.605262
 21
498.839757
 31
0.0
  0
ARC
  5
3B4
330
1F
100
AcDbEntity
  8
LC-001-100-D00-0
 62
     7
370
    50
100
AcDbCircle
 10
190.205262
 20
496.37729
 30
0.0
 40
0.6000000000002501
100
AcDbArc
 50
180.0
 51
255.0
  0
LINE
  5
3B5
330
1F
100
AcDbEntity
  8
LC-001-100-D00-0
 62
     7
370
    50
100
AcDbLine
 10
190.756103
 20
495.608523
 30
0.0
 11
190.04997
 21
495.797734
 31
0.0
  0
LINE
  5
3B6
330
1F
100
AcDbEntity
  8
LC-001-100-D00-0
 62
     7
370
    50
100
AcDbLine
 10
190.756103
 20
495.608523
 30
0.0
 11
190.756103
 21
493.608524
 31
0.0
  0
LINE
  5
3B7
330
1F
100
AcDbEntity
  8
LC-001-100-D00-0
 62
     7
370
    50
100
AcDbLine
 10
187.805262
 20
494.608523
 30
0.0
 11
188.805262
 21
493.608523
 31
0.0
  0
LINE
  5
3B8
330
1F
100
AcDbEntity
  8
LC-001-100-D00-0
 62
     7
370
    50
100
AcDbLine
 10
187.805262
 20
494.608523
 30
0.0
 11
187.805256
 21
500.608523
 31
0.0
  0
LINE
  5
3B9
330
1F
100
AcDbEntity
  8
LC-001-100-D00-0
 62
     7
370
    50
100
AcDbLine
 10
188.805273
 20
501.608523
 30
0.0
 11
187.805256
 21
500.608523
 31
0.0
  0
LINE
  5
3BA
330
1F
100
AcDbEntity
  8
LC-001-100-D00-0
 62
     7
370
    50
100
AcDbLine
 10
190.756103
 20
501.608523
 30
0.0
 11
190.756103
 21
499.608523
 31
0.0
  0
LINE
  5
3BB
330
1F
100
AcDbEntity
  8
LC-001-100-D00-0
 62
     7
370
    50
100
AcDbLine
 10
190.04997
 20
499.419313
 30
0.0
 11
190.756103
 21
499.608523
 31
0.0
  0
ARC
  5
3BC
330
1F
100
AcDbEntity
  8
LC-001-100-D00-0
 62
     7
370
    50
100
AcDbCircle
 10
190.205262
 20
498.839757
 30
0.0
 40
0.6000000000001474
100
AcDbArc
 50
105.0
 51
180.0
  0
LINE
  5
3BD
330
1F
100
AcDbEntity
  8
LC-001-100-D00-0
 62
     7
370
    50
100
AcDbLine
 10
188.805262
 20
493.608523
 30
0.0
 11
190.756103
 21
493.608524
 31
0.0
  0
LINE
  5
3BE
330
1F
100
AcDbEntity
  8
LC-001-100-D00-0
 62
     7
370
    50
100
AcDbLine
 10
188.805273
 20
501.608523
 30
0.0
 11
190.756103
 21
501.608523
 31
0.0
  0
LINE
  5
3BF
330
1F
100
AcDbEntity
  8
LC-001-100-D00-0
 62
     7
370
    50
100
AcDbLine
 10
181.005262
 20
494.608523
 30
0.0
 11
181.163101
 21
494.608523
 31
0.0
  0
LINE
  5
3C0
330
1F
100
AcDbEntity
  8
LC-001-100-D00-0
 62
     7
370
    50
100
AcDbLine
 10
187.647422
 20
494.608523
 30
0.0
 11
187.805262
 21
494.608523
 31
0.0
  0
LINE
  5
3C1
330
1F
100
AcDbEntity
  8
LC-001-100-D00-0
 62
     7
370
    50
100
AcDbLine
 10
188.805262
 20
493.608523
 30
0.0
 11
188.26948
 21
493.608523
 31
0.0
  0
LINE
  5
3C2
330
1F
100
AcDbEntity
  8
LC-001-100-D00-0
 62
     7
370
    50
100
AcDbLine
 10
180.541043
 20
493.608523
 30
0.0
 11
180.005262
 21
493.608523
 31
0.0
  0
LINE
  5
3C3
330
1F
100
AcDbEntity
  8
LC-001-100-D00-0
 62
     7
370
    50
100
AcDbLine
 10
190.756103
 20
501.608523
 30
0.0
 11
188.30525
 21
501.608523
 31
0.0
  0
LINE
  5
3C4
330
1F
100
AcDbEntity
  8
LC-001-100-D00-0
 62
     7
370
    50
100
AcDbLine
 10
188.30525
 20
501.608523
 30
0.0
 11
188.305262
 21
512.608523
 31
0.0
  0
LINE
  5
3C5
330
1F
100
AcDbEntity
  8
LC-001-100-D00-0
 62
     7
370
    50
100
AcDbLine
 10
188.305262
 20
512.608523
 30
0.0
 11
201.655262
 21
512.608523
 31
0.0
  0
ARC
  5
3C6
330
1F
100
AcDbEntity
  8
LC-001-100-D00-0
 62
     7
370
    50
100
AcDbCircle
 10
201.655262
 20
511.608523
 30
0.0
 40
1.000000000000114
100
AcDbArc
 50
0.0
 51
90.0
  0
LINE
  5
3C7
330
1F
100
AcDbEntity
  8
LC-001-100-D00-0
 62
     7
370
    50
100
AcDbLine
 10
202.655262
 20
511.608523
 30
0.0
 11
202.655276
 21
505.608523
 31
0.0
  0
LINE
  5
3C8
330
1F
100
AcDbEntity
  8
LC-001-100-D00-0
 62
     7
370
    50
100
AcDbLine
 10
199.655262
 20
505.608523
 30
0.0
 11
202.655276
 21
505.608523
 31
0.0
  0
LINE
  5
3C9
330
1F
100
AcDbEntity
  8
LC-001-100-D00-0
 62
     7
370
    50
100
AcDbLine
 10
199.655262
 20
505.608523
 30
0.0
 11
199.655256
 21
509.608523
 31
0.0
  0
LINE
  5
3CA
330
1F
100
AcDbEntity
  8
LC-001-100-D00-0
 62
     7
370
    50
100
AcDbLine
 10
195.155262
 20
509.608523
 30
0.0
 11
199.655256
 21
509.608523
 31
0.0
  0
ARC
  5
3CB
330
1F
100
AcDbEntity
  8
LC-001-100-D00-0
 62
     7
370
    50
100
AcDbCircle
 10
195.155262
 20
508.608523
 30
0.0
 40
1.000000000000227
100
AcDbArc
 50
90.0
 51
180.0
  0
LINE
  5
3CC
330
1F
100
AcDbEntity
  8
LC-001-100-D00-0
 62
     7
370
    50
100
AcDbLine
 10
194.155262
 20
494.608523
 30
0.0
 11
194.155262
 21
508.608523
 31
0.0
  0
ARC
  5
3CD
330
1F
100
AcDbEntity
  8
LC-001-100-D00-0
 62
     7
370
    50
100
AcDbCircle
 10
193.155262
 20
494.608523
 30
0.0
 40
1.000000000000227
100
AcDbArc
 50
270.0
 51
0.0
  0
LINE
  5
3CE
330
1F
100
AcDbEntity
  8
LC-001-100-D00-0
 62
     7
370
    50
100
AcDbLine
 10
193.155262
 20
493.608523
 30
0.0
 11
190.756103
 21
493.608524
 31
0.0
  0
LINE
  5
3CF
330
1F
100
AcDbEntity
  8
LC-001-100-D00-0
 62
     7
370
    50
100
AcDbLine
 10
190.756103
 20
495.608523
 30
0.0
 11
190.756103
 21
493.608524
 31
0.0
  0
LINE
  5
3D0
330
1F
100
AcDbEntity
  8
LC-001-100-D00-0
 62
     7
370
    50
100
AcDbLine
 10
190.105262
 20
495.608523
 30
0.0
 11
190.756103
 21
495.608523
 31
0.0
  0
ARC
  5
3D1
330
1F
100
AcDbEntity
  8
LC-001-100-D00-0
 62
     7
370
    50
100
AcDbCircle
 10
190.105262
 20
496.108523
 30
0.0
 40
0.5000000000001137
100
AcDbArc
 50
180.0
 51
270.0
  0
LINE
  5
3D2
330
1F
100
AcDbEntity
  8
LC-001-100-D00-0
 62
     7
370
    50
100
AcDbLine
 10
189.605262
 20
499.108523
 30
0.0
 11
189.605262
 21
496.108523
 31
0.0
  0
ARC
  5
3D3
330
1F
100
AcDbEntity
  8
LC-001-100-D00-0
 62
     7
370
    50
100
AcDbCircle
 10
190.105262
 20
499.108523
 30
0.0
 40
0.5
100
AcDbArc
 50
90.0
 51
180.0
  0
LINE
  5
3D4
330
1F
100
AcDbEntity
  8
LC-001-100-D00-0
 62
     7
370
    50
100
AcDbLine
 10
190.756103
 20
499.608523
 30
0.0
 11
190.105262
 21
499.608523
 31
0.0
  0
LINE
  5
3D5
330
1F
100
AcDbEntity
  8
LC-001-100-D00-0
 62
     7
370
    50
100
AcDbLine
 10
190.756103
 20
501.608523
 30
0.0
 11
190.756103
 21
499.608523
 31
0.0
  0
ARC
  5
3D6
330
1F
100
AcDbEntity
  8
LC-001-100-D00-0
 62
     7
370
    50
100
AcDbCircle
 10
173.655262
 20
508.608523
 30
0.0
 40
1.000000000000227
100
AcDbArc
 50
0.0
 51
90.0
  0
LINE
  5
3D7
330
1F
100
AcDbEntity
  8
LC-001-100-D00-0
 62
     7
370
    50
100
AcDbLine
 10
174.655262
 20
508.608523
 30
0.0
 11
174.655262
 21
494.608523
 31
0.0
  0
ARC
  5
3D8
330
1F
100
AcDbEntity
  8
LC-001-100-D00-0
 62
     7
370
    50
100
AcDbCircle
 10
175.655262
 20
494.608523
 30
0.0
 40
1.000000000000227
100
AcDbArc
 50
180.0
 51
270.0
  0
LINE
  5
3D9
330
1F
100
AcDbEntity
  8
LC-001-100-D00-0
 62
     7
370
    50
100
AcDbLine
 10
179.205262
 20
496.108523
 30
0.0
 11
179.205262
 21
499.108523
 31
0.0
  0
LINE
  5
3DA
330
1F
100
AcDbEntity
  8
LC-001-100-D00-0
 62
     7
370
    50
100
AcDbLine
 10
180.505262
 20
512.608523
 30
0.0
 11
180.505267
 21
501.608523
 31
0.0
  0
LINE
  5
3DB
330
1F
100
AcDbEntity
  8
LC-001-100-D00-0
 62
     7
370
    50
100
AcDbLine
 10
180.505262
 20
512.608523
 30
0.0
 11
188.305262
 21
512.608523
 31
0.0
  0
LINE
  5
3DC
330
1F
100
AcDbEntity
  8
LC-001-100-D00-0
 62
     7
370
    50
100
AcDbLine
 10
178.054413
 20
501.608523
 30
0.0
 11
178.054413
 21
499.608523
 31
0.0
  0
LINE
  5
3DD
330
1F
100
AcDbEntity
  8
LC-001-100-D00-0
 62
     7
370
    50
100
AcDbLine
 10
178.054413
 20
495.608523
 30
0.0
 11
178.054413
 21
493.608524
 31
0.0
  0
ARC
  5
3DE
330
1F
100
AcDbEntity
  8
LC-001-100-D00-0
 62
     7
370
    50
100
AcDbCircle
 10
178.705262
 20
496.108523
 30
0.0
 40
0.4999999999997726
100
AcDbArc
 50
270.0
 51
0.0
  0
LINE
  5
3DF
330
1F
100
AcDbEntity
  8
LC-001-100-D00-0
 62
     7
370
    50
100
AcDbLine
 10
178.054413
 20
495.608523
 30
0.0
 11
178.705262
 21
495.608523
 31
0.0
  0
LINE
  5
3E0
330
1F
100
AcDbEntity
  8
LC-001-100-D00-0
 62
     7
370
    50
100
AcDbLine
 10
169.155261
 20
509.608523
 30
0.0
 11
169.155262
 21
505.608523
 31
0.0
  0
LINE
  5
3E1
330
1F
100
AcDbEntity
  8
LC-001-100-D00-0
 62
     7
370
    50
100
AcDbLine
 10
166.15527
 20
505.608523
 30
0.0
 11
166.155262
 21
511.608523
 31
0.0
  0
ARC
  5
3E2
330
1F
100
AcDbEntity
  8
LC-001-100-D00-0
 62
     7
370
    50
100
AcDbCircle
 10
167.155262
 20
511.608523
 30
0.0
 40
1.0
100
AcDbArc
 50
90.0
 51
180.0
  0
LINE
  5
3E3
330
1F
100
AcDbEntity
  8
LC-001-100-D00-0
 62
     7
370
    50
100
AcDbLine
 10
178.705262
 20
499.608523
 30
0.0
 11
178.054413
 21
499.608523
 31
0.0
  0
ARC
  5
3E4
330
1F
100
AcDbEntity
  8
LC-001-100-D00-0
 62
     7
370
    50
100
AcDbCircle
 10
178.705262
 20
499.108523
 30
0.0
 40
0.5
100
AcDbArc
 50
0.0
 51
90.0
  0
LINE
  5
3E5
330
1F
100
AcDbEntity
  8
LC-001-100-D00-0
 62
     7
370
    50
100
AcDbLine
 10
180.505267
 20
501.608523
 30
0.0
 11
178.054413
 21
501.608523
 31
0.0
  0
LINE
  5
3E6
330
1F
100
AcDbEntity
  8
LC-001-100-D00-0
 62
     7
370
    50
100
AcDbLine
 10
178.054413
 20
493.608524
 30
0.0
 11
175.655262
 21
493.608523
 31
0.0
  0
LINE
  5
3E7
330
1F
100
AcDbEntity
  8
LC-001-100-D00-0
 62
     7
370
    50
100
AcDbLine
 10
169.155261
 20
509.608523
 30
0.0
 11
173.655262
 21
509.608523
 31
0.0
  0
LINE
  5
3E8
330
1F
100
AcDbEntity
  8
LC-001-100-D00-0
 62
     7
370
    50
100
AcDbLine
 10
166.15527
 20
505.608523
 30
0.0
 11
169.155262
 21
505.608523
 31
0.0
  0
LINE
  5
3E9
330
1F
100
AcDbEntity
  8
LC-001-100-D00-0
 62
     7
370
    50
100
AcDbLine
 10
167.155262
 20
512.608523
 30
0.0
 11
180.505262
 21
512.608523
 31
0.0
  0
LINE
  5
3EA
330
1F
100
AcDbEntity
  8
LC-001-100-D00-0
 62
     7
370
    50
100
AcDbLine
 10
197.655262
 20
505.608523
 30
0.0
 11
199.655262
 21
505.608523
 31
0.0
  0
LINE
  5
3EB
330
1F
100
AcDbEntity
  8
LC-001-100-D00-0
 62
     7
370
    50
100
AcDbLine
 10
169.155262
 20
505.608523
 30
0.0
 11
171.155262
 21
505.608523
 31
0.0
  0
LINE
  5
3EC
330
1F
100
AcDbEntity
  8
LC-001-100-D00-0
 62
     7
370
    50
100
AcDbLine
 10
171.155262
 20
505.608523
 30
0.0
 11
174.65525
 21
505.608523
 31
0.0
  0
LINE
  5
3ED
330
1F
100
AcDbEntity
  8
LC-001-100-D00-0
 62
     7
370
    50
100
AcDbLine
 10
194.155267
 20
505.608523
 30
0.0
 11
197.655262
 21
505.608523
 31
0.0
  0
LINE
  5
3EE
330
1F
100
AcDbEntity
  8
LC-001-100-D00-0
 62
     7
370
    50
100
AcDbLine
 10
-44.966602
 20
481.85922
 30
0.0
 11
-41.959817
 21
482.527395
 31
0.0
  0
ARC
  5
3EF
330
1F
100
AcDbEntity
  8
LC-001-100-D00-0
 62
     7
370
    50
100
AcDbCircle
 10
-45.031681
 20
482.152076
 30
0.0
 40
0.2999999999999266
100
AcDbArc
 50
131.633539
 51
282.528808
  0
LINE
  5
3F0
330
1F
100
AcDbEntity
  8
LC-001-100-D00-0
 62
     7
370
    50
100
AcDbLine
 10
-41.878903
 20
485.355933
 30
0.0
 11
-45.23099
 21
482.376299
 31
0.0
  0
ARC
  5
3F1
330
1F
100
AcDbEntity
  8
LC-001-100-D00-0
 62
     7
370
    50
100
AcDbCircle
 10
-41.214539
 20
484.608523
 30
0.0
 40
1.0
100
AcDbArc
 50
90.0
 51
131.633539
  0
LINE
  5
3F2
330
1F
100
AcDbEntity
  8
LC-001-100-D00-0
 62
     7
370
    50
100
AcDbLine
 10
-35.594741
 20
485.608523
 30
0.0
 11
-35.594741
 21
481.608524
 31
0.0
  0
LINE
  5
3F3
330
1F
100
AcDbEntity
  8
LC-001-100-D00-0
 62
     7
370
    50
100
AcDbLine
 10
-41.594738
 20
482.234539
 30
0.0
 11
-41.594738
 21
481.608523
 31
0.0
  0
ARC
  5
3F4
330
1F
100
AcDbEntity
  8
LC-001-100-D00-0
 62
     7
370
    50
100
AcDbCircle
 10
-41.894738
 20
482.234539
 30
0.0
 40
0.3000000000002956
100
AcDbArc
 50
0.0
 51
102.528808
  0
LINE
  5
3F5
330
1F
100
AcDbEntity
  8
LC-001-100-D00-0
 62
     7
370
    50
100
AcDbLine
 10
-35.594741
 20
481.608524
 30
0.0
 11
-41.594738
 21
481.608523
 31
0.0
  0
LINE
  5
3F6
330
1F
100
AcDbEntity
  8
LC-001-100-D00-0
 62
     7
370
    50
100
AcDbLine
 10
-35.594741
 20
485.608523
 30
0.0
 11
-41.214539
 21
485.608523
 31
0.0
  0
LINE
  5
3F7
330
1F
100
AcDbEntity
  8
LC-001-100-D00-0
 62
     7
370
    50
100
AcDbLine
 10
-41.594738
 20
481.608523
 30
0.0
 11
-43.794738
 21
481.608523
 31
0.0
  0
LINE
  5
3F8
330
1F
100
AcDbEntity
  8
LC-001-100-D00-0
 62
     7
370
    50
100
AcDbLine
 10
-159.594738
 20
481.608523
 30
0.0
 11
-159.594738
 21
482.234539
 31
0.0
  0
LINE
  5
3F9
330
1F
100
AcDbEntity
  8
LC-001-100-D00-0
 62
     7
370
    50
100
AcDbLine
 10
-157.394738
 20
481.608523
 30
0.0
 11
-159.594738
 21
481.608523
 31
0.0
  0
ARC
  5
3FA
330
1F
100
AcDbEntity
  8
LC-001-100-D00-0
 62
     7
370
    50
100
AcDbCircle
 10
-159.294738
 20
482.234539
 30
0.0
 40
0.3000000000001588
100
AcDbArc
 50
77.471192
 51
180.0
  0
LINE
  5
3FB
330
1F
100
AcDbEntity
  8
LC-001-100-D00-0
 62
     7
370
    50
100
AcDbLine
 10
-155.958486
 20
482.376299
 30
0.0
 11
-159.310574
 21
485.355933
 31
0.0
  0
ARC
  5
3FC
330
1F
100
AcDbEntity
  8
LC-001-100-D00-0
 62
     7
370
    50
100
AcDbCircle
 10
-159.974938
 20
484.608523
 30
0.0
 40
0.9999999999998245
100
AcDbArc
 50
48.366461
 51
90.0
  0
LINE
  5
3FD
330
1F
100
AcDbEntity
  8
LC-001-100-D00-0
 62
     7
370
    50
100
AcDbLine
 10
-159.229659
 20
482.527395
 30
0.0
 11
-156.222874
 21
481.85922
 31
0.0
  0
ARC
  5
3FE
330
1F
100
AcDbEntity
  8
LC-001-100-D00-0
 62
     7
370
    50
100
AcDbCircle
 10
-156.157795
 20
482.152076
 30
0.0
 40
0.2999999999998135
100
AcDbArc
 50
257.471192
 51
48.366461
  0
LINE
  5
3FF
330
1F
100
AcDbEntity
  8
LC-001-100-D00-0
 62
     7
370
    50
100
AcDbLine
 10
-165.594736
 20
481.608524
 30
0.0
 11
-165.594736
 21
485.608523
 31
0.0
  0
LINE
  5
400
330
1F
100
AcDbEntity
  8
LC-001-100-D00-0
 62
     7
370
    50
100
AcDbLine
 10
-159.594738
 20
481.608523
 30
0.0
 11
-165.594736
 21
481.608524
 31
0.0
  0
LINE
  5
401
330
1F
100
AcDbEntity
  8
LC-001-100-D00-0
 62
     7
370
    50
100
AcDbLine
 10
-159.974938
 20
485.608523
 30
0.0
 11
-165.594736
 21
485.608523
 31
0.0
  0
LINE
  5
402
330
1F
100
AcDbEntity
  8
LC-001-100-D00-0
 62
     7
370
    50
100
AcDbLine
 10
-26.594737
 20
485.608523
 30
0.0
 11
-26.594737
 21
481.858523
 31
0.0
  0
LINE
  5
403
330
1F
100
AcDbEntity
  8
LC-001-100-D00-0
 62
     7
370
    50
100
AcDbLine
 10
-29.594736
 20
482.608524
 30
0.0
 11
-29.594738
 21
481.858523
 31
0.0
  0
LINE
  5
404
330
1F
100
AcDbEntity
  8
LC-001-100-D00-0
 62
     7
370
    50
100
AcDbLine
 10
-32.594735
 20
482.608524
 30
0.0
 11
-32.594735
 21
478.608522
 31
0.0
  0
LINE
  5
405
330
1F
100
AcDbEntity
  8
LC-001-100-D00-0
 62
     7
370
    50
100
AcDbLine
 10
-38.594738
 20
478.608523
 30
0.0
 11
-32.594735
 21
478.608522
 31
0.0
  0
LINE
  5
406
330
1F
100
AcDbEntity
  8
LC-001-100-D00-0
 62
     7
370
    50
100
AcDbLine
 10
-38.594739
 20
481.608524
 30
0.0
 11
-38.594738
 21
478.608523
 31
0.0
  0
LINE
  5
407
330
1F
100
AcDbEntity
  8
LC-001-100-D00-0
 62
     7
370
    50
100
AcDbLine
 10
-35.594741
 20
481.608524
 30
0.0
 11
-38.594739
 21
481.608524
 31
0.0
  0
LINE
  5
408
330
1F
100
AcDbEntity
  8
LC-001-100-D00-0
 62
     7
370
    50
100
AcDbLine
 10
-35.594741
 20
481.608524
 30
0.0
 11
-35.594741
 21
485.608523
 31
0.0
  0
LINE
  5
409
330
1F
100
AcDbEntity
  8
LC-001-100-D00-0
 62
     7
370
    50
100
AcDbLine
 10
-32.594735
 20
482.608524
 30
0.0
 11
-29.594736
 21
482.608524
 31
0.0
  0
LINE
  5
40A
330
1F
100
AcDbEntity
  8
LC-001-100-D00-0
 62
     7
370
    50
100
AcDbLine
 10
-29.594738
 20
481.858523
 30
0.0
 11
-26.594737
 21
481.858523
 31
0.0
  0
LINE
  5
40B
330
1F
100
AcDbEntity
  8
LC-001-100-D00-0
 62
     7
370
    50
100
AcDbLine
 10
-26.594737
 20
485.608523
 30
0.0
 11
-35.594741
 21
485.608523
 31
0.0
  0
LINE
  5
40C
330
1F
100
AcDbEntity
  8
LC-001-100-D00-0
 62
     7
370
    50
100
AcDbLine
 10
-32.594738
 20
481.858523
 30
0.0
 11
-29.594738
 21
481.858523
 31
0.0
  0
LINE
  5
40D
330
1F
100
AcDbEntity
  8
LC-001-100-D00-0
 62
     7
370
    50
100
AcDbLine
 10
-45.494738
 20
478.608523
 30
0.0
 11
-38.594738
 21
478.608523
 31
0.0
  0
LINE
  5
40E
330
1F
100
AcDbEntity
  8
LC-001-100-D00-0
 62
     7
370
    50
100
AcDbLine
 10
-162.594738
 20
478.608523
 30
0.0
 11
-162.594737
 21
481.608524
 31
0.0
  0
LINE
  5
40F
330
1F
100
AcDbEntity
  8
LC-001-100-D00-0
 62
     7
370
    50
100
AcDbLine
 10
-162.594738
 20
478.608523
 30
0.0
 11
-155.694738
 21
478.608523
 31
0.0
  0
LINE
  5
410
330
1F
100
AcDbEntity
  8
LC-001-100-D00-0
 62
     7
370
    50
100
AcDbLine
 10
-165.594736
 20
485.608523
 30
0.0
 11
-165.594736
 21
481.608524
 31
0.0
  0
LINE
  5
411
330
1F
100
AcDbEntity
  8
LC-001-100-D00-0
 62
     7
370
    50
100
AcDbLine
 10
-168.594742
 20
478.608522
 30
0.0
 11
-168.594742
 21
482.608524
 31
0.0
  0
LINE
  5
412
330
1F
100
AcDbEntity
  8
LC-001-100-D00-0
 62
     7
370
    50
100
AcDbLine
 10
-171.594738
 20
481.858523
 30
0.0
 11
-171.594741
 21
482.608524
 31
0.0
  0
LINE
  5
413
330
1F
100
AcDbEntity
  8
LC-001-100-D00-0
 62
     7
370
    50
100
AcDbLine
 10
-171.594738
 20
481.858523
 30
0.0
 11
-168.594738
 21
481.858523
 31
0.0
  0
LINE
  5
414
330
1F
100
AcDbEntity
  8
LC-001-100-D00-0
 62
     7
370
    50
100
AcDbLine
 10
-174.594739
 20
481.858523
 30
0.0
 11
-174.594739
 21
485.608523
 31
0.0
  0
LINE
  5
415
330
1F
100
AcDbEntity
  8
LC-001-100-D00-0
 62
     7
370
    50
100
AcDbLine
 10
-162.594737
 20
481.608524
 30
0.0
 11
-165.594736
 21
481.608524
 31
0.0
  0
LINE
  5
416
330
1F
100
AcDbEntity
  8
LC-001-100-D00-0
 62
     7
370
    50
100
AcDbLine
 10
-168.594742
 20
478.608522
 30
0.0
 11
-162.594738
 21
478.608523
 31
0.0
  0
LINE
  5
417
330
1F
100
AcDbEntity
  8
LC-001-100-D00-0
 62
     7
370
    50
100
AcDbLine
 10
-171.594741
 20
482.608524
 30
0.0
 11
-168.594742
 21
482.608524
 31
0.0
  0
LINE
  5
418
330
1F
100
AcDbEntity
  8
LC-001-100-D00-0
 62
     7
370
    50
100
AcDbLine
 10
-174.594739
 20
481.858523
 30
0.0
 11
-171.594738
 21
481.858523
 31
0.0
  0
LINE
  5
419
330
1F
100
AcDbEntity
  8
LC-001-100-D00-0
 62
     7
370
    50
100
AcDbLine
 10
-165.594736
 20
485.608523
 30
0.0
 11
-174.594739
 21
485.608523
 31
0.0
  0
LINE
  5
41A
330
1F
100
AcDbEntity
  8
LC-001-100-D00-0
 62
     7
370
    50
100
AcDbLine
 10
-26.594737
 20
481.108523
 30
0.0
 11
-15.594737
 21
481.108523
 31
0.0
  0
LINE
  5
41B
330
1F
100
AcDbEntity
  8
LC-001-100-D00-0
 62
     7
370
    50
100
AcDbLine
 10
-15.594737
 20
429.108526
 30
0.0
 11
-26.594737
 21
429.108526
 31
0.0
  0
LINE
  5
41C
330
1F
100
AcDbEntity
  8
LC-001-100-D00-0
 62
     7
370
    50
100
AcDbLine
 10
-26.594737
 20
481.858523
 30
0.0
 11
-26.594737
 21
481.108523
 31
0.0
  0
INSERT
  5
42D
330
1F
100
AcDbEntity
  8
LC-001-100-D00-0
 62
     7
370
    50
100
AcDbBlockReference
  2
KLON15
 10
0.0
 20
0.0
 30
0.0
  0
INSERT
  5
441
330
1F
100
AcDbEntity
  8
LC-001-100-D00-0
 62
     7
370
    50
100
AcDbBlockReference
  2
KLON16
 10
0.0
 20
0.0
 30
0.0
  0
LINE
  5
442
330
1F
100
AcDbEntity
  8
LC-001-100-D00-0
 62
     7
370
    50
100
AcDbLine
 10
-29.594736
 20
478.108524
 30
0.0
 11
12.302448
 21
478.108523
 31
0.0
  0
LINE
  5
443
330
1F
100
AcDbEntity
  8
LC-001-100-D00-0
 62
     7
370
    50
100
AcDbLine
 10
12.302448
 20
432.108523
 30
0.0
 11
12.302448
 21
478.108523
 31
0.0
  0
LINE
  5
444
330
1F
100
AcDbEntity
  8
LC-001-100-D00-0
 62
     7
370
    50
100
AcDbLine
 10
12.302448
 20
432.108523
 30
0.0
 11
-26.594737
 21
432.108524
 31
0.0
  0
INSERT
  5
44A
330
1F
100
AcDbEntity
  8
LC-001-100-D00-0
 62
     7
370
    50
100
AcDbBlockReference
  2
KLON17
 10
0.0
 20
0.0
 30
0.0
  0
LINE
  5
44B
330
1F
100
AcDbEntity
  8
LC-001-100-D00-0
 62
     7
370
    50
100
AcDbLine
 10
-29.594738
 20
481.858523
 30
0.0
 11
-32.594738
 21
481.858523
 31
0.0
  0
LINE
  5
44C
330
1F
100
AcDbEntity
  8
LC-001-100-D00-0
 62
     7
370
    50
100
AcDbLine
 10
-29.594738
 20
481.858523
 30
0.0
 11
-29.594736
 21
478.108524
 31
0.0
  0
LINE
  5
44D
330
1F
100
AcDbEntity
  8
LC-001-100-D00-0
 62
     7
370
    50
100
AcDbLine
 10
-39.594738
 20
429.108523
 30
0.0
 11
-26.594737
 21
429.108526
 31
0.0
  0
ARC
  5
44E
330
1F
100
AcDbEntity
  8
LC-001-100-D00-0
 62
     7
370
    50
100
AcDbCircle
 10
-46.576858
 20
429.608523
 30
0.0
 40
7.0
100
AcDbArc
 50
270.0
 51
355.903956
  0
LINE
  5
44F
330
1F
100
AcDbEntity
  8
LC-001-100-D00-0
 62
     7
370
    50
100
AcDbLine
 10
-46.576858
 20
422.608523
 30
0.0
 11
-154.612618
 21
422.608523
 31
0.0
  0
ARC
  5
450
330
1F
100
AcDbEntity
  8
LC-001-100-D00-0
 62
     7
370
    50
100
AcDbCircle
 10
-154.612618
 20
429.608523
 30
0.0
 40
7.000000000000073
100
AcDbArc
 50
184.096044
 51
270.0
  0
LINE
  5
451
330
1F
100
AcDbEntity
  8
LC-001-100-D00-0
 62
     7
370
    50
100
AcDbLine
 10
-162.094738
 20
429.108523
 30
0.0
 11
-161.594738
 21
429.108523
 31
0.0
  0
ARC
  5
452
330
1F
100
AcDbEntity
  8
LC-001-100-D00-0
 62
     7
370
    50
100
AcDbCircle
 10
-162.094738
 20
441.608523
 30
0.0
 40
12.5
100
AcDbArc
 50
180.0
 51
270.0
  0
LINE
  5
453
330
1F
100
AcDbEntity
  8
LC-001-100-D00-0
 62
     7
370
    50
100
AcDbLine
 10
-174.594738
 20
441.608523
 30
0.0
 11
-174.594739
 21
481.858523
 31
0.0
  0
LINE
  5
454
330
1F
100
AcDbEntity
  8
LC-001-100-D00-0
 62
     7
370
    50
100
AcDbLine
 10
-174.594739
 20
481.858523
 30
0.0
 11
-171.594738
 21
481.858523
 31
0.0
  0
LINE
  5
455
330
1F
100
AcDbEntity
  8
LC-001-100-D00-0
 62
     7
370
    50
100
AcDbLine
 10
-171.594738
 20
441.608523
 30
0.0
 11
-171.594738
 21
481.858523
 31
0.0
  0
ARC
  5
456
330
1F
100
AcDbEntity
  8
LC-001-100-D00-0
 62
     7
370
    50
100
AcDbCircle
 10
-162.094738
 20
441.608523
 30
0.0
 40
9.500000000000227
100
AcDbArc
 50
180.0
 51
270.0
  0
LINE
  5
457
330
1F
100
AcDbEntity
  8
LC-001-100-D00-0
 62
     7
370
    50
100
AcDbLine
 10
-162.094738
 20
432.108523
 30
0.0
 11
-159.594738
 21
432.108523
 31
0.0
  0
ARC
  5
458
330
1F
100
AcDbEntity
  8
LC-001-100-D00-0
 62
     7
370
    50
100
AcDbCircle
 10
-159.594738
 20
431.108523
 30
0.0
 40
1.000000000000114
100
AcDbArc
 50
0.0
 51
90.0
  0
LINE
  5
459
330
1F
100
AcDbEntity
  8
LC-001-100-D00-0
 62
     7
370
    50
100
AcDbLine
 10
-158.594738
 20
431.108523
 30
0.0
 11
-158.594738
 21
429.608523
 31
0.0
  0
ARC
  5
45A
330
1F
100
AcDbEntity
  8
LC-001-100-D00-0
 62
     7
370
    50
100
AcDbCircle
 10
-154.594738
 20
429.608523
 30
0.0
 40
4.000000000000114
100
AcDbArc
 50
180.0
 51
270.0
  0
LINE
  5
45B
330
1F
100
AcDbEntity
  8
LC-001-100-D00-0
 62
     7
370
    50
100
AcDbLine
 10
-46.594738
 20
425.608523
 30
0.0
 11
-154.594738
 21
425.608523
 31
0.0
  0
ARC
  5
45C
330
1F
100
AcDbEntity
  8
LC-001-100-D00-0
 62
     7
370
    50
100
AcDbCircle
 10
-46.594738
 20
429.608523
 30
0.0
 40
4.0
100
AcDbArc
 50
270.0
 51
0.0
  0
LINE
  5
45D
330
1F
100
AcDbEntity
  8
LC-001-100-D00-0
 62
     7
370
    50
100
AcDbLine
 10
-42.594738
 20
429.608523
 30
0.0
 11
-42.594738
 21
431.108523
 31
0.0
  0
ARC
  5
45E
330
1F
100
AcDbEntity
  8
LC-001-100-D00-0
 62
     7
370
    50
100
AcDbCircle
 10
-41.594738
 20
431.108523
 30
0.0
 40
1.000000000000227
100
AcDbArc
 50
90.0
 51
180.0
  0
LINE
  5
45F
330
1F
100
AcDbEntity
  8
LC-001-100-D00-0
 62
     7
370
    50
100
AcDbLine
 10
-41.594738
 20
432.108523
 30
0.0
 11
-26.594737
 21
432.108524
 31
0.0
  0
LINE
  5
460
330
1F
100
AcDbEntity
  8
LC-001-100-D00-0
 62
     7
370
    50
100
AcDbLine
 10
17.902448
 20
430.608008
 30
0.0
 11
12.302448
 21
432.108523
 31
0.0
  0
LINE
  5
461
330
1F
100
AcDbEntity
  8
LC-001-100-D00-0
 62
     7
370
    50
100
AcDbLine
 10
17.902448
 20
430.174269
 30
0.0
 11
17.902448
 21
430.608008
 31
0.0
  0
ARC
  5
462
330
1F
100
AcDbEntity
  8
LC-001-100-D00-0
 62
     7
370
    50
100
AcDbCircle
 10
17.40249
 20
430.174269
 30
0.0
 40
0.4999578796799692
100
AcDbArc
 50
301.198872
 51
0.0
  0
ARC
  5
463
330
1F
100
AcDbEntity
  8
LC-001-100-D00-0
 62
     7
370
    50
100
AcDbCircle
 10
2.303765
 20
455.106333
 30
0.0
 40
29.64750216706083
100
AcDbArc
 50
292.382556
 51
301.198872
  0
ARC
  5
464
330
1F
100
AcDbEntity
  8
LC-001-100-D00-0
 62
     7
370
    50
100
AcDbCircle
 10
13.402826
 20
428.154707
 30
0.0
 40
0.4999578796802098
100
AcDbArc
 50
180.0
 51
292.382556
  0
LINE
  5
465
330
1F
100
AcDbEntity
  8
LC-001-100-D00-0
 62
     7
370
    50
100
AcDbLine
 10
12.902868
 20
429.458566
 30
0.0
 11
12.902868
 21
428.154707
 31
0.0
  0
ARC
  5
466
330
1F
100
AcDbEntity
  8
LC-001-100-D00-0
 62
     7
370
    50
100
AcDbCircle
 10
12.40291
 20
429.458566
 30
0.0
 40
0.4999578796802098
100
AcDbArc
 50
0.0
 51
90.0
  0
LINE
  5
467
330
1F
100
AcDbEntity
  8
LC-001-100-D00-0
 62
     7
370
    50
100
AcDbLine
 10
8.903205
 20
429.958523
 30
0.0
 11
12.40291
 21
429.958523
 31
0.0
  0
ARC
  5
468
330
1F
100
AcDbEntity
  8
LC-001-100-D00-0
 62
     7
370
    50
100
AcDbCircle
 10
8.903205
 20
429.458566
 30
0.0
 40
0.4999578796803235
100
AcDbArc
 50
90.0
 51
180.0
  0
LINE
  5
469
330
1F
100
AcDbEntity
  8
LC-001-100-D00-0
 62
     7
370
    50
100
AcDbLine
 10
8.403247
 20
426.501705
 30
0.0
 11
8.403247
 21
429.458566
 31
0.0
  0
ARC
  5
46A
330
1F
100
AcDbEntity
  8
LC-001-100-D00-0
 62
     7
370
    50
100
AcDbCircle
 10
7.903289
 20
426.501705
 30
0.0
 40
0.4999578796803386
100
AcDbArc
 50
281.075925
 51
0.0
  0
ARC
  5
46B
330
1F
100
AcDbEntity
  8
LC-001-100-D00-0
 62
     7
370
    50
100
AcDbCircle
 10
2.303765
 20
455.106333
 30
0.0
 40
29.64750432249993
100
AcDbArc
 50
241.270296
 51
281.075925
  0
LINE
  5
46C
330
1F
100
AcDbEntity
  8
LC-001-100-D00-0
 62
     7
370
    50
100
AcDbLine
 10
-13.094941
 20
429.108526
 30
0.0
 11
-11.947143
 21
429.108523
 31
0.0
  0
LINE
  5
46D
330
1F
100
AcDbEntity
  8
LC-001-100-D00-0
 62
     7
370
    50
100
AcDbLine
 10
-13.094941
 20
427.608523
 30
0.0
 11
-13.094941
 21
429.108526
 31
0.0
  0
LINE
  5
46E
330
1F
100
AcDbEntity
  8
LC-001-100-D00-0
 62
     7
370
    50
100
AcDbLine
 10
-15.594737
 20
427.608523
 30
0.0
 11
-13.094941
 21
427.608523
 31
0.0
  0
LINE
  5
46F
330
1F
100
AcDbEntity
  8
LC-001-100-D00-0
 62
     7
370
    50
100
AcDbLine
 10
-15.594737
 20
429.108526
 30
0.0
 11
-15.594737
 21
427.608523
 31
0.0
  0
ARC
  5
470
330
1F
100
AcDbEntity
  8
LC-001-100-D00-0
 62
     7
370
    50
100
AcDbCircle
 10
2.303765
 20
455.110713
 30
0.0
 40
29.64750216706075
100
AcDbArc
 50
58.801128
 51
67.617444
  0
ARC
  5
471
330
1F
100
AcDbEntity
  8
LC-001-100-D00-0
 62
     7
370
    50
100
AcDbCircle
 10
17.40249
 20
480.042778
 30
0.0
 40
0.4999578796799824
100
AcDbArc
 50
0.0
 51
58.801128
  0
ARC
  5
472
330
1F
100
AcDbEntity
  8
LC-001-100-D00-0
 62
     7
370
    50
100
AcDbCircle
 10
12.40291
 20
480.758481
 30
0.0
 40
0.4999578796805508
100
AcDbArc
 50
270.0
 51
0.0
  0
LINE
  5
473
330
1F
100
AcDbEntity
  8
LC-001-100-D00-0
 62
     7
370
    50
100
AcDbLine
 10
12.902868
 20
482.06234
 30
0.0
 11
12.902868
 21
480.758481
 31
0.0
  0
ARC
  5
474
330
1F
100
AcDbEntity
  8
LC-001-100-D00-0
 62
     7
370
    50
100
AcDbCircle
 10
13.402826
 20
482.06234
 30
0.0
 40
0.4999578796801971
100
AcDbArc
 50
67.617444
 51
180.0
  0
LINE
  5
475
330
1F
100
AcDbEntity
  8
LC-001-100-D00-0
 62
     7
370
    50
100
AcDbLine
 10
17.902448
 20
479.609039
 30
0.0
 11
17.902448
 21
480.042778
 31
0.0
  0
LINE
  5
476
330
1F
100
AcDbEntity
  8
LC-001-100-D00-0
 62
     7
370
    50
100
AcDbLine
 10
12.302448
 20
478.108523
 30
0.0
 11
17.902448
 21
479.609039
 31
0.0
  0
LINE
  5
477
330
1F
100
AcDbEntity
  8
LC-001-100-D00-0
 62
     7
370
    50
100
AcDbLine
 10
-29.594738
 20
481.858523
 30
0.0
 11
-26.594737
 21
481.858523
 31
0.0
  0
LINE
  5
478
330
1F
100
AcDbEntity
  8
LC-001-100-D00-0
 62
     7
370
    50
100
AcDbLine
 10
-15.594737
 20
482.608524
 30
0.0
 11
-15.594737
 21
481.108523
 31
0.0
  0
LINE
  5
479
330
1F
100
AcDbEntity
  8
LC-001-100-D00-0
 62
     7
370
    50
100
AcDbLine
 10
-13.094941
 20
482.608523
 30
0.0
 11
-15.594737
 21
482.608524
 31
0.0
  0
ARC
  5
47A
330
1F
100
AcDbEntity
  8
LC-001-100-D00-0
 62
     7
370
    50
100
AcDbCircle
 10
2.26735
 20
455.108523
 30
0.0
 40
31.5000000000002
100
AcDbArc
 50
105.394857
 51
119.188982
  0
LINE
  5
47B
330
1F
100
AcDbEntity
  8
LC-001-100-D00-0
 62
     7
370
    50
100
AcDbLine
 10
-6.094941
 20
485.478279
 30
0.0
 11
-6.094941
 21
483.543727
 31
0.0
  0
ARC
  5
47C
330
1F
100
AcDbEntity
  8
LC-001-100-D00-0
 62
     7
370
    50
100
AcDbCircle
 10
2.303765
 20
455.110713
 30
0.0
 40
29.6475043225003
100
AcDbArc
 50
78.924075
 51
106.456389
  0
ARC
  5
47D
330
1F
100
AcDbEntity
  8
LC-001-100-D00-0
 62
     7
370
    50
100
AcDbCircle
 10
7.903289
 20
483.715342
 30
0.0
 40
0.4999578796800961
100
AcDbArc
 50
0.0
 51
78.924075
  0
LINE
  5
47E
330
1F
100
AcDbEntity
  8
LC-001-100-D00-0
 62
     7
370
    50
100
AcDbLine
 10
8.403247
 20
480.758481
 30
0.0
 11
8.403247
 21
483.715342
 31
0.0
  0
ARC
  5
47F
330
1F
100
AcDbEntity
  8
LC-001-100-D00-0
 62
     7
370
    50
100
AcDbCircle
 10
8.903205
 20
480.758481
 30
0.0
 40
0.4999578796805508
100
AcDbArc
 50
180.0
 51
270.0
  0
LINE
  5
480
330
1F
100
AcDbEntity
  8
LC-001-100-D00-0
 62
     7
370
    50
100
AcDbLine
 10
12.40291
 20
480.258523
 30
0.0
 11
8.903205
 21
480.258523
 31
0.0
  0
LINE
  5
481
330
1F
100
AcDbEntity
  8
LC-001-100-D00-0
 62
     7
370
    50
100
AcDbLine
 10
17.902448
 20
479.609039
 30
0.0
 11
17.902448
 21
430.608008
 31
0.0
  0
LINE
  5
482
330
1F
100
AcDbEntity
  8
LC-001-100-D00-0
 62
     7
370
    50
100
AcDbLine
 10
-56.161118
 20
432.108523
 30
0.0
 11
-41.594738
 21
432.108523
 31
0.0
  0
LINE
  5
483
330
1F
100
AcDbEntity
  8
LC-001-100-D00-0
 62
     7
370
    50
100
AcDbLine
 10
-159.594738
 20
432.108523
 30
0.0
 11
-145.028358
 21
432.108523
 31
0.0
  0
LINE
  5
484
330
1F
100
AcDbEntity
  8
LC-001-100-D00-0
 62
     7
370
    50
100
AcDbLine
 10
-168.594738
 20
481.858523
 30
0.0
 11
-171.594738
 21
481.858523
 31
0.0
  0
LINE
  5
485
330
1F
100
AcDbEntity
  8
LC-001-100-D00-0
 62
     7
370
    50
100
AcDbLine
 10
-58.605613
 20
432.108523
 30
0.0
 11
-56.161118
 21
432.108523
 31
0.0
  0
LINE
  5
486
330
1F
100
AcDbEntity
  8
LC-001-100-D00-0
 62
     7
370
    50
100
AcDbLine
 10
-145.028358
 20
432.108523
 30
0.0
 11
-142.583864
 21
432.108523
 31
0.0
  0
LINE
  5
487
330
1F
100
AcDbEntity
  8
LC-001-100-D00-0
 62
     7
370
    50
100
AcDbLine
 10
-142.583864
 20
432.108523
 30
0.0
 11
-141.594739
 21
432.108524
 31
0.0
  0
LINE
  5
488
330
1F
100
AcDbEntity
  8
LC-001-100-D00-0
 62
     7
370
    50
100
AcDbLine
 10
-59.594737
 20
432.108524
 30
0.0
 11
-58.605613
 21
432.108523
 31
0.0
  0
CIRCLE
  5
489
330
1F
100
AcDbEntity
  8
LC-001-100-D00-0
 62
     7
370
    50
100
AcDbCircle
 10
-46.344738
 20
483.358523
 30
0.0
 40
1.750000000000114
  0
CIRCLE
  5
48A
330
1F
100
AcDbEntity
  8
LC-001-100-D00-0
 62
     7
370
    50
100
AcDbCircle
 10
-154.844738
 20
483.358523
 30
0.0
 40
1.750000000000114
  0
LINE
  5
48B
330
1F
100
AcDbEntity
  8
LC-001-100-D00-0
 62
     7
370
    50
100
AcDbLine
 10
-46.09474
 20
485.108524
 30
0.0
 11
-46.09474
 21
486.608523
 31
0.0
  0
LINE
  5
48C
330
1F
100
AcDbEntity
  8
LC-001-100-D00-0
 62
     7
370
    50
100
AcDbLine
 10
-48.09474
 20
485.108524
 30
0.0
 11
-46.09474
 21
485.108524
 31
0.0
  0
LINE
  5
48D
330
1F
100
AcDbEntity
  8
LC-001-100-D00-0
 62
     7
370
    50
100
AcDbLine
 10
-48.09474
 20
485.108524
 30
0.0
 11
-48.09474
 21
481.608524
 31
0.0
  0
LINE
  5
48E
330
1F
100
AcDbEntity
  8
LC-001-100-D00-0
 62
     7
370
    50
100
AcDbLine
 10
-48.09474
 20
481.608524
 30
0.0
 11
-46.09474
 21
481.608524
 31
0.0
  0
LINE
  5
48F
330
1F
100
AcDbEntity
  8
LC-001-100-D00-0
 62
     7
370
    50
100
AcDbLine
 10
-46.09474
 20
481.608524
 30
0.0
 11
-46.09474
 21
480.608522
 31
0.0
  0
LINE
  5
490
330
1F
100
AcDbEntity
  8
LC-001-100-D00-0
 62
     7
370
    50
100
AcDbLine
 10
-61.594738
 20
480.608523
 30
0.0
 11
-46.09474
 21
480.608522
 31
0.0
  0
ARC
  5
491
330
1F
100
AcDbEntity
  8
LC-001-100-D00-0
 62
     7
370
    50
100
AcDbCircle
 10
-61.594738
 20
470.608523
 30
0.0
 40
10.0
100
AcDbArc
 50
90.0
 51
180.0
  0
LINE
  5
492
330
1F
100
AcDbEntity
  8
LC-001-100-D00-0
 62
     7
370
    50
100
AcDbLine
 10
-71.594738
 20
470.608523
 30
0.0
 11
-71.594739
 21
441.10852
 31
0.0
  0
LINE
  5
493
330
1F
100
AcDbEntity
  8
LC-001-100-D00-0
 62
     7
370
    50
100
AcDbLine
 10
-73.094738
 20
441.108523
 30
0.0
 11
-71.594739
 21
441.10852
 31
0.0
  0
LINE
  5
494
330
1F
100
AcDbEntity
  8
LC-001-100-D00-0
 62
     7
370
    50
100
AcDbLine
 10
-73.094738
 20
484.608523
 30
0.0
 11
-73.094738
 21
441.108523
 31
0.0
  0
ARC
  5
495
330
1F
100
AcDbEntity
  8
LC-001-100-D00-0
 62
     7
370
    50
100
AcDbCircle
 10
-71.094738
 20
484.608523
 30
0.0
 40
2.0
100
AcDbArc
 50
90.0
 51
180.0
  0
LINE
  5
496
330
1F
100
AcDbEntity
  8
LC-001-100-D00-0
 62
     7
370
    50
100
AcDbLine
 10
-71.094738
 20
486.608523
 30
0.0
 11
-46.09474
 21
486.608523
 31
0.0
  0
LINE
  5
497
330
1F
100
AcDbEntity
  8
LC-001-100-D00-0
 62
     7
370
    50
100
AcDbLine
 10
-89.094738
 20
486.608523
 30
0.0
 11
-71.094738
 21
486.608523
 31
0.0
  0
LINE
  5
498
330
1F
100
AcDbEntity
  8
LC-001-100-D00-0
 62
     7
370
    50
100
AcDbLine
 10
-89.094738
 20
441.108523
 30
0.0
 11
-73.094738
 21
441.108523
 31
0.0
  0
LINE
  5
499
330
1F
100
AcDbEntity
  8
LC-001-100-D00-0
 62
     7
370
    50
100
AcDbLine
 10
-129.594737
 20
441.10852
 30
0.0
 11
-129.594738
 21
470.608523
 31
0.0
  0
ARC
  5
49A
330
1F
100
AcDbEntity
  8
LC-001-100-D00-0
 62
     7
370
    50
100
AcDbCircle
 10
-130.094738
 20
484.608523
 30
0.0
 40
2.000000000000114
100
AcDbArc
 50
0.0
 51
90.0
  0
LINE
  5
49B
330
1F
100
AcDbEntity
  8
LC-001-100-D00-0
 62
     7
370
    50
100
AcDbLine
 10
-130.094738
 20
486.608523
 30
0.0
 11
-112.094738
 21
486.608523
 31
0.0
  0
LINE
  5
49C
330
1F
100
AcDbEntity
  8
LC-001-100-D00-0
 62
     7
370
    50
100
AcDbLine
 10
-128.094738
 20
441.108523
 30
0.0
 11
-128.094738
 21
484.608523
 31
0.0
  0
LINE
  5
49D
330
1F
100
AcDbEntity
  8
LC-001-100-D00-0
 62
     7
370
    50
100
AcDbLine
 10
-128.094738
 20
441.108523
 30
0.0
 11
-112.094738
 21
441.108523
 31
0.0
  0
ARC
  5
49E
330
1F
100
AcDbEntity
  8
LC-001-100-D00-0
 62
     7
370
    50
100
AcDbCircle
 10
-139.594738
 20
470.608523
 30
0.0
 40
10.0
100
AcDbArc
 50
0.0
 51
90.0
  0
LINE
  5
49F
330
1F
100
AcDbEntity
  8
LC-001-100-D00-0
 62
     7
370
    50
100
AcDbLine
 10
-155.094737
 20
480.608522
 30
0.0
 11
-155.094737
 21
481.608524
 31
0.0
  0
LINE
  5
4A0
330
1F
100
AcDbEntity
  8
LC-001-100-D00-0
 62
     7
370
    50
100
AcDbLine
 10
-153.094737
 20
481.608524
 30
0.0
 11
-153.094737
 21
485.108524
 31
0.0
  0
LINE
  5
4A1
330
1F
100
AcDbEntity
  8
LC-001-100-D00-0
 62
     7
370
    50
100
AcDbLine
 10
-155.094737
 20
486.608523
 30
0.0
 11
-155.094737
 21
485.108524
 31
0.0
  0
LINE
  5
4A2
330
1F
100
AcDbEntity
  8
LC-001-100-D00-0
 62
     7
370
    50
100
AcDbLine
 10
-129.594737
 20
441.10852
 30
0.0
 11
-128.094738
 21
441.108523
 31
0.0
  0
LINE
  5
4A3
330
1F
100
AcDbEntity
  8
LC-001-100-D00-0
 62
     7
370
    50
100
AcDbLine
 10
-155.094737
 20
481.608524
 30
0.0
 11
-153.094737
 21
481.608524
 31
0.0
  0
LINE
  5
4A4
330
1F
100
AcDbEntity
  8
LC-001-100-D00-0
 62
     7
370
    50
100
AcDbLine
 10
-155.094737
 20
485.108524
 30
0.0
 11
-153.094737
 21
485.108524
 31
0.0
  0
LINE
  5
4A5
330
1F
100
AcDbEntity
  8
LC-001-100-D00-0
 62
     7
370
    50
100
AcDbLine
 10
-155.094737
 20
486.608523
 30
0.0
 11
-130.094738
 21
486.608523
 31
0.0
  0
LINE
  5
4A6
330
1F
100
AcDbEntity
  8
LC-001-100-D00-0
 62
     7
370
    50
100
AcDbLine
 10
-155.094737
 20
480.608522
 30
0.0
 11
-139.594738
 21
480.608523
 31
0.0
  0
LINE
  5
4A7
330
1F
100
AcDbEntity
  8
LC-001-100-D00-0
 62
     7
370
    50
100
AcDbLine
 10
-112.094738
 20
441.108523
 30
0.0
 11
-89.094738
 21
441.108523
 31
0.0
  0
LINE
  5
4A8
330
1F
100
AcDbEntity
  8
LC-001-100-D00-0
 62
     7
370
    50
100
AcDbLine
 10
-112.094738
 20
486.608523
 30
0.0
 11
-89.094738
 21
486.608523
 31
0.0
  0
LINE
  5
4A9
330
1F
100
AcDbEntity
  8
LC-001-100-D00-0
 62
     7
370
    50
100
AcDbLine
 10
-59.594737
 20
471.108525
 30
0.0
 11
-49.659053
 21
478.414174
 31
0.0
  0
LINE
  5
4AA
330
1F
100
AcDbEntity
  8
LC-001-100-D00-0
 62
     7
370
    50
100
AcDbLine
 10
-59.594737
 20
471.108525
 30
0.0
 11
-59.594738
 21
430.108523
 31
0.0
  0
ARC
  5
4AB
330
1F
100
AcDbEntity
  8
LC-001-100-D00-0
 62
     7
370
    50
100
AcDbCircle
 10
-64.594738
 20
430.108523
 30
0.0
 40
5.0
100
AcDbArc
 50
270.0
 51
0.0
  0
LINE
  5
4AC
330
1F
100
AcDbEntity
  8
LC-001-100-D00-0
 62
     7
370
    50
100
AcDbLine
 10
-64.594738
 20
425.108523
 30
0.0
 11
-136.594738
 21
425.108523
 31
0.0
  0
ARC
  5
4AD
330
1F
100
AcDbEntity
  8
LC-001-100-D00-0
 62
     7
370
    50
100
AcDbCircle
 10
-136.594738
 20
430.108523
 30
0.0
 40
5.0
100
AcDbArc
 50
180.0
 51
270.0
  0
LINE
  5
4AE
330
1F
100
AcDbEntity
  8
LC-001-100-D00-0
 62
     7
370
    50
100
AcDbLine
 10
-141.594738
 20
430.108523
 30
0.0
 11
-141.594739
 21
471.108525
 31
0.0
  0
LINE
  5
4AF
330
1F
100
AcDbEntity
  8
LC-001-100-D00-0
 62
     7
370
    50
100
AcDbLine
 10
-141.594739
 20
471.108525
 30
0.0
 11
-151.530424
 21
478.414174
 31
0.0
  0
ARC
  5
4B0
330
1F
100
AcDbEntity
  8
LC-001-100-D00-0
 62
     7
370
    50
100
AcDbCircle
 10
-152.122814
 20
477.608523
 30
0.0
 40
1.00000000000038
100
AcDbArc
 50
53.673174
 51
90.0
  0
LINE
  5
4B1
330
1F
100
AcDbEntity
  8
LC-001-100-D00-0
 62
     7
370
    50
100
AcDbLine
 10
-155.694738
 20
478.608523
 30
0.0
 11
-152.122814
 21
478.608523
 31
0.0
  0
LINE
  5
4B2
330
1F
100
AcDbEntity
  8
LC-001-100-D00-0
 62
     7
370
    50
100
AcDbLine
 10
-155.694738
 20
478.608523
 30
0.0
 11
-155.694738
 21
480.608523
 31
0.0
  0
LINE
  5
4B3
330
1F
100
AcDbEntity
  8
LC-001-100-D00-0
 62
     7
370
    50
100
AcDbLine
 10
-155.694738
 20
480.608523
 30
0.0
 11
-152.122814
 21
480.608523
 31
0.0
  0
ARC
  5
4B4
330
1F
100
AcDbEntity
  8
LC-001-100-D00-0
 62
     7
370
    50
100
AcDbCircle
 10
-152.122814
 20
477.608523
 30
0.0
 40
3.000000000000158
100
AcDbArc
 50
53.673174
 51
90.0
  0
LINE
  5
4B5
330
1F
100
AcDbEntity
  8
LC-001-100-D00-0
 62
     7
370
    50
100
AcDbLine
 10
-150.345643
 20
480.025476
 30
0.0
 11
-140.502348
 21
472.78776
 31
0.0
  0
ARC
  5
4B6
330
1F
100
AcDbEntity
  8
LC-001-100-D00-0
 62
     7
370
    50
100
AcDbCircle
 10
-141.094738
 20
471.982109
 30
0.0
 40
1.000000000000227
100
AcDbArc
 50
0.0
 51
53.673174
  0
LINE
  5
4B7
330
1F
100
AcDbEntity
  8
LC-001-100-D00-0
 62
     7
370
    50
100
AcDbLine
 10
-140.094738
 20
430.108523
 30
0.0
 11
-140.094738
 21
471.982109
 31
0.0
  0
ARC
  5
4B8
330
1F
100
AcDbEntity
  8
LC-001-100-D00-0
 62
     7
370
    50
100
AcDbCircle
 10
-136.594738
 20
430.108523
 30
0.0
 40
3.5
100
AcDbArc
 50
180.0
 51
270.0
  0
LINE
  5
4B9
330
1F
100
AcDbEntity
  8
LC-001-100-D00-0
 62
     7
370
    50
100
AcDbLine
 10
-64.594738
 20
426.608523
 30
0.0
 11
-136.594738
 21
426.608523
 31
0.0
  0
ARC
  5
4BA
330
1F
100
AcDbEntity
  8
LC-001-100-D00-0
 62
     7
370
    50
100
AcDbCircle
 10
-64.594738
 20
430.108523
 30
0.0
 40
3.499999999999773
100
AcDbArc
 50
270.0
 51
0.0
  0
LINE
  5
4BB
330
1F
100
AcDbEntity
  8
LC-001-100-D00-0
 62
     7
370
    50
100
AcDbLine
 10
-61.094738
 20
471.982109
 30
0.0
 11
-61.094738
 21
430.108523
 31
0.0
  0
ARC
  5
4BC
330
1F
100
AcDbEntity
  8
LC-001-100-D00-0
 62
     7
370
    50
100
AcDbCircle
 10
-60.094738
 20
471.982109
 30
0.0
 40
1.000000000000014
100
AcDbArc
 50
126.326826
 51
180.0
  0
LINE
  5
4BD
330
1F
100
AcDbEntity
  8
LC-001-100-D00-0
 62
     7
370
    50
100
AcDbLine
 10
-50.843834
 20
480.025476
 30
0.0
 11
-60.687129
 21
472.78776
 31
0.0
  0
ARC
  5
4BE
330
1F
100
AcDbEntity
  8
LC-001-100-D00-0
 62
     7
370
    50
100
AcDbCircle
 10
-49.066662
 20
477.608523
 30
0.0
 40
3.000000000000227
100
AcDbArc
 50
90.0
 51
126.326826
  0
LINE
  5
4BF
330
1F
100
AcDbEntity
  8
LC-001-100-D00-0
 62
     7
370
    50
100
AcDbLine
 10
-49.066662
 20
480.608523
 30
0.0
 11
-45.494738
 21
480.608523
 31
0.0
  0
LINE
  5
4C0
330
1F
100
AcDbEntity
  8
LC-001-100-D00-0
 62
     7
370
    50
100
AcDbLine
 10
-45.494738
 20
480.608523
 30
0.0
 11
-45.494738
 21
478.608523
 31
0.0
  0
LINE
  5
4C1
330
1F
100
AcDbEntity
  8
LC-001-100-D00-0
 62
     7
370
    50
100
AcDbLine
 10
-49.066662
 20
478.608523
 30
0.0
 11
-45.494738
 21
478.608523
 31
0.0
  0
ARC
  5
4C2
330
1F
100
AcDbEntity
  8
LC-001-100-D00-0
 62
     7
370
    50
100
AcDbCircle
 10
-49.066662
 20
477.608523
 30
0.0
 40
1.000000000000455
100
AcDbArc
 50
90.0
 51
126.326826
  0
ARC
  5
4C3
330
1F
100
AcDbEntity
  8
LC-001-100-D00-0
 62
     7
370
    50
100
AcDbCircle
 10
-60.101486
 20
471.976683
 30
0.0
 40
1.000373573444064
100
AcDbArc
 50
126.325165
 51
180.0
  0
LINE
  5
4C4
330
1F
100
AcDbEntity
  8
LC-001-100-D00-0
 62
     7
370
    50
100
AcDbLine
 10
-60.694074
 20
472.782652
 30
0.0
 11
-60.687129
 21
472.78776
 31
0.0
  0
LINE
  5
4C5
330
1F
100
AcDbEntity
  8
LC-001-100-D00-0
 62
     7
370
    50
100
AcDbLine
 10
-61.101859
 20
471.108523
 30
0.0
 11
-65.515343
 21
471.108523
 31
0.0
  0
LINE
  5
4C6
330
1F
100
AcDbEntity
  8
LC-001-100-D00-0
 62
     7
370
    50
100
AcDbLine
 10
-61.101859
 20
471.976741
 30
0.0
 11
-61.101859
 21
471.108523
 31
0.0
  0
LINE
  5
4C7
330
1F
100
AcDbEntity
  8
LC-001-100-D00-0
 62
     7
370
    50
100
AcDbLine
 10
-140.087617
 20
471.976741
 30
0.0
 11
-140.087617
 21
471.108523
 31
0.0
  0
LINE
  5
4C8
330
1F
100
AcDbEntity
  8
LC-001-100-D00-0
 62
     7
370
    50
100
AcDbLine
 10
-135.674134
 20
471.108523
 30
0.0
 11
-140.087617
 21
471.108523
 31
0.0
  0
ARC
  5
4C9
330
1F
100
AcDbEntity
  8
LC-001-100-D00-0
 62
     7
370
    50
100
AcDbCircle
 10
-141.087964
 20
471.976696
 30
0.0
 40
1.000347039120697
100
AcDbArc
 50
0.0
 51
53.675603
  0
LINE
  5
4CA
330
1F
100
AcDbEntity
  8
LC-001-100-D00-0
 62
     7
370
    50
100
AcDbLine
 10
-67.642303
 20
478.572628
 30
0.0
 11
-67.642303
 21
471.108525
 31
0.0
  0
LINE
  5
4CB
330
1F
100
AcDbEntity
  8
LC-001-100-D00-0
 62
     7
370
    50
100
AcDbLine
 10
-67.642305
 20
478.608523
 30
0.0
 11
-60.880323
 21
478.608523
 31
0.0
  0
LINE
  5
4CC
330
1F
100
AcDbEntity
  8
LC-001-100-D00-0
 62
     7
370
    50
100
AcDbLine
 10
-56.506872
 20
478.608523
 30
0.0
 11
-52.77089
 21
478.608523
 31
0.0
  0
LINE
  5
4CD
330
1F
100
AcDbEntity
  8
LC-001-100-D00-0
 62
     7
370
    50
100
AcDbLine
 10
-133.547174
 20
478.572628
 30
0.0
 11
-133.547174
 21
471.108525
 31
0.0
  0
LINE
  5
4CE
330
1F
100
AcDbEntity
  8
LC-001-100-D00-0
 62
     7
370
    50
100
AcDbLine
 10
-148.418587
 20
478.608523
 30
0.0
 11
-144.682605
 21
478.608523
 31
0.0
  0
LINE
  5
4CF
330
1F
100
AcDbEntity
  8
LC-001-100-D00-0
 62
     7
370
    50
100
AcDbLine
 10
-140.309153
 20
478.608523
 30
0.0
 11
-133.547172
 21
478.608523
 31
0.0
  0
LINE
  5
4D0
330
1F
100
AcDbEntity
  8
LC-001-100-D00-0
 62
     7
370
    50
100
AcDbLine
 10
-65.515343
 20
471.108523
 30
0.0
 11
-71.58223
 21
471.108523
 31
0.0
  0
LINE
  5
4D1
330
1F
100
AcDbEntity
  8
LC-001-100-D00-0
 62
     7
370
    50
100
AcDbLine
 10
-129.607246
 20
471.108523
 30
0.0
 11
-135.674134
 21
471.108523
 31
0.0
  0
ARC
  5
4D2
330
1F
100
AcDbEntity
  8
LC-001-100-D00-0
 62
     7
370
    50
100
AcDbCircle
 10
2.405059
 20
455.108523
 30
0.0
 40
32.00000000000018
100
AcDbArc
 50
51.375167
 51
90.0
  0
LINE
  5
4D3
330
1F
100
AcDbEntity
  8
LC-001-100-D00-0
 62
     7
370
    50
100
AcDbLine
 10
22.380043
 20
480.108523
 30
0.0
 11
105.405053
 21
480.108525
 31
0.0
  0
LINE
  5
4D4
330
1F
100
AcDbEntity
  8
LC-001-100-D00-0
 62
     7
370
    50
100
AcDbLine
 10
105.405053
 20
480.108525
 30
0.0
 11
108.905053
 21
479.170701
 31
0.0
  0
LINE
  5
4D5
330
1F
100
AcDbEntity
  8
LC-001-100-D00-0
 62
     7
370
    50
100
AcDbLine
 10
108.905053
 20
479.170701
 30
0.0
 11
108.905059
 21
477.858523
 31
0.0
  0
LINE
  5
4D6
330
1F
100
AcDbEntity
  8
LC-001-100-D00-0
 62
     7
370
    50
100
AcDbLine
 10
108.905059
 20
477.858523
 30
0.0
 11
21.185035
 21
477.858523
 31
0.0
  0
ARC
  5
4D7
330
1F
100
AcDbEntity
  8
LC-001-100-D00-0
 62
     7
370
    50
100
AcDbCircle
 10
2.405059
 20
455.108523
 30
0.0
 40
29.50000000000015
100
AcDbArc
 50
50.46055
 51
104.235124
  0
ARC
  5
4D8
330
1F
100
AcDbEntity
  8
LC-001-100-D00-0
 62
     7
370
    50
100
AcDbCircle
 10
-5.094941
 20
484.672014
 30
0.0
 40
1.000000000000114
100
AcDbArc
 50
180.0
 51
284.235124
  0
LINE
  5
4D9
330
1F
100
AcDbEntity
  8
LC-001-100-D00-0
 62
     7
370
    50
100
AcDbLine
 10
-6.094941
 20
484.672014
 30
0.0
 11
-6.094942
 21
487.108524
 31
0.0
  0
LINE
  5
4DA
330
1F
100
AcDbEntity
  8
LC-001-100-D00-0
 62
     7
370
    50
100
AcDbLine
 10
-6.094942
 20
487.108524
 30
0.0
 11
2.405059
 21
487.108523
 31
0.0
  0
LINE
  5
4DB
330
1F
100
AcDbEntity
  8
LC-001-100-D00-0
 62
     7
370
    50
100
AcDbLine
 10
-6.094942
 20
423.108521
 30
0.0
 11
-6.094941
 21
425.545032
 31
0.0
  0
ARC
  5
4DC
330
1F
100
AcDbEntity
  8
LC-001-100-D00-0
 62
     7
370
    50
100
AcDbCircle
 10
-5.094941
 20
425.545032
 30
0.0
 40
0.9999999999998629
100
AcDbArc
 50
75.764876
 51
180.0
  0
ARC
  5
4DD
330
1F
100
AcDbEntity
  8
LC-001-100-D00-0
 62
     7
370
    50
100
AcDbCircle
 10
2.405059
 20
455.108523
 30
0.0
 40
29.50000000000003
100
AcDbArc
 50
255.764876
 51
309.53945
  0
LINE
  5
4DE
330
1F
100
AcDbEntity
  8
LC-001-100-D00-0
 62
     7
370
    50
100
AcDbLine
 10
21.185035
 20
432.358523
 30
0.0
 11
108.905059
 21
432.358523
 31
0.0
  0
LINE
  5
4DF
330
1F
100
AcDbEntity
  8
LC-001-100-D00-0
 62
     7
370
    50
100
AcDbLine
 10
108.905059
 20
432.358523
 30
0.0
 11
108.905053
 21
431.046347
 31
0.0
  0
LINE
  5
4E0
330
1F
100
AcDbEntity
  8
LC-001-100-D00-0
 62
     7
370
    50
100
AcDbLine
 10
108.905053
 20
431.046347
 30
0.0
 11
105.405053
 21
430.10852
 31
0.0
  0
LINE
  5
4E1
330
1F
100
AcDbEntity
  8
LC-001-100-D00-0
 62
     7
370
    50
100
AcDbLine
 10
105.405053
 20
430.10852
 30
0.0
 11
22.380043
 21
430.108523
 31
0.0
  0
ARC
  5
4E2
330
1F
100
AcDbEntity
  8
LC-001-100-D00-0
 62
     7
370
    50
100
AcDbCircle
 10
2.405059
 20
455.108523
 30
0.0
 40
32.0
100
AcDbArc
 50
270.0
 51
308.624833
  0
LINE
  5
4E3
330
1F
100
AcDbEntity
  8
LC-001-100-D00-0
 62
     7
370
    50
100
AcDbLine
 10
2.405059
 20
423.108523
 30
0.0
 11
-6.094942
 21
423.108521
 31
0.0
  0
LINE
  5
4E4
330
1F
100
AcDbEntity
  8
LC-001-100-D00-0
 62
     7
370
    50
100
AcDbLine
 10
108.905059
 20
477.858523
 30
0.0
 11
108.905059
 21
432.358523
 31
0.0
  0
LINE
  5
4E5
330
1F
100
AcDbEntity
  8
LC-001-100-D00-0
 62
     7
370
    50
100
AcDbLine
 10
21.185035
 20
477.858523
 30
0.0
 11
21.185035
 21
432.358523
 31
0.0
  0
LINE
  5
4E6
330
1F
100
AcDbEntity
  8
LC-001-100-D00-0
 62
     7
370
    50
100
AcDbLine
 10
-6.094941
 20
426.67332
 30
0.0
 11
-6.094941
 21
425.545032
 31
0.0
  0
CIRCLE
  5
4E7
330
1F
100
AcDbEntity
  8
LC-001-100-D00-0
 62
     7
370
    50
100
AcDbCircle
 10
10.653058
 20
482.108523
 30
0.0
 40
2.000000000000114
  0
CIRCLE
  5
4E8
330
1F
100
AcDbEntity
  8
LC-001-100-D00-0
 62
     7
370
    50
100
AcDbCircle
 10
10.653058
 20
428.108523
 30
0.0
 40
2.000000000000114
  0
LINE
  5
4E9
330
1F
100
AcDbEntity
  8
LC-001-100-D00-0
 62
     7
370
    50
100
AcDbLine
 10
-7.252401
 20
490.523338
 30
0.0
 11
-25.086072
 21
485.74482
 31
0.0
  0
ARC
  5
4EA
330
1F
100
AcDbEntity
  8
LC-001-100-D00-0
 62
     7
370
    50
100
AcDbCircle
 10
-26.121348
 20
489.608523
 30
0.0
 40
4.0
100
AcDbArc
 50
270.0
 51
285.0
  0
LINE
  5
4EB
330
1F
100
AcDbEntity
  8
LC-001-100-D00-0
 62
     7
370
    50
100
AcDbLine
 10
-26.121348
 20
485.608523
 30
0.0
 11
-42.794738
 21
485.608523
 31
0.0
  0
ARC
  5
4EC
330
1F
100
AcDbEntity
  8
LC-001-100-D00-0
 62
     7
370
    50
100
AcDbCircle
 10
-42.794738
 20
484.608523
 30
0.0
 40
1.0
100
AcDbArc
 50
90.0
 51
180.0
  0
LINE
  5
4ED
330
1F
100
AcDbEntity
  8
LC-001-100-D00-0
 62
     7
370
    50
100
AcDbLine
 10
-43.794738
 20
484.608523
 30
0.0
 11
-43.794738
 21
480.608522
 31
0.0
  0
LINE
  5
4EE
330
1F
100
AcDbEntity
  8
LC-001-100-D00-0
 62
     7
370
    50
100
AcDbLine
 10
-43.794738
 20
480.608522
 30
0.0
 11
-45.294738
 21
480.608523
 31
0.0
  0
LINE
  5
4EF
330
1F
100
AcDbEntity
  8
LC-001-100-D00-0
 62
     7
370
    50
100
AcDbLine
 10
-45.294738
 20
484.608523
 30
0.0
 11
-45.294738
 21
480.608523
 31
0.0
  0
ARC
  5
4F0
330
1F
100
AcDbEntity
  8
LC-001-100-D00-0
 62
     7
370
    50
100
AcDbCircle
 10
-42.794738
 20
484.608523
 30
0.0
 40
2.5
100
AcDbArc
 50
90.0
 51
180.0
  0
LINE
  5
4F1
330
1F
100
AcDbEntity
  8
LC-001-100-D00-0
 62
     7
370
    50
100
AcDbLine
 10
-26.121348
 20
487.108523
 30
0.0
 11
-42.794738
 21
487.108523
 31
0.0
  0
ARC
  5
4F2
330
1F
100
AcDbEntity
  8
LC-001-100-D00-0
 62
     7
370
    50
100
AcDbCircle
 10
-26.121348
 20
489.608523
 30
0.0
 40
2.5
100
AcDbArc
 50
270.0
 51
285.0
  0
LINE
  5
4F3
330
1F
100
AcDbEntity
  8
LC-001-100-D00-0
 62
     7
370
    50
100
AcDbLine
 10
-7.640629
 20
491.972227
 30
0.0
 11
-25.474301
 21
487.193709
 31
0.0
  0
ARC
  5
4F4
330
1F
100
AcDbEntity
  8
LC-001-100-D00-0
 62
     7
370
    50
100
AcDbCircle
 10
-6.605353
 20
488.108523
 30
0.0
 40
3.999999999999773
100
AcDbArc
 50
90.0
 51
105.0
  0
LINE
  5
4F5
330
1F
100
AcDbEntity
  8
LC-001-100-D00-0
 62
     7
370
    50
100
AcDbLine
 10
-6.605353
 20
492.108523
 30
0.0
 11
-5.094738
 21
492.108523
 31
0.0
  0
LINE
  5
4F6
330
1F
100
AcDbEntity
  8
LC-001-100-D00-0
 62
     7
370
    50
100
AcDbLine
 10
-5.094738
 20
492.108523
 30
0.0
 11
-5.094738
 21
493.508524
 31
0.0
  0
LINE
  5
4F7
330
1F
100
AcDbEntity
  8
LC-001-100-D00-0
 62
     7
370
    50
100
AcDbLine
 10
-4.594738
 20
493.508523
 30
0.0
 11
-5.094738
 21
493.508524
 31
0.0
  0
ARC
  5
4F8
330
1F
100
AcDbEntity
  8
LC-001-100-D00-0
 62
     7
370
    50
100
AcDbCircle
 10
-5.594738
 20
495.008523
 30
0.0
 40
1.802775637732373
100
AcDbArc
 50
303.690068
 51
56.309932
  0
LINE
  5
4F9
330
1F
100
AcDbEntity
  8
LC-001-100-D00-0
 62
     7
370
    50
100
AcDbLine
 10
-4.594737
 20
511.108523
 30
0.0
 11
-4.594738
 21
496.508523
 31
0.0
  0
LINE
  5
4FA
330
1F
100
AcDbEntity
  8
LC-001-100-D00-0
 62
     7
370
    50
100
AcDbLine
 10
-3.594735
 20
512.108523
 30
0.0
 11
-4.594737
 21
511.108523
 31
0.0
  0
LINE
  5
4FB
330
1F
100
AcDbEntity
  8
LC-001-100-D00-0
 62
     7
370
    50
100
AcDbLine
 10
2.405262
 20
512.108523
 30
0.0
 11
-3.594735
 21
512.108523
 31
0.0
  0
LINE
  5
4FC
330
1F
100
AcDbEntity
  8
LC-001-100-D00-0
 62
     7
370
    50
100
AcDbLine
 10
3.405264
 20
511.108523
 30
0.0
 11
2.405262
 21
512.108523
 31
0.0
  0
LINE
  5
4FD
330
1F
100
AcDbEntity
  8
LC-001-100-D00-0
 62
     7
370
    50
100
AcDbLine
 10
3.405262
 20
496.508523
 30
0.0
 11
3.405264
 21
511.108523
 31
0.0
  0
ARC
  5
4FE
330
1F
100
AcDbEntity
  8
LC-001-100-D00-0
 62
     7
370
    50
100
AcDbCircle
 10
4.405262
 20
495.008523
 30
0.0
 40
1.802775637732184
100
AcDbArc
 50
123.690068
 51
236.309932
  0
LINE
  5
4FF
330
1F
100
AcDbEntity
  8
LC-001-100-D00-0
 62
     7
370
    50
100
AcDbLine
 10
3.905265
 20
493.508524
 30
0.0
 11
3.405262
 21
493.508523
 31
0.0
  0
LINE
  5
500
330
1F
100
AcDbEntity
  8
LC-001-100-D00-0
 62
     7
370
    50
100
AcDbLine
 10
3.905265
 20
493.508524
 30
0.0
 11
3.905265
 21
492.108523
 31
0.0
  0
LINE
  5
501
330
1F
100
AcDbEntity
  8
LC-001-100-D00-0
 62
     7
370
    50
100
AcDbLine
 10
3.905265
 20
492.108523
 30
0.0
 11
179.905256
 21
492.108523
 31
0.0
  0
LINE
  5
502
330
1F
100
AcDbEntity
  8
LC-001-100-D00-0
 62
     7
370
    50
100
AcDbLine
 10
179.905256
 20
492.108523
 30
0.0
 11
179.905256
 21
493.508524
 31
0.0
  0
LINE
  5
503
330
1F
100
AcDbEntity
  8
LC-001-100-D00-0
 62
     7
370
    50
100
AcDbLine
 10
180.405262
 20
493.508523
 30
0.0
 11
179.905256
 21
493.508524
 31
0.0
  0
ARC
  5
504
330
1F
100
AcDbEntity
  8
LC-001-100-D00-0
 62
     7
370
    50
100
AcDbCircle
 10
179.405262
 20
495.008523
 30
0.0
 40
1.802775637732184
100
AcDbArc
 50
303.690068
 51
56.309932
  0
LINE
  5
505
330
1F
100
AcDbEntity
  8
LC-001-100-D00-0
 62
     7
370
    50
100
AcDbLine
 10
180.40525
 20
511.108523
 30
0.0
 11
180.405262
 21
496.508523
 31
0.0
  0
LINE
  5
506
330
1F
100
AcDbEntity
  8
LC-001-100-D00-0
 62
     7
370
    50
100
AcDbLine
 10
181.405267
 20
512.108523
 30
0.0
 11
180.40525
 21
511.108523
 31
0.0
  0
LINE
  5
507
330
1F
100
AcDbEntity
  8
LC-001-100-D00-0
 62
     7
370
    50
100
AcDbLine
 10
187.405249
 20
512.108523
 30
0.0
 11
181.405267
 21
512.108523
 31
0.0
  0
LINE
  5
508
330
1F
100
AcDbEntity
  8
LC-001-100-D00-0
 62
     7
370
    50
100
AcDbLine
 10
188.405266
 20
511.108523
 30
0.0
 11
187.405249
 21
512.108523
 31
0.0
  0
LINE
  5
509
330
1F
100
AcDbEntity
  8
LC-001-100-D00-0
 62
     7
370
    50
100
AcDbLine
 10
188.405262
 20
496.508523
 30
0.0
 11
188.405266
 21
511.108523
 31
0.0
  0
ARC
  5
50A
330
1F
100
AcDbEntity
  8
LC-001-100-D00-0
 62
     7
370
    50
100
AcDbCircle
 10
189.405262
 20
495.008523
 30
0.0
 40
1.802775637732562
100
AcDbArc
 50
123.690068
 51
236.309932
  0
LINE
  5
50B
330
1F
100
AcDbEntity
  8
LC-001-100-D00-0
 62
     7
370
    50
100
AcDbLine
 10
188.90526
 20
493.508524
 30
0.0
 11
188.405262
 21
493.508523
 31
0.0
  0
LINE
  5
50C
330
1F
100
AcDbEntity
  8
LC-001-100-D00-0
 62
     7
370
    50
100
AcDbLine
 10
188.90526
 20
493.508524
 30
0.0
 11
188.90526
 21
492.108523
 31
0.0
  0
LINE
  5
50D
330
1F
100
AcDbEntity
  8
LC-001-100-D00-0
 62
     7
370
    50
100
AcDbLine
 10
188.90526
 20
492.108523
 30
0.0
 11
364.905259
 21
492.108523
 31
0.0
  0
LINE
  5
50E
330
1F
100
AcDbEntity
  8
LC-001-100-D00-0
 62
     7
370
    50
100
AcDbLine
 10
364.905259
 20
492.108523
 30
0.0
 11
364.905259
 21
493.508524
 31
0.0
  0
LINE
  5
50F
330
1F
100
AcDbEntity
  8
LC-001-100-D00-0
 62
     7
370
    50
100
AcDbLine
 10
365.405262
 20
493.508523
 30
0.0
 11
364.905259
 21
493.508524
 31
0.0
  0
ARC
  5
510
330
1F
100
AcDbEntity
  8
LC-001-100-D00-0
 62
     7
370
    50
100
AcDbCircle
 10
364.405262
 20
495.008523
 30
0.0
 40
1.802775637731679
100
AcDbArc
 50
303.690068
 51
56.309932
  0
LINE
  5
511
330
1F
100
AcDbEntity
  8
LC-001-100-D00-0
 62
     7
370
    50
100
AcDbLine
 10
365.405252
 20
511.108523
 30
0.0
 11
365.405262
 21
496.508523
 31
0.0
  0
LINE
  5
512
330
1F
100
AcDbEntity
  8
LC-001-100-D00-0
 62
     7
370
    50
100
AcDbLine
 10
366.405269
 20
512.108523
 30
0.0
 11
365.405252
 21
511.108523
 31
0.0
  0
LINE
  5
513
330
1F
100
AcDbEntity
  8
LC-001-100-D00-0
 62
     7
370
    50
100
AcDbLine
 10
372.405252
 20
512.108523
 30
0.0
 11
366.405269
 21
512.108523
 31
0.0
  0
LINE
  5
514
330
1F
100
AcDbEntity
  8
LC-001-100-D00-0
 62
     7
370
    50
100
AcDbLine
 10
373.405269
 20
511.108523
 30
0.0
 11
372.405252
 21
512.108523
 31
0.0
  0
LINE
  5
515
330
1F
100
AcDbEntity
  8
LC-001-100-D00-0
 62
     7
370
    50
100
AcDbLine
 10
373.405262
 20
496.508523
 30
0.0
 11
373.405269
 21
511.108523
 31
0.0
  0
ARC
  5
516
330
1F
100
AcDbEntity
  8
LC-001-100-D00-0
 62
     7
370
    50
100
AcDbCircle
 10
374.405262
 20
495.008523
 30
0.0
 40
1.802775637732058
100
AcDbArc
 50
123.690068
 51
236.309932
  0
LINE
  5
517
330
1F
100
AcDbEntity
  8
LC-001-100-D00-0
 62
     7
370
    50
100
AcDbLine
 10
373.905262
 20
493.508524
 30
0.0
 11
373.405262
 21
493.508523
 31
0.0
  0
LINE
  5
518
330
1F
100
AcDbEntity
  8
LC-001-100-D00-0
 62
     7
370
    50
100
AcDbLine
 10
373.905262
 20
493.508524
 30
0.0
 11
373.905262
 21
492.108523
 31
0.0
  0
LINE
  5
519
330
1F
100
AcDbEntity
  8
LC-001-100-D00-0
 62
     7
370
    50
100
AcDbLine
 10
373.905262
 20
492.108523
 30
0.0
 11
391.405262
 21
492.108523
 31
0.0
  0
ARC
  5
51A
330
1F
100
AcDbEntity
  8
LC-001-100-D00-0
 62
     7
370
    50
100
AcDbCircle
 10
391.405262
 20
500.108523
 30
0.0
 40
8.0
100
AcDbArc
 50
270.0
 51
0.0
  0
LINE
  5
51B
330
1F
100
AcDbEntity
  8
LC-001-100-D00-0
 62
     7
370
    50
100
AcDbLine
 10
399.405262
 20
500.108523
 30
0.0
 11
399.405262
 21
509.608523
 31
0.0
  0
ARC
  5
51C
330
1F
100
AcDbEntity
  8
LC-001-100-D00-0
 62
     7
370
    50
100
AcDbCircle
 10
402.405262
 20
509.608523
 30
0.0
 40
2.999999999999773
100
AcDbArc
 50
90.0
 51
180.0
  0
LINE
  5
51D
330
1F
100
AcDbEntity
  8
LC-001-100-D00-0
 62
     7
370
    50
100
AcDbLine
 10
449.405262
 20
512.608523
 30
0.0
 11
402.405262
 21
512.608523
 31
0.0
  0
LINE
  5
51E
330
1F
100
AcDbEntity
  8
LC-001-100-D00-0
 62
     7
370
    50
100
AcDbLine
 10
449.405274
 20
511.108523
 30
0.0
 11
449.405262
 21
512.608523
 31
0.0
  0
LINE
  5
51F
330
1F
100
AcDbEntity
  8
LC-001-100-D00-0
 62
     7
370
    50
100
AcDbLine
 10
449.405274
 20
511.108523
 30
0.0
 11
402.405262
 21
511.108523
 31
0.0
  0
ARC
  5
520
330
1F
100
AcDbEntity
  8
LC-001-100-D00-0
 62
     7
370
    50
100
AcDbCircle
 10
402.405262
 20
509.608523
 30
0.0
 40
1.5
100
AcDbArc
 50
90.0
 51
180.0
  0
LINE
  5
521
330
1F
100
AcDbEntity
  8
LC-001-100-D00-0
 62
     7
370
    50
100
AcDbLine
 10
400.905262
 20
500.108523
 30
0.0
 11
400.905262
 21
509.608523
 31
0.0
  0
ARC
  5
522
330
1F
100
AcDbEntity
  8
LC-001-100-D00-0
 62
     7
370
    50
100
AcDbCircle
 10
391.405262
 20
500.108523
 30
0.0
 40
9.499999999999773
100
AcDbArc
 50
270.0
 51
0.0
  0
LINE
  5
523
330
1F
100
AcDbEntity
  8
LC-001-100-D00-0
 62
     7
370
    50
100
AcDbLine
 10
-6.605353
 20
490.608523
 30
0.0
 11
391.405262
 21
490.608523
 31
0.0
  0
ARC
  5
524
330
1F
100
AcDbEntity
  8
LC-001-100-D00-0
 62
     7
370
    50
100
AcDbCircle
 10
-6.605353
 20
488.108523
 30
0.0
 40
2.5
100
AcDbArc
 50
90.0
 51
105.0
  0
LINE
  5
525
330
1F
100
AcDbEntity
  8
LC-001-100-D00-0
 62
     7
370
    50
100
AcDbLine
 10
-56.200855
 20
487.108523
 30
0.0
 11
-42.794738
 21
487.108523
 31
0.0
  0
LINE
  5
526
330
1F
100
AcDbEntity
  8
LC-001-100-D00-0
 62
     7
370
    50
100
AcDbLine
 10
-45.294738
 20
480.608523
 30
0.0
 11
-45.494738
 21
480.608523
 31
0.0
  0
LINE
  5
527
330
1F
100
AcDbEntity
  8
LC-001-100-D00-0
 62
     7
370
    50
100
AcDbLine
 10
-157.394739
 20
480.608522
 30
0.0
 11
-157.394738
 21
484.608523
 31
0.0
  0
LINE
  5
528
330
1F
100
AcDbEntity
  8
LC-001-100-D00-0
 62
     7
370
    50
100
AcDbLine
 10
-155.694738
 20
480.608523
 30
0.0
 11
-155.894738
 21
480.608523
 31
0.0
  0
LINE
  5
529
330
1F
100
AcDbEntity
  8
LC-001-100-D00-0
 62
     7
370
    50
100
AcDbLine
 10
-155.894738
 20
480.608523
 30
0.0
 11
-155.894738
 21
484.608523
 31
0.0
  0
LINE
  5
52A
330
1F
100
AcDbEntity
  8
LC-001-100-D00-0
 62
     7
370
    50
100
AcDbLine
 10
-566.094735
 20
493.508524
 30
0.0
 11
-566.594738
 21
493.508523
 31
0.0
  0
LINE
  5
52B
330
1F
100
AcDbEntity
  8
LC-001-100-D00-0
 62
     7
370
    50
100
AcDbLine
 10
-566.094735
 20
493.508524
 30
0.0
 11
-566.094735
 21
492.108523
 31
0.0
  0
LINE
  5
52C
330
1F
100
AcDbEntity
  8
LC-001-100-D00-0
 62
     7
370
    50
100
AcDbLine
 10
-566.094735
 20
492.108523
 30
0.0
 11
-390.094736
 21
492.108523
 31
0.0
  0
LINE
  5
52D
330
1F
100
AcDbEntity
  8
LC-001-100-D00-0
 62
     7
370
    50
100
AcDbLine
 10
-390.094736
 20
492.108523
 30
0.0
 11
-390.094736
 21
493.508524
 31
0.0
  0
LINE
  5
52E
330
1F
100
AcDbEntity
  8
LC-001-100-D00-0
 62
     7
370
    50
100
AcDbLine
 10
-389.594738
 20
493.508523
 30
0.0
 11
-390.094736
 21
493.508524
 31
0.0
  0
ARC
  5
52F
330
1F
100
AcDbEntity
  8
LC-001-100-D00-0
 62
     7
370
    50
100
AcDbCircle
 10
-390.594738
 20
495.008523
 30
0.0
 40
1.802775637732184
100
AcDbArc
 50
303.690068
 51
56.309932
  0
LINE
  5
530
330
1F
100
AcDbEntity
  8
LC-001-100-D00-0
 62
     7
370
    50
100
AcDbLine
 10
-389.594743
 20
511.108523
 30
0.0
 11
-389.594738
 21
496.508523
 31
0.0
  0
LINE
  5
531
330
1F
100
AcDbEntity
  8
LC-001-100-D00-0
 62
     7
370
    50
100
AcDbLine
 10
-388.594726
 20
512.108523
 30
0.0
 11
-389.594743
 21
511.108523
 31
0.0
  0
LINE
  5
532
330
1F
100
AcDbEntity
  8
LC-001-100-D00-0
 62
     7
370
    50
100
AcDbLine
 10
-382.594744
 20
512.108523
 30
0.0
 11
-388.594726
 21
512.108523
 31
0.0
  0
LINE
  5
533
330
1F
100
AcDbEntity
  8
LC-001-100-D00-0
 62
     7
370
    50
100
AcDbLine
 10
-381.594727
 20
511.108523
 30
0.0
 11
-382.594744
 21
512.108523
 31
0.0
  0
LINE
  5
534
330
1F
100
AcDbEntity
  8
LC-001-100-D00-0
 62
     7
370
    50
100
AcDbLine
 10
-381.594738
 20
496.508523
 30
0.0
 11
-381.594727
 21
511.108523
 31
0.0
  0
ARC
  5
535
330
1F
100
AcDbEntity
  8
LC-001-100-D00-0
 62
     7
370
    50
100
AcDbCircle
 10
-380.594738
 20
495.008523
 30
0.0
 40
1.802775637732152
100
AcDbArc
 50
123.690068
 51
236.309932
  0
LINE
  5
536
330
1F
100
AcDbEntity
  8
LC-001-100-D00-0
 62
     7
370
    50
100
AcDbLine
 10
-381.094733
 20
493.508524
 30
0.0
 11
-381.594738
 21
493.508523
 31
0.0
  0
LINE
  5
537
330
1F
100
AcDbEntity
  8
LC-001-100-D00-0
 62
     7
370
    50
100
AcDbLine
 10
-381.094733
 20
493.508524
 30
0.0
 11
-381.094733
 21
492.108523
 31
0.0
  0
LINE
  5
538
330
1F
100
AcDbEntity
  8
LC-001-100-D00-0
 62
     7
370
    50
100
AcDbLine
 10
-381.094733
 20
492.108523
 30
0.0
 11
-205.094741
 21
492.108523
 31
0.0
  0
LINE
  5
539
330
1F
100
AcDbEntity
  8
LC-001-100-D00-0
 62
     7
370
    50
100
AcDbLine
 10
-205.094741
 20
492.108523
 30
0.0
 11
-205.094741
 21
493.508524
 31
0.0
  0
LINE
  5
53A
330
1F
100
AcDbEntity
  8
LC-001-100-D00-0
 62
     7
370
    50
100
AcDbLine
 10
-204.594738
 20
493.508523
 30
0.0
 11
-205.094741
 21
493.508524
 31
0.0
  0
ARC
  5
53B
330
1F
100
AcDbEntity
  8
LC-001-100-D00-0
 62
     7
370
    50
100
AcDbCircle
 10
-205.594738
 20
495.008523
 30
0.0
 40
1.802775637732184
100
AcDbArc
 50
303.690068
 51
56.309932
  0
LINE
  5
53C
330
1F
100
AcDbEntity
  8
LC-001-100-D00-0
 62
     7
370
    50
100
AcDbLine
 10
-204.59474
 20
511.108523
 30
0.0
 11
-204.594738
 21
496.508523
 31
0.0
  0
LINE
  5
53D
330
1F
100
AcDbEntity
  8
LC-001-100-D00-0
 62
     7
370
    50
100
AcDbLine
 10
-203.594738
 20
512.108523
 30
0.0
 11
-204.59474
 21
511.108523
 31
0.0
  0
LINE
  5
53E
330
1F
100
AcDbEntity
  8
LC-001-100-D00-0
 62
     7
370
    50
100
AcDbLine
 10
-197.594741
 20
512.108523
 30
0.0
 11
-203.594738
 21
512.108523
 31
0.0
  0
LINE
  5
53F
330
1F
100
AcDbEntity
  8
LC-001-100-D00-0
 62
     7
370
    50
100
AcDbLine
 10
-196.594739
 20
511.108523
 30
0.0
 11
-197.594741
 21
512.108523
 31
0.0
  0
LINE
  5
540
330
1F
100
AcDbEntity
  8
LC-001-100-D00-0
 62
     7
370
    50
100
AcDbLine
 10
-196.594738
 20
496.508523
 30
0.0
 11
-196.594739
 21
511.108523
 31
0.0
  0
ARC
  5
541
330
1F
100
AcDbEntity
  8
LC-001-100-D00-0
 62
     7
370
    50
100
AcDbCircle
 10
-195.594738
 20
495.008523
 30
0.0
 40
1.802775637732184
100
AcDbArc
 50
123.690068
 51
236.309932
  0
LINE
  5
542
330
1F
100
AcDbEntity
  8
LC-001-100-D00-0
 62
     7
370
    50
100
AcDbLine
 10
-196.094738
 20
493.508524
 30
0.0
 11
-196.594738
 21
493.508523
 31
0.0
  0
LINE
  5
543
330
1F
100
AcDbEntity
  8
LC-001-100-D00-0
 62
     7
370
    50
100
AcDbLine
 10
-196.094738
 20
493.508524
 30
0.0
 11
-196.094738
 21
492.108523
 31
0.0
  0
LINE
  5
544
330
1F
100
AcDbEntity
  8
LC-001-100-D00-0
 62
     7
370
    50
100
AcDbLine
 10
-196.094738
 20
492.108523
 30
0.0
 11
-194.584124
 21
492.108523
 31
0.0
  0
ARC
  5
545
330
1F
100
AcDbEntity
  8
LC-001-100-D00-0
 62
     7
370
    50
100
AcDbCircle
 10
-194.584124
 20
488.108523
 30
0.0
 40
3.999999999999653
100
AcDbArc
 50
75.0
 51
90.0
  0
LINE
  5
546
330
1F
100
AcDbEntity
  8
LC-001-100-D00-0
 62
     7
370
    50
100
AcDbLine
 10
-175.715176
 20
487.193709
 30
0.0
 11
-193.548847
 21
491.972227
 31
0.0
  0
ARC
  5
547
330
1F
100
AcDbEntity
  8
LC-001-100-D00-0
 62
     7
370
    50
100
AcDbCircle
 10
-175.068128
 20
489.608523
 30
0.0
 40
2.500000000000032
100
AcDbArc
 50
255.0
 51
270.0
  0
LINE
  5
548
330
1F
100
AcDbEntity
  8
LC-001-100-D00-0
 62
     7
370
    50
100
AcDbLine
 10
-169.671947
 20
487.108524
 30
0.0
 11
-175.068128
 21
487.108523
 31
0.0
  0
LINE
  5
549
330
1F
100
AcDbEntity
  8
LC-001-100-D00-0
 62
     7
370
    50
100
AcDbLine
 10
-169.671947
 20
487.008524
 30
0.0
 11
-169.671947
 21
487.108524
 31
0.0
  0
LINE
  5
54A
330
1F
100
AcDbEntity
  8
LC-001-100-D00-0
 62
     7
370
    50
100
AcDbLine
 10
-169.148112
 20
487.008524
 30
0.0
 11
-169.671947
 21
487.008524
 31
0.0
  0
LINE
  5
54B
330
1F
100
AcDbEntity
  8
LC-001-100-D00-0
 62
     7
370
    50
100
AcDbLine
 10
-169.148112
 20
487.108524
 30
0.0
 11
-169.148112
 21
487.008524
 31
0.0
  0
LINE
  5
54C
330
1F
100
AcDbEntity
  8
LC-001-100-D00-0
 62
     7
370
    50
100
AcDbLine
 10
-168.453866
 20
487.108524
 30
0.0
 11
-169.148112
 21
487.108524
 31
0.0
  0
LINE
  5
54D
330
1F
100
AcDbEntity
  8
LC-001-100-D00-0
 62
     7
370
    50
100
AcDbLine
 10
-168.453866
 20
487.008524
 30
0.0
 11
-168.453866
 21
487.108524
 31
0.0
  0
LINE
  5
54E
330
1F
100
AcDbEntity
  8
LC-001-100-D00-0
 62
     7
370
    50
100
AcDbLine
 10
-167.929517
 20
487.008524
 30
0.0
 11
-168.453866
 21
487.008524
 31
0.0
  0
LINE
  5
54F
330
1F
100
AcDbEntity
  8
LC-001-100-D00-0
 62
     7
370
    50
100
AcDbLine
 10
-167.929517
 20
487.108524
 30
0.0
 11
-167.929517
 21
487.008524
 31
0.0
  0
LINE
  5
550
330
1F
100
AcDbEntity
  8
LC-001-100-D00-0
 62
     7
370
    50
100
AcDbLine
 10
-158.394738
 20
487.108523
 30
0.0
 11
-167.929517
 21
487.108524
 31
0.0
  0
ARC
  5
551
330
1F
100
AcDbEntity
  8
LC-001-100-D00-0
 62
     7
370
    50
100
AcDbCircle
 10
-158.394738
 20
484.608523
 30
0.0
 40
2.5
100
AcDbArc
 50
0.0
 51
90.0
  0
LINE
  5
552
330
1F
100
AcDbEntity
  8
LC-001-100-D00-0
 62
     7
370
    50
100
AcDbLine
 10
-155.894738
 20
480.608523
 30
0.0
 11
-157.394739
 21
480.608522
 31
0.0
  0
ARC
  5
553
330
1F
100
AcDbEntity
  8
LC-001-100-D00-0
 62
     7
370
    50
100
AcDbCircle
 10
-158.394738
 20
484.608523
 30
0.0
 40
0.9999999999998863
100
AcDbArc
 50
0.0
 51
90.0
  0
LINE
  5
554
330
1F
100
AcDbEntity
  8
LC-001-100-D00-0
 62
     7
370
    50
100
AcDbLine
 10
-158.394738
 20
485.608523
 30
0.0
 11
-175.068128
 21
485.608523
 31
0.0
  0
ARC
  5
555
330
1F
100
AcDbEntity
  8
LC-001-100-D00-0
 62
     7
370
    50
100
AcDbCircle
 10
-175.068128
 20
489.608523
 30
0.0
 40
4.000000000000092
100
AcDbArc
 50
255.0
 51
270.0
  0
LINE
  5
556
330
1F
100
AcDbEntity
  8
LC-001-100-D00-0
 62
     7
370
    50
100
AcDbLine
 10
-176.103404
 20
485.74482
 30
0.0
 11
-193.937076
 21
490.523338
 31
0.0
  0
ARC
  5
557
330
1F
100
AcDbEntity
  8
LC-001-100-D00-0
 62
     7
370
    50
100
AcDbCircle
 10
-194.584124
 20
488.108523
 30
0.0
 40
2.500000000000062
100
AcDbArc
 50
75.0
 51
90.0
  0
LINE
  5
558
330
1F
100
AcDbEntity
  8
LC-001-100-D00-0
 62
     7
370
    50
100
AcDbLine
 10
-592.594738
 20
490.608523
 30
0.0
 11
-194.584124
 21
490.608523
 31
0.0
  0
ARC
  5
559
330
1F
100
AcDbEntity
  8
LC-001-100-D00-0
 62
     7
370
    50
100
AcDbCircle
 10
-592.594738
 20
500.108523
 30
0.0
 40
9.5
100
AcDbArc
 50
180.0
 51
270.0
  0
LINE
  5
55A
330
1F
100
AcDbEntity
  8
LC-001-100-D00-0
 62
     7
370
    50
100
AcDbLine
 10
-602.094738
 20
509.608523
 30
0.0
 11
-602.094738
 21
500.108523
 31
0.0
  0
ARC
  5
55B
330
1F
100
AcDbEntity
  8
LC-001-100-D00-0
 62
     7
370
    50
100
AcDbCircle
 10
-603.594738
 20
509.608523
 30
0.0
 40
1.5
100
AcDbArc
 50
0.0
 51
90.0
  0
LINE
  5
55C
330
1F
100
AcDbEntity
  8
LC-001-100-D00-0
 62
     7
370
    50
100
AcDbLine
 10
-650.594738
 20
512.608523
 30
0.0
 11
-650.59475
 21
511.108523
 31
0.0
  0
ARC
  5
55D
330
1F
100
AcDbEntity
  8
LC-001-100-D00-0
 62
     7
370
    50
100
AcDbCircle
 10
-603.594738
 20
509.608523
 30
0.0
 40
3.0
100
AcDbArc
 50
0.0
 51
90.0
  0
LINE
  5
55E
330
1F
100
AcDbEntity
  8
LC-001-100-D00-0
 62
     7
370
    50
100
AcDbLine
 10
-600.594738
 20
509.608523
 30
0.0
 11
-600.594738
 21
500.108523
 31
0.0
  0
ARC
  5
55F
330
1F
100
AcDbEntity
  8
LC-001-100-D00-0
 62
     7
370
    50
100
AcDbCircle
 10
-592.594738
 20
500.108523
 30
0.0
 40
8.000000000000114
100
AcDbArc
 50
180.0
 51
270.0
  0
LINE
  5
560
330
1F
100
AcDbEntity
  8
LC-001-100-D00-0
 62
     7
370
    50
100
AcDbLine
 10
-592.594738
 20
492.108523
 30
0.0
 11
-575.094739
 21
492.108523
 31
0.0
  0
LINE
  5
561
330
1F
100
AcDbEntity
  8
LC-001-100-D00-0
 62
     7
370
    50
100
AcDbLine
 10
-575.094739
 20
492.108523
 30
0.0
 11
-575.094739
 21
493.508524
 31
0.0
  0
LINE
  5
562
330
1F
100
AcDbEntity
  8
LC-001-100-D00-0
 62
     7
370
    50
100
AcDbLine
 10
-574.594738
 20
493.508523
 30
0.0
 11
-575.094739
 21
493.508524
 31
0.0
  0
ARC
  5
563
330
1F
100
AcDbEntity
  8
LC-001-100-D00-0
 62
     7
370
    50
100
AcDbCircle
 10
-575.594738
 20
495.008523
 30
0.0
 40
1.802775637732184
100
AcDbArc
 50
303.690068
 51
56.309932
  0
LINE
  5
564
330
1F
100
AcDbEntity
  8
LC-001-100-D00-0
 62
     7
370
    50
100
AcDbLine
 10
-574.594745
 20
511.108523
 30
0.0
 11
-574.594738
 21
496.508523
 31
0.0
  0
LINE
  5
565
330
1F
100
AcDbEntity
  8
LC-001-100-D00-0
 62
     7
370
    50
100
AcDbLine
 10
-573.594728
 20
512.108523
 30
0.0
 11
-574.594745
 21
511.108523
 31
0.0
  0
LINE
  5
566
330
1F
100
AcDbEntity
  8
LC-001-100-D00-0
 62
     7
370
    50
100
AcDbLine
 10
-567.594746
 20
512.108523
 30
0.0
 11
-573.594728
 21
512.108523
 31
0.0
  0
LINE
  5
567
330
1F
100
AcDbEntity
  8
LC-001-100-D00-0
 62
     7
370
    50
100
AcDbLine
 10
-566.594729
 20
511.108523
 30
0.0
 11
-567.594746
 21
512.108523
 31
0.0
  0
LINE
  5
568
330
1F
100
AcDbEntity
  8
LC-001-100-D00-0
 62
     7
370
    50
100
AcDbLine
 10
-566.594738
 20
496.508523
 30
0.0
 11
-566.594729
 21
511.108523
 31
0.0
  0
ARC
  5
569
330
1F
100
AcDbEntity
  8
LC-001-100-D00-0
 62
     7
370
    50
100
AcDbCircle
 10
-565.594738
 20
495.008523
 30
0.0
 40
1.802775637732058
100
AcDbArc
 50
123.690068
 51
236.309932
  0
LINE
  5
56A
330
1F
100
AcDbEntity
  8
LC-001-100-D00-0
 62
     7
370
    50
100
AcDbLine
 10
-603.594738
 20
512.608523
 30
0.0
 11
-650.594738
 21
512.608523
 31
0.0
  0
LINE
  5
56B
330
1F
100
AcDbEntity
  8
LC-001-100-D00-0
 62
     7
370
    50
100
AcDbLine
 10
-603.594738
 20
511.108523
 30
0.0
 11
-650.59475
 21
511.108523
 31
0.0
  0
LINE
  5
56C
330
1F
100
AcDbEntity
  8
LC-001-100-D00-0
 62
     7
370
    50
100
AcDbLine
 10
-144.988622
 20
487.108523
 30
0.0
 11
-158.394738
 21
487.108523
 31
0.0
  0
LINE
  5
56D
330
1F
100
AcDbEntity
  8
LC-001-100-D00-0
 62
     7
370
    50
100
AcDbLine
 10
-168.453866
 20
487.108524
 30
0.0
 11
-167.929517
 21
487.108524
 31
0.0
  0
LINE
  5
56E
330
1F
100
AcDbEntity
  8
LC-001-100-D00-0
 62
     7
370
    50
100
AcDbLine
 10
-169.671947
 20
487.108524
 30
0.0
 11
-169.148112
 21
487.108524
 31
0.0
  0
ELLIPSE
  5
56F
330
1F
100
AcDbEntity
  8
LC-001-100-D00-0
 62
     7
370
    50
100
AcDbEllipse
 10
254.427079
 20
488.108523
 30
0.0
 11
0.0
 21
-2.500000186920159
 31
0.0
210
0.0
220
0.0
230
1.0
 40
0.027578
 41
0.0000000000070082
 42
0.3217505544061403
  0
ELLIPSE
  5
570
330
1F
100
AcDbEntity
  8
LC-001-100-D00-0
 62
     7
370
    50
100
AcDbEllipse
 10
-455.616555
 20
488.108523
 30
0.0
 11
0.0
 21
-2.5
 31
0.0
210
0.0
220
0.0
230
0.9999999999999999
 40
0.027578
 41
5.961434752783306
 42
6.283185307179586
  0
LINE
  5
571
330
1F
100
AcDbEntity
  8
LC-001-100-D00-0
 62
     7
370
    50
100
AcDbLine
 10
254.405251
 20
490.479871
 30
0.0
 11
254.405251
 21
485.814483
 31
0.0
  0
LINE
  5
572
330
1F
100
AcDbEntity
  8
LC-001-100-D00-0
 62
     7
370
    50
100
AcDbLine
 10
-455.594728
 20
490.479871
 30
0.0
 11
-455.594728
 21
485.814483
 31
0.0
  0
INSERT
  5
57C
330
1F
100
AcDbEntity
  8
LC-001-100-D00-0
 62
     7
370
    50
100
AcDbBlockReference
  2
KLON18
 10
0.0
 20
0.0
 30
0.0
  0
INSERT
  5
586
330
1F
100
AcDbEntity
  8
LC-001-100-D00-0
 62
     7
370
    50
100
AcDbBlockReference
  2
KLON19
 10
0.0
 20
0.0
 30
0.0
  0
LINE
  5
587
330
1F
100
AcDbEntity
  8
LC-001-100-D00-0
 62
     7
370
    50
100
AcDbLine
 10
254.405251
 20
485.608523
 30
0.0
 11
254.405221
 21
485.81379
 31
0.0
  0
LINE
  5
588
330
1F
100
AcDbEntity
  8
LC-001-100-D00-0
 62
     7
370
    50
100
AcDbLine
 10
254.405251
 20
485.608523
 30
0.0
 11
382.312944
 21
490.276688
 31
0.0
  0
LINE
  5
589
330
1F
100
AcDbEntity
  8
LC-001-100-D00-0
 62
     7
370
    50
100
AcDbLine
 10
-455.594728
 20
485.608523
 30
0.0
 11
-455.594698
 21
485.81379
 31
0.0
  0
LINE
  5
58A
330
1F
100
AcDbEntity
  8
LC-001-100-D00-0
 62
     7
370
    50
100
AcDbLine
 10
-455.594728
 20
485.608523
 30
0.0
 11
-583.502421
 21
490.276688
 31
0.0
  0
LINE
  5
58B
330
1F
100
AcDbEntity
  8
LC-001-100-D00-0
 62
     7
370
    50
100
AcDbLine
 10
-58.808582
 20
478.608523
 30
0.0
 11
-56.506872
 21
478.608523
 31
0.0
  0
LINE
  5
58C
330
1F
100
AcDbEntity
  8
LC-001-100-D00-0
 62
     7
370
    50
100
AcDbLine
 10
-55.444823
 20
477.108523
 30
0.0
 11
-55.349236
 21
477.116584
 31
0.0
  0
LINE
  5
58D
330
1F
100
AcDbEntity
  8
LC-001-100-D00-0
 62
     7
370
    50
100
AcDbLine
 10
-55.444823
 20
477.108523
 30
0.0
 11
-58.808582
 21
477.108523
 31
0.0
  0
LINE
  5
58E
330
1F
100
AcDbEntity
  8
LC-001-100-D00-0
 62
     7
370
    50
100
AcDbLine
 10
-145.84024
 20
477.116584
 30
0.0
 11
-145.744654
 21
477.108523
 31
0.0
  0
LINE
  5
58F
330
1F
100
AcDbEntity
  8
LC-001-100-D00-0
 62
     7
370
    50
100
AcDbLine
 10
-142.380895
 20
477.108523
 30
0.0
 11
-145.744654
 21
477.108523
 31
0.0
  0
LINE
  5
590
330
1F
100
AcDbEntity
  8
LC-001-100-D00-0
 62
     7
370
    50
100
AcDbLine
 10
-144.682605
 20
478.608523
 30
0.0
 11
-142.380895
 21
478.608523
 31
0.0
  0
LINE
  5
591
330
1F
100
AcDbEntity
  8
LC-001-100-D00-0
 62
     7
370
    50
100
AcDbLine
 10
-58.808582
 20
478.608523
 30
0.0
 11
-59.58551
 21
478.608523
 31
0.0
  0
LINE
  5
592
330
1F
100
AcDbEntity
  8
LC-001-100-D00-0
 62
     7
370
    50
100
AcDbLine
 10
-58.808582
 20
477.108523
 30
0.0
 11
-59.58551
 21
477.108523
 31
0.0
  0
LINE
  5
593
330
1F
100
AcDbEntity
  8
LC-001-100-D00-0
 62
     7
370
    50
100
AcDbLine
 10
-142.380895
 20
477.108523
 30
0.0
 11
-141.603967
 21
477.108523
 31
0.0
  0
LINE
  5
594
330
1F
100
AcDbEntity
  8
LC-001-100-D00-0
 62
     7
370
    50
100
AcDbLine
 10
-142.380895
 20
478.608523
 30
0.0
 11
-141.603967
 21
478.608523
 31
0.0
  0
LINE
  5
595
330
1F
100
AcDbEntity
  8
LC-001-100-D00-0
 62
     7
370
    50
100
AcDbLine
 10
-26.121348
 20
485.608523
 30
0.0
 11
-24.020748
 21
485.608523
 31
0.0
  0
LINE
  5
596
330
1F
100
AcDbEntity
  8
LC-001-100-D00-0
 62
     7
370
    50
100
AcDbLine
 10
-175.068128
 20
485.608523
 30
0.0
 11
-177.168729
 21
485.608523
 31
0.0
  0
LINE
  5
597
330
1F
100
AcDbEntity
  8
LC-001-100-D00-0
 62
     7
370
    50
100
AcDbLine
 10
-60.855937
 20
478.608523
 30
0.0
 11
-59.58551
 21
478.608523
 31
0.0
  0
LINE
  5
598
330
1F
100
AcDbEntity
  8
LC-001-100-D00-0
 62
     7
370
    50
100
AcDbLine
 10
-59.58551
 20
477.108523
 30
0.0
 11
-60.880323
 21
477.108523
 31
0.0
  0
LINE
  5
599
330
1F
100
AcDbEntity
  8
LC-001-100-D00-0
 62
     7
370
    50
100
AcDbLine
 10
-140.309153
 20
477.108523
 30
0.0
 11
-141.603967
 21
477.108523
 31
0.0
  0
LINE
  5
59A
330
1F
100
AcDbEntity
  8
LC-001-100-D00-0
 62
     7
370
    50
100
AcDbLine
 10
-141.603967
 20
478.608523
 30
0.0
 11
-140.33354
 21
478.608523
 31
0.0
  0
LINE
  5
59B
330
1F
100
AcDbEntity
  8
LC-001-100-D00-0
 62
     7
370
    50
100
AcDbLine
 10
-24.020748
 20
485.608523
 30
0.0
 11
-6.094942
 21
485.608523
 31
0.0
  0
LINE
  5
59C
330
1F
100
AcDbEntity
  8
LC-001-100-D00-0
 62
     7
370
    50
100
AcDbLine
 10
12.087515
 20
485.608523
 30
0.0
 11
254.405251
 21
485.608523
 31
0.0
  0
LINE
  5
59D
330
1F
100
AcDbEntity
  8
LC-001-100-D00-0
 62
     7
370
    50
100
AcDbLine
 10
-177.168729
 20
485.608523
 30
0.0
 11
-455.594728
 21
485.608523
 31
0.0
  0
ARC
  5
59E
330
1F
100
AcDbEntity
  8
LC-001-100-D00-0
 62
     7
370
    50
100
AcDbCircle
 10
-56.079111
 20
478.542675
 30
0.0
 40
1.602014939990651
100
AcDbArc
 50
297.103406
 51
2.355668
  0
INSERT
  5
5A7
330
1F
100
AcDbEntity
  8
LC-001-100-D00-0
 62
     7
370
    50
100
AcDbBlockReference
  2
KLON20
 10
0.0
 20
0.0
 30
0.0
  0
INSERT
  5
5B4
330
1F
100
AcDbEntity
  8
LC-001-100-D00-0
 62
     7
370
    50
100
AcDbBlockReference
  2
KLON21
 10
0.0
 20
0.0
 30
0.0
  0
INSERT
  5
5C1
330
1F
100
AcDbEntity
  8
LC-001-100-D00-0
 62
     7
370
    50
100
AcDbBlockReference
  2
KLON22
 10
0.0
 20
0.0
 30
0.0
  0
LINE
  5
5C2
330
1F
100
AcDbEntity
  8
LC-001-100-D00-0
 62
     7
370
    50
100
AcDbLine
 10
396.905262
 20
512.608523
 30
0.0
 11
402.405262
 21
512.608523
 31
0.0
  0
LINE
  5
5C3
330
1F
100
AcDbEntity
  8
LC-001-100-D00-0
 62
     7
370
    50
100
AcDbLine
 10
-598.094738
 20
512.608523
 30
0.0
 11
-603.594738
 21
512.608523
 31
0.0
  0
LINE
  5
5C4
330
1F
100
AcDbEntity
  8
LC-001-100-D00-0
 62
     7
370
    50
100
AcDbLine
 10
396.905262
 20
512.608523
 30
0.0
 11
386.655262
 21
512.608523
 31
0.0
  0
LINE
  5
5C5
330
1F
100
AcDbEntity
  8
LC-001-100-D00-0
 62
     7
370
    50
100
AcDbLine
 10
352.155262
 20
512.608523
 30
0.0
 11
201.655262
 21
512.608523
 31
0.0
  0
LINE
  5
5C6
330
1F
100
AcDbEntity
  8
LC-001-100-D00-0
 62
     7
370
    50
100
AcDbLine
 10
167.155262
 20
512.608523
 30
0.0
 11
16.655262
 21
512.608523
 31
0.0
  0
LINE
  5
5C7
330
1F
100
AcDbEntity
  8
LC-001-100-D00-0
 62
     7
370
    50
100
AcDbLine
 10
-17.844738
 20
512.608523
 30
0.0
 11
-183.344738
 21
512.608523
 31
0.0
  0
LINE
  5
5C8
330
1F
100
AcDbEntity
  8
LC-001-100-D00-0
 62
     7
370
    50
100
AcDbLine
 10
-217.844738
 20
512.608523
 30
0.0
 11
-368.344738
 21
512.608523
 31
0.0
  0
LINE
  5
5C9
330
1F
100
AcDbEntity
  8
LC-001-100-D00-0
 62
     7
370
    50
100
AcDbLine
 10
-402.844738
 20
512.608523
 30
0.0
 11
-553.344738
 21
512.608523
 31
0.0
  0
LINE
  5
5CA
330
1F
100
AcDbEntity
  8
LC-001-100-D00-0
 62
     7
370
    50
100
AcDbLine
 10
-587.844738
 20
512.608523
 30
0.0
 11
-598.094738
 21
512.608523
 31
0.0
  0
LINE
  5
5CB
330
1F
100
AcDbEntity
  8
LC-001-100-D00-0
 62
     7
370
    50
100
AcDbLine
 10
-650.594738
 20
512.608523
 30
0.0
 11
-650.594738
 21
514.108523
 31
0.0
  0
LINE
  5
5CC
330
1F
100
AcDbEntity
  8
LC-001-100-D00-0
 62
     7
370
    50
100
AcDbLine
 10
449.405262
 20
514.108523
 30
0.0
 11
449.405262
 21
512.608523
 31
0.0
  0
ARC
  5
5CD
330
1F
100
AcDbEntity
  8
LC-001-100-D00-0
 62
     7
370
    50
100
AcDbCircle
 10
-645.594738
 20
552.608523
 30
0.0
 40
5.0
100
AcDbArc
 50
90.0
 51
180.0
  0
LINE
  5
5CE
330
1F
100
AcDbEntity
  8
LC-001-100-D00-0
 62
     7
370
    50
100
AcDbLine
 10
-645.594738
 20
557.608523
 30
0.0
 11
444.405262
 21
557.608523
 31
0.0
  0
ARC
  5
5CF
330
1F
100
AcDbEntity
  8
LC-001-100-D00-0
 62
     7
370
    50
100
AcDbCircle
 10
444.405262
 20
552.608523
 30
0.0
 40
5.0
100
AcDbArc
 50
0.0
 51
90.0
  0
LINE
  5
5D0
330
1F
100
AcDbEntity
  8
LC-001-100-D00-0
 62
     7
370
    50
100
AcDbLine
 10
-650.594738
 20
552.608523
 30
0.0
 11
-650.594738
 21
514.108523
 31
0.0
  0
LINE
  5
5D1
330
1F
100
AcDbEntity
  8
LC-001-100-D00-0
 62
     7
370
    50
100
AcDbLine
 10
449.405262
 20
552.608523
 30
0.0
 11
449.405262
 21
514.108523
 31
0.0
  0
DIMENSION
  5
5D2
330
1F
100
AcDbEntity
  8
LC-001-100-D00-0
 62
     7
370
    25
100
AcDbDimension
  2
*D27
 10
599.334034
 20
455.108523
 30
0.0
 11
544.334034
 21
514.120225
 31
0.0
 70
   160
  1
57,5
 71
     5
 42
57.5
 53
90.0
  3
LC-DIM-L-0100-02-02
100
AcDbAlignedDimension
 13
449.405262
 23
512.608523
 33
0.0
 14
115.405059
 24
455.108523
 34
0.0
 50
90.0
100
AcDbRotatedDimension
  0
DIMENSION
  5
5E0
330
1F
100
AcDbEntity
  8
LC-001-100-D00-0
 62
     7
370
    25
100
AcDbDimension
  2
*D28
 10
670.25198
 20
422.608523
 30
0.0
 11
615.25198
 21
462.145225
 31
0.0
 70
   160
  1
90
 71
     5
 42
90.0
 53
90.0
  3
LC-DIM-L-0100-02-02
100
AcDbAlignedDimension
 13
449.405262
 23
512.608523
 33
0.0
 14
-46.576858
 24
422.608523
 34
0.0
 50
90.0
100
AcDbRotatedDimension
  0
DIMENSION
  5
5EF
330
1F
100
AcDbEntity
  8
LC-001-100-D00-0
 62
     7
370
    25
100
AcDbDimension
  2
*D29
 10
521.767532
 20
430.108523
 30
0.0
 11
466.767532
 21
520.060225
 31
0.0
 70
   160
  1
DN50
 71
     5
 42
50.0
 53
90.0
  3
LC-DIM-L-0100-02-02
100
AcDbAlignedDimension
 13
105.405059
 23
480.108523
 33
0.0
 14
105.405059
 24
430.108523
 34
0.0
 50
90.0
100
AcDbRotatedDimension
  0
DIMENSION
  5
5FD
330
1F
100
AcDbEntity
  8
LC-001-100-D00-0
 62
     7
370
    25
100
AcDbDimension
  2
*D30
 10
449.405262
 20
649.255225
 30
0.0
 11
-98.764489
 21
704.255225
 31
0.0
 70
   160
  1
1100
 71
     5
 42
1100.0
  3
LC-DIM-L-0100-02-02
100
AcDbAlignedDimension
 13
-650.594738
 23
552.608523
 33
0.0
 14
449.405262
 24
552.608523
 34
0.0
100
AcDbRotatedDimension
  0
DIMENSION
  5
60A
330
1F
100
AcDbEntity
  8
LC-001-100-D00-0
 62
     7
370
    25
100
AcDbDimension
  2
*D31
 10
399.405262
 20
572.686386
 30
0.0
 11
-102.811112
 21
627.686386
 31
0.0
 70
   160
  1
1000
 71
     5
 42
1000.0
  3
LC-DIM-L-0100-02-02
100
AcDbAlignedDimension
 13
-600.594738
 23
509.608523
 33
0.0
 14
399.405262
 24
509.608523
 34
0.0
100
AcDbRotatedDimension
  0
DIMENSION
  5
617
330
1F
100
AcDbEntity
  8
LC-001-100-D00-0
 62
     7
370
    25
100
AcDbDimension
  2
*D32
 10
108.905059
 20
331.465225
 30
0.0
 11
-50.008402
 21
386.465225
 31
0.0
 70
   160
  1
284
 71
     5
 42
283.499797
  3
LC-DIM-L-0100-02-02
100
AcDbAlignedDimension
 13
-174.594738
 23
441.608523
 33
0.0
 14
108.905059
 24
431.046346
 34
0.0
100
AcDbRotatedDimension
  0
DIMENSION
  5
624
330
1F
100
AcDbEntity
  8
LC-001-100-D00-0
 62
     7
370
    25
100
AcDbDimension
  2
*D33
 10
-229.51945
 20
471.108523
 30
0.0
 11
-284.51945
 21
384.925225
 31
0.0
 70
   160
  1
30
 71
     5
 42
30.0
 53
90.0
  3
LC-DIM-L-0100-02-02
100
AcDbAlignedDimension
 13
-129.594738
 23
441.108523
 33
0.0
 14
-133.547172
 24
471.108523
 34
0.0
 50
90.0
100
AcDbRotatedDimension
  0
DIMENSION
  5
632
330
1F
100
AcDbEntity
  8
LC-001-100-D00-0
 62
     7
370
    25
100
AcDbDimension
  2
*D34
 10
-688.068192
 20
557.608523
 30
0.0
 11
-743.068192
 21
536.266224
 31
0.0
 70
   160
  1
46
 71
     5
 42
45.0
 53
90.0
  3
LC-DIM-L-0100-02-02
100
AcDbAlignedDimension
 13
-650.594738
 23
512.608523
 33
0.0
 14
-645.594738
 24
557.608523
 34
0.0
 50
90.0
100
AcDbRotatedDimension
  0
INSERT
  5
65D
330
1F
100
AcDbEntity
  8
LC-001-100-D00-0
 62
     7
370
    50
100
AcDbBlockReference
  2
KLON23
 10
0.0
 20
0.0
 30
0.0
  0
INSERT
  5
67A
330
1F
100
AcDbEntity
  8
LC-001-100-D00-0
 62
     7
370
    50
100
AcDbBlockReference
  2
KLON24
 10
0.0
 20
0.0
 30
0.0
  0
INSERT
  5
688
330
1F
100
AcDbEntity
  8
LC-001-100-D00-0
 62
     7
370
    50
100
AcDbBlockReference
  2
KLON25
 10
0.0
 20
0.0
 30
0.0
  0
INSERT
  5
68E
330
1F
100
AcDbEntity
  8
LC-001-100-D00-0
 62
     7
370
    50
100
AcDbBlockReference
  2
KLON26
 10
0.0
 20
0.0
 30
0.0
  0
LINE
  5
68F
330
1F
100
AcDbEntity
  8
LC-001-100-D00-0
 62
     7
370
    50
100
AcDbLine
 10
-40.884758
 20
481.608523
 30
0.0
 11
-36.884759
 21
485.608523
 31
0.0
  0
LINE
  5
690
330
1F
100
AcDbEntity
  8
LC-001-100-D00-0
 62
     7
370
    50
100
AcDbLine
 10
-174.594738
 20
482.60238
 30
0.0
 11
-171.588595
 21
485.608523
 31
0.0
  0
INSERT
  5
697
330
1F
100
AcDbEntity
  8
LC-001-100-D00-0
 62
     7
370
    50
100
AcDbBlockReference
  2
KLON27
 10
0.0
 20
0.0
 30
0.0
  0
INSERT
  5
69F
330
1F
100
AcDbEntity
  8
LC-001-100-D00-0
 62
     7
370
    50
100
AcDbBlockReference
  2
KLON28
 10
0.0
 20
0.0
 30
0.0
  0
INSERT
  5
6AC
330
1F
100
AcDbEntity
  8
LC-001-100-D00-0
 62
     7
370
    50
100
AcDbBlockReference
  2
KLON29
 10
0.0
 20
0.0
 30
0.0
  0
INSERT
  5
6B3
330
1F
100
AcDbEntity
  8
LC-001-100-D00-0
 62
     7
370
    50
100
AcDbBlockReference
  2
KLON30
 10
0.0
 20
0.0
 30
0.0
  0
INSERT
  5
6BA
330
1F
100
AcDbEntity
  8
LC-001-100-D00-0
 62
     7
370
    50
100
AcDbBlockReference
  2
KLON31
 10
0.0
 20
0.0
 30
0.0
  0
INSERT
  5
6C0
330
1F
100
AcDbEntity
  8
LC-001-100-D00-0
 62
     7
370
    50
100
AcDbBlockReference
  2
KLON32
 10
0.0
 20
0.0
 30
0.0
  0
LINE
  5
6C1
330
1F
100
AcDbEntity
  8
LC-001-100-D00-0
 62
     7
370
    50
100
AcDbLine
 10
3.305262
 20
503.347905
 30
0.0
 11
12.565879
 21
512.608523
 31
0.0
  0
LINE
  5
6C2
330
1F
100
AcDbEntity
  8
LC-001-100-D00-0
 62
     7
370
    50
100
AcDbLine
 10
-6.43412
 20
493.608523
 30
0.0
 11
-3.994738
 21
496.047905
 31
0.0
  0
LINE
  5
6C3
330
1F
100
AcDbEntity
  8
LC-001-100-D00-0
 62
     7
370
    50
100
AcDbLine
 10
359.655262
 20
500.487674
 30
0.0
 11
365.505262
 21
506.337674
 31
0.0
  0
INSERT
  5
6C9
330
1F
100
AcDbEntity
  8
LC-001-100-D00-0
 62
     7
370
    50
100
AcDbBlockReference
  2
KLON33
 10
0.0
 20
0.0
 30
0.0
  0
LINE
  5
6CA
330
1F
100
AcDbEntity
  8
LC-001-100-D00-0
 62
     7
370
    50
100
AcDbLine
 10
375.226752
 20
493.608523
 30
0.0
 11
375.756115
 21
494.137887
 31
0.0
  0
LINE
  5
6CB
330
1F
100
AcDbEntity
  8
LC-001-100-D00-0
 62
     7
370
    50
100
AcDbLine
 10
-395.361784
 20
508.792371
 30
0.0
 11
-391.545632
 21
512.608523
 31
0.0
  0
INSERT
  5
6D1
330
1F
100
AcDbEntity
  8
LC-001-100-D00-0
 62
     7
370
    50
100
AcDbBlockReference
  2
KLON34
 10
0.0
 20
0.0
 30
0.0
  0
LINE
  5
6D2
330
1F
100
AcDbEntity
  8
LC-001-100-D00-0
 62
     7
370
    50
100
AcDbLine
 10
-382.194738
 20
499.508776
 30
0.0
 11
-380.094991
 21
501.608523
 31
0.0
  0
LINE
  5
6D3
330
1F
100
AcDbEntity
  8
LC-001-100-D00-0
 62
     7
370
    50
100
AcDbLine
 10
-580.344738
 20
503.414532
 30
0.0
 11
-574.494738
 21
509.264532
 31
0.0
  0
INSERT
  5
6D9
330
1F
100
AcDbEntity
  8
LC-001-100-D00-0
 62
     7
370
    50
100
AcDbBlockReference
  2
KLON35
 10
0.0
 20
0.0
 30
0.0
  0
LINE
  5
6DA
330
1F
100
AcDbEntity
  8
LC-001-100-D00-0
 62
     7
370
    50
100
AcDbLine
 10
-566.947422
 20
494.361208
 30
0.0
 11
-565.28177
 21
496.026861
 31
0.0
  0
INSERT
  5
6E0
330
1F
100
AcDbEntity
  8
LC-001-100-D00-0
 62
     7
370
    50
100
AcDbBlockReference
  2
KLON36
 10
0.0
 20
0.0
 30
0.0
  0
LINE
  5
6E1
330
1F
100
AcDbEntity
  8
LC-001-100-D00-0
 62
     7
370
    50
100
AcDbLine
 10
188.305262
 20
508.74279
 30
0.0
 11
192.170995
 21
512.608523
 31
0.0
  0
LINE
  5
6E2
330
1F
100
AcDbEntity
  8
LC-001-100-D00-0
 62
     7
370
    50
100
AcDbLine
 10
178.915685
 20
499.353213
 30
0.0
 11
180.588129
 21
501.025656
 31
0.0
  0
INSERT
  5
6EA
330
1F
100
AcDbEntity
  8
LC-001-100-D00-0
 62
     7
370
    50
100
AcDbBlockReference
  2
KLON37
 10
0.0
 20
0.0
 30
0.0
  0
LINE
  5
6EB
330
1F
100
AcDbEntity
  8
LC-001-100-D00-0
 62
     7
370
    50
100
AcDbLine
 10
-196.694738
 20
505.403661
 30
0.0
 11
-189.489876
 21
512.608523
 31
0.0
  0
INSERT
  5
6F1
330
1F
100
AcDbEntity
  8
LC-001-100-D00-0
 62
     7
370
    50
100
AcDbBlockReference
  2
KLON38
 10
0.0
 20
0.0
 30
0.0
  0
LINE
  5
6F2
330
1F
100
AcDbEntity
  8
LC-001-100-D00-0
  6
DASHDOT
 62
     7
370
    25
100
AcDbLine
 10
-570.594738
 20
484.608523
 30
0.0
 11
-570.594738
 21
518.608523
 31
0.0
  0
LINE
  5
6F3
330
1F
100
AcDbEntity
  8
LC-001-100-D00-0
  6
DASHDOT
 62
     7
370
    25
100
AcDbLine
 10
-385.594738
 20
484.608523
 30
0.0
 11
-385.594738
 21
518.608523
 31
0.0
  0
LINE
  5
6F4
330
1F
100
AcDbEntity
  8
LC-001-100-D00-0
  6
DASHDOT
 62
     7
370
    25
100
AcDbLine
 10
-200.594738
 20
484.608523
 30
0.0
 11
-200.594738
 21
518.608523
 31
0.0
  0
LINE
  5
6F5
330
1F
100
AcDbEntity
  8
LC-001-100-D00-0
  6
DASHDOT
 62
     7
370
    25
100
AcDbLine
 10
-100.594738
 20
557.608523
 30
0.0
 11
-100.594738
 21
431.108523
 31
0.0
  0
LINE
  5
6F6
330
1F
100
AcDbEntity
  8
LC-001-100-D00-0
  6
DASHDOT
 62
     7
370
    25
100
AcDbLine
 10
115.405059
 20
455.108523
 30
0.0
 11
12.380043
 21
455.108523
 31
0.0
  0
LINE
  5
6F7
330
1F
100
AcDbEntity
  8
LC-001-100-D00-0
  6
DASHDOT
 62
     7
370
    25
100
AcDbLine
 10
-0.594738
 20
484.608523
 30
0.0
 11
-0.594738
 21
518.608523
 31
0.0
  0
LINE
  5
6F8
330
1F
100
AcDbEntity
  8
LC-001-100-D00-0
  6
DASHDOT
 62
     7
370
    25
100
AcDbLine
 10
184.405262
 20
484.608523
 30
0.0
 11
184.405262
 21
518.608523
 31
0.0
  0
LINE
  5
6F9
330
1F
100
AcDbEntity
  8
LC-001-100-D00-0
  6
DASHDOT
 62
     7
370
    25
100
AcDbLine
 10
369.405262
 20
484.608523
 30
0.0
 11
369.405262
 21
518.608523
 31
0.0
  0
ENDSEC
  0
SECTION
  2
OBJECTS
  0
DICTIONARY
  5
C
330
0
100
AcDbDictionary
281
     1
  3
ACAD_GROUP
350
D
  3
ACAD_LAYOUT
350
1A
  3
ACAD_MLINESTYLE
350
17
  3
ACAD_PLOTSETTINGS
350
19
  3
ACAD_PLOTSTYLENAME
350
E
  0
DICTIONARY
  5
D
102
{ACAD_REACTORS
330
C
102
}
330
C
100
AcDbDictionary
281
     1
  0
DICTIONARY
  5
1A
102
{ACAD_REACTORS
330
C
102
}
330
C
100
AcDbDictionary
281
     1
  3
Layout1
350
1E
  3
Layout2
350
26
  3
Model
350
22
  0
DICTIONARY
  5
17
102
{ACAD_REACTORS
330
C
102
}
330
C
100
AcDbDictionary
281
     1
  3
Standard
350
18
  0
DICTIONARY
  5
19
102
{ACAD_REACTORS
330
C
102
}
330
C
100
AcDbDictionary
281
     1
  0
ACDBDICTIONARYWDFLT
  5
E
102
{ACAD_REACTORS
330
C
102
}
330
C
100
AcDbDictionary
281
     1
  3
Normal
350
F
100
AcDbDictionaryWithDefault
340
F
  0
LAYOUT
  5
1E
102
{ACAD_REACTORS
330
1A
102
}
330
1A
100
AcDbPlotSettings
  1

  2

  4

  6

 40
0.0
 41
0.0
 42
0.0
 43
0.0
 44
0.0
 45
0.0
 46
0.0
 47
0.0
 48
0.0
 49
0.0
140
0.0
141
0.0
142
1.0
143
1.0
 70
   688
 72
     0
 73
     0
 74
     5
  7

 75
    16
147
1.0
148
0.0
149
0.0
100
AcDbLayout
  1
Layout1
 70
     1
 71
     1
 10
-858.444151
 20
-612.994775
 11
1241.555849
 21
872.005225
 12
0.0
 22
0.0
 32
0.0
 14
-858.444151
 24
-612.994775
 34
0.0
 15
1241.555849
 25
872.005225
 35
0.0
146
0.0
 13
0.0
 23
0.0
 33
0.0
 16
1.0
 26
0.0
 36
0.0
 17
0.0
 27
1.0
 37
0.0
 76
     0
330
1B
  0
LAYOUT
  5
26
102
{ACAD_REACTORS
330
1A
102
}
330
1A
100
AcDbPlotSettings
  1

  2

  4

  6

 40
0.0
 41
0.0
 42
0.0
 43
0.0
 44
0.0
 45
0.0
 46
0.0
 47
0.0
 48
0.0
 49
0.0
140
0.0
141
0.0
142
1.0
143
1.0
 70
   688
 72
     0
 73
     0
 74
     5
  7

 75
    16
147
1.0
148
0.0
149
0.0
100
AcDbLayout
  1
Layout2
 70
     1
 71
     2
 10
0.0
 20
0.0
 11
0.0
 21
0.0
 12
0.0
 22
0.0
 32
0.0
 14
0.0
 24
0.0
 34
0.0
 15
0.0
 25
0.0
 35
0.0
146
0.0
 13
0.0
 23
0.0
 33
0.0
 16
1.0
 26
0.0
 36
0.0
 17
0.0
 27
1.0
 37
0.0
 76
     0
330
23
  0
LAYOUT
  5
22
102
{ACAD_REACTORS
330
1A
102
}
330
1A
100
AcDbPlotSettings
  1

  2

  4

  6

 40
0.0
 41
0.0
 42
0.0
 43
0.0
 44
0.0
 45
0.0
 46
0.0
 47
0.0
 48
0.0
 49
0.0
140
0.0
141
0.0
142
1.0
143
1.0
 70
  1776
 72
     0
 73
     0
 74
     0
  7

 75
     0
147
1.0
148
0.0
149
0.0
100
AcDbLayout
  1
Model
 70
     1
 71
     0
 10
-858.444151
 20
-612.994775
 11
1241.555849
 21
872.005225
 12
0.0
 22
0.0
 32
0.0
 14
-858.444151
 24
-612.994775
 34
0.0
 15
1241.555849
 25
872.005225
 35
0.0
146
0.0
 13
0.0
 23
0.0
 33
0.0
 16
1.0
 26
0.0
 36
0.0
 17
0.0
 27
1.0
 37
0.0
 76
     0
330
1F
  0
MLINESTYLE
  5
18
102
{ACAD_REACTORS
330
17
102
}
330
17
100
AcDbMlineStyle
  2
Standard
 70
     0
  3

 62
   256
 51
90.0
 52
90.0
 71
     2
 49
0.5
 62
   256
  6
BYLAYER
 49
-0.5
 62
   256
  6
BYLAYER
  0
ACDBPLACEHOLDER
  5
F
102
{ACAD_REACTORS
330
E
102
}
330
E
  0
ENDSEC
  0
EOF
