  0
SECTION
  2
HEADER
  9
$ACADVER
  1
AC1027
  9
$ACADMAINTVER
 70
   105
  9
$DWGCODEPAGE
  3
ANSI_1252
  9
$REQUIREDVERSIONS
160
                 0
  9
$INSBASE
 10
0.0
 20
0.0
 30
0.0
  9
$EXTMIN
 10
0.0
 20
0.0
 30
0.0
  9
$EXTMAX
 10
840.0
 20
594.0
 30
0.0
  9
$LIMMIN
 10
0.0
 20
0.0
  9
$LIMMAX
 10
840.0
 20
594.0
  9
$ORTHOMODE
 70
     0
  9
$REGENMODE
 70
     1
  9
$FILLMODE
 70
     1
  9
$QTEXTMODE
 70
     0
  9
$MIRRTEXT
 70
     1
  9
$LTSCALE
 40
2.0
  9
$ATTMODE
 70
     1
  9
$TEXTSIZE
 40
7.0
  9
$TRACEWID
 40
1.0
  9
$TEXTSTYLE
  7
Standard
  9
$CLAYER
  8
0
  9
$CELTYPE
  6
ByLayer
  9
$CECOLOR
 62
   256
  9
$CELTSCALE
 40
1.0
  9
$DISPSILH
 70
     0
  9
$DIMSCALE
 40
1.0
  9
$DIMASZ
 40
14.0
  9
$DIMEXO
 40
2.0
  9
$DIMDLI
 40
3.75
  9
$DIMRND
 40
0.0
  9
$DIMDLE
 40
0.0
  9
$DIMEXE
 40
2.0
  9
$DIMTP
 40
0.0
  9
$DIMTM
 40
0.0
  9
$DIMTXT
 40
14.0
  9
$DIMCEN
 40
2.5
  9
$DIMTSZ
 40
0.0
  9
$DIMTOL
 70
     0
  9
$DIMLIM
 70
     0
  9
$DIMTIH
 70
     1
  9
$DIMTOH
 70
     1
  9
$DIMSE1
 70
     0
  9
$DIMSE2
 70
     0
  9
$DIMTAD
 70
     1
  9
$DIMZIN
 70
     1
  9
$DIMBLK
  1

  9
$DIMASO
 70
     1
  9
$DIMSHO
 70
     1
  9
$DIMPOST
  1

  9
$DIMAPOST
  1

  9
$DIMALT
 70
     0
  9
$DIMALTD
 70
     3
  9
$DIMALTF
 40
0.0393700787
  9
$DIMLFAC
 40
1.0
  9
$DIMTOFL
 70
     1
  9
$DIMTVP
 40
0.0
  9
$DIMTIX
 70
     0
  9
$DIMSOXD
 70
     0
  9
$DIMSAH
 70
     0
  9
$DIMBLK1
  1

  9
$DIMBLK2
  1

  9
$DIMSTYLE
  2
ISO-25
  9
$DIMCLRD
 70
     0
  9
$DIMCLRE
 70
     0
  9
$DIMCLRT
 70
     0
  9
$DIMTFAC
 40
1.0
  9
$DIMGAP
 40
3.048
  9
$DIMJUST
 70
     0
  9
$DIMSD1
 70
     0
  9
$DIMSD2
 70
     0
  9
$DIMTOLJ
 70
     0
  9
$DIMTZIN
 70
     1
  9
$DIMALTZ
 70
     0
  9
$DIMALTTZ
 70
     0
  9
$DIMUPT
 70
     0
  9
$DIMDEC
 70
     2
  9
$DIMTDEC
 70
     2
  9
$DIMALTU
 70
     2
  9
$DIMALTTD
 70
     3
  9
$DIMTXSTY
  7
Standard
  9
$DIMAUNIT
 70
     0
  9
$DIMADEC
 70
     2
  9
$DIMALTRND
 40
0.0
  9
$DIMAZIN
 70
     0
  9
$DIMDSEP
 70
    44
  9
$DIMATFIT
 70
     3
  9
$DIMFRAC
 70
     0
  9
$DIMLDRBLK
  1

  9
$DIMLUNIT
 70
     2
  9
$DIMLWD
 70
    -2
  9
$DIMLWE
 70
    -2
  9
$DIMTMOVE
 70
     0
  9
$DIMFXL
 40
1.0
  9
$DIMFXLON
 70
     0
  9
$DIMJOGANG
 40
0.7853981634
  9
$DIMTFILL
 70
     0
  9
$DIMTFILLCLR
 70
     0
  9
$DIMARCSYM
 70
     0
  9
$DIMLTYPE
  6

  9
$DIMLTEX1
  6

  9
$DIMLTEX2
  6

  9
$DIMTXTDIRECTION
 70
     0
  9
$LUNITS
 70
     2
  9
$LUPREC
 70
     2
  9
$SKETCHINC
 40
1.0
  9
$FILLETRAD
 40
10.0
  9
$AUNITS
 70
     0
  9
$AUPREC
 70
     2
  9
$MENU
  1
.
  9
$ELEVATION
 40
0.0
  9
$PELEVATION
 40
0.0
  9
$THICKNESS
 40
0.0
  9
$LIMCHECK
 70
     0
  9
$CHAMFERA
 40
0.0
  9
$CHAMFERB
 40
0.0
  9
$CHAMFERC
 40
0.0
  9
$CHAMFERD
 40
0.0
  9
$SKPOLY
 70
     0
  9
$TDCREATE
 40
2458897.423902269
  9
$TDUCREATE
 40
2458897.382235602
  9
$TDUPDATE
 40
2458897.423904977
  9
$TDUUPDATE
 40
2458897.38223831
  9
$TDINDWG
 40
0.0000000116
  9
$TDUSRTIMER
 40
0.0000000116
  9
$USRTIMER
 70
     1
  9
$ANGBASE
 50
0.0
  9
$ANGDIR
 70
     0
  9
$PDMODE
 70
     0
  9
$PDSIZE
 40
-1.0
  9
$PLINEWID
 40
0.0
  9
$SPLFRAME
 70
     0
  9
$SPLINETYPE
 70
     6
  9
$SPLINESEGS
 70
     8
  9
$HANDSEED
  5
2D0
  9
$SURFTAB1
 70
     6
  9
$SURFTAB2
 70
     6
  9
$SURFTYPE
 70
     6
  9
$SURFU
 70
     6
  9
$SURFV
 70
     6
  9
$UCSBASE
  2

  9
$UCSNAME
  2

  9
$UCSORG
 10
0.0
 20
0.0
 30
0.0
  9
$UCSXDIR
 10
1.0
 20
0.0
 30
0.0
  9
$UCSYDIR
 10
0.0
 20
1.0
 30
0.0
  9
$UCSORTHOREF
  2

  9
$UCSORTHOVIEW
 70
     0
  9
$UCSORGTOP
 10
0.0
 20
0.0
 30
0.0
  9
$UCSORGBOTTOM
 10
0.0
 20
0.0
 30
0.0
  9
$UCSORGLEFT
 10
0.0
 20
0.0
 30
0.0
  9
$UCSORGRIGHT
 10
0.0
 20
0.0
 30
0.0
  9
$UCSORGFRONT
 10
0.0
 20
0.0
 30
0.0
  9
$UCSORGBACK
 10
0.0
 20
0.0
 30
0.0
  9
$PUCSBASE
  2

  9
$PUCSNAME
  2

  9
$PUCSORG
 10
0.0
 20
0.0
 30
0.0
  9
$PUCSXDIR
 10
1.0
 20
0.0
 30
0.0
  9
$PUCSYDIR
 10
0.0
 20
1.0
 30
0.0
  9
$PUCSORTHOREF
  2

  9
$PUCSORTHOVIEW
 70
     0
  9
$PUCSORGTOP
 10
0.0
 20
0.0
 30
0.0
  9
$PUCSORGBOTTOM
 10
0.0
 20
0.0
 30
0.0
  9
$PUCSORGLEFT
 10
0.0
 20
0.0
 30
0.0
  9
$PUCSORGRIGHT
 10
0.0
 20
0.0
 30
0.0
  9
$PUCSORGFRONT
 10
0.0
 20
0.0
 30
0.0
  9
$PUCSORGBACK
 10
0.0
 20
0.0
 30
0.0
  9
$USERI1
 70
     0
  9
$USERI2
 70
     0
  9
$USERI3
 70
     0
  9
$USERI4
 70
     0
  9
$USERI5
 70
     0
  9
$USERR1
 40
0.0
  9
$USERR2
 40
0.0
  9
$USERR3
 40
0.0
  9
$USERR4
 40
0.0
  9
$USERR5
 40
0.0
  9
$WORLDVIEW
 70
     1
  9
$SHADEDGE
 70
     3
  9
$SHADEDIF
 70
    70
  9
$TILEMODE
 70
     1
  9
$MAXACTVP
 70
    64
  9
$PINSBASE
 10
0.0
 20
0.0
 30
0.0
  9
$PLIMCHECK
 70
     0
  9
$PEXTMIN
 10
1.0000000000E+20
 20
1.0000000000E+20
 30
1.0000000000E+20
  9
$PEXTMAX
 10
-1.0000000000E+20
 20
-1.0000000000E+20
 30
-1.0000000000E+20
  9
$PLIMMIN
 10
0.0
 20
0.0
  9
$PLIMMAX
 10
420.0
 20
297.0
  9
$UNITMODE
 70
     0
  9
$VISRETAIN
 70
     1
  9
$PLINEGEN
 70
     0
  9
$PSLTSCALE
 70
     1
  9
$TREEDEPTH
 70
  3020
  9
$CMLSTYLE
  2
Standard
  9
$CMLJUST
 70
     0
  9
$CMLSCALE
 40
20.0
  9
$PROXYGRAPHICS
 70
     1
  9
$MEASUREMENT
 70
     1
  9
$CELWEIGHT
370
    -1
  9
$ENDCAPS
280
     0
  9
$JOINSTYLE
280
     0
  9
$LWDISPLAY
290
     1
  9
$INSUNITS
 70
     4
  9
$HYPERLINKBASE
  1

  9
$STYLESHEET
  1

  9
$XEDIT
290
     1
  9
$CEPSNTYPE
380
     0
  9
$PSTYLEMODE
290
     1
  9
$FINGERPRINTGUID
  2
{874C0533-3AA6-4909-9053-0FDBAC647FF4}
  9
$VERSIONGUID
  2
{FAEB1C32-E019-11D5-929B-00C0DF256EC4}
  9
$EXTNAMES
290
     1
  9
$PSVPSCALE
 40
0.0
  9
$OLESTARTUP
290
     0
  9
$SORTENTS
280
   127
  9
$INDEXCTL
280
     0
  9
$HIDETEXT
280
     1
  9
$XCLIPFRAME
280
     2
  9
$HALOGAP
280
     0
  9
$OBSCOLOR
 70
   257
  9
$OBSLTYPE
280
     0
  9
$INTERSECTIONDISPLAY
280
     0
  9
$INTERSECTIONCOLOR
 70
   257
  9
$DIMASSOC
280
     2
  9
$PROJECTNAME
  1

  9
$CAMERADISPLAY
290
     0
  9
$LENSLENGTH
 40
50.0
  9
$CAMERAHEIGHT
 40
0.0
  9
$STEPSPERSEC
 40
2.0
  9
$STEPSIZE
 40
6.0
  9
$3DDWFPREC
 40
2.0
  9
$PSOLWIDTH
 40
5.0
  9
$PSOLHEIGHT
 40
80.0
  9
$LOFTANG1
 40
1.5707963268
  9
$LOFTANG2
 40
1.5707963268
  9
$LOFTMAG1
 40
0.0
  9
$LOFTMAG2
 40
0.0
  9
$LOFTPARAM
 70
     7
  9
$LOFTNORMALS
280
     1
  9
$LATITUDE
 40
37.795
  9
$LONGITUDE
 40
-122.394
  9
$NORTHDIRECTION
 40
0.0
  9
$TIMEZONE
 70
 -8000
  9
$LIGHTGLYPHDISPLAY
280
     1
  9
$TILEMODELIGHTSYNCH
280
     1
  9
$CMATERIAL
347
44
  9
$SOLIDHIST
280
     0
  9
$SHOWHIST
280
     1
  9
$DWFFRAME
280
     2
  9
$DGNFRAME
280
     2
  9
$REALWORLDSCALE
290
     1
  9
$INTERFERECOLOR
 62
   256
  9
$CSHADOW
280
     0
  9
$SHADOWPLANELOCATION
 40
0.0
  0
ENDSEC
  0
SECTION
  2
CLASSES
  0
CLASS
  1
ACDBDICTIONARYWDFLT
  2
AcDbDictionaryWithDefault
  3
ObjectDBX Classes
 90
        0
 91
        4
280
     0
281
     0
  0
CLASS
  1
VISUALSTYLE
  2
AcDbVisualStyle
  3
ObjectDBX Classes
 90
     4095
 91
        4
280
     0
281
     0
  0
CLASS
  1
MATERIAL
  2
AcDbMaterial
  3
ObjectDBX Classes
 90
     1153
 91
        4
280
     0
281
     0
  0
CLASS
  1
SCALE
  2
AcDbScale
  3
ObjectDBX Classes
 90
     1153
 91
        4
280
     0
281
     0
  0
CLASS
  1
TABLESTYLE
  2
AcDbTableStyle
  3
ObjectDBX Classes
 90
     4095
 91
        4
280
     0
281
     0
  0
CLASS
  1
MLEADERSTYLE
  2
AcDbMLeaderStyle
  3
ACDB_MLEADERSTYLE_CLASS
 90
     4095
 91
        4
280
     0
281
     0
  0
CLASS
  1
SUN
  2
AcDbSun
  3
SCENEOE
 90
     1153
 91
        4
280
     0
281
     0
  0
CLASS
  1
DICTIONARYVAR
  2
AcDbDictionaryVar
  3
ObjectDBX Classes
 90
        0
 91
        4
280
     0
281
     0
  0
CLASS
  1
CELLSTYLEMAP
  2
AcDbCellStyleMap
  3
ObjectDBX Classes
 90
     1152
 91
        4
280
     0
281
     0
  0
ENDSEC
  0
SECTION
  2
TABLES
  0
TABLE
  2
VPORT
  5
8
330
0
100
AcDbSymbolTable
 70
     1
  0
VPORT
  5
29
330
8
100
AcDbSymbolTableRecord
100
AcDbViewportTableRecord
  2
*Active
 70
     0
 10
0.0
 20
0.0
 11
1.0
 21
1.0
 12
420.0
 22
297.0
 13
0.0
 23
0.0
 14
10.0
 24
10.0
 15
10.0
 25
10.0
 16
0.0
 26
0.0
 36
1.0
 17
0.0
 27
0.0
 37
0.0
 40
594.0
 41
1.4141414141
 42
50.0
 43
0.0
 44
0.0
 50
0.0
 51
0.0
 71
     0
 72
  2000
 73
     1
 74
     3
 75
     0
 76
     0
 77
     0
 78
     0
281
     0
 65
     1
110
0.0
120
0.0
130
0.0
111
1.0
121
0.0
131
0.0
112
0.0
122
1.0
132
0.0
 79
     0
146
0.0
348
2F
 60
     3
 61
     5
292
     1
282
     1
141
0.0
142
0.0
 63
   250
361
6D
  0
ENDTAB
  0
TABLE
  2
LTYPE
  5
5
330
0
100
AcDbSymbolTable
 70
     8
  0
LTYPE
  5
14
330
5
100
AcDbSymbolTableRecord
100
AcDbLinetypeTableRecord
  2
ByBlock
 70
     0
  3

 72
    65
 73
     0
 40
0.0
  0
LTYPE
  5
15
330
5
100
AcDbSymbolTableRecord
100
AcDbLinetypeTableRecord
  2
ByLayer
 70
     0
  3

 72
    65
 73
     0
 40
0.0
  0
LTYPE
  5
16
330
5
100
AcDbSymbolTableRecord
100
AcDbLinetypeTableRecord
  2
Continuous
 70
     0
  3
Solid line
 72
    65
 73
     0
 40
0.0
  0
LTYPE
  5
6E
330
5
100
AcDbSymbolTableRecord
100
AcDbLinetypeTableRecord
  2
SLD-Durchgehend
 70
     0
  3
SolidWorks Line Style
 72
    65
 73
     0
 40
0.0
  0
LTYPE
  5
6F
330
5
100
AcDbSymbolTableRecord
100
AcDbLinetypeTableRecord
  2
SLD-Gestrichelt
 70
     0
  3
SolidWorks Line Style
 72
    65
 73
     2
 40
1.905
 49
1.27
 74
     0
 49
-0.635
 74
     0
  0
LTYPE
  5
70
330
5
100
AcDbSymbolTableRecord
100
AcDbLinetypeTableRecord
  2
SLD-Phantom
 70
     0
  3
SolidWorks Line Style
 72
    65
 73
     6
 40
12.7
 49
6.35
 74
     0
 49
-1.27
 74
     0
 49
1.27
 74
     0
 49
-1.27
 74
     0
 49
1.27
 74
     0
 49
-1.27
 74
     0
  0
LTYPE
  5
71
330
5
100
AcDbSymbolTableRecord
100
AcDbLinetypeTableRecord
  2
SLD-Kette
 70
     0
  3
SolidWorks Line Style
 72
    65
 73
     4
 40
10.16
 49
6.35
 74
     0
 49
-1.27
 74
     0
 49
1.27
 74
     0
 49
-1.27
 74
     0
  0
LTYPE
  5
72
330
5
100
AcDbSymbolTableRecord
100
AcDbLinetypeTableRecord
  2
SLD-Punktstrich
 70
     0
  3
SolidWorks Line Style
 72
    65
 73
     4
 40
19.05
 49
15.24
 74
     0
 49
-1.27
 74
     0
 49
1.27
 74
     0
 49
-1.27
 74
     0
  0
LTYPE
  5
73
330
5
100
AcDbSymbolTableRecord
100
AcDbLinetypeTableRecord
  2
SLD-Naht
 70
     0
  3
SolidWorks Line Style
 72
    65
 73
     2
 40
0.635
 49
0.0
 74
     0
 49
-0.635
 74
     0
  0
LTYPE
  5
74
330
5
100
AcDbSymbolTableRecord
100
AcDbLinetypeTableRecord
  2
SLD-Dicke-Dünne-Kette
 70
     0
  3
SolidWorks Line Style
 72
    65
 73
     4
 40
10.16
 49
6.35
 74
     0
 49
-1.27
 74
     0
 49
1.27
 74
     0
 49
-1.27
 74
     0
  0
ENDTAB
  0
TABLE
  2
LAYER
  5
2
330
0
100
AcDbSymbolTable
 70
     1
  0
LAYER
  5
10
330
2
100
AcDbSymbolTableRecord
100
AcDbLayerTableRecord
  2
0
 70
     0
 62
     7
  6
Continuous
370
    -3
390
F
347
46
348
0
  0
ENDTAB
  0
TABLE
  2
STYLE
  5
3
330
0
100
AcDbSymbolTable
 70
     3
  0
STYLE
  5
11
330
3
100
AcDbSymbolTableRecord
100
AcDbTextStyleTableRecord
  2
Standard
 70
     0
 40
0.0
 41
1.0
 50
0.0
 71
     0
 42
7.0
  3
txt
  4

  0
STYLE
  5
161
330
3
100
AcDbSymbolTableRecord
100
AcDbTextStyleTableRecord
  2
SLDTEXTSTYLE0
 70
     0
 40
0.0
 41
0.75
 50
0.0
 71
     0
 42
7.0
  3
TXT
  4

  0
STYLE
  5
291
330
3
100
AcDbSymbolTableRecord
100
AcDbTextStyleTableRecord
  2
SLDTEXTSTYLE1
 70
     0
 40
0.0
 41
0.605
 50
0.0
 71
     0
 42
7.0
  3
TXT
  4

  0
ENDTAB
  0
TABLE
  2
VIEW
  5
6
330
0
100
AcDbSymbolTable
 70
     0
  0
ENDTAB
  0
TABLE
  2
UCS
  5
7
330
0
100
AcDbSymbolTable
 70
     0
  0
ENDTAB
  0
TABLE
  2
APPID
  5
9
330
0
100
AcDbSymbolTable
 70
     1
  0
APPID
  5
12
330
9
100
AcDbSymbolTableRecord
100
AcDbRegAppTableRecord
  2
ACAD
 70
     0
  0
ENDTAB
  0
TABLE
  2
DIMSTYLE
  5
A
330
0
100
AcDbSymbolTable
 70
     3
100
AcDbDimStyleTable
  0
DIMSTYLE
105
27
330
A
100
AcDbSymbolTableRecord
100
AcDbDimStyleTableRecord
  2
ISO-25
 70
     0
 41
2.5
 42
0.625
 43
3.75
 44
1.25
 73
     0
 74
     0
 77
     1
 78
     8
140
2.5
141
2.5
143
0.0393700787
147
0.625
171
     3
172
     1
178
     0
271
     2
272
     2
274
     3
278
    44
283
     0
284
     8
340
11
  0
DIMSTYLE
105
292
102
{ACAD_REACTORS
330
290
330
2A4
330
2BB
102
}
330
A
100
AcDbSymbolTableRecord
100
AcDbDimStyleTableRecord
  2
SLDDIMSTYLE0
 70
     0
 41
14.0
 44
0.0
 45
0.000000001
 73
     0
 74
     0
 77
     1
 78
    12
 79
     3
140
14.0
147
3.5
173
     1
178
     0
271
     0
272
     0
276
     2
284
    12
340
291
  0
DIMSTYLE
105
2AF
102
{ACAD_REACTORS
330
2AE
102
}
330
A
100
AcDbSymbolTableRecord
100
AcDbDimStyleTableRecord
  2
SLDDIMSTYLE1
 70
     0
 41
14.0
 44
0.0
 45
0.000000001
 73
     0
 74
     0
 77
     1
 78
    12
 79
     3
140
14.0
147
3.5
172
     1
173
     1
178
     0
271
     0
272
     0
276
     2
284
    12
289
     0
340
291
  0
ENDTAB
  0
TABLE
  2
BLOCK_RECORD
  5
1
330
0
100
AcDbSymbolTable
 70
     6
  0
BLOCK_RECORD
  5
1F
330
1
100
AcDbSymbolTableRecord
100
AcDbBlockTableRecord
  2
*Model_Space
340
22
 70
     0
280
     1
281
     0
  0
BLOCK_RECORD
  5
1B
330
1
100
AcDbSymbolTableRecord
100
AcDbBlockTableRecord
  2
*Paper_Space
340
1E
 70
     0
280
     1
281
     0
  0
BLOCK_RECORD
  5
23
330
1
100
AcDbSymbolTableRecord
100
AcDbBlockTableRecord
  2
*Paper_Space0
340
26
 70
     0
280
     1
281
     0
  0
BLOCK_RECORD
  5
293
330
1
100
AcDbSymbolTableRecord
100
AcDbBlockTableRecord
  2
_D
340
0
 70
     0
280
     1
281
     0
  0
BLOCK_RECORD
  5
29B
330
1
100
AcDbSymbolTableRecord
100
AcDbBlockTableRecord
  2
SW_SYMBOL_MOD_BOX
340
0
102
{BLKREFS
331
2A2
102
}
 70
     0
280
     1
281
     0
  0
BLOCK_RECORD
  5
2A5
330
1
100
AcDbSymbolTableRecord
100
AcDbBlockTableRecord
  2
_D_1
340
0
 70
     0
280
     1
281
     0
  0
BLOCK_RECORD
  5
2B0
330
1
100
AcDbSymbolTableRecord
100
AcDbBlockTableRecord
  2
_D_2
340
0
 70
     0
280
     1
281
     0
  0
BLOCK_RECORD
  5
2BC
330
1
100
AcDbSymbolTableRecord
100
AcDbBlockTableRecord
  2
_D_3
340
0
 70
     0
280
     1
281
     0
  0
ENDTAB
  0
ENDSEC
  0
SECTION
  2
BLOCKS
  0
BLOCK
  5
20
330
1F
100
AcDbEntity
  8
0
100
AcDbBlockBegin
  2
*Model_Space
 70
     0
 10
0.0
 20
0.0
 30
0.0
  3
*Model_Space
  1

  0
ENDBLK
  5
21
330
1F
100
AcDbEntity
  8
0
100
AcDbBlockEnd
  0
BLOCK
  5
1C
330
1B
100
AcDbEntity
 67
     1
  8
0
100
AcDbBlockBegin
  2
*Paper_Space
 70
     0
 10
0.0
 20
0.0
 30
0.0
  3
*Paper_Space
  1

  0
ENDBLK
  5
1D
330
1B
100
AcDbEntity
 67
     1
  8
0
100
AcDbBlockEnd
  0
BLOCK
  5
24
330
23
100
AcDbEntity
  8
0
100
AcDbBlockBegin
  2
*Paper_Space0
 70
     0
 10
0.0
 20
0.0
 30
0.0
  3
*Paper_Space0
  1

  0
ENDBLK
  5
25
330
23
100
AcDbEntity
  8
0
100
AcDbBlockEnd
  0
BLOCK
  5
294
330
293
100
AcDbEntity
  8
0
100
AcDbBlockBegin
  2
_D
 70
     0
 10
0.0
 20
0.0
 30
0.0
  3
_D
  1

  0
SOLID
  5
296
330
293
100
AcDbEntity
  8
0
  6
SLD-Durchgehend
 62
     7
370
    18
100
AcDbTrace
 10
349.8827049755
 20
477.5897808601
 30
0.0
 11
363.8827049755
 21
475.4359347062
 31
0.0
 12
363.8827049755
 22
479.7436270139
 32
0.0
 13
363.8827049755
 23
479.7436270139
 33
0.0
  0
SOLID
  5
297
330
293
100
AcDbEntity
  8
0
  6
SLD-Durchgehend
 62
     7
370
    18
100
AcDbTrace
 10
499.8827049755
 20
477.5897808601
 30
0.0
 11
485.8827049755
 21
479.7436270139
 31
0.0
 12
485.8827049755
 22
475.4359347062
 32
0.0
 13
485.8827049755
 23
475.4359347062
 33
0.0
  0
LINE
  5
298
330
293
100
AcDbEntity
  8
0
  6
SLD-Durchgehend
 62
     7
370
    18
100
AcDbLine
 10
349.8827049755
 20
461.4163559916
 30
0.0
 11
349.8827049755
 21
479.5897808601
 31
0.0
  0
LINE
  5
299
330
293
100
AcDbEntity
  8
0
  6
SLD-Durchgehend
 62
     7
370
    18
100
AcDbLine
 10
499.8827049755
 20
461.4163559916
 30
0.0
 11
499.8827049755
 21
479.5897808601
 31
0.0
  0
LINE
  5
29A
330
293
100
AcDbEntity
  8
0
  6
SLD-Durchgehend
 62
     7
370
    18
100
AcDbLine
 10
349.8827049755
 20
477.5897808601
 30
0.0
 11
499.8827049755
 21
477.5897808601
 31
0.0
  0
INSERT
  5
2A2
330
293
100
AcDbEntity
  8
0
  6
SLD-Durchgehend
 62
     7
370
    18
100
AcDbBlockReference
  2
SW_SYMBOL_MOD_BOX
 10
399.737682329
 20
479.6132550385
 30
0.0
 41
0.0090234742
 42
0.0090234742
 43
0.0090234742
  0
MTEXT
  5
2A3
330
293
100
AcDbEntity
  8
0
  6
SLD-Durchgehend
 62
     7
370
    18
100
AcDbMText
 10
419.0751818432
 20
495.7339518431
 30
0.0
 40
14.0
 41
0.0
 46
0.0
 71
     1
 72
     1
  1
150
  7
SLDTEXTSTYLE1
 73
     1
 44
1.0
  0
ENDBLK
  5
295
330
293
100
AcDbEntity
  8
0
100
AcDbBlockEnd
  0
BLOCK
  5
29C
330
29B
100
AcDbEntity
  8
0
100
AcDbBlockBegin
  2
SW_SYMBOL_MOD_BOX
 70
     0
 10
0.0
 20
0.0
 30
0.0
  3
SW_SYMBOL_MOD_BOX
  1

  0
LINE
  5
29E
330
29B
100
AcDbEntity
  8
0
  6
SLD-Durchgehend
 62
     0
370
    18
100
AcDbLine
 10
400.0
 20
400.0
 30
0.0
 11
1600.0
 21
400.0
 31
0.0
  0
LINE
  5
29F
330
29B
100
AcDbEntity
  8
0
  6
SLD-Durchgehend
 62
     0
370
    18
100
AcDbLine
 10
400.0
 20
400.0
 30
0.0
 11
400.0
 21
1600.0
 31
0.0
  0
LINE
  5
2A0
330
29B
100
AcDbEntity
  8
0
  6
SLD-Durchgehend
 62
     0
370
    18
100
AcDbLine
 10
400.0
 20
1600.0
 30
0.0
 11
1600.0
 21
1600.0
 31
0.0
  0
LINE
  5
2A1
330
29B
100
AcDbEntity
  8
0
  6
SLD-Durchgehend
 62
     0
370
    18
100
AcDbLine
 10
1600.0
 20
1600.0
 30
0.0
 11
1600.0
 21
400.0
 31
0.0
  0
ENDBLK
  5
29D
330
29B
100
AcDbEntity
  8
0
100
AcDbBlockEnd
  0
BLOCK
  5
2A6
330
2A5
100
AcDbEntity
  8
0
100
AcDbBlockBegin
  2
_D_1
 70
     0
 10
0.0
 20
0.0
 30
0.0
  3
_D_1
  1

  0
SOLID
  5
2A8
330
2A5
100
AcDbEntity
  8
0
  6
SLD-Durchgehend
 62
     7
370
    18
100
AcDbTrace
 10
362.3827049755
 20
406.3163559916
 30
0.0
 11
376.3827049755
 21
404.1625098377
 31
0.0
 12
376.3827049755
 22
408.4702021454
 32
0.0
 13
376.3827049755
 23
408.4702021454
 33
0.0
  0
SOLID
  5
2A9
330
2A5
100
AcDbEntity
  8
0
  6
SLD-Durchgehend
 62
     7
370
    18
100
AcDbTrace
 10
487.3827049755
 20
406.3163559916
 30
0.0
 11
473.3827049755
 21
408.4702021454
 31
0.0
 12
473.3827049755
 22
404.1625098377
 32
0.0
 13
473.3827049755
 23
404.1625098377
 33
0.0
  0
LINE
  5
2AA
330
2A5
100
AcDbEntity
  8
0
  6
SLD-Durchgehend
 62
     7
370
    18
100
AcDbLine
 10
362.3827049755
 20
424.5663559916
 30
0.0
 11
362.3827049755
 21
404.3163559916
 31
0.0
  0
LINE
  5
2AB
330
2A5
100
AcDbEntity
  8
0
  6
SLD-Durchgehend
 62
     7
370
    18
100
AcDbLine
 10
487.3827049755
 20
424.5663559916
 30
0.0
 11
487.3827049755
 21
404.3163559916
 31
0.0
  0
LINE
  5
2AC
330
2A5
100
AcDbEntity
  8
0
  6
SLD-Durchgehend
 62
     7
370
    18
100
AcDbLine
 10
362.3827049755
 20
406.3163559916
 30
0.0
 11
487.3827049755
 21
406.3163559916
 31
0.0
  0
MTEXT
  5
2AD
330
2A5
100
AcDbEntity
  8
0
  6
SLD-Durchgehend
 62
     7
370
    18
100
AcDbMText
 10
409.4064311548
 20
424.3633043484
 30
0.0
 40
14.0
 41
0.0
 46
0.0
 71
     1
 72
     1
  1
125
  7
SLDTEXTSTYLE1
 73
     1
 44
1.0
  0
ENDBLK
  5
2A7
330
2A5
100
AcDbEntity
  8
0
100
AcDbBlockEnd
  0
BLOCK
  5
2B1
330
2B0
100
AcDbEntity
  8
0
100
AcDbBlockBegin
  2
_D_2
 70
     0
 10
0.0
 20
0.0
 30
0.0
  3
_D_2
  1

  0
SOLID
  5
2B3
330
2B0
100
AcDbEntity
  8
0
  6
SLD-Durchgehend
 62
     7
370
    18
100
AcDbTrace
 10
509.6725047794
 20
465.3163559916
 30
0.0
 11
511.8263509332
 21
479.3163559916
 31
0.0
 12
507.5186586255
 22
479.3163559916
 32
0.0
 13
507.5186586255
 23
479.3163559916
 33
0.0
  0
SOLID
  5
2B4
330
2B0
100
AcDbEntity
  8
0
  6
SLD-Durchgehend
 62
     7
370
    18
100
AcDbTrace
 10
509.6725047794
 20
457.3163559916
 30
0.0
 11
507.5186586255
 21
443.3163559916
 31
0.0
 12
511.8263509332
 22
443.3163559916
 32
0.0
 13
511.8263509332
 23
443.3163559916
 33
0.0
  0
LINE
  5
2B5
330
2B0
100
AcDbEntity
  8
0
  6
SLD-Durchgehend
 62
     7
370
    18
100
AcDbLine
 10
498.6327049755
 20
465.3163559916
 30
0.0
 11
511.6725047794
 21
465.3163559916
 31
0.0
  0
LINE
  5
2B6
330
2B0
100
AcDbEntity
  8
0
  6
SLD-Durchgehend
 62
     7
370
    18
100
AcDbLine
 10
500.3827049755
 20
457.3163559916
 30
0.0
 11
511.6725047794
 21
457.3163559916
 31
0.0
  0
LINE
  5
2B7
330
2B0
100
AcDbEntity
  8
0
  6
SLD-Durchgehend
 62
     7
370
    18
100
AcDbLine
 10
509.6725047794
 20
465.3163559916
 30
0.0
 11
509.6725047794
 21
492.2394329147
 31
0.0
  0
LINE
  5
2B8
330
2B0
100
AcDbEntity
  8
0
  6
SLD-Durchgehend
 62
     7
370
    18
100
AcDbLine
 10
509.6725047794
 20
465.3163559916
 30
0.0
 11
509.6725047794
 21
457.3163559916
 31
0.0
  0
LINE
  5
2B9
330
2B0
100
AcDbEntity
  8
0
  6
SLD-Durchgehend
 62
     7
370
    18
100
AcDbLine
 10
509.6725047794
 20
457.3163559916
 30
0.0
 11
509.6725047794
 21
433.2958764161
 31
0.0
  0
MTEXT
  5
2BA
330
2B0
100
AcDbEntity
  8
0
  6
SLD-Durchgehend
 62
     7
370
    18
100
AcDbMText
 10
491.6255564226
 20
433.2958764161
 30
0.0
 40
14.0
 41
0.0
 46
0.0
 71
     1
 72
     1
  1
8
  7
SLDTEXTSTYLE1
 11
-7.932373437343760E-15
 21
1.0
 31
0.0
 73
     1
 44
1.0
  0
ENDBLK
  5
2B2
330
2B0
100
AcDbEntity
  8
0
100
AcDbBlockEnd
  0
BLOCK
  5
2BD
330
2BC
100
AcDbEntity
  8
0
100
AcDbBlockBegin
  2
_D_3
 70
     0
 10
0.0
 20
0.0
 30
0.0
  3
_D_3
  1

  0
SOLID
  5
2BF
330
2BC
100
AcDbEntity
  8
0
  6
SLD-Durchgehend
 62
     7
370
    18
100
AcDbTrace
 10
531.8827049755
 20
465.3163559916
 30
0.0
 11
529.7288588216
 21
451.3163559916
 31
0.0
 12
534.0365511293
 22
451.3163559916
 32
0.0
 13
534.0365511293
 23
451.3163559916
 33
0.0
  0
SOLID
  5
2C0
330
2BC
100
AcDbEntity
  8
0
  6
SLD-Durchgehend
 62
     7
370
    18
100
AcDbTrace
 10
531.8827049755
 20
426.3163559916
 30
0.0
 11
534.0365511293
 21
440.3163559916
 31
0.0
 12
529.7288588216
 22
440.3163559916
 32
0.0
 13
529.7288588216
 23
440.3163559916
 33
0.0
  0
LINE
  5
2C1
330
2BC
100
AcDbEntity
  8
0
  6
SLD-Durchgehend
 62
     7
370
    18
100
AcDbLine
 10
498.6327049755
 20
465.3163559916
 30
0.0
 11
533.8827049755
 21
465.3163559916
 31
0.0
  0
LINE
  5
2C2
330
2BC
100
AcDbEntity
  8
0
  6
SLD-Durchgehend
 62
     7
370
    18
100
AcDbLine
 10
489.1327049755
 20
426.3163559916
 30
0.0
 11
533.8827049755
 21
426.3163559916
 31
0.0
  0
LINE
  5
2C3
330
2BC
100
AcDbEntity
  8
0
  6
SLD-Durchgehend
 62
     7
370
    18
100
AcDbLine
 10
531.8827049755
 20
465.3163559916
 30
0.0
 11
531.8827049755
 21
426.3163559916
 31
0.0
  0
MTEXT
  5
2C4
330
2BC
100
AcDbEntity
  8
0
  6
SLD-Durchgehend
 62
     7
370
    18
100
AcDbMText
 10
513.8357566187
 20
439.0630647299
 30
0.0
 40
14.0
 41
0.0
 46
0.0
 71
     1
 72
     1
  1
39
  7
SLDTEXTSTYLE1
 11
-7.044195017643634E-15
 21
1.0
 31
0.0
 73
     1
 44
1.0
  0
ENDBLK
  5
2BE
330
2BC
100
AcDbEntity
  8
0
100
AcDbBlockEnd
  0
ENDSEC
  0
SECTION
  2
ENTITIES
  0
CIRCLE
  5
75
330
1F
100
AcDbEntity
  8
0
  6
SLD-Durchgehend
 62
     7
370
    25
100
AcDbCircle
 10
365.8827049755
 20
259.4414435879
 30
0.0
 40
5.374999999999943
  0
CIRCLE
  5
76
330
1F
100
AcDbEntity
  8
0
  6
SLD-Durchgehend
 62
     7
370
    25
100
AcDbCircle
 10
483.8827049755
 20
377.4414435879
 30
0.0
 40
5.375
  0
LINE
  5
77
330
1F
100
AcDbEntity
  8
0
  6
SLD-Durchgehend
 62
     7
370
    25
100
AcDbLine
 10
418.6899448124
 20
311.8928449394
 30
0.0
 11
419.7236713262
 21
312.9265714533
 31
0.0
  0
LINE
  5
78
330
1F
100
AcDbEntity
  8
0
  6
SLD-Durchgehend
 62
     7
370
    25
100
AcDbLine
 10
417.8232685032
 20
312.7595212487
 30
0.0
 11
418.6899448124
 21
311.8928449394
 31
0.0
  0
SPLINE
  5
79
330
1F
100
AcDbEntity
  8
0
  6
SLD-Durchgehend
 62
     7
370
    25
100
AcDbSpline
210
0.0
220
0.0
230
1.0
 70
     8
 71
     3
 72
    11
 73
     7
 74
     0
 42
0.000000001
 43
0.00000001
 40
0.0
 40
0.0
 40
0.0
 40
0.0
 40
0.2919495674567586
 40
0.5660717013347685
 40
0.7792501675821274
 40
1.0
 40
1.0
 40
1.0
 40
1.0
 10
417.8411076692825
 20
313.4292578894654
 30
0.0
 10
417.7955846363496
 20
313.3718150276566
 30
0.0
 10
417.7073183617092
 20
313.2604369605577
 30
0.0
 10
417.6803869367718
 20
313.0617181658938
 30
0.0
 10
417.7200364245491
 20
312.8866237522475
 30
0.0
 10
417.7884598499111
 20
312.8023787308845
 30
0.0
 10
417.8232685031576
 20
312.7595212486573
 30
0.0
  0
LINE
  5
7A
330
1F
100
AcDbEntity
  8
0
  6
SLD-Durchgehend
 62
     7
370
    25
100
AcDbLine
 10
418.1873174463
 20
313.7754676665
 30
0.0
 11
417.8411076693
 21
313.4292578895
 31
0.0
  0
SPLINE
  5
7B
330
1F
100
AcDbEntity
  8
0
  6
SLD-Durchgehend
 62
     7
370
    25
100
AcDbSpline
210
0.0
220
0.0
230
1.0
 70
     8
 71
     3
 72
    11
 73
     7
 74
     0
 42
0.000000001
 43
0.00000001
 40
0.0
 40
0.0
 40
0.0
 40
0.0
 40
0.2923590658637906
 40
0.5666087142990034
 40
0.7800972401032065
 40
1.0
 40
1.0
 40
1.0
 40
1.0
 10
418.8886565833848
 20
313.7615861961497
 30
0.0
 10
418.8282614176527
 20
313.8091660449093
 30
0.0
 10
418.7112121067165
 20
313.9013785331813
 30
0.0
 10
418.5023889463267
 20
313.9266514229123
 30
0.0
 10
418.3199031508013
 20
313.883352070574
 30
0.0
 10
418.2319466030133
 20
313.8117822148359
 30
0.0
 10
418.1873174462958
 20
313.7754676664787
 30
0.0
  0
LINE
  5
7C
330
1F
100
AcDbEntity
  8
0
  6
SLD-Durchgehend
 62
     7
370
    25
100
AcDbLine
 10
419.7236713262
 20
312.9265714533
 30
0.0
 11
418.8886565834
 21
313.7615861961
 31
0.0
  0
ARC
  5
7D
330
1F
100
AcDbEntity
  8
0
  6
SLD-Durchgehend
 62
     7
370
    25
100
AcDbCircle
 10
490.8827049755
 20
384.4414435879
 30
0.0
 40
3.0
100
AcDbArc
 50
0.0
 51
90.0
  0
ARC
  5
7E
330
1F
100
AcDbEntity
  8
0
  6
SLD-Durchgehend
 62
     7
370
    25
100
AcDbCircle
 10
490.8827049755
 20
252.4414435879
 30
0.0
 40
3.0
100
AcDbArc
 50
270.0
 51
0.0
  0
ARC
  5
7F
330
1F
100
AcDbEntity
  8
0
  6
SLD-Durchgehend
 62
     7
370
    25
100
AcDbCircle
 10
358.8827049755
 20
252.4414435879
 30
0.0
 40
3.0
100
AcDbArc
 50
180.0
 51
270.0
  0
LINE
  5
80
330
1F
100
AcDbEntity
  8
0
  6
SLD-Durchgehend
 62
     7
370
    25
100
AcDbLine
 10
355.8827049755
 20
384.4414435879
 30
0.0
 11
355.8827049755
 21
252.4414435879
 31
0.0
  0
ARC
  5
81
330
1F
100
AcDbEntity
  8
0
  6
SLD-Durchgehend
 62
     7
370
    25
100
AcDbCircle
 10
403.7327049755
 20
354.1914435879
 30
0.0
 40
3.75
100
AcDbArc
 50
90.0
 51
270.0
  0
LINE
  5
82
330
1F
100
AcDbEntity
  8
0
  6
SLD-Durchgehend
 62
     7
370
    25
100
AcDbLine
 10
403.7327049755
 20
350.4414435879
 30
0.0
 11
446.0327049755
 21
350.4414435879
 31
0.0
  0
ARC
  5
83
330
1F
100
AcDbEntity
  8
0
  6
SLD-Durchgehend
 62
     7
370
    25
100
AcDbCircle
 10
387.6327049755
 20
370.6914435879
 30
0.0
 40
3.75
100
AcDbArc
 50
90.0
 51
270.0
  0
LINE
  5
84
330
1F
100
AcDbEntity
  8
0
  6
SLD-Durchgehend
 62
     7
370
    25
100
AcDbLine
 10
387.6327049755
 20
366.9414435879
 30
0.0
 11
462.1327049755
 21
366.9414435879
 31
0.0
  0
CIRCLE
  5
85
330
1F
100
AcDbEntity
  8
0
  6
SLD-Durchgehend
 62
     7
370
    25
100
AcDbCircle
 10
483.8827049755
 20
377.4414435879
 30
0.0
 40
5.500000000000057
  0
LINE
  5
86
330
1F
100
AcDbEntity
  8
0
  6
SLD-Durchgehend
 62
     7
370
    25
100
AcDbLine
 10
401.8827049755
 20
323.4914435879
 30
0.0
 11
401.8827049755
 21
313.3914435879
 31
0.0
  0
ARC
  5
87
330
1F
100
AcDbEntity
  8
0
  6
SLD-Durchgehend
 62
     7
370
    25
100
AcDbCircle
 10
405.6327049755
 20
313.3914435879
 30
0.0
 40
3.75
100
AcDbArc
 50
180.0
 51
0.0
  0
LINE
  5
88
330
1F
100
AcDbEntity
  8
0
  6
SLD-Durchgehend
 62
     7
370
    25
100
AcDbLine
 10
409.3827049755
 20
313.3914435879
 30
0.0
 11
409.3827049755
 21
323.4914435879
 31
0.0
  0
ARC
  5
89
330
1F
100
AcDbEntity
  8
0
  6
SLD-Durchgehend
 62
     7
370
    25
100
AcDbCircle
 10
405.6327049755
 20
323.4914435879
 30
0.0
 40
3.75
100
AcDbArc
 50
0.0
 51
180.0
  0
LINE
  5
8A
330
1F
100
AcDbEntity
  8
0
  6
SLD-Durchgehend
 62
     7
370
    25
100
AcDbLine
 10
419.8327049755
 20
295.4414435879
 30
0.0
 11
429.9327049755
 21
295.4414435879
 31
0.0
  0
ARC
  5
8B
330
1F
100
AcDbEntity
  8
0
  6
SLD-Durchgehend
 62
     7
370
    25
100
AcDbCircle
 10
429.9327049755
 20
299.1914435879
 30
0.0
 40
3.75
100
AcDbArc
 50
270.0
 51
90.0
  0
LINE
  5
8C
330
1F
100
AcDbEntity
  8
0
  6
SLD-Durchgehend
 62
     7
370
    25
100
AcDbLine
 10
429.9327049755
 20
302.9414435879
 30
0.0
 11
419.8327049755
 21
302.9414435879
 31
0.0
  0
ARC
  5
8D
330
1F
100
AcDbEntity
  8
0
  6
SLD-Durchgehend
 62
     7
370
    25
100
AcDbCircle
 10
419.8327049755
 20
299.1914435879
 30
0.0
 40
3.75
100
AcDbArc
 50
90.0
 51
270.0
  0
LINE
  5
8E
330
1F
100
AcDbEntity
  8
0
  6
SLD-Durchgehend
 62
     7
370
    25
100
AcDbLine
 10
447.8827049755
 20
313.3914435879
 30
0.0
 11
447.8827049755
 21
323.4914435879
 31
0.0
  0
ARC
  5
8F
330
1F
100
AcDbEntity
  8
0
  6
SLD-Durchgehend
 62
     7
370
    25
100
AcDbCircle
 10
444.1327049755
 20
323.4914435879
 30
0.0
 40
3.75
100
AcDbArc
 50
0.0
 51
180.0
  0
LINE
  5
90
330
1F
100
AcDbEntity
  8
0
  6
SLD-Durchgehend
 62
     7
370
    25
100
AcDbLine
 10
440.3827049755
 20
323.4914435879
 30
0.0
 11
440.3827049755
 21
313.3914435879
 31
0.0
  0
ARC
  5
91
330
1F
100
AcDbEntity
  8
0
  6
SLD-Durchgehend
 62
     7
370
    25
100
AcDbCircle
 10
444.1327049755
 20
313.3914435879
 30
0.0
 40
3.75
100
AcDbArc
 50
180.0
 51
0.0
  0
LINE
  5
92
330
1F
100
AcDbEntity
  8
0
  6
SLD-Durchgehend
 62
     7
370
    25
100
AcDbLine
 10
385.3827049755
 20
339.5914435879
 30
0.0
 11
385.3827049755
 21
297.2914435879
 31
0.0
  0
ARC
  5
93
330
1F
100
AcDbEntity
  8
0
  6
SLD-Durchgehend
 62
     7
370
    25
100
AcDbCircle
 10
389.1327049755
 20
297.2914435879
 30
0.0
 40
3.75
100
AcDbArc
 50
180.0
 51
0.0
  0
LINE
  5
94
330
1F
100
AcDbEntity
  8
0
  6
SLD-Durchgehend
 62
     7
370
    25
100
AcDbLine
 10
392.8827049755
 20
297.2914435879
 30
0.0
 11
392.8827049755
 21
339.5914435879
 31
0.0
  0
ARC
  5
95
330
1F
100
AcDbEntity
  8
0
  6
SLD-Durchgehend
 62
     7
370
    25
100
AcDbCircle
 10
389.1327049755
 20
339.5914435879
 30
0.0
 40
3.750000000000057
100
AcDbArc
 50
0.0
 51
180.0000000053
  0
LINE
  5
96
330
1F
100
AcDbEntity
  8
0
  6
SLD-Durchgehend
 62
     7
370
    25
100
AcDbLine
 10
403.7327049755
 20
278.9414435879
 30
0.0
 11
446.0327049755
 21
278.9414435879
 31
0.0
  0
ARC
  5
97
330
1F
100
AcDbEntity
  8
0
  6
SLD-Durchgehend
 62
     7
370
    25
100
AcDbCircle
 10
446.0327049755
 20
282.6914435879
 30
0.0
 40
3.750000000000057
100
AcDbArc
 50
270.0
 51
90.0
  0
LINE
  5
98
330
1F
100
AcDbEntity
  8
0
  6
SLD-Durchgehend
 62
     7
370
    25
100
AcDbLine
 10
446.0327049755
 20
286.4414435879
 30
0.0
 11
403.7327049755
 21
286.4414435879
 31
0.0
  0
ARC
  5
99
330
1F
100
AcDbEntity
  8
0
  6
SLD-Durchgehend
 62
     7
370
    25
100
AcDbCircle
 10
403.7327049755
 20
282.6914435879
 30
0.0
 40
3.75
100
AcDbArc
 50
90.0
 51
270.0
  0
LINE
  5
9A
330
1F
100
AcDbEntity
  8
0
  6
SLD-Durchgehend
 62
     7
370
    25
100
AcDbLine
 10
464.3827049755
 20
297.2914435879
 30
0.0
 11
464.3827049755
 21
339.5914435879
 31
0.0
  0
ARC
  5
9B
330
1F
100
AcDbEntity
  8
0
  6
SLD-Durchgehend
 62
     7
370
    25
100
AcDbCircle
 10
460.6327049755
 20
339.5914435879
 30
0.0
 40
3.75
100
AcDbArc
 50
0.0
 51
180.0
  0
LINE
  5
9C
330
1F
100
AcDbEntity
  8
0
  6
SLD-Durchgehend
 62
     7
370
    25
100
AcDbLine
 10
456.8827049755
 20
339.5914435879
 30
0.0
 11
456.8827049755
 21
297.2914435879
 31
0.0
  0
ARC
  5
9D
330
1F
100
AcDbEntity
  8
0
  6
SLD-Durchgehend
 62
     7
370
    25
100
AcDbCircle
 10
460.6327049755
 20
297.2914435879
 30
0.0
 40
3.75
100
AcDbArc
 50
180.0
 51
0.0000000053
  0
ARC
  5
9E
330
1F
100
AcDbEntity
  8
0
  6
SLD-Durchgehend
 62
     7
370
    25
100
AcDbCircle
 10
372.6327049755
 20
281.1914435879
 30
0.0
 40
3.75
100
AcDbArc
 50
180.0
 51
0.0
  0
LINE
  5
9F
330
1F
100
AcDbEntity
  8
0
  6
SLD-Durchgehend
 62
     7
370
    25
100
AcDbLine
 10
376.3827049755
 20
281.1914435879
 30
0.0
 11
376.3827049755
 21
355.6914435879
 31
0.0
  0
LINE
  5
A0
330
1F
100
AcDbEntity
  8
0
  6
SLD-Durchgehend
 62
     7
370
    25
100
AcDbLine
 10
387.6327049755
 20
262.4414435879
 30
0.0
 11
462.1327049755
 21
262.4414435879
 31
0.0
  0
ARC
  5
A1
330
1F
100
AcDbEntity
  8
0
  6
SLD-Durchgehend
 62
     7
370
    25
100
AcDbCircle
 10
462.1327049755
 20
266.1914435879
 30
0.0
 40
3.75
100
AcDbArc
 50
270.0
 51
90.0
  0
LINE
  5
A2
330
1F
100
AcDbEntity
  8
0
  6
SLD-Durchgehend
 62
     7
370
    25
100
AcDbLine
 10
462.1327049755
 20
269.9414435879
 30
0.0
 11
387.6327049755
 21
269.9414435879
 31
0.0
  0
ARC
  5
A3
330
1F
100
AcDbEntity
  8
0
  6
SLD-Durchgehend
 62
     7
370
    25
100
AcDbCircle
 10
387.6327049755
 20
266.1914435879
 30
0.0
 40
3.750000000000057
100
AcDbArc
 50
90.0
 51
270.0
  0
ARC
  5
A4
330
1F
100
AcDbEntity
  8
0
  6
SLD-Durchgehend
 62
     7
370
    25
100
AcDbCircle
 10
477.1327049755
 20
355.6914435879
 30
0.0
 40
3.750000000000057
100
AcDbArc
 50
0.0
 51
180.0
  0
LINE
  5
A5
330
1F
100
AcDbEntity
  8
0
  6
SLD-Durchgehend
 62
     7
370
    25
100
AcDbLine
 10
473.3827049755
 20
355.6914435879
 30
0.0
 11
473.3827049755
 21
281.1914435879
 31
0.0
  0
CIRCLE
  5
A6
330
1F
100
AcDbEntity
  8
0
  6
SLD-Durchgehend
 62
     7
370
    25
100
AcDbCircle
 10
365.8827049755
 20
259.4414435879
 30
0.0
 40
5.5
  0
SPLINE
  5
A7
330
1F
100
AcDbEntity
  8
0
  6
SLD-Durchgehend
 62
     7
370
    25
100
AcDbSpline
210
0.0
220
0.0
230
1.0
 70
     8
 71
     3
 72
     9
 73
     5
 74
     0
 42
0.000000001
 43
0.00000001
 40
0.0
 40
0.0
 40
0.0
 40
0.0
 40
0.5967093862650621
 40
0.9999999999999999
 40
0.9999999999999999
 40
0.9999999999999999
 40
0.9999999999999999
 10
417.811336696807
 20
307.8391012773986
 30
0.0
 10
417.9601109073934
 20
308.0037660723308
 30
0.0
 10
418.2094353088707
 20
308.2797208314187
 30
0.0
 10
418.282576617054
 20
308.6409601204623
 30
0.0
 10
418.3120738201206
 20
308.7866445350458
 30
0.0
  0
SPLINE
  5
A8
330
1F
100
AcDbEntity
  8
0
  6
SLD-Durchgehend
 62
     7
370
    25
100
AcDbSpline
210
0.0
220
0.0
230
1.0
 70
     8
 71
     3
 72
    10
 73
     6
 74
     0
 42
0.000000001
 43
0.00000001
 40
0.0
 40
0.0
 40
0.0
 40
0.0
 40
0.2528872714856192
 40
0.5184621175552766
 40
1.0
 40
1.0
 40
1.0
 40
1.0
 10
418.3120738201206
 20
308.7866445350458
 30
0.0
 10
418.3114170530093
 20
308.8936361202207
 30
0.0
 10
418.3100705682087
 20
309.1129871515497
 30
0.0
 10
418.1567862031458
 20
309.5149174448742
 30
0.0
 10
417.9477324456531
 20
309.7526313209563
 30
0.0
 10
417.8129906592292
 20
309.9058454640801
 30
0.0
  0
LINE
  5
A9
330
1F
100
AcDbEntity
  8
0
  6
SLD-Durchgehend
 62
     7
370
    25
100
AcDbLine
 10
417.8129906592
 20
309.9058454641
 30
0.0
 11
416.3709712948
 21
311.3478648285
 31
0.0
  0
SPLINE
  5
AA
330
1F
100
AcDbEntity
  8
0
  6
SLD-Durchgehend
 62
     7
370
    25
100
AcDbSpline
210
0.0
220
0.0
230
1.0
 70
     8
 71
     3
 72
    12
 73
     8
 74
     0
 42
0.000000001
 43
0.00000001
 40
0.0
 40
0.0
 40
0.0
 40
0.0
 40
0.2177775398264637
 40
0.398464740527602
 40
0.5601427979986205
 40
0.7588538422332999
 40
1.0
 40
1.0
 40
1.0
 40
1.0
 10
416.3709712948465
 20
311.3478648284628
 30
0.0
 10
416.2434509959353
 20
311.4654187213562
 30
0.0
 10
416.0101287586737
 20
311.6805055547695
 30
0.0
 10
415.6043245114975
 20
311.8817452870122
 30
0.0
 10
415.1667302604346
 20
311.9263783036674
 30
0.0
 10
414.7004200208153
 20
311.7608166705807
 30
0.0
 10
414.4400186189451
 20
311.5248442297192
 30
0.0
 10
414.2972568379573
 20
311.3954753181869
 30
0.0
  0
LINE
  5
AB
330
1F
100
AcDbEntity
  8
0
  6
SLD-Durchgehend
 62
     7
370
    25
100
AcDbLine
 10
414.297256838
 20
311.3954753182
 30
0.0
 11
412.8245803928
 21
309.922798873
 31
0.0
  0
LINE
  5
AC
330
1F
100
AcDbEntity
  8
0
  6
SLD-Durchgehend
 62
     7
370
    25
100
AcDbLine
 10
412.8245803928
 20
309.922798873
 30
0.0
 11
416.3587436685
 21
306.3886355974
 31
0.0
  0
LINE
  5
AD
330
1F
100
AcDbEntity
  8
0
  6
SLD-Durchgehend
 62
     7
370
    25
100
AcDbLine
 10
416.3587436685
 20
306.3886355974
 30
0.0
 11
417.7497852613
 21
307.7796771902
 31
0.0
  0
SPLINE
  5
AE
330
1F
100
AcDbEntity
  8
0
  6
SLD-Durchgehend
 62
     7
370
    25
100
AcDbSpline
210
0.0
220
0.0
230
1.0
 70
     8
 71
     3
 72
     9
 73
     5
 74
     0
 42
0.000000001
 43
0.00000001
 40
0.0
 40
0.0
 40
0.0
 40
0.0
 40
0.5611492448852788
 40
0.9999999999999999
 40
0.9999999999999999
 40
0.9999999999999999
 40
0.9999999999999999
 10
417.7497852613299
 20
307.7796771902189
 30
0.0
 10
417.7614592593222
 20
307.7906262850211
 30
0.0
 10
417.7822629904129
 20
307.8101381972299
 30
0.0
 10
417.8024691905978
 20
307.8302675122862
 30
0.0
 10
417.811336696807
 20
307.8391012773986
 30
0.0
  0
LINE
  5
AF
330
1F
100
AcDbEntity
  8
0
  6
SLD-Durchgehend
 62
     7
370
    25
100
AcDbLine
 10
417.0254679148
 20
312.0396931745
 30
0.0
 11
419.5176348645
 21
309.5475262248
 31
0.0
  0
LINE
  5
B0
330
1F
100
AcDbEntity
  8
0
  6
SLD-Durchgehend
 62
     7
370
    25
100
AcDbLine
 10
419.5176348645
 20
309.5475262248
 30
0.0
 11
420.2763310556
 21
310.3062224159
 31
0.0
  0
LINE
  5
B1
330
1F
100
AcDbEntity
  8
0
  6
SLD-Durchgehend
 62
     7
370
    25
100
AcDbLine
 10
420.2763310556
 20
310.3062224159
 30
0.0
 11
419.4443879572
 21
311.1381655142
 31
0.0
  0
LINE
  5
B2
330
1F
100
AcDbEntity
  8
0
  6
SLD-Durchgehend
 62
     7
370
    25
100
AcDbLine
 10
419.4443879572
 20
311.1381655142
 30
0.0
 11
420.4779963377
 21
312.1717738947
 31
0.0
  0
LINE
  5
B3
330
1F
100
AcDbEntity
  8
0
  6
SLD-Durchgehend
 62
     7
370
    25
100
AcDbLine
 10
420.4779963377
 20
312.1717738947
 30
0.0
 11
421.3152557438
 21
311.3345144885
 31
0.0
  0
LINE
  5
B4
330
1F
100
AcDbEntity
  8
0
  6
SLD-Durchgehend
 62
     7
370
    25
100
AcDbLine
 10
421.3152557438
 20
311.3345144885
 30
0.0
 11
422.0743063487
 21
312.0935650934
 31
0.0
  0
LINE
  5
B5
330
1F
100
AcDbEntity
  8
0
  6
SLD-Durchgehend
 62
     7
370
    25
100
AcDbLine
 10
422.0743063487
 20
312.0935650934
 30
0.0
 11
419.5947803975
 21
314.5730910446
 31
0.0
  0
SPLINE
  5
B6
330
1F
100
AcDbEntity
  8
0
  6
SLD-Durchgehend
 62
     7
370
    25
100
AcDbSpline
210
0.0
220
0.0
230
1.0
 70
     8
 71
     3
 72
    12
 73
     8
 74
     0
 42
0.000000001
 43
0.00000001
 40
0.0
 40
0.0
 40
0.0
 40
0.0
 40
0.2114134532755189
 40
0.3895527681210756
 40
0.5523169649032849
 40
0.7549862544514427
 40
1.0
 40
1.0
 40
1.0
 40
1.0
 10
419.5947803974807
 20
314.5730910445729
 30
0.0
 10
419.4675742656341
 20
314.6886635836846
 30
0.0
 10
419.2331828396625
 20
314.9016188229668
 30
0.0
 10
418.8189716501423
 20
315.093271829736
 30
0.0
 10
418.3698822648931
 20
315.1255699890272
 30
0.0
 10
417.8904777751808
 20
314.9487628317082
 30
0.0
 10
417.6200059872689
 20
314.7040992506071
 30
0.0
 10
417.4719786987048
 20
314.5701966103341
 30
0.0
  0
LINE
  5
B7
330
1F
100
AcDbEntity
  8
0
  6
SLD-Durchgehend
 62
     7
370
    25
100
AcDbLine
 10
417.4719786987
 20
314.5701966103
 30
0.0
 11
417.0411214877
 21
314.1393393994
 31
0.0
  0
SPLINE
  5
B8
330
1F
100
AcDbEntity
  8
0
  6
SLD-Durchgehend
 62
     7
370
    25
100
AcDbSpline
210
0.0
220
0.0
230
1.0
 70
     8
 71
     3
 72
    12
 73
     8
 74
     0
 42
0.000000001
 43
0.00000001
 40
0.0
 40
0.0
 40
0.0
 40
0.0
 40
0.2125693766514624
 40
0.3914658534855889
 40
0.5543778792716574
 40
0.7563584015614667
 40
0.9999999999999999
 40
0.9999999999999999
 40
0.9999999999999999
 40
0.9999999999999999
 10
417.0411214877281
 20
314.1393393993573
 30
0.0
 10
416.9257794649757
 20
314.0132532675759
 30
0.0
 10
416.7133666325593
 20
313.7810541805387
 30
0.0
 10
416.520358641587
 20
313.3713779020659
 30
0.0
 10
416.4841570426988
 20
312.9274402377243
 30
0.0
 10
416.6545330867446
 20
312.4531231467903
 30
0.0
 10
416.8943495171402
 20
312.1858327963698
 30
0.0
 10
417.0254679148039
 20
312.0396931744918
 30
0.0
  0
LINE
  5
B9
330
1F
100
AcDbEntity
  8
0
  6
SLD-Durchgehend
 62
     7
370
    25
100
AcDbLine
 10
424.6049279247
 20
314.6291485567
 30
0.0
 11
423.8450503319
 21
315.3890261495
 31
0.0
  0
LINE
  5
BA
330
1F
100
AcDbEntity
  8
0
  6
SLD-Durchgehend
 62
     7
370
    25
100
AcDbLine
 10
423.8450503319
 20
315.3890261495
 30
0.0
 11
422.7973832776
 21
314.3413590952
 31
0.0
  0
LINE
  5
BB
330
1F
100
AcDbEntity
  8
0
  6
SLD-Durchgehend
 62
     7
370
    25
100
AcDbLine
 10
422.7973832776
 20
314.3413590952
 30
0.0
 11
420.0228613144
 21
317.1158810584
 31
0.0
  0
LINE
  5
BC
330
1F
100
AcDbEntity
  8
0
  6
SLD-Durchgehend
 62
     7
370
    25
100
AcDbLine
 10
420.0228613144
 20
317.1158810584
 30
0.0
 11
419.262570231
 21
316.355589975
 31
0.0
  0
LINE
  5
BD
330
1F
100
AcDbEntity
  8
0
  6
SLD-Durchgehend
 62
     7
370
    25
100
AcDbLine
 10
419.262570231
 20
316.355589975
 30
0.0
 11
422.796969787
 21
312.821190419
 31
0.0
  0
LINE
  5
BE
330
1F
100
AcDbEntity
  8
0
  6
SLD-Durchgehend
 62
     7
370
    25
100
AcDbLine
 10
422.796969787
 20
312.821190419
 30
0.0
 11
424.6049279247
 21
314.6291485567
 31
0.0
  0
LINE
  5
BF
330
1F
100
AcDbEntity
  8
0
  6
SLD-Durchgehend
 62
     7
370
    25
100
AcDbLine
 10
426.9371921502
 20
316.9614127822
 30
0.0
 11
426.1773145574
 21
317.721290375
 31
0.0
  0
LINE
  5
C0
330
1F
100
AcDbEntity
  8
0
  6
SLD-Durchgehend
 62
     7
370
    25
100
AcDbLine
 10
426.1773145574
 20
317.721290375
 30
0.0
 11
425.129588433
 21
316.6735642506
 31
0.0
  0
LINE
  5
C1
330
1F
100
AcDbEntity
  8
0
  6
SLD-Durchgehend
 62
     7
370
    25
100
AcDbLine
 10
425.129588433
 20
316.6735642506
 30
0.0
 11
422.3550664698
 21
319.4480862138
 31
0.0
  0
LINE
  5
C2
330
1F
100
AcDbEntity
  8
0
  6
SLD-Durchgehend
 62
     7
370
    25
100
AcDbLine
 10
422.3550664698
 20
319.4480862138
 30
0.0
 11
421.5948344565
 21
318.6878542005
 31
0.0
  0
LINE
  5
C3
330
1F
100
AcDbEntity
  8
0
  6
SLD-Durchgehend
 62
     7
370
    25
100
AcDbLine
 10
421.5948344565
 20
318.6878542005
 30
0.0
 11
425.1292340125
 21
315.1534546445
 31
0.0
  0
LINE
  5
C4
330
1F
100
AcDbEntity
  8
0
  6
SLD-Durchgehend
 62
     7
370
    25
100
AcDbLine
 10
425.1292340125
 20
315.1534546445
 30
0.0
 11
426.9371921502
 21
316.9614127822
 31
0.0
  0
SPLINE
  5
C5
330
1F
100
AcDbEntity
  8
0
  6
SLD-Durchgehend
 62
     7
370
    25
100
AcDbSpline
210
0.0
220
0.0
230
1.0
 70
     8
 71
     3
 72
    12
 73
     8
 74
     0
 42
0.000000001
 43
0.00000001
 40
0.0
 40
0.0
 40
0.0
 40
0.0
 40
0.2585139589177043
 40
0.4767397343402738
 40
0.6652911032508835
 40
0.8537276706446628
 40
1.0
 40
1.0
 40
1.0
 40
1.0
 10
426.3091008552828
 20
323.4018843189534
 30
0.0
 10
426.26077236398
 20
323.3476792206699
 30
0.0
 10
426.1716471492285
 20
323.2477166334898
 30
0.0
 10
426.091945226677
 20
323.0767830502647
 30
0.0
 10
426.0564706585409
 20
322.913321783482
 30
0.0
 10
426.0552205816426
 20
322.7654208090284
 30
0.0
 10
426.0754427458835
 20
322.6738658246362
 30
0.0
 10
426.0842801060399
 20
322.6338550541989
 30
0.0
  0
LINE
  5
C6
330
1F
100
AcDbEntity
  8
0
  6
SLD-Durchgehend
 62
     7
370
    25
100
AcDbLine
 10
427.4914467719
 20
317.5154311235
 30
0.0
 11
428.2457717766
 21
318.2697561282
 31
0.0
  0
LINE
  5
C7
330
1F
100
AcDbEntity
  8
0
  6
SLD-Durchgehend
 62
     7
370
    25
100
AcDbLine
 10
428.2457717766
 20
318.2697561282
 30
0.0
 11
425.681539188
 21
320.8339887168
 31
0.0
  0
SPLINE
  5
C8
330
1F
100
AcDbEntity
  8
0
  6
SLD-Durchgehend
 62
     7
370
    25
100
AcDbSpline
210
0.0
220
0.0
230
1.0
 70
     8
 71
     3
 72
    10
 73
     6
 74
     0
 42
0.000000001
 43
0.00000001
 40
0.0
 40
0.0
 40
0.0
 40
0.0
 40
0.6958504163507654
 40
0.8599558154715962
 40
1.0
 40
1.0
 40
1.0
 40
1.0
 10
425.6815391879932
 20
320.8339887168125
 30
0.0
 10
425.6505236499914
 20
320.8637401664271
 30
0.0
 10
425.6121935841497
 20
320.9005080284756
 30
0.0
 10
425.5792118757132
 20
320.9538867231511
 30
0.0
 10
425.5765142232283
 20
320.9726232846137
 30
0.0
 10
425.5752721023684
 20
320.9812504424727
 30
0.0
  0
SPLINE
  5
C9
330
1F
100
AcDbEntity
  8
0
  6
SLD-Durchgehend
 62
     7
370
    25
100
AcDbSpline
210
0.0
220
0.0
230
1.0
 70
     8
 71
     3
 72
    10
 73
     6
 74
     0
 42
0.000000001
 43
0.00000001
 40
0.0
 40
0.0
 40
0.0
 40
0.0
 40
0.231202528750312
 40
0.4918310759404829
 40
1.0
 40
1.0
 40
1.0
 40
1.0
 10
425.5752721023684
 20
320.9812504424727
 30
0.0
 10
425.5761979004252
 20
320.9910734054351
 30
0.0
 10
425.5781673263517
 20
321.01196953693
 30
0.0
 10
425.600750346288
 20
321.048811756814
 30
0.0
 10
425.6232147889922
 20
321.0721145619581
 30
0.0
 10
425.6380636043246
 20
321.0875175280975
 30
0.0
  0
LINE
  5
CA
330
1F
100
AcDbEntity
  8
0
  6
SLD-Durchgehend
 62
     7
370
    25
100
AcDbLine
 10
425.6380636043
 20
321.0875175281
 30
0.0
 11
426.1536863894
 21
321.6031403132
 31
0.0
  0
LINE
  5
CB
330
1F
100
AcDbEntity
  8
0
  6
SLD-Durchgehend
 62
     7
370
    25
100
AcDbLine
 10
426.4047933272
 20
321.5560614543
 30
0.0
 11
428.9684351149
 21
318.9924196665
 31
0.0
  0
LINE
  5
CC
330
1F
100
AcDbEntity
  8
0
  6
SLD-Durchgehend
 62
     7
370
    25
100
AcDbLine
 10
428.9684351149
 20
318.9924196665
 30
0.0
 11
428.9725139889
 21
318.9964952884
 31
0.0
  0
LINE
  5
CD
330
1F
100
AcDbEntity
  8
0
  6
SLD-Durchgehend
 62
     7
370
    25
100
AcDbLine
 10
428.9725139889
 20
318.9964952884
 30
0.0
 11
429.7375306792
 21
319.7615119788
 31
0.0
  0
LINE
  5
CE
330
1F
100
AcDbEntity
  8
0
  6
SLD-Durchgehend
 62
     7
370
    25
100
AcDbLine
 10
429.7375306792
 20
319.7615119788
 30
0.0
 11
427.1744795924
 21
322.3245630656
 31
0.0
  0
SPLINE
  5
CF
330
1F
100
AcDbEntity
  8
0
  6
SLD-Durchgehend
 62
     7
370
    25
100
AcDbSpline
210
0.0
220
0.0
230
1.0
 70
     8
 71
     3
 72
    10
 73
     6
 74
     0
 42
0.000000001
 43
0.00000001
 40
0.0
 40
0.0
 40
0.0
 40
0.0
 40
0.6880866687026381
 40
0.8520806273578189
 40
1.0
 40
1.0
 40
1.0
 40
1.0
 10
427.1744795923599
 20
322.3245630656196
 30
0.0
 10
427.1431807289904
 20
322.3542176059536
 30
0.0
 10
427.1044223045818
 20
322.39093981041
 30
0.0
 10
427.0719100444851
 20
322.4458870547774
 30
0.0
 10
427.0703635747103
 20
322.4655646735924
 30
0.0
 10
427.0696301888112
 20
322.474896435778
 30
0.0
  0
SPLINE
  5
D0
330
1F
100
AcDbEntity
  8
0
  6
SLD-Durchgehend
 62
     7
370
    25
100
AcDbSpline
210
0.0
220
0.0
230
1.0
 70
     8
 71
     3
 72
    10
 73
     6
 74
     0
 42
0.000000001
 43
0.00000001
 40
0.0
 40
0.0
 40
0.0
 40
0.0
 40
0.2440703980435983
 40
0.5018258422751792
 40
1.0
 40
1.0
 40
1.0
 40
1.0
 10
427.0696301888112
 20
322.474896435778
 30
0.0
 10
427.0707021453904
 20
322.4846061658857
 30
0.0
 10
427.0729061632376
 20
322.5045700514228
 30
0.0
 10
427.0929341515574
 20
322.5397568391646
 30
0.0
 10
427.1137806046169
 20
322.5613328196612
 30
0.0
 10
427.1275188735873
 20
322.5755518631848
 30
0.0
  0
LINE
  5
D1
330
1F
100
AcDbEntity
  8
0
  6
SLD-Durchgehend
 62
     7
370
    25
100
AcDbLine
 10
427.1275188736
 20
322.5755518632
 30
0.0
 11
427.6432007288
 21
323.0912337184
 31
0.0
  0
SPLINE
  5
D2
330
1F
100
AcDbEntity
  8
0
  6
SLD-Durchgehend
 62
     7
370
    25
100
AcDbSpline
210
0.0
220
0.0
230
1.0
 70
     8
 71
     3
 72
    10
 73
     6
 74
     0
 42
0.000000001
 43
0.00000001
 40
0.0
 40
0.0
 40
0.0
 40
0.0
 40
0.6237435782698697
 40
0.8187871131398964
 40
1.0
 40
1.0
 40
1.0
 40
1.0
 10
427.6432007287871
 20
323.0912337183845
 30
0.0
 10
427.6621434655037
 20
323.1097019298865
 30
0.0
 10
427.6870095631302
 20
323.1339451190869
 30
0.0
 10
427.7256802891667
 20
323.1524890079351
 30
0.0
 10
427.7416157541251
 20
323.1535657224248
 30
0.0
 10
427.7492906041524
 20
323.1540842904272
 30
0.0
  0
SPLINE
  5
D3
330
1F
100
AcDbEntity
  8
0
  6
SLD-Durchgehend
 62
     7
370
    25
100
AcDbSpline
210
0.0
220
0.0
230
1.0
 70
     8
 71
     3
 72
    10
 73
     6
 74
     0
 42
0.000000001
 43
0.00000001
 40
0.0
 40
0.0
 40
0.0
 40
0.0
 40
0.1807043028123094
 40
0.4132783874660641
 40
1.0
 40
1.0
 40
1.0
 40
1.0
 10
427.7492906041524
 20
323.1540842904272
 30
0.0
 10
427.7603832754384
 20
323.1520530248467
 30
0.0
 10
427.7857526840824
 20
323.1474074345064
 30
0.0
 10
427.8357050269689
 20
323.1088346974231
 30
0.0
 10
427.8711955781363
 20
323.073313816603
 30
0.0
 10
427.896611399899
 20
323.0478762748889
 30
0.0
  0
LINE
  5
D4
330
1F
100
AcDbEntity
  8
0
  6
SLD-Durchgehend
 62
     7
370
    25
100
AcDbLine
 10
427.8966113999
 20
323.0478762749
 30
0.0
 11
430.4602532877
 21
320.4842343871
 31
0.0
  0
LINE
  5
D5
330
1F
100
AcDbEntity
  8
0
  6
SLD-Durchgehend
 62
     7
370
    25
100
AcDbLine
 10
430.4602532877
 20
320.4842343871
 30
0.0
 11
431.2139875915
 21
321.237968691
 31
0.0
  0
LINE
  5
D6
330
1F
100
AcDbEntity
  8
0
  6
SLD-Durchgehend
 62
     7
370
    25
100
AcDbLine
 10
431.2139875915
 20
321.237968691
 30
0.0
 11
428.7395400416
 21
323.7124162408
 31
0.0
  0
SPLINE
  5
D7
330
1F
100
AcDbEntity
  8
0
  6
SLD-Durchgehend
 62
     7
370
    25
100
AcDbSpline
210
0.0
220
0.0
230
1.0
 70
     8
 71
     3
 72
    14
 73
    10
 74
     0
 42
0.000000001
 43
0.00000001
 40
0.0
 40
0.0
 40
0.0
 40
0.0
 40
0.1948363021374175
 40
0.3461853534454077
 40
0.4655428980217854
 40
0.570083042252773
 40
0.6859658879948682
 40
0.826062773195105
 40
1.0
 40
1.0
 40
1.0
 40
1.0
 10
428.7395400416472
 20
323.7124162407808
 30
0.0
 10
428.6239847188507
 20
323.8241544538892
 30
0.0
 10
428.4186658956851
 20
324.0226910324113
 30
0.0
 10
428.1063304418427
 20
324.248594168599
 30
0.0
 10
427.8168469552501
 20
324.3708109876934
 30
0.0
 10
427.529072588414
 20
324.3760272548496
 30
0.0
 10
427.2487346303304
 20
324.2608748713635
 30
0.0
 10
426.9630179625935
 20
324.048527617716
 30
0.0
 10
426.7775379273924
 20
323.867728644345
 30
0.0
 10
426.674804237907
 20
323.7675877015777
 30
0.0
  0
LINE
  5
D8
330
1F
100
AcDbEntity
  8
0
  6
SLD-Durchgehend
 62
     7
370
    25
100
AcDbLine
 10
426.6748042379
 20
323.7675877016
 30
0.0
 11
426.3091008553
 21
323.401884319
 31
0.0
  0
SPLINE
  5
D9
330
1F
100
AcDbEntity
  8
0
  6
SLD-Durchgehend
 62
     7
370
    25
100
AcDbSpline
210
0.0
220
0.0
230
1.0
 70
     8
 71
     3
 72
    11
 73
     7
 74
     0
 42
0.000000001
 43
0.00000001
 40
0.0
 40
0.0
 40
0.0
 40
0.0
 40
0.1992186042567496
 40
0.4625865760426278
 40
0.7086378742852798
 40
1.0
 40
1.0
 40
1.0
 40
1.0
 10
435.1328123234792
 20
328.2248970220143
 30
0.0
 10
435.1425980638301
 20
328.278987980263
 30
0.0
 10
435.1653206009136
 20
328.4045874505761
 30
0.0
 10
435.144449647384
 20
328.601337222275
 30
0.0
 10
435.0661951641882
 20
328.8109780295711
 30
0.0
 10
434.9686652775887
 20
328.9235985429038
 30
0.0
 10
434.9157888256552
 20
328.984656474658
 30
0.0
  0
SPLINE
  5
DA
330
1F
100
AcDbEntity
  8
0
  6
SLD-Durchgehend
 62
     7
370
    25
100
AcDbSpline
210
0.0
220
0.0
230
1.0
 70
     8
 71
     3
 72
     9
 73
     5
 74
     0
 42
0.000000001
 43
0.00000001
 40
0.0
 40
0.0
 40
0.0
 40
0.0
 40
0.5019771459250514
 40
0.9999999999999999
 40
0.9999999999999999
 40
0.9999999999999999
 40
0.9999999999999999
 10
434.9157888256552
 20
328.984656474658
 30
0.0
 10
434.828600213979
 20
329.0717417545254
 30
0.0
 10
434.6549098131631
 20
329.2452263057133
 30
0.0
 10
434.4809527133255
 20
329.4184434297646
 30
0.0
 10
434.3943181019778
 20
329.5047095162591
 30
0.0
  0
SPLINE
  5
DB
330
1F
100
AcDbEntity
  8
0
  6
SLD-Durchgehend
 62
     7
370
    25
100
AcDbSpline
210
0.0
220
0.0
230
1.0
 70
     8
 71
     3
 72
    13
 73
     9
 74
     0
 42
0.000000001
 43
0.00000001
 40
0.0
 40
0.0
 40
0.0
 40
0.0
 40
0.1941657261233337
 40
0.3470249713928887
 40
0.4706668946820247
 40
0.5811375112837306
 40
0.766410377990305
 40
1.0
 40
1.0
 40
1.0
 40
1.0
 10
434.3943181019778
 20
329.5047095162591
 30
0.0
 10
434.2866447793022
 20
329.6072922027152
 30
0.0
 10
434.0942043704447
 20
329.7906343122809
 30
0.0
 10
433.7912615724651
 20
329.989803855054
 30
0.0
 10
433.5073574178206
 20
330.0886354502607
 30
0.0
 10
433.1792395438332
 20
330.0805154157333
 30
0.0
 10
432.808005880975
 20
329.8874527770287
 30
0.0
 10
432.5774688679147
 20
329.6648708834953
 30
0.0
 10
432.4489038729802
 20
329.540742269028
 30
0.0
  0
LINE
  5
DC
330
1F
100
AcDbEntity
  8
0
  6
SLD-Durchgehend
 62
     7
370
    25
100
AcDbLine
 10
432.448903873
 20
329.540742269
 30
0.0
 11
430.9691980881
 21
328.0610364841
 31
0.0
  0
LINE
  5
DD
330
1F
100
AcDbEntity
  8
0
  6
SLD-Durchgehend
 62
     7
370
    25
100
AcDbLine
 10
430.9691980881
 20
328.0610364841
 30
0.0
 11
434.5033613906
 21
324.5268731816
 31
0.0
  0
LINE
  5
DE
330
1F
100
AcDbEntity
  8
0
  6
SLD-Durchgehend
 62
     7
370
    25
100
AcDbLine
 10
434.5033613906
 20
324.5268731816
 30
0.0
 11
435.262672759
 21
325.2861845499
 31
0.0
  0
LINE
  5
DF
330
1F
100
AcDbEntity
  8
0
  6
SLD-Durchgehend
 62
     7
370
    25
100
AcDbLine
 10
435.262672759
 20
325.2861845499
 30
0.0
 11
434.1420888483
 21
326.407192282
 31
0.0
  0
LINE
  5
E0
330
1F
100
AcDbEntity
  8
0
  6
SLD-Durchgehend
 62
     7
370
    25
100
AcDbLine
 10
434.1420888483
 20
326.407192282
 30
0.0
 11
434.7669322345
 21
327.0320356682
 31
0.0
  0
SPLINE
  5
E1
330
1F
100
AcDbEntity
  8
0
  6
SLD-Durchgehend
 62
     7
370
    25
100
AcDbSpline
210
0.0
220
0.0
230
1.0
 70
     8
 71
     3
 72
    13
 73
     9
 74
     0
 42
0.000000001
 43
0.00000001
 40
0.0
 40
0.0
 40
0.0
 40
0.0
 40
0.1786987827384241
 40
0.3258270793141532
 40
0.4518927463934509
 40
0.5696190978301118
 40
0.7655101285646154
 40
1.0
 40
1.0
 40
1.0
 40
1.0
 10
434.7669322345399
 20
327.032035668226
 30
0.0
 10
434.8027499205385
 20
327.0655427407399
 30
0.0
 10
434.8680574276062
 20
327.1266372339775
 30
0.0
 10
434.9757258780554
 20
327.1900897097408
 30
0.0
 10
435.080213943075
 20
327.2196432175525
 30
0.0
 10
435.2025123659527
 20
327.2138047273871
 30
0.0
 10
435.3426401986885
 20
327.1487053259012
 30
0.0
 10
435.4289721977662
 20
327.0679830663204
 30
0.0
 10
435.4760095529612
 20
327.0240021364612
 30
0.0
  0
LINE
  5
E2
330
1F
100
AcDbEntity
  8
0
  6
SLD-Durchgehend
 62
     7
370
    25
100
AcDbLine
 10
435.476009553
 20
327.0240021365
 30
0.0
 11
436.2391950706
 21
326.2610528991
 31
0.0
  0
LINE
  5
E3
330
1F
100
AcDbEntity
  8
0
  6
SLD-Durchgehend
 62
     7
370
    25
100
AcDbLine
 10
436.2391950706
 20
326.2610528991
 30
0.0
 11
436.9395300162
 21
326.9613878448
 31
0.0
  0
LINE
  5
E4
330
1F
100
AcDbEntity
  8
0
  6
SLD-Durchgehend
 62
     7
370
    25
100
AcDbLine
 10
436.9395300162
 20
326.9613878448
 30
0.0
 11
435.9010778686
 21
327.9998399924
 31
0.0
  0
LINE
  5
E5
330
1F
100
AcDbEntity
  8
0
  6
SLD-Durchgehend
 62
     7
370
    25
100
AcDbLine
 10
433.8229921342
 20
323.8472127662
 30
0.0
 11
433.0631145414
 21
324.607090359
 31
0.0
  0
LINE
  5
E6
330
1F
100
AcDbEntity
  8
0
  6
SLD-Durchgehend
 62
     7
370
    25
100
AcDbLine
 10
433.0631145414
 20
324.607090359
 30
0.0
 11
431.8987249962
 21
323.4427008138
 31
0.0
  0
LINE
  5
E7
330
1F
100
AcDbEntity
  8
0
  6
SLD-Durchgehend
 62
     7
370
    25
100
AcDbLine
 10
431.8987249962
 20
323.4427008138
 30
0.0
 11
431.2711643972
 21
324.0702614129
 31
0.0
  0
LINE
  5
E8
330
1F
100
AcDbEntity
  8
0
  6
SLD-Durchgehend
 62
     7
370
    25
100
AcDbLine
 10
431.2711643972
 20
324.0702614129
 30
0.0
 11
432.4355539424
 21
325.2346509581
 31
0.0
  0
LINE
  5
E9
330
1F
100
AcDbEntity
  8
0
  6
SLD-Durchgehend
 62
     7
370
    25
100
AcDbLine
 10
432.4355539424
 20
325.2346509581
 30
0.0
 11
431.6757944897
 21
325.9944104107
 31
0.0
  0
LINE
  5
EA
330
1F
100
AcDbEntity
  8
0
  6
SLD-Durchgehend
 62
     7
370
    25
100
AcDbLine
 10
431.6757944897
 20
325.9944104107
 30
0.0
 11
430.5114049445
 21
324.8300208655
 31
0.0
  0
LINE
  5
EB
330
1F
100
AcDbEntity
  8
0
  6
SLD-Durchgehend
 62
     7
370
    25
100
AcDbLine
 10
430.5114049445
 20
324.8300208655
 30
0.0
 11
429.8839624857
 21
325.4574633244
 31
0.0
  0
LINE
  5
EC
330
1F
100
AcDbEntity
  8
0
  6
SLD-Durchgehend
 62
     7
370
    25
100
AcDbLine
 10
429.8839624857
 20
325.4574633244
 30
0.0
 11
431.0483520309
 21
326.6218528696
 31
0.0
  0
LINE
  5
ED
330
1F
100
AcDbEntity
  8
0
  6
SLD-Durchgehend
 62
     7
370
    25
100
AcDbLine
 10
431.0483520309
 20
326.6218528696
 30
0.0
 11
430.2885925782
 21
327.3816123222
 31
0.0
  0
LINE
  5
EE
330
1F
100
AcDbEntity
  8
0
  6
SLD-Durchgehend
 62
     7
370
    25
100
AcDbLine
 10
430.2885925782
 20
327.3816123222
 30
0.0
 11
428.3638528795
 21
325.4568726235
 31
0.0
  0
LINE
  5
EF
330
1F
100
AcDbEntity
  8
0
  6
SLD-Durchgehend
 62
     7
370
    25
100
AcDbLine
 10
428.3638528795
 20
325.4568726235
 30
0.0
 11
431.8982524355
 21
321.9224730675
 31
0.0
  0
LINE
  5
F0
330
1F
100
AcDbEntity
  8
0
  6
SLD-Durchgehend
 62
     7
370
    25
100
AcDbLine
 10
431.8982524355
 20
321.9224730675
 30
0.0
 11
433.8229921342
 21
323.8472127662
 31
0.0
  0
LINE
  5
F1
330
1F
100
AcDbEntity
  8
0
  6
SLD-Durchgehend
 62
     7
370
    25
100
AcDbLine
 10
490.8827049755
 20
387.4414435879
 30
0.0
 11
358.8827049755
 21
387.4414435879
 31
0.0
  0
LINE
  5
F2
330
1F
100
AcDbEntity
  8
0
  6
SLD-Durchgehend
 62
     7
370
    25
100
AcDbLine
 10
358.8827049755
 20
249.4414435879
 30
0.0
 11
490.8827049755
 21
249.4414435879
 31
0.0
  0
SPLINE
  5
F3
330
1F
100
AcDbEntity
  8
0
  6
SLD-Durchgehend
 62
     7
370
    25
100
AcDbSpline
210
0.0
220
0.0
230
1.0
 70
     8
 71
     3
 72
    14
 73
    10
 74
     0
 42
0.000000001
 43
0.00000001
 40
0.0
 40
0.0
 40
0.0
 40
0.0
 40
0.1668439206458621
 40
0.3025425056681473
 40
0.4150564027276236
 40
0.5191619694587472
 40
0.6413065304085617
 40
0.7970413868896136
 40
0.9999999999999999
 40
0.9999999999999999
 40
0.9999999999999999
 40
0.9999999999999999
 10
424.9590530932883
 20
322.051363996267
 30
0.0
 10
424.8629565433004
 20
321.9528763923053
 30
0.0
 10
424.6887021209224
 20
321.7742862083509
 30
0.0
 10
424.481415950671
 20
321.5004970020833
 30
0.0
 10
424.3597686322299
 20
321.2317526428799
 30
0.0
 10
424.3474644814632
 20
320.945073630959
 30
0.0
 10
424.4620135330919
 20
320.6450815072183
 30
0.0
 10
424.692498914747
 20
320.3201216083077
 30
0.0
 10
424.8980789411543
 20
320.1072525566086
 30
0.0
 10
425.0144017643447
 20
319.9868054027862
 30
0.0
  0
ARC
  5
F4
330
1F
100
AcDbEntity
  8
0
  6
SLD-Durchgehend
 62
     7
370
    25
100
AcDbCircle
 10
477.1327049755
 20
281.1914435879
 30
0.0
 40
3.75
100
AcDbArc
 50
180.0
 51
0.0000000001
  0
ARC
  5
F5
330
1F
100
AcDbEntity
  8
0
  6
SLD-Durchgehend
 62
     7
370
    25
100
AcDbCircle
 10
462.1327049755
 20
370.6914435879
 30
0.0
 40
3.750000000000057
100
AcDbArc
 50
270.0
 51
90.0
  0
LINE
  5
F6
330
1F
100
AcDbEntity
  8
0
  6
SLD-Durchgehend
 62
     7
370
    25
100
AcDbLine
 10
446.0327049755
 20
357.9414435879
 30
0.0
 11
403.7327049755
 21
357.9414435879
 31
0.0
  0
LINE
  5
F7
330
1F
100
AcDbEntity
  8
0
  6
SLD-Durchgehend
 62
     7
370
    25
100
AcDbLine
 10
368.8827049755
 20
355.6914435879
 30
0.0
 11
368.8827049755
 21
281.1914435879
 31
0.0
  0
SPLINE
  5
F8
330
1F
100
AcDbEntity
  8
0
  6
SLD-Durchgehend
 62
     7
370
    25
100
AcDbSpline
210
0.0
220
0.0
230
1.0
 70
     8
 71
     3
 72
     9
 73
     5
 74
     0
 42
0.000000001
 43
0.00000001
 40
0.0
 40
0.0
 40
0.0
 40
0.0
 40
0.613745490478252
 40
1.0
 40
1.0
 40
1.0
 40
1.0
 10
426.1536863894378
 20
321.6031403132107
 30
0.0
 10
426.1711349426417
 20
321.6210708885153
 30
0.0
 10
426.1995645661169
 20
321.6502858898193
 30
0.0
 10
426.2390365247401
 20
321.657993015753
 30
0.0
 10
426.254282746758
 20
321.6609699279003
 30
0.0
  0
SPLINE
  5
F9
330
1F
100
AcDbEntity
  8
0
  6
SLD-Durchgehend
 62
     7
370
    25
100
AcDbSpline
210
0.0
220
0.0
230
1.0
 70
     8
 71
     3
 72
    10
 73
     6
 74
     0
 42
0.000000001
 43
0.00000001
 40
0.0
 40
0.0
 40
0.0
 40
0.0
 40
0.1894043484779399
 40
0.4199151876309296
 40
1.0
 40
1.0
 40
1.0
 40
1.0
 10
426.254282746758
 20
321.6609699279003
 30
0.0
 10
426.2662402592095
 20
321.659545785955
 30
0.0
 10
426.2927504271386
 20
321.6563884200498
 30
0.0
 10
426.3438264252683
 20
321.6172249445431
 30
0.0
 10
426.3793626299223
 20
321.5815741530504
 30
0.0
 10
426.404793327176
 20
321.5560614542652
 30
0.0
  0
ARC
  5
FA
330
1F
100
AcDbEntity
  8
0
  6
SLD-Durchgehend
 62
     7
370
    25
100
AcDbCircle
 10
372.6327049755
 20
355.6914435879
 30
0.0
 40
3.750000000000057
100
AcDbArc
 50
0.0
 51
180.0000000001
  0
ARC
  5
FB
330
1F
100
AcDbEntity
  8
0
  6
SLD-Durchgehend
 62
     7
370
    25
100
AcDbCircle
 10
429.9327049755
 20
337.6914435879
 30
0.0
 40
3.750000000000057
100
AcDbArc
 50
270.0
 51
90.0
  0
ARC
  5
FC
330
1F
100
AcDbEntity
  8
0
  6
SLD-Durchgehend
 62
     7
370
    25
100
AcDbCircle
 10
358.8827049755
 20
384.4414435879
 30
0.0
 40
3.0
100
AcDbArc
 50
90.0
 51
180.0
  0
LINE
  5
FD
330
1F
100
AcDbEntity
  8
0
  6
SLD-Durchgehend
 62
     7
370
    25
100
AcDbLine
 10
493.8827049755
 20
252.4414435879
 30
0.0
 11
493.8827049755
 21
384.4414435879
 31
0.0
  0
LINE
  5
FE
330
1F
100
AcDbEntity
  8
0
  6
SLD-Durchgehend
 62
     7
370
    25
100
AcDbLine
 10
425.0144017643
 20
319.9868054028
 30
0.0
 11
427.4914467719
 21
317.5154311235
 31
0.0
  0
SPLINE
  5
FF
330
1F
100
AcDbEntity
  8
0
  6
SLD-Durchgehend
 62
     7
370
    25
100
AcDbSpline
210
0.0
220
0.0
230
1.0
 70
     8
 71
     3
 72
    12
 73
     8
 74
     0
 42
0.000000001
 43
0.00000001
 40
0.0
 40
0.0
 40
0.0
 40
0.0
 40
0.2586060014828629
 40
0.4768740222596435
 40
0.6654196460658758
 40
0.853804014758355
 40
0.9999999999999999
 40
0.9999999999999999
 40
0.9999999999999999
 40
0.9999999999999999
 10
435.9010778685798
 20
327.9998399924254
 30
0.0
 10
435.8468355472478
 20
328.048206677313
 30
0.0
 10
435.7468117511954
 20
328.1373956962587
 30
0.0
 10
435.5758006507643
 20
328.2171843251649
 30
0.0
 10
435.412290038098
 20
328.2527119205101
 30
0.0
 10
435.2643661710641
 20
328.2539901975128
 30
0.0
 10
435.1728156322797
 20
328.233743766559
 30
0.0
 10
435.1328123234792
 20
328.2248970220143
 30
0.0
  0
LINE
  5
100
330
1F
100
AcDbEntity
  8
0
  6
SLD-Durchgehend
 62
     7
370
    25
100
AcDbLine
 10
462.1327049755
 20
374.4414435879
 30
0.0
 11
387.6327049755
 21
374.4414435879
 31
0.0
  0
LINE
  5
101
330
1F
100
AcDbEntity
  8
0
  6
SLD-Durchgehend
 62
     7
370
    25
100
AcDbLine
 10
425.3248160038
 20
322.4171269068
 30
0.0
 11
424.9590530933
 21
322.0513639963
 31
0.0
  0
ARC
  5
102
330
1F
100
AcDbEntity
  8
0
  6
SLD-Durchgehend
 62
     7
370
    25
100
AcDbCircle
 10
446.0327049755
 20
354.1914435879
 30
0.0
 40
3.750000000000057
100
AcDbArc
 50
270.0
 51
90.0
  0
LINE
  5
103
330
1F
100
AcDbEntity
  8
0
  6
SLD-Durchgehend
 62
     7
370
    25
100
AcDbLine
 10
480.8827049755
 20
281.1914435879
 30
0.0
 11
480.8827049755
 21
355.6914435879
 31
0.0
  0
ARC
  5
104
330
1F
100
AcDbEntity
  8
0
  6
SLD-Durchgehend
 62
     7
370
    25
100
AcDbCircle
 10
419.8327049755
 20
337.6914435879
 30
0.0
 40
3.750000000000057
100
AcDbArc
 50
90.0
 51
270.0
  0
LINE
  5
105
330
1F
100
AcDbEntity
  8
0
  6
SLD-Durchgehend
 62
     7
370
    25
100
AcDbLine
 10
429.9327049755
 20
341.4414435879
 30
0.0
 11
419.8327049755
 21
341.4414435879
 31
0.0
  0
SPLINE
  5
106
330
1F
100
AcDbEntity
  8
0
  6
SLD-Durchgehend
 62
     7
370
    25
100
AcDbSpline
210
0.0
220
0.0
230
1.0
 70
     8
 71
     3
 72
    11
 73
     7
 74
     0
 42
0.000000001
 43
0.00000001
 40
0.0
 40
0.0
 40
0.0
 40
0.0
 40
0.1991911293572141
 40
0.4625571095361283
 40
0.7086041765618474
 40
1.0
 40
1.0
 40
1.0
 40
1.0
 10
426.0842801060399
 20
322.6338550541989
 30
0.0
 10
426.0302219834856
 20
322.6436318328276
 30
0.0
 10
425.9046894409655
 20
322.6663352457641
 30
0.0
 10
425.7080336998963
 20
322.6456076084495
 30
0.0
 10
425.4984394363406
 20
322.5674676564621
 30
0.0
 10
425.3858570028028
 20
322.4699823849688
 30
0.0
 10
425.3248160038287
 20
322.4171269068074
 30
0.0
  0
LINE
  5
107
330
1F
100
AcDbEntity
  8
0
  6
SLD-Durchgehend
 62
     7
370
    25
100
AcDbLine
 10
419.8327049755
 20
333.9414435879
 30
0.0
 11
429.9327049755
 21
333.9414435879
 31
0.0
  0
LINE
  5
108
330
1F
100
AcDbEntity
  8
0
  6
SLD-Durchgehend
 62
     7
370
    25
100
AcDbLine
 10
433.1115520124
 20
328.6982845505
 30
0.0
 11
432.4808016287
 21
328.0675341668
 31
0.0
  0
LINE
  5
109
330
1F
100
AcDbEntity
  8
0
  6
SLD-Durchgehend
 62
     7
370
    25
100
AcDbLine
 10
432.4808016287
 20
328.0675341668
 30
0.0
 11
433.4278132555
 21
327.1205225399
 31
0.0
  0
SPLINE
  5
10A
330
1F
100
AcDbEntity
  8
0
  6
SLD-Durchgehend
 62
     7
370
    25
100
AcDbSpline
210
0.0
220
0.0
230
1.0
 70
     8
 71
     3
 72
    11
 73
     7
 74
     0
 42
0.000000001
 43
0.00000001
 40
0.0
 40
0.0
 40
0.0
 40
0.0
 40
0.2709510930982689
 40
0.5362243368417806
 40
0.7543071012679049
 40
1.0
 40
1.0
 40
1.0
 40
1.0
 10
433.8006636415472
 20
328.700056653067
 30
0.0
 10
433.7458701514732
 20
328.7440574111449
 30
0.0
 10
433.6374313829037
 20
328.8311368801777
 30
0.0
 10
433.4383763983462
 20
328.8619591707809
 30
0.0
 10
433.2522244828115
 20
328.816383321784
 30
0.0
 10
433.1602676692557
 20
328.7391828101256
 30
0.0
 10
433.111552012365
 20
328.6982845504718
 30
0.0
  0
LINE
  5
10B
330
1F
100
AcDbEntity
  8
0
  6
SLD-Durchgehend
 62
     7
370
    25
100
AcDbLine
 10
433.4278132555
 20
327.1205225399
 30
0.0
 11
434.0599813213
 21
327.7526906057
 31
0.0
  0
SPLINE
  5
10C
330
1F
100
AcDbEntity
  8
0
  6
SLD-Durchgehend
 62
     7
370
    25
100
AcDbSpline
210
0.0
220
0.0
230
1.0
 70
     8
 71
     3
 72
    11
 73
     7
 74
     0
 42
0.000000001
 43
0.00000001
 40
0.0
 40
0.0
 40
0.0
 40
0.0
 40
0.2882526378998027
 40
0.5667226730079981
 40
0.7824309356463797
 40
0.9999999999999999
 40
0.9999999999999999
 40
0.9999999999999999
 40
0.9999999999999999
 10
434.0599813213097
 20
327.7526906056793
 30
0.0
 10
434.1021308425091
 20
327.8127705441592
 30
0.0
 10
434.1849994313074
 20
327.9308914521847
 30
0.0
 10
434.2042012928079
 20
328.1334445518882
 30
0.0
 10
434.1635621105244
 20
328.3116202710614
 30
0.0
 10
434.0947642602831
 20
328.3974190586069
 30
0.0
 10
434.0602176016558
 20
328.4405026929584
 30
0.0
  0
LINE
  5
10D
330
1F
100
AcDbEntity
  8
0
  6
SLD-Durchgehend
 62
     7
370
    25
100
AcDbLine
 10
434.0602176017
 20
328.440502693
 30
0.0
 11
433.8006636415
 21
328.7000566531
 31
0.0
  0
LINE
  5
10E
330
1F
100
AcDbEntity
  8
0
  6
SLD-Durchgehend
 62
     7
370
    25
100
AcDbLine
 10
415.0027899507
 20
310.5961384624
 30
0.0
 11
414.3364793749
 21
309.9298278866
 31
0.0
  0
SPLINE
  5
10F
330
1F
100
AcDbEntity
  8
0
  6
SLD-Durchgehend
 62
     7
370
    25
100
AcDbSpline
210
0.0
220
0.0
230
1.0
 70
     8
 71
     3
 72
    11
 73
     7
 74
     0
 42
0.000000001
 43
0.00000001
 40
0.0
 40
0.0
 40
0.0
 40
0.0
 40
0.2747250492094322
 40
0.5494453099087185
 40
0.770882412748466
 40
1.0
 40
1.0
 40
1.0
 40
1.0
 10
415.6920787901822
 20
310.597851494876
 30
0.0
 10
415.6359142568786
 20
310.6401366437857
 30
0.0
 10
415.5235861692299
 20
310.7247062045671
 30
0.0
 10
415.3221335733818
 20
310.7411482118226
 30
0.0
 10
415.1413454926761
 20
310.6990482571901
 30
0.0
 10
415.0494970366801
 20
310.6308293636742
 30
0.0
 10
415.0027899507405
 20
310.5961384623673
 30
0.0
  0
LINE
  5
110
330
1F
100
AcDbEntity
  8
0
  6
SLD-Durchgehend
 62
     7
370
    25
100
AcDbLine
 10
414.3364793749
 20
309.9298278866
 30
0.0
 11
416.3582122176
 21
307.9080950439
 31
0.0
  0
LINE
  5
111
330
1F
100
AcDbEntity
  8
0
  6
SLD-Durchgehend
 62
     7
370
    25
100
AcDbLine
 10
416.3582122176
 20
307.9080950439
 30
0.0
 11
417.0285395593
 21
308.5784223856
 31
0.0
  0
LINE
  5
112
330
1F
100
AcDbEntity
  8
0
  6
SLD-Durchgehend
 62
     7
370
    25
100
AcDbLine
 10
417.0727830541
 20
309.217147231
 30
0.0
 11
415.6920787902
 21
310.5978514949
 31
0.0
  0
SPLINE
  5
113
330
1F
100
AcDbEntity
  8
0
  6
SLD-Durchgehend
 62
     7
370
    25
100
AcDbSpline
210
0.0
220
0.0
230
1.0
 70
     8
 71
     3
 72
    11
 73
     7
 74
     0
 42
0.000000001
 43
0.00000001
 40
0.0
 40
0.0
 40
0.0
 40
0.0
 40
0.2812497544593551
 40
0.552977326931697
 40
0.7707968828816554
 40
0.9999999999999999
 40
0.9999999999999999
 40
0.9999999999999999
 40
0.9999999999999999
 10
417.0285395593023
 20
308.5784223855703
 30
0.0
 10
417.0697491579506
 20
308.6300657084398
 30
0.0
 10
417.1507731351921
 20
308.7316038828965
 30
0.0
 10
417.180395487041
 20
308.9144123721986
 30
0.0
 10
417.1538657836519
 20
309.0816539805647
 30
0.0
 10
417.1002656118868
 20
309.1712225179594
 30
0.0
 10
417.0727830540955
 20
309.2171472309627
 30
0.0
  0
LINE
  5
114
330
1F
100
AcDbEntity
  8
0
  6
SLD-Durchgehend
 62
     7
370
    25
100
AcDbLine
 10
480.5935635433
 20
357.1353819431
 30
0.0
 11
480.0384341985
 21
357.9568587303
 31
0.0
  0
LINE
  5
115
330
1F
100
AcDbEntity
  8
0
  6
SLD-Durchgehend
 62
     7
370
    25
100
AcDbLine
 10
480.0384341985
 20
357.9568587303
 30
0.0
 11
479.7004081446
 21
358.4244639748
 31
0.0
  0
LINE
  5
116
330
1F
100
AcDbEntity
  8
0
  6
SLD-Durchgehend
 62
     7
370
    25
100
AcDbLine
 10
464.8657253623
 20
373.2591467571
 30
0.0
 11
464.3981201179
 21
373.597172811
 31
0.0
  0
LINE
  5
117
330
1F
100
AcDbEntity
  8
0
  6
SLD-Durchgehend
 62
     7
370
    25
100
AcDbLine
 10
464.3981201179
 20
263.2857143649
 30
0.0
 11
464.8657253623
 21
263.6237404188
 31
0.0
  0
LINE
  5
118
330
1F
100
AcDbEntity
  8
0
  6
SLD-Durchgehend
 62
     7
370
    25
100
AcDbLine
 10
479.7004081446
 20
278.4584232011
 30
0.0
 11
480.0384341985
 21
278.9260284456
 31
0.0
  0
LINE
  5
119
330
1F
100
AcDbEntity
  8
0
  6
SLD-Durchgehend
 62
     7
370
    25
100
AcDbLine
 10
480.0384341985
 20
278.9260284456
 30
0.0
 11
480.5935635433
 21
279.7475052328
 31
0.0
  0
LINE
  5
11A
330
1F
100
AcDbEntity
  8
0
  6
SLD-Durchgehend
 62
     7
370
    25
100
AcDbLine
 10
463.5766433306
 20
262.7305850201
 30
0.0
 11
464.3981201179
 21
263.2857143649
 31
0.0
  0
LINE
  5
11B
330
1F
100
AcDbEntity
  8
0
  6
SLD-Durchgehend
 62
     7
370
    25
100
AcDbLine
 10
464.3981201179
 20
373.597172811
 30
0.0
 11
463.5766433306
 21
374.1523021558
 31
0.0
  0
LINE
  5
11C
330
1F
100
AcDbEntity
  8
0
  6
SLD-Durchgehend
 62
     7
370
    25
100
AcDbLine
 10
385.3672898331
 20
373.597172811
 30
0.0
 11
384.8996845886
 21
373.2591467571
 31
0.0
  0
LINE
  5
11D
330
1F
100
AcDbEntity
  8
0
  6
SLD-Durchgehend
 62
     7
370
    25
100
AcDbLine
 10
370.0650018063
 20
358.4244639748
 30
0.0
 11
369.7269757524
 21
357.9568587303
 31
0.0
  0
LINE
  5
11E
330
1F
100
AcDbEntity
  8
0
  6
SLD-Durchgehend
 62
     7
370
    25
100
AcDbLine
 10
385.3672898331
 20
263.2857143649
 30
0.0
 11
386.1887666204
 21
262.7305850201
 31
0.0
  0
LINE
  5
11F
330
1F
100
AcDbEntity
  8
0
  6
SLD-Durchgehend
 62
     7
370
    25
100
AcDbLine
 10
369.7269757524
 20
278.9260284456
 30
0.0
 11
370.0650018063
 21
278.4584232011
 31
0.0
  0
LINE
  5
120
330
1F
100
AcDbEntity
  8
0
  6
SLD-Durchgehend
 62
     7
370
    25
100
AcDbLine
 10
384.8996845886
 20
263.6237404188
 30
0.0
 11
385.3672898331
 21
263.2857143649
 31
0.0
  0
LINE
  5
121
330
1F
100
AcDbEntity
  8
0
  6
SLD-Durchgehend
 62
     7
370
    25
100
AcDbLine
 10
386.1887666204
 20
374.1523021558
 30
0.0
 11
385.3672898331
 21
373.597172811
 31
0.0
  0
LINE
  5
122
330
1F
100
AcDbEntity
  8
0
  6
SLD-Durchgehend
 62
     7
370
    25
100
AcDbLine
 10
369.1718464076
 20
279.7475052328
 30
0.0
 11
369.7269757524
 21
278.9260284456
 31
0.0
  0
LINE
  5
123
330
1F
100
AcDbEntity
  8
0
  6
SLD-Durchgehend
 62
     7
370
    25
100
AcDbLine
 10
369.7269757524
 20
357.9568587303
 30
0.0
 11
369.1718464076
 21
357.1353819431
 31
0.0
  0
ARC
  5
124
330
1F
100
AcDbEntity
  8
0
  6
SLD-Durchgehend
 62
     7
370
    25
100
AcDbCircle
 10
358.3827049755
 20
384.9414435879
 30
0.0
 40
3.0
100
AcDbArc
 50
90.0
 51
180.0
  0
LINE
  5
125
330
1F
100
AcDbEntity
  8
0
  6
SLD-Durchgehend
 62
     7
370
    25
100
AcDbLine
 10
494.3827049755
 20
251.9414435879
 30
0.0
 11
494.3827049755
 21
384.9414435879
 31
0.0
  0
ARC
  5
126
330
1F
100
AcDbEntity
  8
0
  6
SLD-Durchgehend
 62
     7
370
    25
100
AcDbCircle
 10
358.3827049755
 20
251.9414435879
 30
0.0
 40
3.0
100
AcDbArc
 50
180.0
 51
270.0
  0
ARC
  5
127
330
1F
100
AcDbEntity
  8
0
  6
SLD-Durchgehend
 62
     7
370
    25
100
AcDbCircle
 10
491.3827049755
 20
251.9414435879
 30
0.0
 40
7.500000000000057
100
AcDbArc
 50
270.0
 51
0.0
  0
LINE
  5
128
330
1F
100
AcDbEntity
  8
0
  6
SLD-Durchgehend
 62
     7
370
    25
100
AcDbLine
 10
491.3827049755
 20
244.4414435879
 30
0.0
 11
358.3827049755
 21
244.4414435879
 31
0.0
  0
LINE
  5
129
330
1F
100
AcDbEntity
  8
0
  6
SLD-Durchgehend
 62
     7
370
    25
100
AcDbLine
 10
498.8827049755
 20
384.9414435879
 30
0.0
 11
498.8827049755
 21
251.9414435879
 31
0.0
  0
ARC
  5
12A
330
1F
100
AcDbEntity
  8
0
  6
SLD-Durchgehend
 62
     7
370
    25
100
AcDbCircle
 10
491.3827049755
 20
251.9414435879
 30
0.0
 40
3.0
100
AcDbArc
 50
270.0
 51
0.0
  0
LINE
  5
12B
330
1F
100
AcDbEntity
  8
0
  6
SLD-Durchgehend
 62
     7
370
    25
100
AcDbLine
 10
358.3827049755
 20
248.9414435879
 30
0.0
 11
491.3827049755
 21
248.9414435879
 31
0.0
  0
ARC
  5
12C
330
1F
100
AcDbEntity
  8
0
  6
SLD-Durchgehend
 62
     7
370
    25
100
AcDbCircle
 10
358.3827049755
 20
251.9414435879
 30
0.0
 40
7.5
100
AcDbArc
 50
180.0
 51
270.0
  0
ARC
  5
12D
330
1F
100
AcDbEntity
  8
0
  6
SLD-Durchgehend
 62
     7
370
    25
100
AcDbCircle
 10
491.3827049755
 20
384.9414435879
 30
0.0
 40
7.500000000000057
100
AcDbArc
 50
0.0
 51
90.0
  0
ARC
  5
12E
330
1F
100
AcDbEntity
  8
0
  6
SLD-Durchgehend
 62
     7
370
    25
100
AcDbCircle
 10
491.3827049755
 20
384.9414435879
 30
0.0
 40
3.0
100
AcDbArc
 50
0.0
 51
90.0
  0
LINE
  5
12F
330
1F
100
AcDbEntity
  8
0
  6
SLD-Durchgehend
 62
     7
370
    25
100
AcDbLine
 10
355.3827049755
 20
384.9414435879
 30
0.0
 11
355.3827049755
 21
251.9414435879
 31
0.0
  0
LINE
  5
130
330
1F
100
AcDbEntity
  8
0
  6
SLD-Durchgehend
 62
     7
370
    25
100
AcDbLine
 10
350.8827049755
 20
251.9414435879
 30
0.0
 11
350.8827049755
 21
384.9414435879
 31
0.0
  0
LINE
  5
131
330
1F
100
AcDbEntity
  8
0
  6
SLD-Durchgehend
 62
     7
370
    25
100
AcDbLine
 10
358.3827049755
 20
392.4414435879
 30
0.0
 11
491.3827049755
 21
392.4414435879
 31
0.0
  0
ARC
  5
132
330
1F
100
AcDbEntity
  8
0
  6
SLD-Durchgehend
 62
     7
370
    25
100
AcDbCircle
 10
358.3827049755
 20
384.9414435879
 30
0.0
 40
7.5
100
AcDbArc
 50
90.0
 51
180.0
  0
LINE
  5
133
330
1F
100
AcDbEntity
  8
0
  6
SLD-Durchgehend
 62
     7
370
    25
100
AcDbLine
 10
491.3827049755
 20
387.9414435879
 30
0.0
 11
358.3827049755
 21
387.9414435879
 31
0.0
  0
SPLINE
  5
134
330
1F
100
AcDbEntity
  8
0
  6
SLD-Durchgehend
 62
     7
370
    25
100
AcDbSpline
210
0.0
220
0.0
230
1.0
 70
     8
 71
     3
 72
    12
 73
     8
 74
     0
 42
0.000000001
 43
0.00000001
 40
0.0
 40
0.0
 40
0.0
 40
0.0
 40
0.2083196199554366
 40
0.4166960043772009
 40
0.6227876077610829
 40
0.8205018315593205
 40
0.9999999999999999
 40
0.9999999999999999
 40
0.9999999999999999
 40
0.9999999999999999
 10
498.8827049754729
 20
270.9414435879467
 30
0.0
 10
498.8882031481365
 20
270.9413717784204
 30
0.0
 10
498.8992009916465
 20
270.9412281398008
 30
0.0
 10
498.9847988867216
 20
270.9446563693176
 30
0.0
 10
499.107815124373
 20
270.9640348871261
 30
0.0
 10
499.2498023587369
 20
271.0060776667859
 30
0.0
 10
499.3398536664264
 20
271.0530609724495
 30
0.0
 10
499.3827049754729
 20
271.0754181841622
 30
0.0
  0
SPLINE
  5
135
330
1F
100
AcDbEntity
  8
0
  6
SLD-Durchgehend
 62
     7
370
    25
100
AcDbSpline
210
0.0
220
0.0
230
1.0
 70
     8
 71
     3
 72
    12
 73
     8
 74
     0
 42
0.000000001
 43
0.00000001
 40
0.0
 40
0.0
 40
0.0
 40
0.0
 40
0.2068558852825575
 40
0.414378903304164
 40
0.6096791247023907
 40
0.8082841854432092
 40
1.0
 40
1.0
 40
1.0
 40
1.0
 10
499.3827049754729
 20
285.807468991731
 30
0.0
 10
499.3330472411183
 20
285.8329536672328
 30
0.0
 10
499.2335716208121
 20
285.8840052090881
 30
0.0
 10
499.0870068985492
 20
285.9230962142278
 30
0.0
 10
498.9720609108259
 20
285.9390575279704
 30
0.0
 10
498.8968262380723
 20
285.9415956304026
 30
0.0
 10
498.8873563478159
 20
285.9414936688845
 30
0.0
 10
498.8827049754729
 20
285.9414435879466
 30
0.0
  0
SPLINE
  5
136
330
1F
100
AcDbEntity
  8
0
  6
SLD-Durchgehend
 62
     7
370
    25
100
AcDbSpline
210
0.0
220
0.0
230
1.0
 70
     8
 71
     3
 72
    12
 73
     8
 74
     0
 42
0.000000001
 43
0.00000001
 40
0.0
 40
0.0
 40
0.0
 40
0.0
 40
0.2083196199554459
 40
0.4166960043772004
 40
0.6227876077610869
 40
0.8205018315593224
 40
0.9999999999999999
 40
0.9999999999999999
 40
0.9999999999999999
 40
0.9999999999999999
 10
459.8827049754729
 20
244.4414435879467
 30
0.0
 10
459.8826331659467
 20
244.435945415283
 30
0.0
 10
459.8824895273271
 20
244.424947571773
 30
0.0
 10
459.8859177568439
 20
244.3393496766979
 30
0.0
 10
459.9052962746524
 20
244.2163334390465
 30
0.0
 10
459.9473390543121
 20
244.0743462046825
 30
0.0
 10
459.9943223599758
 20
243.984294896993
 30
0.0
 10
460.0166795716885
 20
243.9414435879466
 30
0.0
  0
SPLINE
  5
137
330
1F
100
AcDbEntity
  8
0
  6
SLD-Durchgehend
 62
     7
370
    25
100
AcDbSpline
210
0.0
220
0.0
230
1.0
 70
     8
 71
     3
 72
    12
 73
     8
 74
     0
 42
0.000000001
 43
0.00000001
 40
0.0
 40
0.0
 40
0.0
 40
0.0
 40
0.206855885282561
 40
0.4143789033041674
 40
0.6096791247023992
 40
0.8082841854432179
 40
1.0
 40
1.0
 40
1.0
 40
1.0
 10
474.7487303792573
 20
243.9414435879466
 30
0.0
 10
474.7742150547591
 20
243.9911013223012
 30
0.0
 10
474.8252665966143
 20
244.0905769426073
 30
0.0
 10
474.8643576017541
 20
244.2371416648703
 30
0.0
 10
474.8803189154967
 20
244.3520876525936
 30
0.0
 10
474.8828570179288
 20
244.4273223253471
 30
0.0
 10
474.8827550564107
 20
244.4367922156036
 30
0.0
 10
474.8827049754728
 20
244.4414435879466
 30
0.0
  0
SPLINE
  5
138
330
1F
100
AcDbEntity
  8
0
  6
SLD-Durchgehend
 62
     7
370
    25
100
AcDbSpline
210
0.0
220
0.0
230
1.0
 70
     8
 71
     3
 72
    12
 73
     8
 74
     0
 42
0.000000001
 43
0.00000001
 40
0.0
 40
0.0
 40
0.0
 40
0.0
 40
0.2083196199554332
 40
0.4166960043771997
 40
0.622787607761084
 40
0.8205018315593424
 40
1.0
 40
1.0
 40
1.0
 40
1.0
 10
350.8827049754728
 20
365.9414435879466
 30
0.0
 10
350.8772068028092
 20
365.9415153974728
 30
0.0
 10
350.8662089592993
 20
365.9416590360925
 30
0.0
 10
350.7806110642242
 20
365.9382308065757
 30
0.0
 10
350.6575948265728
 20
365.9188522887671
 30
0.0
 10
350.5156075922088
 20
365.8768095091074
 30
0.0
 10
350.4255562845192
 20
365.8298262034438
 30
0.0
 10
350.3827049754729
 20
365.8074689917311
 30
0.0
  0
SPLINE
  5
139
330
1F
100
AcDbEntity
  8
0
  6
SLD-Durchgehend
 62
     7
370
    25
100
AcDbSpline
210
0.0
220
0.0
230
1.0
 70
     8
 71
     3
 72
    12
 73
     8
 74
     0
 42
0.000000001
 43
0.00000001
 40
0.0
 40
0.0
 40
0.0
 40
0.0
 40
0.2068558852825547
 40
0.4143789033041621
 40
0.6096791247023888
 40
0.8082841854432083
 40
1.0
 40
1.0
 40
1.0
 40
1.0
 10
350.3827049754729
 20
351.0754181841622
 30
0.0
 10
350.4323627098275
 20
351.0499335086604
 30
0.0
 10
350.5318383301336
 20
350.9988819668052
 30
0.0
 10
350.6784030523965
 20
350.9597909616654
 30
0.0
 10
350.7933490401199
 20
350.9438296479228
 30
0.0
 10
350.8685837128735
 20
350.9412915454907
 30
0.0
 10
350.8780536031298
 20
350.9413935070088
 30
0.0
 10
350.8827049754729
 20
350.9414435879467
 30
0.0
  0
SPLINE
  5
13A
330
1F
100
AcDbEntity
  8
0
  6
SLD-Durchgehend
 62
     7
370
    25
100
AcDbSpline
210
0.0
220
0.0
230
1.0
 70
     8
 71
     3
 72
    12
 73
     8
 74
     0
 42
0.000000001
 43
0.00000001
 40
0.0
 40
0.0
 40
0.0
 40
0.0
 40
0.208319619955433
 40
0.4166960043771993
 40
0.6227876077610843
 40
0.8205018315593425
 40
1.0
 40
1.0
 40
1.0
 40
1.0
 10
350.8827049754728
 20
285.9414435879466
 30
0.0
 10
350.8772068028092
 20
285.9415153974728
 30
0.0
 10
350.8662089592992
 20
285.9416590360924
 30
0.0
 10
350.7806110642242
 20
285.9382308065757
 30
0.0
 10
350.6575948265728
 20
285.9188522887671
 30
0.0
 10
350.5156075922088
 20
285.8768095091074
 30
0.0
 10
350.4255562845192
 20
285.8298262034437
 30
0.0
 10
350.3827049754729
 20
285.8074689917311
 30
0.0
  0
SPLINE
  5
13B
330
1F
100
AcDbEntity
  8
0
  6
SLD-Durchgehend
 62
     7
370
    25
100
AcDbSpline
210
0.0
220
0.0
230
1.0
 70
     8
 71
     3
 72
    12
 73
     8
 74
     0
 42
0.000000001
 43
0.00000001
 40
0.0
 40
0.0
 40
0.0
 40
0.0
 40
0.2068558852825575
 40
0.414378903304164
 40
0.6096791247023907
 40
0.8082841854432092
 40
1.0
 40
1.0
 40
1.0
 40
1.0
 10
350.3827049754728
 20
271.0754181841622
 30
0.0
 10
350.4323627098275
 20
271.0499335086603
 30
0.0
 10
350.5318383301336
 20
270.9988819668052
 30
0.0
 10
350.6784030523965
 20
270.9597909616654
 30
0.0
 10
350.7933490401199
 20
270.9438296479228
 30
0.0
 10
350.8685837128735
 20
270.9412915454907
 30
0.0
 10
350.8780536031298
 20
270.9413935070088
 30
0.0
 10
350.8827049754729
 20
270.9414435879467
 30
0.0
  0
SPLINE
  5
13C
330
1F
100
AcDbEntity
  8
0
  6
SLD-Durchgehend
 62
     7
370
    25
100
AcDbSpline
210
0.0
220
0.0
230
1.0
 70
     8
 71
     3
 72
    12
 73
     8
 74
     0
 42
0.000000001
 43
0.00000001
 40
0.0
 40
0.0
 40
0.0
 40
0.0
 40
0.2083196199554366
 40
0.4166960043772009
 40
0.6227876077610829
 40
0.8205018315593205
 40
0.9999999999999999
 40
0.9999999999999999
 40
0.9999999999999999
 40
0.9999999999999999
 10
498.8827049754729
 20
350.9414435879467
 30
0.0
 10
498.8882031481365
 20
350.9413717784204
 30
0.0
 10
498.8992009916465
 20
350.9412281398008
 30
0.0
 10
498.9847988867216
 20
350.9446563693176
 30
0.0
 10
499.107815124373
 20
350.9640348871261
 30
0.0
 10
499.2498023587369
 20
351.0060776667859
 30
0.0
 10
499.3398536664264
 20
351.0530609724495
 30
0.0
 10
499.3827049754729
 20
351.0754181841622
 30
0.0
  0
SPLINE
  5
13D
330
1F
100
AcDbEntity
  8
0
  6
SLD-Durchgehend
 62
     7
370
    25
100
AcDbSpline
210
0.0
220
0.0
230
1.0
 70
     8
 71
     3
 72
    12
 73
     8
 74
     0
 42
0.000000001
 43
0.00000001
 40
0.0
 40
0.0
 40
0.0
 40
0.0
 40
0.2068558852825575
 40
0.414378903304164
 40
0.6096791247023907
 40
0.8082841854432092
 40
1.0
 40
1.0
 40
1.0
 40
1.0
 10
499.3827049754729
 20
365.8074689917311
 30
0.0
 10
499.3330472411183
 20
365.8329536672329
 30
0.0
 10
499.2335716208121
 20
365.8840052090881
 30
0.0
 10
499.0870068985492
 20
365.9230962142279
 30
0.0
 10
498.9720609108259
 20
365.9390575279705
 30
0.0
 10
498.8968262380723
 20
365.9415956304026
 30
0.0
 10
498.8873563478159
 20
365.9414936688844
 30
0.0
 10
498.8827049754729
 20
365.9414435879466
 30
0.0
  0
SPLINE
  5
13E
330
1F
100
AcDbEntity
  8
0
  6
SLD-Durchgehend
 62
     7
370
    25
100
AcDbSpline
210
0.0
220
0.0
230
1.0
 70
     8
 71
     3
 72
    12
 73
     8
 74
     0
 42
0.000000001
 43
0.00000001
 40
0.0
 40
0.0
 40
0.0
 40
0.0
 40
0.2083196199554372
 40
0.4166960043771963
 40
0.622787607761073
 40
0.8205018315593058
 40
1.0
 40
1.0
 40
1.0
 40
1.0
 10
389.8827049754729
 20
392.4414435879466
 30
0.0
 10
389.8827767849991
 20
392.4469417606102
 30
0.0
 10
389.8829204236187
 20
392.4579396041202
 30
0.0
 10
389.8794921941019
 20
392.5435374991953
 30
0.0
 10
389.8601136762934
 20
392.6665537368467
 30
0.0
 10
389.8180708966336
 20
392.8085409712107
 30
0.0
 10
389.77108759097
 20
392.8985922789003
 30
0.0
 10
389.7487303792573
 20
392.9414435879467
 30
0.0
  0
SPLINE
  5
13F
330
1F
100
AcDbEntity
  8
0
  6
SLD-Durchgehend
 62
     7
370
    25
100
AcDbSpline
210
0.0
220
0.0
230
1.0
 70
     8
 71
     3
 72
    12
 73
     8
 74
     0
 42
0.000000001
 43
0.00000001
 40
0.0
 40
0.0
 40
0.0
 40
0.0
 40
0.2068558852825342
 40
0.4143789033041117
 40
0.609679124702366
 40
0.8082841854431666
 40
1.0
 40
1.0
 40
1.0
 40
1.0
 10
375.0166795716885
 20
392.9414435879467
 30
0.0
 10
374.9911948961866
 20
392.891785853592
 30
0.0
 10
374.9401433543314
 20
392.792310233286
 30
0.0
 10
374.9010523491917
 20
392.6457455110231
 30
0.0
 10
374.8850910354491
 20
392.5307995232996
 30
0.0
 10
374.882552933017
 20
392.4555648505461
 30
0.0
 10
374.8826548945351
 20
392.4460949602897
 30
0.0
 10
374.8827049754729
 20
392.4414435879467
 30
0.0
  0
SPLINE
  5
140
330
1F
100
AcDbEntity
  8
0
  6
SLD-Durchgehend
 62
     7
370
    25
100
AcDbSpline
210
0.0
220
0.0
230
1.0
 70
     8
 71
     3
 72
    12
 73
     8
 74
     0
 42
0.000000001
 43
0.00000001
 40
0.0
 40
0.0
 40
0.0
 40
0.0
 40
0.2083196199554349
 40
0.4166960043771946
 40
0.6227876077610719
 40
0.8205018315593052
 40
0.9999999999999999
 40
0.9999999999999999
 40
0.9999999999999999
 40
0.9999999999999999
 10
474.8827049754728
 20
392.4414435879467
 30
0.0
 10
474.882776784999
 20
392.4469417606103
 30
0.0
 10
474.8829204236186
 20
392.4579396041203
 30
0.0
 10
474.8794921941019
 20
392.5435374991953
 30
0.0
 10
474.8601136762933
 20
392.6665537368467
 30
0.0
 10
474.8180708966335
 20
392.8085409712107
 30
0.0
 10
474.7710875909698
 20
392.8985922789003
 30
0.0
 10
474.7487303792573
 20
392.9414435879467
 30
0.0
  0
SPLINE
  5
141
330
1F
100
AcDbEntity
  8
0
  6
SLD-Durchgehend
 62
     7
370
    25
100
AcDbSpline
210
0.0
220
0.0
230
1.0
 70
     8
 71
     3
 72
    12
 73
     8
 74
     0
 42
0.000000001
 43
0.00000001
 40
0.0
 40
0.0
 40
0.0
 40
0.0
 40
0.2068558852825371
 40
0.4143789033041138
 40
0.6096791247023674
 40
0.8082841854431673
 40
0.9999999999999999
 40
0.9999999999999999
 40
0.9999999999999999
 40
0.9999999999999999
 10
460.0166795716884
 20
392.9414435879467
 30
0.0
 10
459.9911948961866
 20
392.891785853592
 30
0.0
 10
459.9401433543314
 20
392.7923102332859
 30
0.0
 10
459.9010523491916
 20
392.6457455110231
 30
0.0
 10
459.885091035449
 20
392.5307995232996
 30
0.0
 10
459.8825529330168
 20
392.4555648505461
 30
0.0
 10
459.8826548945349
 20
392.4460949602897
 30
0.0
 10
459.8827049754728
 20
392.4414435879467
 30
0.0
  0
SPLINE
  5
142
330
1F
100
AcDbEntity
  8
0
  6
SLD-Durchgehend
 62
     7
370
    25
100
AcDbSpline
210
0.0
220
0.0
230
1.0
 70
     8
 71
     3
 72
    12
 73
     8
 74
     0
 42
0.000000001
 43
0.00000001
 40
0.0
 40
0.0
 40
0.0
 40
0.0
 40
0.2083196199554455
 40
0.4166960043772072
 40
0.6227876077610875
 40
0.8205018315593227
 40
1.0
 40
1.0
 40
1.0
 40
1.0
 10
374.8827049754729
 20
244.4414435879467
 30
0.0
 10
374.8826331659467
 20
244.435945415283
 30
0.0
 10
374.8824895273271
 20
244.424947571773
 30
0.0
 10
374.8859177568438
 20
244.3393496766979
 30
0.0
 10
374.9052962746524
 20
244.2163334390465
 30
0.0
 10
374.9473390543122
 20
244.0743462046825
 30
0.0
 10
374.9943223599758
 20
243.984294896993
 30
0.0
 10
375.0166795716885
 20
243.9414435879466
 30
0.0
  0
SPLINE
  5
143
330
1F
100
AcDbEntity
  8
0
  6
SLD-Durchgehend
 62
     7
370
    25
100
AcDbSpline
210
0.0
220
0.0
230
1.0
 70
     8
 71
     3
 72
    12
 73
     8
 74
     0
 42
0.000000001
 43
0.00000001
 40
0.0
 40
0.0
 40
0.0
 40
0.0
 40
0.2068558852825374
 40
0.4143789033041217
 40
0.6096791247023607
 40
0.8082841854431722
 40
0.9999999999999999
 40
0.9999999999999999
 40
0.9999999999999999
 40
0.9999999999999999
 10
389.7487303792573
 20
243.9414435879466
 30
0.0
 10
389.7742150547591
 20
243.9911013223012
 30
0.0
 10
389.8252665966143
 20
244.0905769426073
 30
0.0
 10
389.8643576017541
 20
244.2371416648703
 30
0.0
 10
389.8803189154967
 20
244.3520876525936
 30
0.0
 10
389.8828570179289
 20
244.4273223253471
 30
0.0
 10
389.8827550564108
 20
244.4367922156036
 30
0.0
 10
389.8827049754729
 20
244.4414435879466
 30
0.0
  0
LINE
  5
144
330
1F
100
AcDbEntity
  8
0
  6
SLD-Durchgehend
 62
     7
370
    25
100
AcDbLine
 10
349.8827049755
 20
284.9414435879
 30
0.0
 11
349.8827049755
 21
271.9414435879
 31
0.0
  0
ARC
  5
145
330
1F
100
AcDbEntity
  8
0
  6
SLD-Durchgehend
 62
     7
370
    25
100
AcDbCircle
 10
350.8827049755
 20
284.9414435879
 30
0.0
 40
1.000000000000033
100
AcDbArc
 50
120.0
 51
180.0
  0
ARC
  5
146
330
1F
100
AcDbEntity
  8
0
  6
SLD-Durchgehend
 62
     7
370
    25
100
AcDbCircle
 10
350.8827049755
 20
271.9414435879
 30
0.0
 40
1.000000000000033
100
AcDbArc
 50
180.0
 51
240.0
  0
LINE
  5
147
330
1F
100
AcDbEntity
  8
0
  6
SLD-Durchgehend
 62
     7
370
    25
100
AcDbLine
 10
499.8827049755
 20
271.9414435879
 30
0.0
 11
499.8827049755
 21
284.9414435879
 31
0.0
  0
ARC
  5
148
330
1F
100
AcDbEntity
  8
0
  6
SLD-Durchgehend
 62
     7
370
    25
100
AcDbCircle
 10
498.8827049755
 20
271.9414435879
 30
0.0
 40
1.000000000000033
100
AcDbArc
 50
300.0
 51
0.0
  0
ARC
  5
149
330
1F
100
AcDbEntity
  8
0
  6
SLD-Durchgehend
 62
     7
370
    25
100
AcDbCircle
 10
498.8827049755
 20
284.9414435879
 30
0.0
 40
1.0
100
AcDbArc
 50
0.0
 51
60.0
  0
LINE
  5
14A
330
1F
100
AcDbEntity
  8
0
  6
SLD-Durchgehend
 62
     7
370
    25
100
AcDbLine
 10
499.8827049755
 20
351.9414435879
 30
0.0
 11
499.8827049755
 21
364.9414435879
 31
0.0
  0
ARC
  5
14B
330
1F
100
AcDbEntity
  8
0
  6
SLD-Durchgehend
 62
     7
370
    25
100
AcDbCircle
 10
498.8827049755
 20
351.9414435879
 30
0.0
 40
1.0
100
AcDbArc
 50
300.0
 51
0.0
  0
ARC
  5
14C
330
1F
100
AcDbEntity
  8
0
  6
SLD-Durchgehend
 62
     7
370
    25
100
AcDbCircle
 10
498.8827049755
 20
364.9414435879
 30
0.0
 40
1.000000000000033
100
AcDbArc
 50
0.0
 51
60.0
  0
LINE
  5
14D
330
1F
100
AcDbEntity
  8
0
  6
SLD-Durchgehend
 62
     7
370
    25
100
AcDbLine
 10
473.8827049755
 20
393.4414435879
 30
0.0
 11
460.8827049755
 21
393.4414435879
 31
0.0
  0
ARC
  5
14E
330
1F
100
AcDbEntity
  8
0
  6
SLD-Durchgehend
 62
     7
370
    25
100
AcDbCircle
 10
473.8827049755
 20
392.4414435879
 30
0.0
 40
1.000000000000033
100
AcDbArc
 50
30.0
 51
90.0
  0
ARC
  5
14F
330
1F
100
AcDbEntity
  8
0
  6
SLD-Durchgehend
 62
     7
370
    25
100
AcDbCircle
 10
460.8827049755
 20
392.4414435879
 30
0.0
 40
1.0
100
AcDbArc
 50
90.0
 51
150.0
  0
LINE
  5
150
330
1F
100
AcDbEntity
  8
0
  6
SLD-Durchgehend
 62
     7
370
    25
100
AcDbLine
 10
375.8827049755
 20
243.4414435879
 30
0.0
 11
388.8827049755
 21
243.4414435879
 31
0.0
  0
ARC
  5
151
330
1F
100
AcDbEntity
  8
0
  6
SLD-Durchgehend
 62
     7
370
    25
100
AcDbCircle
 10
375.8827049755
 20
244.4414435879
 30
0.0
 40
1.0
100
AcDbArc
 50
210.0
 51
270.0
  0
ARC
  5
152
330
1F
100
AcDbEntity
  8
0
  6
SLD-Durchgehend
 62
     7
370
    25
100
AcDbCircle
 10
388.8827049755
 20
244.4414435879
 30
0.0
 40
1.0
100
AcDbArc
 50
270.0
 51
330.0
  0
LINE
  5
153
330
1F
100
AcDbEntity
  8
0
  6
SLD-Durchgehend
 62
     7
370
    25
100
AcDbLine
 10
460.8827049755
 20
243.4414435879
 30
0.0
 11
473.8827049755
 21
243.4414435879
 31
0.0
  0
ARC
  5
154
330
1F
100
AcDbEntity
  8
0
  6
SLD-Durchgehend
 62
     7
370
    25
100
AcDbCircle
 10
460.8827049755
 20
244.4414435879
 30
0.0
 40
1.0
100
AcDbArc
 50
210.0
 51
270.0
  0
ARC
  5
155
330
1F
100
AcDbEntity
  8
0
  6
SLD-Durchgehend
 62
     7
370
    25
100
AcDbCircle
 10
473.8827049755
 20
244.4414435879
 30
0.0
 40
1.000000000000033
100
AcDbArc
 50
270.0
 51
330.0
  0
LINE
  5
156
330
1F
100
AcDbEntity
  8
0
  6
SLD-Durchgehend
 62
     7
370
    25
100
AcDbLine
 10
349.8827049755
 20
364.9414435879
 30
0.0
 11
349.8827049755
 21
351.9414435879
 31
0.0
  0
ARC
  5
157
330
1F
100
AcDbEntity
  8
0
  6
SLD-Durchgehend
 62
     7
370
    25
100
AcDbCircle
 10
350.8827049755
 20
364.9414435879
 30
0.0
 40
1.000000000000054
100
AcDbArc
 50
120.0
 51
180.0
  0
ARC
  5
158
330
1F
100
AcDbEntity
  8
0
  6
SLD-Durchgehend
 62
     7
370
    25
100
AcDbCircle
 10
350.8827049755
 20
351.9414435879
 30
0.0
 40
1.000000000000033
100
AcDbArc
 50
180.0
 51
240.0
  0
LINE
  5
159
330
1F
100
AcDbEntity
  8
0
  6
SLD-Durchgehend
 62
     7
370
    25
100
AcDbLine
 10
388.8827049755
 20
393.4414435879
 30
0.0
 11
375.8827049755
 21
393.4414435879
 31
0.0
  0
ARC
  5
15A
330
1F
100
AcDbEntity
  8
0
  6
SLD-Durchgehend
 62
     7
370
    25
100
AcDbCircle
 10
388.8827049755
 20
392.4414435879
 30
0.0
 40
1.0
100
AcDbArc
 50
30.0
 51
90.0
  0
ARC
  5
15B
330
1F
100
AcDbEntity
  8
0
  6
SLD-Durchgehend
 62
     7
370
    25
100
AcDbCircle
 10
375.8827049755
 20
392.4414435879
 30
0.0
 40
1.0
100
AcDbArc
 50
90.0
 51
150.0
  0
LINE
  5
15C
330
1F
100
AcDbEntity
  8
0
  6
SLD-Phantom
 62
     7
370
    35
100
AcDbLine
 10
517.8827049755
 20
318.4414435879
 30
0.0
 11
331.8827049755
 21
318.4414435879
 31
0.0
  0
LINE
  5
15D
330
1F
100
AcDbEntity
  8
0
  6
SLD-Durchgehend
 62
     7
370
    35
100
AcDbLine
 10
513.8827049755
 20
293.0414435879
 30
0.0
 11
513.8827049755
 21
318.4414435879
 31
0.0
  0
SOLID
  5
15E
330
1F
100
AcDbEntity
  8
0
  6
SLD-Durchgehend
 62
     7
370
    35
100
AcDbTrace
 10
513.8827049755
 20
318.4414435879
 30
0.0
 11
511.8507049755
 21
305.7414435879
 31
0.0
 12
515.9147049755
 22
305.7414435879
 32
0.0
 13
515.9147049755
 23
305.7414435879
 33
0.0
  0
LINE
  5
15F
330
1F
100
AcDbEntity
  8
0
  6
SLD-Durchgehend
 62
     7
370
    35
100
AcDbLine
 10
335.8827049755
 20
293.0414435879
 30
0.0
 11
335.8827049755
 21
318.4414435879
 31
0.0
  0
SOLID
  5
160
330
1F
100
AcDbEntity
  8
0
  6
SLD-Durchgehend
 62
     7
370
    35
100
AcDbTrace
 10
335.8827049755
 20
318.4414435879
 30
0.0
 11
333.8507049755
 21
305.7414435879
 31
0.0
 12
337.9147049755
 22
305.7414435879
 32
0.0
 13
337.9147049755
 23
305.7414435879
 33
0.0
  0
MTEXT
  5
162
330
1F
100
AcDbEntity
  8
0
  6
Continuous
 62
     7
100
AcDbMText
 10
515.4123580166
 20
299.2008947488
 30
0.0
 40
7.0
 41
0.0
 46
0.0
 71
     1
 72
     1
  1
A
  7
SLDTEXTSTYLE0
 73
     1
 44
1.0
  0
MTEXT
  5
163
330
1F
100
AcDbEntity
  8
0
  6
Continuous
 62
     7
100
AcDbMText
 10
330.5289193315
 20
299.2008947488
 30
0.0
 40
7.0
 41
0.0
 46
0.0
 71
     1
 72
     1
  1
A
  7
SLDTEXTSTYLE0
 73
     1
 44
1.0
  0
LINE
  5
164
330
1F
100
AcDbEntity
  8
0
  6
SLD-Durchgehend
 62
     7
370
    25
100
AcDbLine
 10
434.1948238563
 20
464.8163559916
 30
0.0
 11
434.1948238563
 21
464.8413559916
 31
0.0
  0
LINE
  5
165
330
1F
100
AcDbEntity
  8
0
  6
SLD-Durchgehend
 62
     7
370
    25
100
AcDbLine
 10
422.3550664698
 20
464.6163559916
 30
0.0
 11
422.3550664698
 21
464.8163559916
 31
0.0
  0
LINE
  5
166
330
1F
100
AcDbEntity
  8
0
  6
SLD-Durchgehend
 62
     7
370
    25
100
AcDbLine
 10
423.3617090957
 20
464.8163559916
 30
0.0
 11
423.3617090957
 21
464.6163559916
 31
0.0
  0
LINE
  5
167
330
1F
100
AcDbEntity
  8
0
  6
SLD-Durchgehend
 62
     7
370
    25
100
AcDbLine
 10
423.3617090957
 20
464.8163559916
 30
0.0
 11
422.3550664698
 21
464.8163559916
 31
0.0
  0
LINE
  5
168
330
1F
100
AcDbEntity
  8
0
  6
SLD-Durchgehend
 62
     7
370
    25
100
AcDbLine
 10
428.0740843169
 20
464.8163559916
 30
0.0
 11
428.0740843169
 21
464.6163559916
 31
0.0
  0
LINE
  5
169
330
1F
100
AcDbEntity
  8
0
  6
SLD-Durchgehend
 62
     7
370
    25
100
AcDbLine
 10
428.0740843169
 20
464.8163559916
 30
0.0
 11
426.5633095119
 21
464.8163559916
 31
0.0
  0
LINE
  5
16A
330
1F
100
AcDbEntity
  8
0
  6
SLD-Durchgehend
 62
     7
370
    25
100
AcDbLine
 10
421.8412450691
 20
464.6163559916
 30
0.0
 11
423.3617090957
 21
464.6163559916
 31
0.0
  0
LINE
  5
16B
330
1F
100
AcDbEntity
  8
0
  6
SLD-Durchgehend
 62
     7
370
    25
100
AcDbLine
 10
421.8412450691
 20
464.6163559916
 30
0.0
 11
421.8412450691
 21
464.8163559916
 31
0.0
  0
LINE
  5
16C
330
1F
100
AcDbEntity
  8
0
  6
SLD-Durchgehend
 62
     7
370
    25
100
AcDbLine
 10
440.3827049755
 20
459.8163559916
 30
0.0
 11
440.3827049755
 21
464.8163559916
 31
0.0
  0
LINE
  5
16D
330
1F
100
AcDbEntity
  8
0
  6
SLD-Durchgehend
 62
     7
370
    25
100
AcDbLine
 10
409.3827049755
 20
464.8163559916
 30
0.0
 11
409.3827049755
 21
459.8163559916
 31
0.0
  0
LINE
  5
16E
330
1F
100
AcDbEntity
  8
0
  6
SLD-Durchgehend
 62
     7
370
    25
100
AcDbLine
 10
424.7661956295
 20
459.8163559916
 30
0.0
 11
424.7661956295
 21
460.0163559916
 31
0.0
  0
LINE
  5
16F
330
1F
100
AcDbEntity
  8
0
  6
SLD-Durchgehend
 62
     7
370
    25
100
AcDbLine
 10
424.7661956295
 20
460.0163559916
 30
0.0
 11
422.6152742316
 21
460.0163559916
 31
0.0
  0
LINE
  5
170
330
1F
100
AcDbEntity
  8
0
  6
SLD-Durchgehend
 62
     7
370
    25
100
AcDbLine
 10
426.5633095119
 20
464.6163559916
 30
0.0
 11
426.5633095119
 21
464.8163559916
 31
0.0
  0
LINE
  5
171
330
1F
100
AcDbEntity
  8
0
  6
SLD-Durchgehend
 62
     7
370
    25
100
AcDbLine
 10
428.0740843169
 20
464.6163559916
 30
0.0
 11
426.5633095119
 21
464.6163559916
 31
0.0
  0
LINE
  5
172
330
1F
100
AcDbEntity
  8
0
  6
SLD-Durchgehend
 62
     7
370
    25
100
AcDbLine
 10
422.6152742316
 20
460.0163559916
 30
0.0
 11
422.6152742316
 21
459.8163559916
 31
0.0
  0
LINE
  5
173
330
1F
100
AcDbEntity
  8
0
  6
SLD-Durchgehend
 62
     7
370
    25
100
AcDbLine
 10
409.3827049755
 20
459.8163559916
 30
0.0
 11
422.6152742316
 21
459.8163559916
 31
0.0
  0
LINE
  5
174
330
1F
100
AcDbEntity
  8
0
  6
SLD-Durchgehend
 62
     7
370
    25
100
AcDbLine
 10
424.7661956295
 20
459.8163559916
 30
0.0
 11
440.3827049755
 21
459.8163559916
 31
0.0
  0
LINE
  5
175
330
1F
100
AcDbEntity
  8
0
  6
SLD-Durchgehend
 62
     7
370
    25
100
AcDbLine
 10
428.0740843169
 20
464.8163559916
 30
0.0
 11
440.3827049755
 21
464.8163559916
 31
0.0
  0
LINE
  5
176
330
1F
100
AcDbEntity
  8
0
  6
SLD-Durchgehend
 62
     7
370
    25
100
AcDbLine
 10
423.3617090957
 20
464.8163559916
 30
0.0
 11
426.5633095119
 21
464.8163559916
 31
0.0
  0
LINE
  5
177
330
1F
100
AcDbEntity
  8
0
  6
SLD-Durchgehend
 62
     7
370
    25
100
AcDbLine
 10
409.3827049755
 20
464.8163559916
 30
0.0
 11
421.8412450691
 21
464.8163559916
 31
0.0
  0
LINE
  5
178
330
1F
100
AcDbEntity
  8
0
  6
SLD-Durchgehend
 62
     7
370
    25
100
AcDbLine
 10
480.8827049755
 20
464.8163559916
 30
0.0
 11
480.8827049755
 21
459.8163559916
 31
0.0
  0
LINE
  5
179
330
1F
100
AcDbEntity
  8
0
  6
SLD-Durchgehend
 62
     7
370
    25
100
AcDbLine
 10
493.8827049755
 20
459.8163559916
 30
0.0
 11
493.8827049755
 21
464.8163559916
 31
0.0
  0
LINE
  5
17A
330
1F
100
AcDbEntity
  8
0
  6
SLD-Durchgehend
 62
     7
370
    25
100
AcDbLine
 10
480.8827049755
 20
459.8163559916
 30
0.0
 11
493.8827049755
 21
459.8163559916
 31
0.0
  0
LINE
  5
17B
330
1F
100
AcDbEntity
  8
0
  6
SLD-Durchgehend
 62
     7
370
    25
100
AcDbLine
 10
480.8827049755
 20
464.8163559916
 30
0.0
 11
493.8827049755
 21
464.8163559916
 31
0.0
  0
LINE
  5
17C
330
1F
100
AcDbEntity
  8
0
  6
SLD-Durchgehend
 62
     7
370
    25
100
AcDbLine
 10
473.3827049755
 20
459.8163559916
 30
0.0
 11
473.3827049755
 21
464.8163559916
 31
0.0
  0
LINE
  5
17D
330
1F
100
AcDbEntity
  8
0
  6
SLD-Durchgehend
 62
     7
370
    25
100
AcDbLine
 10
464.3827049755
 20
459.8163559916
 30
0.0
 11
473.3827049755
 21
459.8163559916
 31
0.0
  0
LINE
  5
17E
330
1F
100
AcDbEntity
  8
0
  6
SLD-Durchgehend
 62
     7
370
    25
100
AcDbLine
 10
464.3827049755
 20
464.8163559914
 30
0.0
 11
464.3827049755
 21
459.8163559916
 31
0.0
  0
LINE
  5
17F
330
1F
100
AcDbEntity
  8
0
  6
SLD-Durchgehend
 62
     7
370
    25
100
AcDbLine
 10
464.3827049755
 20
464.8163559914
 30
0.0
 11
473.3827049755
 21
464.8163559916
 31
0.0
  0
LINE
  5
180
330
1F
100
AcDbEntity
  8
0
  6
SLD-Durchgehend
 62
     7
370
    25
100
AcDbLine
 10
376.3827049755
 20
464.8163559916
 30
0.0
 11
376.3827049755
 21
459.8163559916
 31
0.0
  0
LINE
  5
181
330
1F
100
AcDbEntity
  8
0
  6
SLD-Durchgehend
 62
     7
370
    25
100
AcDbLine
 10
385.3827049755
 20
459.8163559916
 30
0.0
 11
385.3827049755
 21
464.8163559914
 31
0.0
  0
LINE
  5
182
330
1F
100
AcDbEntity
  8
0
  6
SLD-Durchgehend
 62
     7
370
    25
100
AcDbLine
 10
376.3827049755
 20
459.8163559916
 30
0.0
 11
385.3827049755
 21
459.8163559916
 31
0.0
  0
LINE
  5
183
330
1F
100
AcDbEntity
  8
0
  6
SLD-Durchgehend
 62
     7
370
    25
100
AcDbLine
 10
376.3827049755
 20
464.8163559916
 30
0.0
 11
385.3827049755
 21
464.8163559914
 31
0.0
  0
LINE
  5
184
330
1F
100
AcDbEntity
  8
0
  6
SLD-Durchgehend
 62
     7
370
    25
100
AcDbLine
 10
447.8827049755
 20
464.8163559916
 30
0.0
 11
447.8827049755
 21
459.8163559916
 31
0.0
  0
LINE
  5
185
330
1F
100
AcDbEntity
  8
0
  6
SLD-Durchgehend
 62
     7
370
    25
100
AcDbLine
 10
447.8827049755
 20
459.8163559916
 30
0.0
 11
456.8827049755
 21
459.8163559916
 31
0.0
  0
LINE
  5
186
330
1F
100
AcDbEntity
  8
0
  6
SLD-Durchgehend
 62
     7
370
    25
100
AcDbLine
 10
456.8827049755
 20
459.8163559916
 30
0.0
 11
456.8827049755
 21
464.8163559914
 31
0.0
  0
LINE
  5
187
330
1F
100
AcDbEntity
  8
0
  6
SLD-Durchgehend
 62
     7
370
    25
100
AcDbLine
 10
447.8827049755
 20
464.8163559916
 30
0.0
 11
456.8827049755
 21
464.8163559914
 31
0.0
  0
LINE
  5
188
330
1F
100
AcDbEntity
  8
0
  6
SLD-Durchgehend
 62
     7
370
    25
100
AcDbLine
 10
368.8827049755
 20
459.8163559916
 30
0.0
 11
368.8827049755
 21
464.8163559916
 31
0.0
  0
LINE
  5
189
330
1F
100
AcDbEntity
  8
0
  6
SLD-Durchgehend
 62
     7
370
    25
100
AcDbLine
 10
355.8827049755
 20
464.8163559916
 30
0.0
 11
355.8827049755
 21
459.8163559916
 31
0.0
  0
LINE
  5
18A
330
1F
100
AcDbEntity
  8
0
  6
SLD-Durchgehend
 62
     7
370
    25
100
AcDbLine
 10
355.8827049755
 20
459.8163559916
 30
0.0
 11
368.8827049755
 21
459.8163559916
 31
0.0
  0
LINE
  5
18B
330
1F
100
AcDbEntity
  8
0
  6
SLD-Durchgehend
 62
     7
370
    25
100
AcDbLine
 10
355.8827049755
 20
464.8163559916
 30
0.0
 11
368.8827049755
 21
464.8163559916
 31
0.0
  0
LINE
  5
18C
330
1F
100
AcDbEntity
  8
0
  6
SLD-Durchgehend
 62
     7
370
    25
100
AcDbLine
 10
392.8827049755
 20
464.8163559914
 30
0.0
 11
392.8827049755
 21
459.8163559916
 31
0.0
  0
LINE
  5
18D
330
1F
100
AcDbEntity
  8
0
  6
SLD-Durchgehend
 62
     7
370
    25
100
AcDbLine
 10
401.8827049755
 20
459.8163559916
 30
0.0
 11
401.8827049755
 21
464.8163559916
 31
0.0
  0
LINE
  5
18E
330
1F
100
AcDbEntity
  8
0
  6
SLD-Durchgehend
 62
     7
370
    25
100
AcDbLine
 10
392.8827049755
 20
459.8163559916
 30
0.0
 11
401.8827049755
 21
459.8163559916
 31
0.0
  0
LINE
  5
18F
330
1F
100
AcDbEntity
  8
0
  6
SLD-Durchgehend
 62
     7
370
    25
100
AcDbLine
 10
392.8827049755
 20
464.8163559914
 30
0.0
 11
401.8827049755
 21
464.8163559916
 31
0.0
  0
LINE
  5
190
330
1F
100
AcDbEntity
  8
0
  6
SLD-Durchgehend
 62
     7
370
    25
100
AcDbLine
 10
422.3550664698
 20
464.8163559916
 30
0.0
 11
421.8412450691
 21
464.8163559916
 31
0.0
  0
LINE
  5
191
330
1F
100
AcDbEntity
  8
0
  6
SLD-Durchgehend
 62
     7
370
    25
100
AcDbLine
 10
424.0482469116
 20
460.0163559916
 30
0.0
 11
424.0482469116
 21
459.8163559916
 31
0.0
  0
LINE
  5
192
330
1F
100
AcDbEntity
  8
0
  6
SLD-Durchgehend
 62
     7
370
    25
100
AcDbLine
 10
424.0482469116
 20
459.8163559916
 30
0.0
 11
422.6152742316
 21
459.8163559916
 31
0.0
  0
LINE
  5
193
330
1F
100
AcDbEntity
  8
0
  6
SLD-Durchgehend
 62
     7
370
    25
100
AcDbLine
 10
424.3623494757
 20
460.0163559916
 30
0.0
 11
424.3623494757
 21
459.8163559916
 31
0.0
  0
LINE
  5
194
330
1F
100
AcDbEntity
  8
0
  6
SLD-Durchgehend
 62
     7
370
    25
100
AcDbLine
 10
424.7661956295
 20
459.8163559916
 30
0.0
 11
424.3623494757
 21
459.8163559916
 31
0.0
  0
LINE
  5
195
330
1F
100
AcDbEntity
  8
0
  6
SLD-Durchgehend
 62
     7
370
    25
100
AcDbLine
 10
424.3623494757
 20
459.8163559916
 30
0.0
 11
424.0482469116
 21
459.8163559916
 31
0.0
  0
LINE
  5
196
330
1F
100
AcDbEntity
  8
0
  6
SLD-Durchgehend
 62
     7
370
    25
100
AcDbLine
 10
401.8827049755
 20
459.8163559916
 30
0.0
 11
409.3827049755
 21
459.8163559916
 31
0.0
  0
LINE
  5
197
330
1F
100
AcDbEntity
  8
0
  6
SLD-Durchgehend
 62
     7
370
    25
100
AcDbLine
 10
409.3827049755
 20
464.8163559916
 30
0.0
 11
401.8827049755
 21
464.8163559916
 31
0.0
  0
LINE
  5
198
330
1F
100
AcDbEntity
  8
0
  6
SLD-Durchgehend
 62
     7
370
    25
100
AcDbLine
 10
440.3827049755
 20
459.8163559916
 30
0.0
 11
447.8827049755
 21
459.8163559916
 31
0.0
  0
LINE
  5
199
330
1F
100
AcDbEntity
  8
0
  6
SLD-Durchgehend
 62
     7
370
    25
100
AcDbLine
 10
447.8827049755
 20
464.8163559916
 30
0.0
 11
440.3827049755
 21
464.8163559916
 31
0.0
  0
LINE
  5
19A
330
1F
100
AcDbEntity
  8
0
  6
SLD-Durchgehend
 62
     7
370
    25
100
AcDbLine
 10
385.3827049755
 20
459.8163559916
 30
0.0
 11
392.8827049755
 21
459.8163559916
 31
0.0
  0
LINE
  5
19B
330
1F
100
AcDbEntity
  8
0
  6
SLD-Durchgehend
 62
     7
370
    25
100
AcDbLine
 10
392.8827049755
 20
464.8163559914
 30
0.0
 11
385.3827049755
 21
464.8163559916
 31
0.0
  0
LINE
  5
19C
330
1F
100
AcDbEntity
  8
0
  6
SLD-Durchgehend
 62
     7
370
    25
100
AcDbLine
 10
456.8827049755
 20
459.8163559916
 30
0.0
 11
464.3827049755
 21
459.8163559916
 31
0.0
  0
LINE
  5
19D
330
1F
100
AcDbEntity
  8
0
  6
SLD-Durchgehend
 62
     7
370
    25
100
AcDbLine
 10
464.3827049755
 20
464.8163559914
 30
0.0
 11
456.8827049755
 21
464.8163559914
 31
0.0
  0
LINE
  5
19E
330
1F
100
AcDbEntity
  8
0
  6
SLD-Durchgehend
 62
     7
370
    25
100
AcDbLine
 10
368.8827049755
 20
459.8163559916
 30
0.0
 11
376.3827049755
 21
459.8163559916
 31
0.0
  0
LINE
  5
19F
330
1F
100
AcDbEntity
  8
0
  6
SLD-Durchgehend
 62
     7
370
    25
100
AcDbLine
 10
376.3827049755
 20
464.8163559916
 30
0.0
 11
368.8827049755
 21
464.8163559916
 31
0.0
  0
LINE
  5
1A0
330
1F
100
AcDbEntity
  8
0
  6
SLD-Durchgehend
 62
     7
370
    25
100
AcDbLine
 10
473.3827049755
 20
459.8163559916
 30
0.0
 11
480.8827049755
 21
459.8163559916
 31
0.0
  0
LINE
  5
1A1
330
1F
100
AcDbEntity
  8
0
  6
SLD-Durchgehend
 62
     7
370
    25
100
AcDbLine
 10
480.8827049755
 20
464.8163559916
 30
0.0
 11
473.3827049755
 21
464.8163559916
 31
0.0
  0
LINE
  5
1A2
330
1F
100
AcDbEntity
  8
0
  6
SLD-Durchgehend
 62
     7
370
    25
100
AcDbLine
 10
486.0827049755
 20
434.1454387851
 30
0.0
 11
486.0827049755
 21
435.6872731981
 31
0.0
  0
LINE
  5
1A3
330
1F
100
AcDbEntity
  8
0
  6
SLD-Durchgehend
 62
     7
370
    25
100
AcDbLine
 10
487.3827049755
 20
433.5735379355
 30
0.0
 11
487.3827049755
 21
433.0591740477
 31
0.0
  0
LINE
  5
1A4
330
1F
100
AcDbEntity
  8
0
  6
SLD-Durchgehend
 62
     7
370
    25
100
AcDbLine
 10
487.3827049755
 20
457.0663559916
 30
0.0
 11
487.3827049755
 21
455.4591740477
 31
0.0
  0
ARC
  5
1A5
330
1F
100
AcDbEntity
  8
0
  6
SLD-Durchgehend
 62
     7
370
    25
100
AcDbCircle
 10
487.1327049755
 20
439.4591740477
 30
0.0
 40
0.2500000000000117
100
AcDbArc
 50
275.0
 51
0.0
  0
ARC
  5
1A6
330
1F
100
AcDbEntity
  8
0
  6
SLD-Durchgehend
 62
     7
370
    25
100
AcDbCircle
 10
486.3327049755
 20
438.8872731981
 30
0.0
 40
0.2500000000000167
100
AcDbArc
 50
95.0
 51
179.9999999997
  0
LINE
  5
1A7
330
1F
100
AcDbEntity
  8
0
  6
SLD-Durchgehend
 62
     7
370
    25
100
AcDbLine
 10
486.3109160398
 20
439.1363218726
 30
0.0
 11
487.1544939112
 21
439.2101253732
 31
0.0
  0
ARC
  5
1A8
330
1F
100
AcDbEntity
  8
0
  6
SLD-Durchgehend
 62
     7
370
    25
100
AcDbCircle
 10
486.3327049755
 20
437.3454387851
 30
0.0
 40
0.2500000000000167
100
AcDbArc
 50
180.0
 51
265.0
  0
ARC
  5
1A9
330
1F
100
AcDbEntity
  8
0
  6
SLD-Durchgehend
 62
     7
370
    25
100
AcDbCircle
 10
487.1327049755
 20
436.7735379355
 30
0.0
 40
0.250000000000205
100
AcDbArc
 50
0.0000000003
 51
85.0000000006
  0
LINE
  5
1AA
330
1F
100
AcDbEntity
  8
0
  6
SLD-Durchgehend
 62
     7
370
    25
100
AcDbLine
 10
487.1544939112
 20
437.02258661
 30
0.0
 11
486.3109160398
 21
437.0963901106
 31
0.0
  0
LINE
  5
1AB
330
1F
100
AcDbEntity
  8
0
  6
SLD-Durchgehend
 62
     7
370
    25
100
AcDbLine
 10
486.0827049755
 20
437.3454387851
 30
0.0
 11
486.0827049755
 21
438.8872731981
 31
0.0
  0
LINE
  5
1AC
330
1F
100
AcDbEntity
  8
0
  6
SLD-Durchgehend
 62
     7
370
    25
100
AcDbLine
 10
487.3827049755
 20
436.7735379355
 30
0.0
 11
487.3827049755
 21
436.2591740477
 31
0.0
  0
ARC
  5
1AD
330
1F
100
AcDbEntity
  8
0
  6
SLD-Durchgehend
 62
     7
370
    25
100
AcDbCircle
 10
487.1327049755
 20
446.3735379355
 30
0.0
 40
0.2500000000001292
100
AcDbArc
 50
0.0000000003
 51
85.0000000003
  0
ARC
  5
1AE
330
1F
100
AcDbEntity
  8
0
  6
SLD-Durchgehend
 62
     7
370
    25
100
AcDbCircle
 10
487.1327049755
 20
442.6591740477
 30
0.0
 40
0.25
100
AcDbArc
 50
275.0
 51
0.0
  0
ARC
  5
1AF
330
1F
100
AcDbEntity
  8
0
  6
SLD-Durchgehend
 62
     7
370
    25
100
AcDbCircle
 10
486.3327049755
 20
442.0872731981
 30
0.0
 40
0.25
100
AcDbArc
 50
95.0000000005
 51
179.9999999997
  0
LINE
  5
1B0
330
1F
100
AcDbEntity
  8
0
  6
SLD-Durchgehend
 62
     7
370
    25
100
AcDbLine
 10
486.3109160398
 20
442.3363218726
 30
0.0
 11
487.1544939112
 21
442.4101253732
 31
0.0
  0
ARC
  5
1B1
330
1F
100
AcDbEntity
  8
0
  6
SLD-Durchgehend
 62
     7
370
    25
100
AcDbCircle
 10
486.3327049755
 20
440.5454387851
 30
0.0
 40
0.25
100
AcDbArc
 50
180.0
 51
265.0
  0
ARC
  5
1B2
330
1F
100
AcDbEntity
  8
0
  6
SLD-Durchgehend
 62
     7
370
    25
100
AcDbCircle
 10
487.1327049755
 20
439.9735379355
 30
0.0
 40
0.2500000000000386
100
AcDbArc
 50
0.0000000003
 51
85.0000000001
  0
LINE
  5
1B3
330
1F
100
AcDbEntity
  8
0
  6
SLD-Durchgehend
 62
     7
370
    25
100
AcDbLine
 10
487.1544939112
 20
440.22258661
 30
0.0
 11
486.3109160398
 21
440.2963901106
 31
0.0
  0
LINE
  5
1B4
330
1F
100
AcDbEntity
  8
0
  6
SLD-Durchgehend
 62
     7
370
    25
100
AcDbLine
 10
486.0827049755
 20
440.5454387851
 30
0.0
 11
486.0827049755
 21
442.0872731981
 31
0.0
  0
LINE
  5
1B5
330
1F
100
AcDbEntity
  8
0
  6
SLD-Durchgehend
 62
     7
370
    25
100
AcDbLine
 10
487.3827049755
 20
439.9735379355
 30
0.0
 11
487.3827049755
 21
439.4591740477
 31
0.0
  0
ARC
  5
1B6
330
1F
100
AcDbEntity
  8
0
  6
SLD-Durchgehend
 62
     7
370
    25
100
AcDbCircle
 10
487.1327049755
 20
445.8591740477
 30
0.0
 40
0.25
100
AcDbArc
 50
275.0
 51
0.0
  0
ARC
  5
1B7
330
1F
100
AcDbEntity
  8
0
  6
SLD-Durchgehend
 62
     7
370
    25
100
AcDbCircle
 10
486.3327049755
 20
445.2872731981
 30
0.0
 40
0.25
100
AcDbArc
 50
95.0000000004
 51
179.9999999997
  0
LINE
  5
1B8
330
1F
100
AcDbEntity
  8
0
  6
SLD-Durchgehend
 62
     7
370
    25
100
AcDbLine
 10
486.3109160398
 20
445.5363218726
 30
0.0
 11
487.1544939112
 21
445.6101253732
 31
0.0
  0
ARC
  5
1B9
330
1F
100
AcDbEntity
  8
0
  6
SLD-Durchgehend
 62
     7
370
    25
100
AcDbCircle
 10
486.3327049755
 20
443.7454387851
 30
0.0
 40
0.2500000000000167
100
AcDbArc
 50
180.0
 51
265.0
  0
ARC
  5
1BA
330
1F
100
AcDbEntity
  8
0
  6
SLD-Durchgehend
 62
     7
370
    25
100
AcDbCircle
 10
487.1327049755
 20
443.1735379355
 30
0.0
 40
0.2500000000000556
100
AcDbArc
 50
0.0000000003
 51
85.0000000002
  0
LINE
  5
1BB
330
1F
100
AcDbEntity
  8
0
  6
SLD-Durchgehend
 62
     7
370
    25
100
AcDbLine
 10
487.1544939112
 20
443.42258661
 30
0.0
 11
486.3109160398
 21
443.4963901106
 31
0.0
  0
LINE
  5
1BC
330
1F
100
AcDbEntity
  8
0
  6
SLD-Durchgehend
 62
     7
370
    25
100
AcDbLine
 10
486.0827049755
 20
443.7454387851
 30
0.0
 11
486.0827049755
 21
445.2872731981
 31
0.0
  0
LINE
  5
1BD
330
1F
100
AcDbEntity
  8
0
  6
SLD-Durchgehend
 62
     7
370
    25
100
AcDbLine
 10
487.3827049755
 20
443.1735379355
 30
0.0
 11
487.3827049755
 21
442.6591740477
 31
0.0
  0
LINE
  5
1BE
330
1F
100
AcDbEntity
  8
0
  6
SLD-Durchgehend
 62
     7
370
    25
100
AcDbLine
 10
486.0827049755
 20
427.7454387851
 30
0.0
 11
486.0827049755
 21
429.2872731981
 31
0.0
  0
ARC
  5
1BF
330
1F
100
AcDbEntity
  8
0
  6
SLD-Durchgehend
 62
     7
370
    25
100
AcDbCircle
 10
487.1327049755
 20
449.0591740477
 30
0.0
 40
0.2500000000000167
100
AcDbArc
 50
275.0
 51
0.0
  0
ARC
  5
1C0
330
1F
100
AcDbEntity
  8
0
  6
SLD-Durchgehend
 62
     7
370
    25
100
AcDbCircle
 10
486.3327049755
 20
448.4872731981
 30
0.0
 40
0.25
100
AcDbArc
 50
95.0000000002
 51
179.9999999997
  0
LINE
  5
1C1
330
1F
100
AcDbEntity
  8
0
  6
SLD-Durchgehend
 62
     7
370
    25
100
AcDbLine
 10
486.3109160398
 20
448.7363218726
 30
0.0
 11
487.1544939112
 21
448.8101253732
 31
0.0
  0
ARC
  5
1C2
330
1F
100
AcDbEntity
  8
0
  6
SLD-Durchgehend
 62
     7
370
    25
100
AcDbCircle
 10
486.3327049755
 20
446.9454387851
 30
0.0
 40
0.25
100
AcDbArc
 50
180.0
 51
265.0
  0
ARC
  5
1C3
330
1F
100
AcDbEntity
  8
0
  6
SLD-Durchgehend
 62
     7
370
    25
100
AcDbCircle
 10
486.3327049755
 20
432.4872731981
 30
0.0
 40
0.25
100
AcDbArc
 50
95.0000000002
 51
179.9999999997
  0
LINE
  5
1C4
330
1F
100
AcDbEntity
  8
0
  6
SLD-Durchgehend
 62
     7
370
    25
100
AcDbLine
 10
487.1544939112
 20
446.62258661
 30
0.0
 11
486.3109160398
 21
446.6963901106
 31
0.0
  0
LINE
  5
1C5
330
1F
100
AcDbEntity
  8
0
  6
SLD-Durchgehend
 62
     7
370
    25
100
AcDbLine
 10
486.0827049755
 20
446.9454387851
 30
0.0
 11
486.0827049755
 21
448.4872731981
 31
0.0
  0
LINE
  5
1C6
330
1F
100
AcDbEntity
  8
0
  6
SLD-Durchgehend
 62
     7
370
    25
100
AcDbLine
 10
487.3827049755
 20
446.3735379355
 30
0.0
 11
487.3827049755
 21
445.8591740477
 31
0.0
  0
LINE
  5
1C7
330
1F
100
AcDbEntity
  8
0
  6
SLD-Durchgehend
 62
     7
370
    25
100
AcDbLine
 10
486.0827049755
 20
430.9454387851
 30
0.0
 11
486.0827049755
 21
432.4872731981
 31
0.0
  0
ARC
  5
1C8
330
1F
100
AcDbEntity
  8
0
  6
SLD-Durchgehend
 62
     7
370
    25
100
AcDbCircle
 10
487.1327049755
 20
452.2591740477
 30
0.0
 40
0.2500000000000117
100
AcDbArc
 50
275.0
 51
0.0
  0
ARC
  5
1C9
330
1F
100
AcDbEntity
  8
0
  6
SLD-Durchgehend
 62
     7
370
    25
100
AcDbCircle
 10
486.3327049755
 20
451.6872731981
 30
0.0
 40
0.2500000000000096
100
AcDbArc
 50
95.0000000001
 51
179.9999999997
  0
LINE
  5
1CA
330
1F
100
AcDbEntity
  8
0
  6
SLD-Durchgehend
 62
     7
370
    25
100
AcDbLine
 10
486.3109160398
 20
451.9363218726
 30
0.0
 11
487.1544939112
 21
452.0101253732
 31
0.0
  0
ARC
  5
1CB
330
1F
100
AcDbEntity
  8
0
  6
SLD-Durchgehend
 62
     7
370
    25
100
AcDbCircle
 10
486.3327049755
 20
450.1454387851
 30
0.0
 40
0.2500000000000167
100
AcDbArc
 50
180.0
 51
265.0
  0
ARC
  5
1CC
330
1F
100
AcDbEntity
  8
0
  6
SLD-Durchgehend
 62
     7
370
    25
100
AcDbCircle
 10
487.1327049755
 20
449.5735379355
 30
0.0
 40
0.2500000000001413
100
AcDbArc
 50
359.9999999997
 51
85.0000000004
  0
LINE
  5
1CD
330
1F
100
AcDbEntity
  8
0
  6
SLD-Durchgehend
 62
     7
370
    25
100
AcDbLine
 10
487.1544939112
 20
449.82258661
 30
0.0
 11
486.3109160398
 21
449.8963901106
 31
0.0
  0
LINE
  5
1CE
330
1F
100
AcDbEntity
  8
0
  6
SLD-Durchgehend
 62
     7
370
    25
100
AcDbLine
 10
486.0827049755
 20
450.1454387851
 30
0.0
 11
486.0827049755
 21
451.6872731981
 31
0.0
  0
LINE
  5
1CF
330
1F
100
AcDbEntity
  8
0
  6
SLD-Durchgehend
 62
     7
370
    25
100
AcDbLine
 10
487.3827049755
 20
449.5735379355
 30
0.0
 11
487.3827049755
 21
449.0591740477
 31
0.0
  0
LINE
  5
1D0
330
1F
100
AcDbEntity
  8
0
  6
SLD-Durchgehend
 62
     7
370
    25
100
AcDbLine
 10
486.0827049755
 20
453.3454387851
 30
0.0
 11
486.0827049755
 21
454.8872731981
 31
0.0
  0
LINE
  5
1D1
330
1F
100
AcDbEntity
  8
0
  6
SLD-Durchgehend
 62
     7
370
    25
100
AcDbLine
 10
487.3827049755
 20
452.7735379355
 30
0.0
 11
487.3827049755
 21
452.2591740477
 31
0.0
  0
LINE
  5
1D2
330
1F
100
AcDbEntity
  8
0
  6
SLD-Durchgehend
 62
     7
370
    25
100
AcDbLine
 10
486.3109160398
 20
429.5363218726
 30
0.0
 11
487.1544939112
 21
429.6101253732
 31
0.0
  0
ARC
  5
1D3
330
1F
100
AcDbEntity
  8
0
  6
SLD-Durchgehend
 62
     7
370
    25
100
AcDbCircle
 10
486.3327049755
 20
427.7454387851
 30
0.0
 40
0.25
100
AcDbArc
 50
180.0
 51
265.0
  0
ARC
  5
1D4
330
1F
100
AcDbEntity
  8
0
  6
SLD-Durchgehend
 62
     7
370
    25
100
AcDbCircle
 10
487.1327049755
 20
427.1735379355
 30
0.0
 40
0.2500000000000704
100
AcDbArc
 50
0.0000000003
 51
85.0000000002
  0
LINE
  5
1D5
330
1F
100
AcDbEntity
  8
0
  6
SLD-Durchgehend
 62
     7
370
    25
100
AcDbLine
 10
487.1544939112
 20
427.42258661
 30
0.0
 11
486.3109160398
 21
427.4963901106
 31
0.0
  0
LINE
  5
1D6
330
1F
100
AcDbEntity
  8
0
  6
SLD-Durchgehend
 62
     7
370
    25
100
AcDbLine
 10
486.3109160398
 20
432.7363218726
 30
0.0
 11
487.1544939112
 21
432.8101253732
 31
0.0
  0
LINE
  5
1D7
330
1F
100
AcDbEntity
  8
0
  6
SLD-Durchgehend
 62
     7
370
    25
100
AcDbLine
 10
487.3827049755
 20
427.1735379355
 30
0.0
 11
487.3827049755
 21
426.5663559916
 31
0.0
  0
ARC
  5
1D8
330
1F
100
AcDbEntity
  8
0
  6
SLD-Durchgehend
 62
     7
370
    25
100
AcDbCircle
 10
486.3327049755
 20
435.6872731981
 30
0.0
 40
0.25
100
AcDbArc
 50
95.0000000001
 51
179.9999999997
  0
ARC
  5
1D9
330
1F
100
AcDbEntity
  8
0
  6
SLD-Durchgehend
 62
     7
370
    25
100
AcDbCircle
 10
487.1327049755
 20
433.0591740477
 30
0.0
 40
0.2500000000000167
100
AcDbArc
 50
275.0
 51
0.0
  0
ARC
  5
1DA
330
1F
100
AcDbEntity
  8
0
  6
SLD-Durchgehend
 62
     7
370
    25
100
AcDbCircle
 10
486.3327049755
 20
434.1454387851
 30
0.0
 40
0.2500000000000167
100
AcDbArc
 50
180.0
 51
265.0
  0
LINE
  5
1DB
330
1F
100
AcDbEntity
  8
0
  6
SLD-Durchgehend
 62
     7
370
    25
100
AcDbLine
 10
487.3827049755
 20
430.3735379355
 30
0.0
 11
487.3827049755
 21
429.8591740477
 31
0.0
  0
ARC
  5
1DC
330
1F
100
AcDbEntity
  8
0
  6
SLD-Durchgehend
 62
     7
370
    25
100
AcDbCircle
 10
486.3327049755
 20
430.9454387851
 30
0.0
 40
0.25
100
AcDbArc
 50
180.0
 51
265.0
  0
ARC
  5
1DD
330
1F
100
AcDbEntity
  8
0
  6
SLD-Durchgehend
 62
     7
370
    25
100
AcDbCircle
 10
487.1327049755
 20
430.3735379355
 30
0.0
 40
0.2500000000001292
100
AcDbArc
 50
0.0000000003
 51
85.0000000003
  0
LINE
  5
1DE
330
1F
100
AcDbEntity
  8
0
  6
SLD-Durchgehend
 62
     7
370
    25
100
AcDbLine
 10
487.1544939112
 20
430.62258661
 30
0.0
 11
486.3109160398
 21
430.6963901106
 31
0.0
  0
ARC
  5
1DF
330
1F
100
AcDbEntity
  8
0
  6
SLD-Durchgehend
 62
     7
370
    25
100
AcDbCircle
 10
486.3327049755
 20
454.8872731981
 30
0.0
 40
0.2500000000000683
100
AcDbArc
 50
95.0
 51
179.9999999997
  0
ARC
  5
1E0
330
1F
100
AcDbEntity
  8
0
  6
SLD-Durchgehend
 62
     7
370
    25
100
AcDbCircle
 10
487.1327049755
 20
433.5735379355
 30
0.0
 40
0.250000000000188
100
AcDbArc
 50
0.0000000003
 51
85.0000000004
  0
ARC
  5
1E1
330
1F
100
AcDbEntity
  8
0
  6
SLD-Durchgehend
 62
     7
370
    25
100
AcDbCircle
 10
487.1327049755
 20
436.2591740477
 30
0.0
 40
0.25
100
AcDbArc
 50
275.0
 51
0.0
  0
ARC
  5
1E2
330
1F
100
AcDbEntity
  8
0
  6
SLD-Durchgehend
 62
     7
370
    25
100
AcDbCircle
 10
486.3327049755
 20
429.2872731981
 30
0.0
 40
0.25
100
AcDbArc
 50
95.0000000004
 51
179.9999999997
  0
LINE
  5
1E3
330
1F
100
AcDbEntity
  8
0
  6
SLD-Durchgehend
 62
     7
370
    25
100
AcDbLine
 10
486.3109160398
 20
435.9363218726
 30
0.0
 11
487.1544939112
 21
436.0101253732
 31
0.0
  0
ARC
  5
1E4
330
1F
100
AcDbEntity
  8
0
  6
SLD-Durchgehend
 62
     7
370
    25
100
AcDbCircle
 10
487.1327049755
 20
426.5663559916
 30
0.0
 40
0.25
100
AcDbArc
 50
270.0
 51
0.0
  0
ARC
  5
1E5
330
1F
100
AcDbEntity
  8
0
  6
SLD-Durchgehend
 62
     7
370
    25
100
AcDbCircle
 10
487.1327049755
 20
452.7735379355
 30
0.0
 40
0.25
100
AcDbArc
 50
0.0000000003
 51
84.9999999994
  0
ARC
  5
1E6
330
1F
100
AcDbEntity
  8
0
  6
SLD-Durchgehend
 62
     7
370
    25
100
AcDbCircle
 10
487.1327049755
 20
429.8591740477
 30
0.0
 40
0.2500000000000733
100
AcDbArc
 50
275.0
 51
0.0
  0
ARC
  5
1E7
330
1F
100
AcDbEntity
  8
0
  6
SLD-Durchgehend
 62
     7
370
    25
100
AcDbCircle
 10
486.3327049755
 20
453.3454387851
 30
0.0
 40
0.25
100
AcDbArc
 50
180.0
 51
265.0
  0
ARC
  5
1E8
330
1F
100
AcDbEntity
  8
0
  6
SLD-Durchgehend
 62
     7
370
    25
100
AcDbCircle
 10
487.6327049755
 20
457.0663559916
 30
0.0
 40
0.25
100
AcDbArc
 50
90.0
 51
179.9999999997
  0
ARC
  5
1E9
330
1F
100
AcDbEntity
  8
0
  6
SLD-Durchgehend
 62
     7
370
    25
100
AcDbCircle
 10
487.1327049755
 20
455.4591740477
 30
0.0
 40
0.2500000000000117
100
AcDbArc
 50
275.0
 51
0.0
  0
LINE
  5
1EA
330
1F
100
AcDbEntity
  8
0
  6
SLD-Durchgehend
 62
     7
370
    25
100
AcDbLine
 10
487.1544939112
 20
453.02258661
 30
0.0
 11
486.3109160398
 21
453.0963901106
 31
0.0
  0
LINE
  5
1EB
330
1F
100
AcDbEntity
  8
0
  6
SLD-Durchgehend
 62
     7
370
    25
100
AcDbLine
 10
486.3109160398
 20
455.1363218726
 30
0.0
 11
487.1544939112
 21
455.2101253732
 31
0.0
  0
LINE
  5
1EC
330
1F
100
AcDbEntity
  8
0
  6
SLD-Durchgehend
 62
     7
370
    25
100
AcDbLine
 10
487.1544939112
 20
433.82258661
 30
0.0
 11
486.3109160398
 21
433.8963901106
 31
0.0
  0
ARC
  5
1ED
330
1F
100
AcDbEntity
  8
0
  6
SLD-Durchgehend
 62
     7
370
    25
100
AcDbCircle
 10
362.6327049755
 20
445.8591740477
 30
0.0
 40
0.2500000000000167
100
AcDbArc
 50
179.9999999992
 51
265.0
  0
ARC
  5
1EE
330
1F
100
AcDbEntity
  8
0
  6
SLD-Durchgehend
 62
     7
370
    25
100
AcDbCircle
 10
362.6327049755
 20
433.0591740477
 30
0.0
 40
0.2500000000000568
100
AcDbArc
 50
179.9999999992
 51
265.0
  0
ARC
  5
1EF
330
1F
100
AcDbEntity
  8
0
  6
SLD-Durchgehend
 62
     7
370
    25
100
AcDbCircle
 10
362.6327049755
 20
427.1735379355
 30
0.0
 40
0.2500000000000568
100
AcDbArc
 50
95.0
 51
179.9999999992
  0
LINE
  5
1F0
330
1F
100
AcDbEntity
  8
0
  6
SLD-Durchgehend
 62
     7
370
    25
100
AcDbLine
 10
362.3827049755
 20
445.8591740477
 30
0.0
 11
362.3827049755
 21
446.3735379355
 31
0.0
  0
LINE
  5
1F1
330
1F
100
AcDbEntity
  8
0
  6
SLD-Durchgehend
 62
     7
370
    25
100
AcDbLine
 10
362.3827049755
 20
433.0591740477
 30
0.0
 11
362.3827049755
 21
433.5735379355
 31
0.0
  0
ARC
  5
1F2
330
1F
100
AcDbEntity
  8
0
  6
SLD-Durchgehend
 62
     7
370
    25
100
AcDbCircle
 10
362.6327049755
 20
433.5735379355
 30
0.0
 40
0.2500000000000568
100
AcDbArc
 50
95.0
 51
180.0
  0
ARC
  5
1F3
330
1F
100
AcDbEntity
  8
0
  6
SLD-Durchgehend
 62
     7
370
    25
100
AcDbCircle
 10
362.6327049755
 20
449.5735379355
 30
0.0
 40
0.25
100
AcDbArc
 50
95.0
 51
180.0
  0
ARC
  5
1F4
330
1F
100
AcDbEntity
  8
0
  6
SLD-Durchgehend
 62
     7
370
    25
100
AcDbCircle
 10
362.6327049755
 20
430.3735379355
 30
0.0
 40
0.2500000000000568
100
AcDbArc
 50
95.0
 51
180.0
  0
LINE
  5
1F5
330
1F
100
AcDbEntity
  8
0
  6
SLD-Durchgehend
 62
     7
370
    25
100
AcDbLine
 10
362.3827049755
 20
439.4591740477
 30
0.0
 11
362.3827049755
 21
439.9735379355
 31
0.0
  0
ARC
  5
1F6
330
1F
100
AcDbEntity
  8
0
  6
SLD-Durchgehend
 62
     7
370
    25
100
AcDbCircle
 10
362.6327049755
 20
429.8591740477
 30
0.0
 40
0.2500000000000568
100
AcDbArc
 50
179.9999999992
 51
265.0
  0
ARC
  5
1F7
330
1F
100
AcDbEntity
  8
0
  6
SLD-Durchgehend
 62
     7
370
    25
100
AcDbCircle
 10
362.6327049755
 20
443.1735379355
 30
0.0
 40
0.2500000000000167
100
AcDbArc
 50
95.0
 51
180.0
  0
LINE
  5
1F8
330
1F
100
AcDbEntity
  8
0
  6
SLD-Durchgehend
 62
     7
370
    25
100
AcDbLine
 10
362.3827049755
 20
449.0591740477
 30
0.0
 11
362.3827049755
 21
449.5735379355
 31
0.0
  0
ARC
  5
1F9
330
1F
100
AcDbEntity
  8
0
  6
SLD-Durchgehend
 62
     7
370
    25
100
AcDbCircle
 10
362.6327049755
 20
439.9735379355
 30
0.0
 40
0.25
100
AcDbArc
 50
95.0
 51
180.0
  0
ARC
  5
1FA
330
1F
100
AcDbEntity
  8
0
  6
SLD-Durchgehend
 62
     7
370
    25
100
AcDbCircle
 10
362.6327049755
 20
449.0591740477
 30
0.0
 40
0.25
100
AcDbArc
 50
179.9999999992
 51
265.0
  0
LINE
  5
1FB
330
1F
100
AcDbEntity
  8
0
  6
SLD-Durchgehend
 62
     7
370
    25
100
AcDbLine
 10
362.3827049755
 20
429.8591740477
 30
0.0
 11
362.3827049755
 21
430.3735379355
 31
0.0
  0
ARC
  5
1FC
330
1F
100
AcDbEntity
  8
0
  6
SLD-Durchgehend
 62
     7
370
    25
100
AcDbCircle
 10
362.6327049755
 20
452.7735379355
 30
0.0
 40
0.2500000000000167
100
AcDbArc
 50
95.0
 51
180.0
  0
LINE
  5
1FD
330
1F
100
AcDbEntity
  8
0
  6
SLD-Durchgehend
 62
     7
370
    25
100
AcDbLine
 10
362.3827049755
 20
452.2591740477
 30
0.0
 11
362.3827049755
 21
452.7735379355
 31
0.0
  0
LINE
  5
1FE
330
1F
100
AcDbEntity
  8
0
  6
SLD-Durchgehend
 62
     7
370
    25
100
AcDbLine
 10
362.3827049755
 20
442.6591740477
 30
0.0
 11
362.3827049755
 21
443.1735379355
 31
0.0
  0
ARC
  5
1FF
330
1F
100
AcDbEntity
  8
0
  6
SLD-Durchgehend
 62
     7
370
    25
100
AcDbCircle
 10
362.6327049755
 20
436.2591740477
 30
0.0
 40
0.2500000000000167
100
AcDbArc
 50
180.0000000008
 51
265.0
  0
ARC
  5
200
330
1F
100
AcDbEntity
  8
0
  6
SLD-Durchgehend
 62
     7
370
    25
100
AcDbCircle
 10
362.6327049755
 20
455.4591740477
 30
0.0
 40
0.2500000000000733
100
AcDbArc
 50
179.9999999992
 51
265.0
  0
LINE
  5
201
330
1F
100
AcDbEntity
  8
0
  6
SLD-Durchgehend
 62
     7
370
    25
100
AcDbLine
 10
362.3827049755
 20
455.4591740477
 30
0.0
 11
362.3827049755
 21
457.0663559916
 31
0.0
  0
ARC
  5
202
330
1F
100
AcDbEntity
  8
0
  6
SLD-Durchgehend
 62
     7
370
    25
100
AcDbCircle
 10
362.6327049755
 20
442.6591740477
 30
0.0
 40
0.25
100
AcDbArc
 50
179.9999999992
 51
265.0
  0
LINE
  5
203
330
1F
100
AcDbEntity
  8
0
  6
SLD-Durchgehend
 62
     7
370
    25
100
AcDbLine
 10
362.3827049755
 20
436.2591740477
 30
0.0
 11
362.3827049755
 21
436.7735379355
 31
0.0
  0
ARC
  5
204
330
1F
100
AcDbEntity
  8
0
  6
SLD-Durchgehend
 62
     7
370
    25
100
AcDbCircle
 10
362.6327049755
 20
446.3735379355
 30
0.0
 40
0.25
100
AcDbArc
 50
95.0
 51
180.0
  0
ARC
  5
205
330
1F
100
AcDbEntity
  8
0
  6
SLD-Durchgehend
 62
     7
370
    25
100
AcDbCircle
 10
362.6327049755
 20
439.4591740477
 30
0.0
 40
0.25
100
AcDbArc
 50
179.9999999992
 51
265.0
  0
ARC
  5
206
330
1F
100
AcDbEntity
  8
0
  6
SLD-Durchgehend
 62
     7
370
    25
100
AcDbCircle
 10
362.6327049755
 20
452.2591740477
 30
0.0
 40
0.2500000000000733
100
AcDbArc
 50
180.0000000008
 51
265.0
  0
LINE
  5
207
330
1F
100
AcDbEntity
  8
0
  6
SLD-Durchgehend
 62
     7
370
    25
100
AcDbLine
 10
362.3827049755
 20
426.5663559916
 30
0.0
 11
362.3827049755
 21
427.1735379355
 31
0.0
  0
ARC
  5
208
330
1F
100
AcDbEntity
  8
0
  6
SLD-Durchgehend
 62
     7
370
    25
100
AcDbCircle
 10
362.6327049755
 20
436.7735379355
 30
0.0
 40
0.2500000000000167
100
AcDbArc
 50
95.0
 51
180.0
  0
LINE
  5
209
330
1F
100
AcDbEntity
  8
0
  6
SLD-Durchgehend
 62
     7
370
    25
100
AcDbLine
 10
363.4544939112
 20
433.8963901106
 30
0.0
 11
362.6109160398
 21
433.82258661
 31
0.0
  0
ARC
  5
20A
330
1F
100
AcDbEntity
  8
0
  6
SLD-Durchgehend
 62
     7
370
    25
100
AcDbCircle
 10
363.4327049755
 20
434.1454387851
 30
0.0
 40
0.25
100
AcDbArc
 50
275.0
 51
0.0000000008
  0
ARC
  5
20B
330
1F
100
AcDbEntity
  8
0
  6
SLD-Durchgehend
 62
     7
370
    25
100
AcDbCircle
 10
363.4327049755
 20
432.4872731981
 30
0.0
 40
0.2500000000000683
100
AcDbArc
 50
0.0
 51
85.0
  0
ARC
  5
20C
330
1F
100
AcDbEntity
  8
0
  6
SLD-Durchgehend
 62
     7
370
    25
100
AcDbCircle
 10
362.1327049755
 20
457.0663559916
 30
0.0
 40
0.25
100
AcDbArc
 50
0.0
 51
90.0
  0
LINE
  5
20D
330
1F
100
AcDbEntity
  8
0
  6
SLD-Durchgehend
 62
     7
370
    25
100
AcDbLine
 10
485.4827049755
 20
458.3163559916
 30
0.0
 11
483.2431242062
 21
458.3163559916
 31
0.0
  0
LINE
  5
20E
330
1F
100
AcDbEntity
  8
0
  6
SLD-Durchgehend
 62
     7
370
    25
100
AcDbLine
 10
485.4827049755
 20
458.3163559916
 30
0.0
 11
485.4827049755
 21
426.3163559916
 31
0.0
  0
LINE
  5
20F
330
1F
100
AcDbEntity
  8
0
  6
SLD-Durchgehend
 62
     7
370
    25
100
AcDbLine
 10
483.2431242062
 20
426.3163559916
 30
0.0
 11
485.4827049755
 21
426.3163559916
 31
0.0
  0
ARC
  5
210
330
1F
100
AcDbEntity
  8
0
  6
SLD-Durchgehend
 62
     7
370
    25
100
AcDbCircle
 10
363.4327049755
 20
430.9454387851
 30
0.0
 40
0.25
100
AcDbArc
 50
275.0
 51
0.0000000008
  0
LINE
  5
211
330
1F
100
AcDbEntity
  8
0
  6
SLD-Durchgehend
 62
     7
370
    25
100
AcDbLine
 10
363.6827049755
 20
435.6872731981
 30
0.0
 11
363.6827049755
 21
434.1454387851
 31
0.0
  0
LINE
  5
212
330
1F
100
AcDbEntity
  8
0
  6
SLD-Durchgehend
 62
     7
370
    25
100
AcDbLine
 10
363.4544939112
 20
453.0963901106
 30
0.0
 11
362.6109160398
 21
453.02258661
 31
0.0
  0
LINE
  5
213
330
1F
100
AcDbEntity
  8
0
  6
SLD-Durchgehend
 62
     7
370
    25
100
AcDbLine
 10
363.6827049755
 20
454.8872731981
 30
0.0
 11
363.6827049755
 21
453.3454387851
 31
0.0
  0
LINE
  5
214
330
1F
100
AcDbEntity
  8
0
  6
SLD-Durchgehend
 62
     7
370
    25
100
AcDbLine
 10
363.4544939112
 20
430.6963901106
 30
0.0
 11
362.6109160398
 21
430.62258661
 31
0.0
  0
LINE
  5
215
330
1F
100
AcDbEntity
  8
0
  6
SLD-Durchgehend
 62
     7
370
    25
100
AcDbLine
 10
366.5222857447
 20
458.3163559916
 30
0.0
 11
364.2827049755
 21
458.3163559916
 31
0.0
  0
LINE
  5
216
330
1F
100
AcDbEntity
  8
0
  6
SLD-Durchgehend
 62
     7
370
    25
100
AcDbLine
 10
364.2827049755
 20
426.3163559916
 30
0.0
 11
364.2827049755
 21
458.3163559916
 31
0.0
  0
LINE
  5
217
330
1F
100
AcDbEntity
  8
0
  6
SLD-Durchgehend
 62
     7
370
    25
100
AcDbLine
 10
364.2827049755
 20
426.3163559916
 30
0.0
 11
366.5222857447
 21
426.3163559916
 31
0.0
  0
LINE
  5
218
330
1F
100
AcDbEntity
  8
0
  6
SLD-Durchgehend
 62
     7
370
    25
100
AcDbLine
 10
363.6827049755
 20
429.2872731981
 30
0.0
 11
363.6827049755
 21
427.7454387851
 31
0.0
  0
ARC
  5
219
330
1F
100
AcDbEntity
  8
0
  6
SLD-Durchgehend
 62
     7
370
    25
100
AcDbCircle
 10
363.4327049755
 20
429.2872731981
 30
0.0
 40
0.2500000000000117
100
AcDbArc
 50
0.0
 51
85.0
  0
LINE
  5
21A
330
1F
100
AcDbEntity
  8
0
  6
SLD-Durchgehend
 62
     7
370
    25
100
AcDbLine
 10
362.6109160398
 20
429.6101253732
 30
0.0
 11
363.4544939112
 21
429.5363218726
 31
0.0
  0
LINE
  5
21B
330
1F
100
AcDbEntity
  8
0
  6
SLD-Durchgehend
 62
     7
370
    25
100
AcDbLine
 10
363.6827049755
 20
432.4872731981
 30
0.0
 11
363.6827049755
 21
430.9454387851
 31
0.0
  0
LINE
  5
21C
330
1F
100
AcDbEntity
  8
0
  6
SLD-Durchgehend
 62
     7
370
    25
100
AcDbLine
 10
362.6109160398
 20
432.8101253732
 30
0.0
 11
363.4544939112
 21
432.7363218726
 31
0.0
  0
ARC
  5
21D
330
1F
100
AcDbEntity
  8
0
  6
SLD-Durchgehend
 62
     7
370
    25
100
AcDbCircle
 10
363.4327049755
 20
435.6872731981
 30
0.0
 40
0.25
100
AcDbArc
 50
0.0
 51
85.0
  0
LINE
  5
21E
330
1F
100
AcDbEntity
  8
0
  6
SLD-Durchgehend
 62
     7
370
    25
100
AcDbLine
 10
362.6109160398
 20
436.0101253732
 30
0.0
 11
363.4544939112
 21
435.9363218726
 31
0.0
  0
LINE
  5
21F
330
1F
100
AcDbEntity
  8
0
  6
SLD-Durchgehend
 62
     7
370
    25
100
AcDbLine
 10
363.4544939112
 20
437.0963901106
 30
0.0
 11
362.6109160398
 21
437.02258661
 31
0.0
  0
ARC
  5
220
330
1F
100
AcDbEntity
  8
0
  6
SLD-Durchgehend
 62
     7
370
    25
100
AcDbCircle
 10
363.4327049755
 20
437.3454387851
 30
0.0
 40
0.2500000000000733
100
AcDbArc
 50
275.0
 51
0.0000000008
  0
LINE
  5
221
330
1F
100
AcDbEntity
  8
0
  6
SLD-Durchgehend
 62
     7
370
    25
100
AcDbLine
 10
363.6827049755
 20
438.8872731981
 30
0.0
 11
363.6827049755
 21
437.3454387851
 31
0.0
  0
ARC
  5
222
330
1F
100
AcDbEntity
  8
0
  6
SLD-Durchgehend
 62
     7
370
    25
100
AcDbCircle
 10
363.4327049755
 20
438.8872731981
 30
0.0
 40
0.2500000000000117
100
AcDbArc
 50
0.0
 51
85.0
  0
LINE
  5
223
330
1F
100
AcDbEntity
  8
0
  6
SLD-Durchgehend
 62
     7
370
    25
100
AcDbLine
 10
362.6109160398
 20
439.2101253732
 30
0.0
 11
363.4544939112
 21
439.1363218726
 31
0.0
  0
LINE
  5
224
330
1F
100
AcDbEntity
  8
0
  6
SLD-Durchgehend
 62
     7
370
    25
100
AcDbLine
 10
363.4544939112
 20
440.2963901106
 30
0.0
 11
362.6109160398
 21
440.22258661
 31
0.0
  0
ARC
  5
225
330
1F
100
AcDbEntity
  8
0
  6
SLD-Durchgehend
 62
     7
370
    25
100
AcDbCircle
 10
363.4327049755
 20
440.5454387851
 30
0.0
 40
0.25
100
AcDbArc
 50
275.0
 51
0.0000000008
  0
LINE
  5
226
330
1F
100
AcDbEntity
  8
0
  6
SLD-Durchgehend
 62
     7
370
    25
100
AcDbLine
 10
363.6827049755
 20
442.0872731981
 30
0.0
 11
363.6827049755
 21
440.5454387851
 31
0.0
  0
ARC
  5
227
330
1F
100
AcDbEntity
  8
0
  6
SLD-Durchgehend
 62
     7
370
    25
100
AcDbCircle
 10
363.4327049755
 20
442.0872731981
 30
0.0
 40
0.2500000000000117
100
AcDbArc
 50
0.0
 51
85.0
  0
LINE
  5
228
330
1F
100
AcDbEntity
  8
0
  6
SLD-Durchgehend
 62
     7
370
    25
100
AcDbLine
 10
362.6109160398
 20
442.4101253732
 30
0.0
 11
363.4544939112
 21
442.3363218726
 31
0.0
  0
LINE
  5
229
330
1F
100
AcDbEntity
  8
0
  6
SLD-Durchgehend
 62
     7
370
    25
100
AcDbLine
 10
363.4544939112
 20
443.4963901106
 30
0.0
 11
362.6109160398
 21
443.42258661
 31
0.0
  0
ARC
  5
22A
330
1F
100
AcDbEntity
  8
0
  6
SLD-Durchgehend
 62
     7
370
    25
100
AcDbCircle
 10
363.4327049755
 20
443.7454387851
 30
0.0
 40
0.25
100
AcDbArc
 50
275.0
 51
0.0000000008
  0
LINE
  5
22B
330
1F
100
AcDbEntity
  8
0
  6
SLD-Durchgehend
 62
     7
370
    25
100
AcDbLine
 10
363.6827049755
 20
445.2872731981
 30
0.0
 11
363.6827049755
 21
443.7454387851
 31
0.0
  0
ARC
  5
22C
330
1F
100
AcDbEntity
  8
0
  6
SLD-Durchgehend
 62
     7
370
    25
100
AcDbCircle
 10
363.4327049755
 20
445.2872731981
 30
0.0
 40
0.25
100
AcDbArc
 50
0.0
 51
85.0
  0
LINE
  5
22D
330
1F
100
AcDbEntity
  8
0
  6
SLD-Durchgehend
 62
     7
370
    25
100
AcDbLine
 10
362.6109160398
 20
445.6101253732
 30
0.0
 11
363.4544939112
 21
445.5363218726
 31
0.0
  0
LINE
  5
22E
330
1F
100
AcDbEntity
  8
0
  6
SLD-Durchgehend
 62
     7
370
    25
100
AcDbLine
 10
363.4544939112
 20
446.6963901106
 30
0.0
 11
362.6109160398
 21
446.62258661
 31
0.0
  0
ARC
  5
22F
330
1F
100
AcDbEntity
  8
0
  6
SLD-Durchgehend
 62
     7
370
    25
100
AcDbCircle
 10
363.4327049755
 20
446.9454387851
 30
0.0
 40
0.2500000000000117
100
AcDbArc
 50
275.0
 51
0.0000000008
  0
LINE
  5
230
330
1F
100
AcDbEntity
  8
0
  6
SLD-Durchgehend
 62
     7
370
    25
100
AcDbLine
 10
363.6827049755
 20
448.4872731981
 30
0.0
 11
363.6827049755
 21
446.9454387851
 31
0.0
  0
ARC
  5
231
330
1F
100
AcDbEntity
  8
0
  6
SLD-Durchgehend
 62
     7
370
    25
100
AcDbCircle
 10
363.4327049755
 20
448.4872731981
 30
0.0
 40
0.2500000000000117
100
AcDbArc
 50
0.0
 51
85.0
  0
LINE
  5
232
330
1F
100
AcDbEntity
  8
0
  6
SLD-Durchgehend
 62
     7
370
    25
100
AcDbLine
 10
362.6109160398
 20
448.8101253732
 30
0.0
 11
363.4544939112
 21
448.7363218726
 31
0.0
  0
LINE
  5
233
330
1F
100
AcDbEntity
  8
0
  6
SLD-Durchgehend
 62
     7
370
    25
100
AcDbLine
 10
363.4544939112
 20
449.8963901106
 30
0.0
 11
362.6109160398
 21
449.82258661
 31
0.0
  0
ARC
  5
234
330
1F
100
AcDbEntity
  8
0
  6
SLD-Durchgehend
 62
     7
370
    25
100
AcDbCircle
 10
363.4327049755
 20
450.1454387851
 30
0.0
 40
0.25
100
AcDbArc
 50
275.0
 51
0.0000000008
  0
LINE
  5
235
330
1F
100
AcDbEntity
  8
0
  6
SLD-Durchgehend
 62
     7
370
    25
100
AcDbLine
 10
363.6827049755
 20
451.6872731981
 30
0.0
 11
363.6827049755
 21
450.1454387851
 31
0.0
  0
ARC
  5
236
330
1F
100
AcDbEntity
  8
0
  6
SLD-Durchgehend
 62
     7
370
    25
100
AcDbCircle
 10
363.4327049755
 20
451.6872731981
 30
0.0
 40
0.2500000000000683
100
AcDbArc
 50
0.0
 51
85.0
  0
LINE
  5
237
330
1F
100
AcDbEntity
  8
0
  6
SLD-Durchgehend
 62
     7
370
    25
100
AcDbLine
 10
362.6109160398
 20
452.0101253732
 30
0.0
 11
363.4544939112
 21
451.9363218726
 31
0.0
  0
ARC
  5
238
330
1F
100
AcDbEntity
  8
0
  6
SLD-Durchgehend
 62
     7
370
    25
100
AcDbCircle
 10
363.4327049755
 20
453.3454387851
 30
0.0
 40
0.2500000000000117
100
AcDbArc
 50
275.0
 51
0.0000000008
  0
ARC
  5
239
330
1F
100
AcDbEntity
  8
0
  6
SLD-Durchgehend
 62
     7
370
    25
100
AcDbCircle
 10
363.4327049755
 20
454.8872731981
 30
0.0
 40
0.2500000000000117
100
AcDbArc
 50
0.0
 51
85.0
  0
LINE
  5
23A
330
1F
100
AcDbEntity
  8
0
  6
SLD-Durchgehend
 62
     7
370
    25
100
AcDbLine
 10
362.6109160398
 20
455.2101253732
 30
0.0
 11
363.4544939112
 21
455.1363218726
 31
0.0
  0
ARC
  5
23B
330
1F
100
AcDbEntity
  8
0
  6
SLD-Durchgehend
 62
     7
370
    25
100
AcDbCircle
 10
351.3827049755
 20
457.8163559916
 30
0.0
 40
0.5
100
AcDbArc
 50
180.0
 51
270.0
  0
LINE
  5
23C
330
1F
100
AcDbEntity
  8
0
  6
SLD-Durchgehend
 62
     7
370
    25
100
AcDbLine
 10
350.8827049755
 20
457.8163559916
 30
0.0
 11
350.8827049755
 21
459.5021424292
 31
0.0
  0
ARC
  5
23D
330
1F
100
AcDbEntity
  8
0
  6
SLD-Durchgehend
 62
     7
370
    25
100
AcDbCircle
 10
350.3826974648
 20
460.9163613024
 30
0.0
 40
1.500007510629985
100
AcDbArc
 50
289.4714234919
 51
0.0
  0
LINE
  5
23E
330
1F
100
AcDbEntity
  8
0
  6
SLD-Durchgehend
 62
     7
370
    25
100
AcDbLine
 10
351.8827049755
 20
463.3163559916
 30
0.0
 11
351.8827049755
 21
460.9163613024
 31
0.0
  0
ARC
  5
23F
330
1F
100
AcDbEntity
  8
0
  6
SLD-Durchgehend
 62
     7
370
    25
100
AcDbCircle
 10
352.8827049755
 20
463.3163559916
 30
0.0
 40
1.0
100
AcDbArc
 50
90.0
 51
180.0
  0
LINE
  5
240
330
1F
100
AcDbEntity
  8
0
  6
SLD-Durchgehend
 62
     7
370
    25
100
AcDbLine
 10
352.8827049755
 20
464.3163559916
 30
0.0
 11
353.3827049755
 21
464.3163559916
 31
0.0
  0
ARC
  5
241
330
1F
100
AcDbEntity
  8
0
  6
SLD-Durchgehend
 62
     7
370
    25
100
AcDbCircle
 10
353.3827049755
 20
463.3163559916
 30
0.0
 40
1.0
100
AcDbArc
 50
0.0
 51
90.0
  0
LINE
  5
242
330
1F
100
AcDbEntity
  8
0
  6
SLD-Durchgehend
 62
     7
370
    25
100
AcDbLine
 10
354.3827049755
 20
463.3163559916
 30
0.0
 11
354.3827049755
 21
460.3163559916
 31
0.0
  0
ARC
  5
243
330
1F
100
AcDbEntity
  8
0
  6
SLD-Durchgehend
 62
     7
370
    25
100
AcDbCircle
 10
355.8827049755
 20
460.3163559916
 30
0.0
 40
1.5
100
AcDbArc
 50
180.0
 51
270.0
  0
LINE
  5
244
330
1F
100
AcDbEntity
  8
0
  6
SLD-Durchgehend
 62
     7
370
    25
100
AcDbLine
 10
355.8827049755
 20
458.8163559916
 30
0.0
 11
359.6327049755
 21
458.8163559916
 31
0.0
  0
LINE
  5
245
330
1F
100
AcDbEntity
  8
0
  6
SLD-Durchgehend
 62
     7
370
    25
100
AcDbLine
 10
362.7827049755
 20
459.8163559916
 30
0.0
 11
364.2827049755
 21
458.3163559916
 31
0.0
  0
ARC
  5
246
330
1F
100
AcDbEntity
  8
0
  6
SLD-Durchgehend
 62
     7
370
    25
100
AcDbCircle
 10
362.6327049755
 20
426.5663559916
 30
0.0
 40
0.2500000000000568
100
AcDbArc
 50
180.0
 51
270.0
  0
LINE
  5
247
330
1F
100
AcDbEntity
  8
0
  6
SLD-Durchgehend
 62
     7
370
    25
100
AcDbLine
 10
363.4544939112
 20
427.4963901106
 30
0.0
 11
362.6109160398
 21
427.42258661
 31
0.0
  0
ARC
  5
248
330
1F
100
AcDbEntity
  8
0
  6
SLD-Durchgehend
 62
     7
370
    25
100
AcDbCircle
 10
363.4327049755
 20
427.7454387851
 30
0.0
 40
0.2500000000000117
100
AcDbArc
 50
275.0
 51
0.0000000008
  0
LINE
  5
249
330
1F
100
AcDbEntity
  8
0
  6
SLD-Durchgehend
 62
     7
370
    25
100
AcDbLine
 10
359.6327049755
 20
459.8163559916
 30
0.0
 11
359.6327049755
 21
458.8163559916
 31
0.0
  0
LINE
  5
24A
330
1F
100
AcDbEntity
  8
0
  6
SLD-Durchgehend
 62
     7
370
    25
100
AcDbLine
 10
359.6327049755
 20
459.8163559916
 30
0.0
 11
362.7827049755
 21
459.8163559916
 31
0.0
  0
LINE
  5
24B
330
1F
100
AcDbEntity
  8
0
  6
SLD-Durchgehend
 62
     7
370
    25
100
AcDbLine
 10
364.2827049755
 20
426.3163559916
 30
0.0
 11
362.6327049755
 21
426.3163559916
 31
0.0
  0
LINE
  5
24C
330
1F
100
AcDbEntity
  8
0
  6
SLD-Durchgehend
 62
     7
370
    25
100
AcDbLine
 10
362.1327049755
 20
457.3163559916
 30
0.0
 11
351.3827049755
 21
457.3163559916
 31
0.0
  0
LINE
  5
24D
330
1F
100
AcDbEntity
  8
0
  6
SLD-Durchgehend
 62
     7
370
    25
100
AcDbLine
 10
485.4827049755
 20
458.3163559916
 30
0.0
 11
486.9827049755
 21
459.8163559916
 31
0.0
  0
LINE
  5
24E
330
1F
100
AcDbEntity
  8
0
  6
SLD-Durchgehend
 62
     7
370
    25
100
AcDbLine
 10
490.1327049755
 20
458.8163559916
 30
0.0
 11
493.8827049755
 21
458.8163559916
 31
0.0
  0
LINE
  5
24F
330
1F
100
AcDbEntity
  8
0
  6
SLD-Durchgehend
 62
     7
370
    25
100
AcDbLine
 10
490.1327049755
 20
458.8163559916
 30
0.0
 11
490.1327049755
 21
459.8163559916
 31
0.0
  0
LINE
  5
250
330
1F
100
AcDbEntity
  8
0
  6
SLD-Durchgehend
 62
     7
370
    25
100
AcDbLine
 10
498.8827049755
 20
459.5021424292
 30
0.0
 11
498.8827049755
 21
457.8163559916
 31
0.0
  0
ARC
  5
251
330
1F
100
AcDbEntity
  8
0
  6
SLD-Durchgehend
 62
     7
370
    25
100
AcDbCircle
 10
498.3827049755
 20
457.8163559916
 30
0.0
 40
0.5000000000000568
100
AcDbArc
 50
270.0
 51
0.0
  0
LINE
  5
252
330
1F
100
AcDbEntity
  8
0
  6
SLD-Durchgehend
 62
     7
370
    25
100
AcDbLine
 10
496.3827049755
 20
464.3163559916
 30
0.0
 11
496.8827049755
 21
464.3163559916
 31
0.0
  0
LINE
  5
253
330
1F
100
AcDbEntity
  8
0
  6
SLD-Durchgehend
 62
     7
370
    25
100
AcDbLine
 10
495.3827049755
 20
460.3163559916
 30
0.0
 11
495.3827049755
 21
463.3163559916
 31
0.0
  0
ARC
  5
254
330
1F
100
AcDbEntity
  8
0
  6
SLD-Durchgehend
 62
     7
370
    25
100
AcDbCircle
 10
493.8827049755
 20
460.3163559916
 30
0.0
 40
1.500000000000057
100
AcDbArc
 50
270.0
 51
0.0
  0
ARC
  5
255
330
1F
100
AcDbEntity
  8
0
  6
SLD-Durchgehend
 62
     7
370
    25
100
AcDbCircle
 10
496.3827049755
 20
463.3163559916
 30
0.0
 40
1.0
100
AcDbArc
 50
90.0
 51
180.0
  0
LINE
  5
256
330
1F
100
AcDbEntity
  8
0
  6
SLD-Durchgehend
 62
     7
370
    25
100
AcDbLine
 10
497.8827049755
 20
460.9163613024
 30
0.0
 11
497.8827049755
 21
463.3163559916
 31
0.0
  0
ARC
  5
257
330
1F
100
AcDbEntity
  8
0
  6
SLD-Durchgehend
 62
     7
370
    25
100
AcDbCircle
 10
499.3827124861
 20
460.9163613024
 30
0.0
 40
1.500007510630041
100
AcDbArc
 50
180.0
 51
250.5285765081
  0
ARC
  5
258
330
1F
100
AcDbEntity
  8
0
  6
SLD-Durchgehend
 62
     7
370
    25
100
AcDbCircle
 10
496.8827049755
 20
463.3163559916
 30
0.0
 40
1.0
100
AcDbArc
 50
0.0
 51
90.0
  0
LINE
  5
259
330
1F
100
AcDbEntity
  8
0
  6
SLD-Durchgehend
 62
     7
370
    25
100
AcDbLine
 10
486.9827049755
 20
459.8163559916
 30
0.0
 11
490.1327049755
 21
459.8163559916
 31
0.0
  0
LINE
  5
25A
330
1F
100
AcDbEntity
  8
0
  6
SLD-Durchgehend
 62
     7
370
    25
100
AcDbLine
 10
487.1327049755
 20
426.3163559916
 30
0.0
 11
485.4827049755
 21
426.3163559916
 31
0.0
  0
LINE
  5
25B
330
1F
100
AcDbEntity
  8
0
  6
SLD-Durchgehend
 62
     7
370
    25
100
AcDbLine
 10
498.3827049755
 20
457.3163559916
 30
0.0
 11
487.6327049755
 21
457.3163559916
 31
0.0
  0
LINE
  5
25C
330
1F
100
AcDbEntity
  8
0
  6
SLD-Durchgehend
 62
     7
370
    25
100
AcDbLine
 10
369.7269757524
 20
458.3163559916
 30
0.0
 11
366.5222857447
 21
458.3163559916
 31
0.0
  0
LINE
  5
25D
330
1F
100
AcDbEntity
  8
0
  6
SLD-Durchgehend
 62
     7
370
    25
100
AcDbLine
 10
369.7269757524
 20
426.3163559916
 30
0.0
 11
366.5222857447
 21
426.3163559916
 31
0.0
  0
LINE
  5
25E
330
1F
100
AcDbEntity
  8
0
  6
SLD-Durchgehend
 62
     7
370
    25
100
AcDbLine
 10
483.2431242062
 20
458.3163559916
 30
0.0
 11
480.0384341985
 21
458.3163559916
 31
0.0
  0
LINE
  5
25F
330
1F
100
AcDbEntity
  8
0
  6
SLD-Durchgehend
 62
     7
370
    25
100
AcDbLine
 10
483.2431242062
 20
426.3163559916
 30
0.0
 11
480.0384341985
 21
426.3163559916
 31
0.0
  0
LINE
  5
260
330
1F
100
AcDbEntity
  8
0
  6
SLD-Durchgehend
 62
     7
370
    25
100
AcDbLine
 10
385.3672898331
 20
458.3163559916
 30
0.0
 11
369.7269757524
 21
458.3163559916
 31
0.0
  0
LINE
  5
261
330
1F
100
AcDbEntity
  8
0
  6
SLD-Durchgehend
 62
     7
370
    25
100
AcDbLine
 10
369.7269757524
 20
426.3163559916
 30
0.0
 11
385.3672898331
 21
426.3163559916
 31
0.0
  0
LINE
  5
262
330
1F
100
AcDbEntity
  8
0
  6
SLD-Durchgehend
 62
     7
370
    25
100
AcDbLine
 10
480.0384341985
 20
458.3163559916
 30
0.0
 11
464.3981201179
 21
458.3163559916
 31
0.0
  0
LINE
  5
263
330
1F
100
AcDbEntity
  8
0
  6
SLD-Durchgehend
 62
     7
370
    25
100
AcDbLine
 10
464.3981201179
 20
426.3163559916
 30
0.0
 11
480.0384341985
 21
426.3163559916
 31
0.0
  0
LINE
  5
264
330
1F
100
AcDbEntity
  8
0
  6
SLD-Durchgehend
 62
     7
370
    25
100
AcDbLine
 10
393.3504164888
 20
458.3163559916
 30
0.0
 11
385.3672898331
 21
458.3163559916
 31
0.0
  0
LINE
  5
265
330
1F
100
AcDbEntity
  8
0
  6
SLD-Durchgehend
 62
     7
370
    25
100
AcDbLine
 10
393.3504164888
 20
426.3163559916
 30
0.0
 11
385.3672898331
 21
426.3163559916
 31
0.0
  0
LINE
  5
266
330
1F
100
AcDbEntity
  8
0
  6
SLD-Durchgehend
 62
     7
370
    25
100
AcDbLine
 10
464.3981201179
 20
458.3163559916
 30
0.0
 11
456.4149934622
 21
458.3163559916
 31
0.0
  0
LINE
  5
267
330
1F
100
AcDbEntity
  8
0
  6
SLD-Durchgehend
 62
     7
370
    25
100
AcDbLine
 10
464.3981201179
 20
426.3163559916
 30
0.0
 11
456.4149934622
 21
426.3163559916
 31
0.0
  0
LINE
  5
268
330
1F
100
AcDbEntity
  8
0
  6
SLD-Durchgehend
 62
     7
370
    25
100
AcDbLine
 10
456.4149934622
 20
458.3163559916
 30
0.0
 11
393.3504164888
 21
458.3163559916
 31
0.0
  0
LINE
  5
269
330
1F
100
AcDbEntity
  8
0
  6
SLD-Durchgehend
 62
     7
370
    25
100
AcDbLine
 10
393.3504164888
 20
426.3163559916
 30
0.0
 11
456.4149934622
 21
426.3163559916
 31
0.0
  0
LINE
  5
26A
330
1F
100
AcDbEntity
  8
0
  6
SLD-Durchgehend
 62
     7
370
    25
100
AcDbLine
 10
497.8827049755
 20
463.3163559916
 30
0.0
 11
497.8827049755
 21
460.9163559916
 31
0.0
  0
ARC
  5
26B
330
1F
100
AcDbEntity
  8
0
  6
SLD-Durchgehend
 62
     7
370
    25
100
AcDbCircle
 10
496.6327049755
 20
463.0663559916
 30
0.0
 40
2.250000000000057
100
AcDbArc
 50
90.0
 51
180.0
  0
LINE
  5
26C
330
1F
100
AcDbEntity
  8
0
  6
SLD-Durchgehend
 62
     7
370
    25
100
AcDbLine
 10
498.8827049755
 20
463.0663559916
 30
0.0
 11
498.8827049755
 21
459.5021424292
 31
0.0
  0
ARC
  5
26D
330
1F
100
AcDbEntity
  8
0
  6
SLD-Durchgehend
 62
     7
370
    25
100
AcDbCircle
 10
493.8827049755
 20
460.3163559916
 30
0.0
 40
0.5
100
AcDbArc
 50
270.0
 51
0.0
  0
ARC
  5
26E
330
1F
100
AcDbEntity
  8
0
  6
SLD-Durchgehend
 62
     7
370
    25
100
AcDbCircle
 10
496.6327049755
 20
463.0663559916
 30
0.0
 40
2.250000000000057
100
AcDbArc
 50
0.0
 51
90.0
  0
LINE
  5
26F
330
1F
100
AcDbEntity
  8
0
  6
SLD-Durchgehend
 62
     7
370
    25
100
AcDbLine
 10
494.3827049755
 20
463.0663559916
 30
0.0
 11
494.3827049755
 21
460.3163559916
 31
0.0
  0
LINE
  5
270
330
1F
100
AcDbEntity
  8
0
  6
SLD-Durchgehend
 62
     7
370
    25
100
AcDbLine
 10
493.8827049755
 20
459.8163559916
 30
0.0
 11
490.1327049755
 21
459.8163559916
 31
0.0
  0
ARC
  5
271
330
1F
100
AcDbEntity
  8
0
  6
SLD-Durchgehend
 62
     7
370
    25
100
AcDbCircle
 10
353.1327049755
 20
463.0663559916
 30
0.0
 40
2.250000000000057
100
AcDbArc
 50
0.0
 51
90.0
  0
ARC
  5
272
330
1F
100
AcDbEntity
  8
0
  6
SLD-Durchgehend
 62
     7
370
    25
100
AcDbCircle
 10
355.8827049755
 20
460.3163559916
 30
0.0
 40
0.5
100
AcDbArc
 50
180.0
 51
270.0
  0
LINE
  5
273
330
1F
100
AcDbEntity
  8
0
  6
SLD-Durchgehend
 62
     7
370
    25
100
AcDbLine
 10
350.8827049755
 20
459.5021424292
 30
0.0
 11
350.8827049755
 21
463.0663559916
 31
0.0
  0
LINE
  5
274
330
1F
100
AcDbEntity
  8
0
  6
SLD-Durchgehend
 62
     7
370
    25
100
AcDbLine
 10
351.8827049755
 20
460.9163559916
 30
0.0
 11
351.8827049755
 21
463.3163559916
 31
0.0
  0
ARC
  5
275
330
1F
100
AcDbEntity
  8
0
  6
SLD-Durchgehend
 62
     7
370
    25
100
AcDbCircle
 10
353.1327049755
 20
463.0663559916
 30
0.0
 40
2.250000000000057
100
AcDbArc
 50
90.0
 51
180.0
  0
LINE
  5
276
330
1F
100
AcDbEntity
  8
0
  6
SLD-Durchgehend
 62
     7
370
    25
100
AcDbLine
 10
359.6327049755
 20
459.8163559916
 30
0.0
 11
355.8827049755
 21
459.8163559916
 31
0.0
  0
LINE
  5
277
330
1F
100
AcDbEntity
  8
0
  6
SLD-Durchgehend
 62
     7
370
    25
100
AcDbLine
 10
355.3827049755
 20
460.3163559916
 30
0.0
 11
355.3827049755
 21
463.0663559916
 31
0.0
  0
LINE
  5
278
330
1F
100
AcDbEntity
  8
0
  6
SLD-Durchgehend
 62
     7
370
    25
100
AcDbLine
 10
349.8827049755
 20
459.4163559916
 30
0.0
 11
349.8827049755
 21
460.4163559916
 31
0.0
  0
LINE
  5
279
330
1F
100
AcDbEntity
  8
0
  6
SLD-Durchgehend
 62
     7
370
    25
100
AcDbLine
 10
349.8827049755
 20
460.4163559916
 30
0.0
 11
350.3827049755
 21
460.4163559916
 31
0.0
  0
SPLINE
  5
27A
330
1F
100
AcDbEntity
  8
0
  6
SLD-Durchgehend
 62
     7
370
    25
100
AcDbSpline
210
0.0
220
0.0
230
1.0
 70
     8
 71
     3
 72
    12
 73
     8
 74
     0
 42
0.000000001
 43
0.00000001
 40
0.0
 40
0.0
 40
0.0
 40
0.0
 40
0.2068558852825547
 40
0.4143789033041621
 40
0.6096791247023888
 40
0.8082841854432083
 40
1.0
 40
1.0
 40
1.0
 40
1.0
 10
350.3827049754729
 20
460.4163559915906
 30
0.0
 10
350.4323627098275
 20
460.4204294103585
 30
0.0
 10
350.5318383301336
 20
460.428589385113
 30
0.0
 10
350.6784030523965
 20
460.5025855226074
 30
0.0
 10
350.7933490401199
 20
460.6171991191093
 30
0.0
 10
350.8685837128735
 20
460.7597723354862
 30
0.0
 10
350.8780536031298
 20
460.8647792375825
 30
0.0
 10
350.8827049754729
 20
460.9163559915906
 30
0.0
  0
LINE
  5
27B
330
1F
100
AcDbEntity
  8
0
  6
SLD-Durchgehend
 62
     7
370
    25
100
AcDbLine
 10
350.3827049755
 20
459.4163559916
 30
0.0
 11
349.8827049755
 21
459.4163559916
 31
0.0
  0
SPLINE
  5
27C
330
1F
100
AcDbEntity
  8
0
  6
SLD-Durchgehend
 62
     7
370
    25
100
AcDbSpline
210
0.0
220
0.0
230
1.0
 70
     8
 71
     3
 72
     9
 73
     5
 74
     0
 42
0.000000001
 43
0.00000001
 40
0.0
 40
0.0
 40
0.0
 40
0.0
 40
0.546984045109617
 40
1.0
 40
1.0
 40
1.0
 40
1.0
 10
350.3827049754728
 20
459.4163559915906
 30
0.0
 10
350.471460796248
 20
459.4199112936079
 30
0.0
 10
350.6337247993185
 20
459.4264111212518
 30
0.0
 10
350.8050788545278
 20
459.4785312013589
 30
0.0
 10
350.8827049754728
 20
459.5021424292175
 30
0.0
  0
LINE
  5
27D
330
1F
100
AcDbEntity
  8
0
  6
SLD-Durchgehend
 62
     7
370
    25
100
AcDbLine
 10
499.3827049755
 20
460.4163559916
 30
0.0
 11
499.8827049755
 21
460.4163559916
 31
0.0
  0
LINE
  5
27E
330
1F
100
AcDbEntity
  8
0
  6
SLD-Durchgehend
 62
     7
370
    25
100
AcDbLine
 10
499.8827049755
 20
460.4163559916
 30
0.0
 11
499.8827049755
 21
459.4163559916
 31
0.0
  0
LINE
  5
27F
330
1F
100
AcDbEntity
  8
0
  6
SLD-Durchgehend
 62
     7
370
    25
100
AcDbLine
 10
499.8827049755
 20
459.4163559916
 30
0.0
 11
499.3827049755
 21
459.4163559916
 31
0.0
  0
SPLINE
  5
280
330
1F
100
AcDbEntity
  8
0
  6
SLD-Durchgehend
 62
     7
370
    25
100
AcDbSpline
210
0.0
220
0.0
230
1.0
 70
     8
 71
     3
 72
    12
 73
     8
 74
     0
 42
0.000000001
 43
0.00000001
 40
0.0
 40
0.0
 40
0.0
 40
0.0
 40
0.2083196199554366
 40
0.4166960043772009
 40
0.6227876077610829
 40
0.8205018315593205
 40
0.9999999999999999
 40
0.9999999999999999
 40
0.9999999999999999
 40
0.9999999999999999
 10
498.8827049754729
 20
460.9163559915906
 30
0.0
 10
498.8882031481365
 20
460.860271423864
 30
0.0
 10
498.8992009916465
 20
460.7480870060742
 30
0.0
 10
498.9847988867216
 20
460.5990136062878
 30
0.0
 10
499.107815124373
 20
460.4885556984571
 30
0.0
 10
499.2498023587369
 20
460.4258597620554
 30
0.0
 10
499.3398536664264
 20
460.4194202578579
 30
0.0
 10
499.3827049754729
 20
460.4163559915906
 30
0.0
  0
SPLINE
  5
281
330
1F
100
AcDbEntity
  8
0
  6
SLD-Durchgehend
 62
     7
370
    25
100
AcDbSpline
210
0.0
220
0.0
230
1.0
 70
     8
 71
     3
 72
     9
 73
     5
 74
     0
 42
0.000000001
 43
0.00000001
 40
0.0
 40
0.0
 40
0.0
 40
0.0
 40
0.5469769272425393
 40
1.0
 40
1.0
 40
1.0
 40
1.0
 10
498.8827049754729
 20
459.5021424292175
 30
0.0
 10
498.9769377900199
 20
459.4744586507457
 30
0.0
 10
499.1492171127001
 20
459.4238463175868
 30
0.0
 10
499.3099082036748
 20
459.418691323054
 30
0.0
 10
499.3827049754729
 20
459.4163559915906
 30
0.0
  0
LINE
  5
282
330
1F
100
AcDbEntity
  8
0
  6
SLD-Durchgehend
 62
     7
370
    25
100
AcDbLine
 10
358.3827049755
 20
465.3163559916
 30
0.0
 11
353.1327049755
 21
465.3163559916
 31
0.0
  0
LINE
  5
283
330
1F
100
AcDbEntity
  8
0
  6
SLD-Durchgehend
 62
     7
370
    25
100
AcDbLine
 10
496.6327049755
 20
465.3163559916
 30
0.0
 11
491.3827049755
 21
465.3163559916
 31
0.0
  0
LINE
  5
284
330
1F
100
AcDbEntity
  8
0
  6
SLD-Durchgehend
 62
     7
370
    25
100
AcDbLine
 10
491.3827049755
 20
465.3163559916
 30
0.0
 11
358.3827049755
 21
465.3163559916
 31
0.0
  0
HATCH
  5
285
330
1F
100
AcDbEntity
  8
0
  6
SLD-Durchgehend
 62
     7
370
    18
100
AcDbHatch
 10
0.0
 20
0.0
 30
0.0
210
0.0
220
0.0
230
1.0
  2
ANSI31
 70
     0
 71
     0
 91
        1
 92
        0
 93
       15
 72
     2
 10
496.8827049754729
 20
463.3163559915907
 40
1.0
 50
270.0000000000008
 51
360.0000000000008
 73
     0
 72
     1
 10
497.8827049754729
 20
463.3163559915907
 11
497.8827049754729
 21
460.9163559915906
 72
     2
 10
499.3827049754729
 20
460.9163559915906
 40
1.5
 50
180.0
 51
250.5287793655103
 73
     1
 72
     1
 10
498.8827049754729
 20
459.5021424292175
 11
498.8827049754729
 21
463.0663559915907
 72
     2
 10
496.6327049754728
 20
463.0663559915907
 40
2.25
 50
0.0
 51
90.0
 73
     1
 72
     2
 10
496.6327049754729
 20
463.0663559915907
 40
2.25
 50
90.00000000000146
 51
180.0
 73
     1
 72
     1
 10
494.3827049754728
 20
463.0663559915907
 11
494.3827049754728
 21
460.3163559915906
 72
     2
 10
493.8827049754729
 20
460.3163559915906
 40
0.5
 50
0.0
 51
90.0
 73
     0
 72
     1
 10
493.8827049754729
 20
459.8163559915906
 11
490.1327049754729
 21
459.8163559915906
 72
     1
 10
490.1327049754729
 20
459.8163559915906
 11
490.1327049754729
 21
458.8163559915906
 72
     1
 10
490.1327049754729
 20
458.8163559915906
 11
493.8827049754728
 21
458.8163559915906
 72
     2
 10
493.8827049754728
 20
460.3163559915906
 40
1.5
 50
270.0000000000008
 51
360.0000000000008
 73
     1
 72
     1
 10
495.3827049754728
 20
460.3163559915906
 11
495.3827049754728
 21
463.3163559915907
 72
     2
 10
496.3827049754729
 20
463.3163559915907
 40
1.0
 50
180.0
 51
270.0000000000008
 73
     0
 72
     1
 10
496.3827049754729
 20
464.3163559915907
 11
496.8827049754729
 21
464.3163559915907
 97
        0
 75
     0
 76
     1
 52
0.0
 41
2.0
 77
     0
 78
     1
 53
45.0
 43
0.0
 44
0.0
 45
-4.490128060534577
 46
4.490128060534577
 79
     0
 98
        1
 10
0.0
 20
0.0
  0
HATCH
  5
286
330
1F
100
AcDbEntity
  8
0
  6
SLD-Durchgehend
 62
     7
370
    18
100
AcDbHatch
 10
0.0
 20
0.0
 30
0.0
210
0.0
220
0.0
230
1.0
  2
ANSI31
 70
     0
 71
     0
 91
        1
 92
        0
 93
       15
 72
     2
 10
350.3827049754729
 20
460.9163559915906
 40
1.5
 50
289.4712206344913
 51
360.0000000000008
 73
     1
 72
     1
 10
351.8827049754729
 20
460.9163559915906
 11
351.8827049754729
 21
463.3163559915907
 72
     2
 10
352.8827049754729
 20
463.3163559915907
 40
1.0
 50
180.0
 51
270.0000000000008
 73
     0
 72
     1
 10
352.8827049754729
 20
464.3163559915907
 11
353.3827049754729
 21
464.3163559915907
 72
     2
 10
353.3827049754729
 20
463.3163559915907
 40
1.0
 50
270.0000000000008
 51
360.0000000000008
 73
     0
 72
     1
 10
354.3827049754728
 20
463.3163559915907
 11
354.3827049754729
 21
460.3163559915906
 72
     2
 10
355.8827049754729
 20
460.3163559915906
 40
1.5
 50
180.0
 51
270.0000000000008
 73
     1
 72
     1
 10
355.8827049754729
 20
458.8163559915906
 11
359.6327049754729
 21
458.8163559915906
 72
     1
 10
359.6327049754729
 20
458.8163559915906
 11
359.6327049754729
 21
459.8163559915906
 72
     1
 10
359.6327049754729
 20
459.8163559915906
 11
355.8827049754728
 21
459.8163559915906
 72
     2
 10
355.8827049754728
 20
460.3163559915906
 40
0.5
 50
90.0
 51
180.0
 73
     0
 72
     1
 10
355.3827049754728
 20
460.3163559915906
 11
355.3827049754728
 21
463.0663559915907
 72
     2
 10
353.1327049754729
 20
463.0663559915907
 40
2.25
 50
0.0
 51
90.0
 73
     1
 72
     2
 10
353.1327049754729
 20
463.0663559915907
 40
2.25
 50
90.0
 51
180.0
 73
     1
 72
     1
 10
350.8827049754729
 20
463.0663559915907
 11
350.8827049754729
 21
459.5021424292175
 97
        0
 75
     0
 76
     1
 52
0.0
 41
2.0
 77
     0
 78
     1
 53
45.0
 43
0.0
 44
0.0
 45
-4.490128060534577
 46
4.490128060534577
 79
     0
 98
        1
 10
0.0
 20
0.0
  0
HATCH
  5
287
330
1F
100
AcDbEntity
  8
0
  6
SLD-Durchgehend
 62
     7
370
    18
100
AcDbHatch
 10
0.0
 20
0.0
 30
0.0
210
0.0
220
0.0
230
1.0
  2
ANSI31
 70
     0
 71
     0
 91
        1
 92
        0
 93
       91
 72
     2
 10
363.4327049754731
 20
427.745438785095
 40
0.25
 50
0.0
 51
85.00000000001351
 73
     0
 72
     1
 10
363.4544939111599
 20
427.4963901105721
 11
362.610916039786
 21
427.4225866100255
 72
     2
 10
362.632704975473
 20
427.1735379355026
 40
0.25
 50
95.00000000001359
 51
180.0
 73
     1
 72
     1
 10
362.3827049754729
 20
427.1735379355026
 11
362.382704975473
 21
426.5663559915906
 72
     2
 10
362.632704975473
 20
426.5663559915906
 40
0.25
 50
180.0
 51
270.0000000000008
 73
     1
 72
     1
 10
362.632704975473
 20
426.3163559915907
 11
364.2827049754731
 21
426.3163559915907
 72
     1
 10
364.2827049754731
 20
426.3163559915907
 11
364.282704975473
 21
458.3163559915907
 72
     1
 10
364.282704975473
 20
458.3163559915907
 11
362.7827049754731
 21
459.8163559915906
 72
     1
 10
362.7827049754731
 20
459.8163559915906
 11
359.6327049754731
 21
459.8163559915906
 72
     1
 10
359.6327049754731
 20
459.8163559915906
 11
359.6327049754731
 21
458.8163559915906
 72
     1
 10
359.6327049754731
 20
458.8163559915906
 11
355.882704975473
 21
458.8163559915906
 72
     2
 10
355.882704975473
 20
460.3163559915906
 40
1.5
 50
90.0
 51
180.0
 73
     0
 72
     1
 10
354.382704975473
 20
460.3163559915906
 11
354.382704975473
 21
463.3163559915907
 72
     2
 10
353.382704975473
 20
463.3163559915907
 40
1.0
 50
0.0
 51
90.0
 73
     1
 72
     1
 10
353.382704975473
 20
464.3163559915907
 11
352.882704975473
 21
464.3163559915907
 72
     2
 10
352.882704975473
 20
463.3163559915907
 40
1.0
 50
90.00000000000325
 51
180.0
 73
     1
 72
     1
 10
351.882704975473
 20
463.3163559915907
 11
351.882704975473
 21
460.9163613023981
 72
     2
 10
350.382697464843
 20
460.9163613023981
 40
1.500007510629979
 50
0.0
 51
70.52857650811721
 73
     0
 72
     1
 10
350.882704975473
 20
459.5021424292175
 11
350.882704975473
 21
457.8163559915906
 72
     2
 10
351.382704975473
 20
457.8163559915906
 40
0.5
 50
180.0
 51
270.0000000000008
 73
     1
 72
     1
 10
351.382704975473
 20
457.3163559915906
 11
362.1327049754729
 21
457.3163559915906
 72
     2
 10
362.1327049754729
 20
457.0663559915907
 40
0.25
 50
270.0000000000008
 51
360.0000000000008
 73
     0
 72
     1
 10
362.3827049754729
 20
457.0663559915907
 11
362.3827049754729
 21
455.4591740476787
 72
     2
 10
362.6327049754729
 20
455.4591740476787
 40
0.25
 50
180.0
 51
265.0000000000014
 73
     1
 72
     1
 10
362.610916039786
 20
455.2101253731558
 11
363.4544939111599
 21
455.1363218726093
 72
     2
 10
363.4327049754731
 20
454.8872731980863
 40
0.25
 50
274.9999999999861
 51
360.0000000000008
 73
     0
 72
     1
 10
363.6827049754731
 20
454.8872731980863
 11
363.6827049754731
 21
453.345438785095
 72
     2
 10
363.4327049754731
 20
453.345438785095
 40
0.25
 50
0.0
 51
85.00000000001351
 73
     0
 72
     1
 10
363.4544939111599
 20
453.0963901105721
 11
362.610916039786
 21
453.0225866100255
 72
     2
 10
362.6327049754729
 20
452.7735379355026
 40
0.25
 50
94.99999999999946
 51
180.0
 73
     1
 72
     1
 10
362.3827049754729
 20
452.7735379355026
 11
362.3827049754729
 21
452.2591740476788
 72
     2
 10
362.6327049754729
 20
452.2591740476788
 40
0.25
 50
180.0
 51
265.0000000000025
 73
     1
 72
     1
 10
362.610916039786
 20
452.0101253731557
 11
363.45449391116
 21
451.9363218726093
 72
     2
 10
363.4327049754731
 20
451.6872731980863
 40
0.25
 50
275.0000000000003
 51
360.0000000000008
 73
     0
 72
     1
 10
363.6827049754731
 20
451.6872731980863
 11
363.6827049754731
 21
450.145438785095
 72
     2
 10
363.4327049754731
 20
450.145438785095
 40
0.25
 50
0.0
 51
85.00000000001239
 73
     0
 72
     1
 10
363.4544939111599
 20
449.8963901105721
 11
362.610916039786
 21
449.8225866100256
 72
     2
 10
362.6327049754729
 20
449.5735379355026
 40
0.25
 50
94.99999999999946
 51
180.0
 73
     1
 72
     1
 10
362.3827049754729
 20
449.5735379355026
 11
362.3827049754729
 21
449.0591740476787
 72
     2
 10
362.6327049754729
 20
449.0591740476787
 40
0.25
 50
180.0
 51
265.0000000000002
 73
     1
 72
     1
 10
362.610916039786
 20
448.8101253731558
 11
363.45449391116
 21
448.7363218726093
 72
     2
 10
363.4327049754731
 20
448.4872731980863
 40
0.25
 50
275.0000000000003
 51
360.0000000000008
 73
     0
 72
     1
 10
363.6827049754731
 20
448.4872731980863
 11
363.6827049754731
 21
446.945438785095
 72
     2
 10
363.4327049754731
 20
446.945438785095
 40
0.25
 50
0.0
 51
85.00000000001239
 73
     0
 72
     1
 10
363.4544939111599
 20
446.6963901105721
 11
362.610916039786
 21
446.6225866100255
 72
     2
 10
362.6327049754729
 20
446.3735379355026
 40
0.25
 50
95.0000000000006
 51
180.0
 73
     1
 72
     1
 10
362.3827049754729
 20
446.3735379355026
 11
362.3827049754729
 21
445.8591740476787
 72
     2
 10
362.6327049754729
 20
445.8591740476787
 40
0.25
 50
180.0
 51
265.0000000000002
 73
     1
 72
     1
 10
362.610916039786
 20
445.6101253731558
 11
363.45449391116
 21
445.5363218726093
 72
     2
 10
363.4327049754731
 20
445.2872731980863
 40
0.25
 50
275.0000000000003
 51
360.0000000000008
 73
     0
 72
     1
 10
363.6827049754731
 20
445.2872731980863
 11
363.6827049754731
 21
443.745438785095
 72
     2
 10
363.4327049754731
 20
443.745438785095
 40
0.25
 50
0.0
 51
85.00000000000054
 73
     0
 72
     1
 10
363.45449391116
 20
443.4963901105721
 11
362.610916039786
 21
443.4225866100255
 72
     2
 10
362.6327049754729
 20
443.1735379355026
 40
0.25
 50
94.99999999999946
 51
180.0
 73
     1
 72
     1
 10
362.3827049754729
 20
443.1735379355026
 11
362.3827049754729
 21
442.6591740476787
 72
     2
 10
362.6327049754729
 20
442.6591740476787
 40
0.25
 50
180.0
 51
265.0000000000014
 73
     1
 72
     1
 10
362.610916039786
 20
442.4101253731558
 11
363.45449391116
 21
442.3363218726092
 72
     2
 10
363.4327049754731
 20
442.0872731980863
 40
0.25
 50
275.0000000000014
 51
360.0000000000008
 73
     0
 72
     1
 10
363.6827049754731
 20
442.0872731980863
 11
363.6827049754731
 21
440.545438785095
 72
     2
 10
363.4327049754731
 20
440.545438785095
 40
0.25
 50
0.0
 51
84.9999999999994
 73
     0
 72
     1
 10
363.45449391116
 20
440.2963901105721
 11
362.610916039786
 21
440.2225866100255
 72
     2
 10
362.6327049754729
 20
439.9735379355026
 40
0.25
 50
95.0000000000006
 51
180.0
 73
     1
 72
     1
 10
362.3827049754729
 20
439.9735379355026
 11
362.3827049754729
 21
439.4591740476787
 72
     2
 10
362.6327049754729
 20
439.4591740476787
 40
0.25
 50
180.0
 51
265.0000000000002
 73
     1
 72
     1
 10
362.610916039786
 20
439.2101253731558
 11
363.45449391116
 21
439.1363218726092
 72
     2
 10
363.4327049754731
 20
438.8872731980863
 40
0.25
 50
275.0000000000003
 51
360.0000000000008
 73
     0
 72
     1
 10
363.6827049754731
 20
438.8872731980863
 11
363.6827049754731
 21
437.345438785095
 72
     2
 10
363.4327049754731
 20
437.345438785095
 40
0.25
 50
0.0
 51
85.00000000000054
 73
     0
 72
     1
 10
363.45449391116
 20
437.0963901105721
 11
362.610916039786
 21
437.0225866100255
 72
     2
 10
362.6327049754729
 20
436.7735379355026
 40
0.25
 50
94.99999999999946
 51
180.0
 73
     1
 72
     1
 10
362.3827049754729
 20
436.7735379355026
 11
362.3827049754729
 21
436.2591740476787
 72
     2
 10
362.6327049754729
 20
436.2591740476787
 40
0.25
 50
180.0
 51
265.0000000000014
 73
     1
 72
     1
 10
362.610916039786
 20
436.0101253731557
 11
363.45449391116
 21
435.9363218726092
 72
     2
 10
363.4327049754731
 20
435.6872731980863
 40
0.25
 50
275.0000000000014
 51
360.0000000000008
 73
     0
 72
     1
 10
363.6827049754731
 20
435.6872731980863
 11
363.6827049754731
 21
434.1454387850951
 72
     2
 10
363.4327049754731
 20
434.1454387850951
 40
0.25
 50
0.0
 51
85.00000000000054
 73
     0
 72
     1
 10
363.45449391116
 20
433.8963901105721
 11
362.610916039786
 21
433.8225866100256
 72
     2
 10
362.632704975473
 20
433.5735379355026
 40
0.25
 50
95.00000000001243
 51
180.0
 73
     1
 72
     1
 10
362.382704975473
 20
433.5735379355026
 11
362.3827049754729
 21
433.0591740476788
 72
     2
 10
362.632704975473
 20
433.0591740476788
 40
0.25
 50
180.0
 51
264.9999999999895
 73
     1
 72
     1
 10
362.610916039786
 20
432.8101253731558
 11
363.45449391116
 21
432.7363218726093
 72
     2
 10
363.4327049754731
 20
432.4872731980863
 40
0.25
 50
275.0000000000003
 51
360.0000000000008
 73
     0
 72
     1
 10
363.6827049754731
 20
432.4872731980863
 11
363.6827049754731
 21
430.945438785095
 72
     2
 10
363.4327049754731
 20
430.945438785095
 40
0.25
 50
0.0
 51
84.9999999999994
 73
     0
 72
     1
 10
363.45449391116
 20
430.6963901105721
 11
362.610916039786
 21
430.6225866100256
 72
     2
 10
362.632704975473
 20
430.3735379355026
 40
0.25
 50
95.00000000001243
 51
180.0
 73
     1
 72
     1
 10
362.382704975473
 20
430.3735379355026
 11
362.3827049754729
 21
429.8591740476787
 72
     2
 10
362.632704975473
 20
429.8591740476787
 40
0.25
 50
180.0
 51
264.9999999999884
 73
     1
 72
     1
 10
362.610916039786
 20
429.6101253731558
 11
363.45449391116
 21
429.5363218726093
 72
     2
 10
363.4327049754731
 20
429.2872731980863
 40
0.25
 50
274.9999999999991
 51
360.0000000000008
 73
     0
 72
     1
 10
363.6827049754731
 20
429.2872731980863
 11
363.6827049754731
 21
427.745438785095
 97
        0
 75
     0
 76
     1
 52
0.0
 41
2.0
 77
     0
 78
     1
 53
45.0
 43
0.0
 44
0.0
 45
-4.490128060534577
 46
4.490128060534577
 79
     0
 98
        1
 10
0.0
 20
0.0
  0
HATCH
  5
288
330
1F
100
AcDbEntity
  8
0
  6
SLD-Durchgehend
 62
     7
370
    18
100
AcDbHatch
 10
0.0
 20
0.0
 30
0.0
210
0.0
220
0.0
230
1.0
  2
ANSI31
 70
     0
 71
     0
 91
        1
 92
        0
 93
       91
 72
     1
 10
498.882704975473
 20
457.8163559915907
 11
498.882704975473
 21
459.5021424292176
 72
     2
 10
499.382712486103
 20
460.9163613023981
 40
1.500007510629979
 50
109.4714234918835
 51
180.0
 73
     0
 72
     1
 10
497.882704975473
 20
460.9163613023981
 11
497.882704975473
 21
463.3163559915907
 72
     2
 10
496.882704975473
 20
463.3163559915907
 40
1.0
 50
0.0
 51
89.99999999999675
 73
     1
 72
     1
 10
496.882704975473
 20
464.3163559915907
 11
496.382704975473
 21
464.3163559915907
 72
     2
 10
496.382704975473
 20
463.3163559915907
 40
1.0
 50
90.0
 51
180.0
 73
     1
 72
     1
 10
495.382704975473
 20
463.3163559915907
 11
495.382704975473
 21
460.3163559915907
 72
     2
 10
493.882704975473
 20
460.3163559915907
 40
1.5
 50
0.0
 51
90.0
 73
     0
 72
     1
 10
493.882704975473
 20
458.8163559915907
 11
490.132704975473
 21
458.8163559915907
 72
     1
 10
490.132704975473
 20
458.8163559915907
 11
490.132704975473
 21
459.8163559915907
 72
     1
 10
490.132704975473
 20
459.8163559915907
 11
486.982704975473
 21
459.8163559915906
 72
     1
 10
486.982704975473
 20
459.8163559915906
 11
485.482704975473
 21
458.3163559915906
 72
     1
 10
485.482704975473
 20
458.3163559915906
 11
485.482704975473
 21
426.3163559915907
 72
     1
 10
485.482704975473
 20
426.3163559915907
 11
487.1327049754732
 21
426.3163559915907
 72
     2
 10
487.1327049754732
 20
426.5663559915907
 40
0.25
 50
270.0000000000008
 51
360.0000000000008
 73
     1
 72
     1
 10
487.3827049754732
 20
426.5663559915907
 11
487.3827049754731
 21
427.1735379355026
 72
     2
 10
487.1327049754732
 20
427.1735379355026
 40
0.25
 50
0.0
 51
85.00000000015855
 73
     1
 72
     1
 10
487.1544939111594
 20
427.4225866100257
 11
486.310916039786
 21
427.4963901105721
 72
     2
 10
486.332704975473
 20
427.7454387850951
 40
0.25
 50
94.99999999999946
 51
180.0
 73
     0
 72
     1
 10
486.082704975473
 20
427.7454387850951
 11
486.082704975473
 21
429.2872731980863
 72
     2
 10
486.332704975473
 20
429.2872731980863
 40
0.25
 50
180.0
 51
264.9999999996323
 73
     0
 72
     1
 10
486.3109160397844
 20
429.536321872609
 11
487.1544939111601
 21
429.6101253731558
 72
     2
 10
487.1327049754732
 20
429.8591740476788
 40
0.25
 50
275.0000000000003
 51
360.0000000000008
 73
     1
 72
     1
 10
487.3827049754732
 20
429.8591740476788
 11
487.3827049754731
 21
430.3735379355027
 72
     2
 10
487.1327049754732
 20
430.3735379355027
 40
0.25
 50
0.0
 51
85.00000000030244
 73
     1
 72
     1
 10
487.1544939111588
 20
430.6225866100258
 11
486.310916039786
 21
430.6963901105721
 72
     2
 10
486.332704975473
 20
430.9454387850951
 40
0.25
 50
94.99999999999946
 51
180.0
 73
     0
 72
     1
 10
486.082704975473
 20
430.9454387850951
 11
486.082704975473
 21
432.4872731980863
 72
     2
 10
486.332704975473
 20
432.4872731980863
 40
0.25
 50
180.0
 51
264.9999999997643
 73
     0
 72
     1
 10
486.310916039785
 20
432.7363218726091
 11
487.1544939111601
 21
432.8101253731558
 72
     2
 10
487.1327049754732
 20
433.0591740476788
 40
0.25
 50
275.0000000000003
 51
360.0000000000008
 73
     1
 72
     1
 10
487.3827049754732
 20
433.0591740476788
 11
487.3827049754731
 21
433.5735379355027
 72
     2
 10
487.1327049754732
 20
433.5735379355027
 40
0.25
 50
0.0
 51
85.00000000044747
 73
     1
 72
     1
 10
487.1544939111582
 20
433.8225866100259
 11
486.310916039786
 21
433.8963901105722
 72
     2
 10
486.332704975473
 20
434.1454387850951
 40
0.25
 50
95.0000000000006
 51
180.0
 73
     0
 72
     1
 10
486.082704975473
 20
434.1454387850951
 11
486.082704975473
 21
435.6872731980863
 72
     2
 10
486.332704975473
 20
435.6872731980863
 40
0.25
 50
180.0
 51
264.9999999998693
 73
     0
 72
     1
 10
486.3109160397855
 20
435.9363218726091
 11
487.15449391116
 21
436.0101253731558
 72
     2
 10
487.1327049754731
 20
436.2591740476788
 40
0.25
 50
275.0000000000003
 51
360.0000000000008
 73
     1
 72
     1
 10
487.3827049754731
 20
436.2591740476788
 11
487.3827049754731
 21
436.7735379355026
 72
     2
 10
487.1327049754731
 20
436.7735379355026
 40
0.25
 50
0.0
 51
85.00000000055357
 73
     1
 72
     1
 10
487.1544939111577
 20
437.0225866100259
 11
486.310916039786
 21
437.0963901105721
 72
     2
 10
486.332704975473
 20
437.345438785095
 40
0.25
 50
94.99999999999946
 51
180.0
 73
     0
 72
     1
 10
486.082704975473
 20
437.345438785095
 11
486.082704975473
 21
438.8872731980863
 72
     2
 10
486.332704975473
 20
438.8872731980863
 40
0.25
 50
180.0
 51
265.0000000000002
 73
     0
 72
     1
 10
486.310916039786
 20
439.1363218726092
 11
487.15449391116
 21
439.2101253731558
 72
     2
 10
487.1327049754731
 20
439.4591740476787
 40
0.25
 50
274.9999999999873
 51
360.0000000000008
 73
     1
 72
     1
 10
487.3827049754731
 20
439.4591740476787
 11
487.3827049754731
 21
439.9735379355026
 72
     2
 10
487.1327049754731
 20
439.9735379355026
 40
0.25
 50
0.0
 51
85.00000000007842
 73
     1
 72
     1
 10
487.1544939111597
 20
440.2225866100256
 11
486.310916039786
 21
440.2963901105721
 72
     2
 10
486.332704975473
 20
440.545438785095
 40
0.25
 50
94.99999999999946
 51
180.0
 73
     0
 72
     1
 10
486.082704975473
 20
440.545438785095
 11
486.082704975473
 21
442.0872731980863
 72
     2
 10
486.332704975473
 20
442.0872731980863
 40
0.25
 50
180.0
 51
264.9999999995392
 73
     0
 72
     1
 10
486.310916039784
 20
442.3363218726089
 11
487.15449391116
 21
442.4101253731558
 72
     2
 10
487.1327049754731
 20
442.6591740476787
 40
0.25
 50
275.0000000000014
 51
360.0000000000008
 73
     1
 72
     1
 10
487.3827049754731
 20
442.6591740476787
 11
487.3827049754731
 21
443.1735379355026
 72
     2
 10
487.1327049754731
 20
443.1735379355026
 40
0.25
 50
0.0
 51
85.00000000019747
 73
     1
 72
     1
 10
487.1544939111592
 20
443.4225866100257
 11
486.310916039786
 21
443.4963901105721
 72
     2
 10
486.332704975473
 20
443.745438785095
 40
0.25
 50
95.0000000000006
 51
180.0
 73
     0
 72
     1
 10
486.082704975473
 20
443.745438785095
 11
486.082704975473
 21
445.2872731980863
 72
     2
 10
486.332704975473
 20
445.2872731980863
 40
0.25
 50
180.0
 51
264.9999999996583
 73
     0
 72
     1
 10
486.3109160397846
 20
445.536321872609
 11
487.15449391116
 21
445.6101253731558
 72
     2
 10
487.1327049754731
 20
445.8591740476788
 40
0.25
 50
275.0000000000003
 51
360.0000000000008
 73
     1
 72
     1
 10
487.3827049754731
 20
445.8591740476788
 11
487.3827049754731
 21
446.3735379355026
 72
     2
 10
487.1327049754731
 20
446.3735379355026
 40
0.25
 50
0.0
 51
85.00000000030359
 73
     1
 72
     1
 10
487.1544939111587
 20
446.6225866100258
 11
486.310916039786
 21
446.6963901105721
 72
     2
 10
486.332704975473
 20
446.9454387850951
 40
0.25
 50
94.99999999999946
 51
180.0
 73
     0
 72
     1
 10
486.082704975473
 20
446.9454387850951
 11
486.082704975473
 21
448.4872731980864
 72
     2
 10
486.332704975473
 20
448.4872731980864
 40
0.25
 50
180.0
 51
264.9999999997632
 73
     0
 72
     1
 10
486.310916039785
 20
448.7363218726091
 11
487.15449391116
 21
448.8101253731559
 72
     2
 10
487.1327049754731
 20
449.0591740476788
 40
0.25
 50
275.0000000000014
 51
360.0000000000008
 73
     1
 72
     1
 10
487.3827049754731
 20
449.0591740476788
 11
487.3827049754731
 21
449.5735379355027
 72
     2
 10
487.1327049754731
 20
449.5735379355027
 40
0.25
 50
0.0
 51
85.00000000042152
 73
     1
 72
     1
 10
487.1544939111582
 20
449.8225866100259
 11
486.310916039786
 21
449.8963901105722
 72
     2
 10
486.332704975473
 20
450.1454387850951
 40
0.25
 50
95.0000000000006
 51
180.0
 73
     0
 72
     1
 10
486.082704975473
 20
450.1454387850951
 11
486.082704975473
 21
451.6872731980863
 72
     2
 10
486.332704975473
 20
451.6872731980863
 40
0.25
 50
180.0
 51
264.9999999998834
 73
     0
 72
     1
 10
486.3109160397855
 20
451.9363218726092
 11
487.15449391116
 21
452.0101253731558
 72
     2
 10
487.1327049754731
 20
452.2591740476788
 40
0.25
 50
274.9999999999861
 51
360.0000000000008
 73
     1
 72
     1
 10
487.3827049754731
 20
452.2591740476788
 11
487.3827049754731
 21
452.7735379355026
 72
     2
 10
487.1327049754731
 20
452.7735379355026
 40
0.25
 50
0.0
 51
84.99999999938035
 73
     1
 72
     1
 10
487.1544939111627
 20
453.0225866100251
 11
486.310916039786
 21
453.0963901105721
 72
     2
 10
486.332704975473
 20
453.345438785095
 40
0.25
 50
95.00000000001359
 51
180.0
 73
     0
 72
     1
 10
486.082704975473
 20
453.345438785095
 11
486.082704975473
 21
454.8872731980863
 72
     2
 10
486.332704975473
 20
454.8872731980863
 40
0.25
 50
180.0
 51
265.0000000000155
 73
     0
 72
     1
 10
486.3109160397861
 20
455.1363218726093
 11
487.15449391116
 21
455.2101253731558
 72
     2
 10
487.1327049754731
 20
455.4591740476787
 40
0.25
 50
274.9999999999873
 51
360.0000000000008
 73
     1
 72
     1
 10
487.3827049754731
 20
455.4591740476787
 11
487.3827049754731
 21
457.0663559915907
 72
     2
 10
487.6327049754732
 20
457.0663559915907
 40
0.25
 50
180.0
 51
270.0000000000008
 73
     0
 72
     1
 10
487.6327049754732
 20
457.3163559915907
 11
498.382704975473
 21
457.3163559915907
 72
     2
 10
498.382704975473
 20
457.8163559915907
 40
0.5
 50
270.0000000000008
 51
360.0000000000008
 73
     1
 97
        0
 75
     0
 76
     1
 52
0.0
 41
2.0
 77
     0
 78
     1
 53
45.0
 43
0.0
 44
0.0
 45
-4.490128060534577
 46
4.490128060534577
 79
     0
 98
        1
 10
0.0
 20
0.0
  0
HATCH
  5
289
330
1F
100
AcDbEntity
  8
0
  6
SLD-Durchgehend
 62
     7
370
    18
100
AcDbHatch
 10
0.0
 20
0.0
 30
0.0
210
0.0
220
0.0
230
1.0
  2
ANSI31
 70
     0
 71
     0
 91
        1
 92
        0
 93
       16
 72
     1
 10
409.382704975473
 20
464.8163559915907
 11
409.382704975473
 21
459.8163559915906
 72
     1
 10
409.382704975473
 20
459.8163559915906
 11
422.615274231595
 21
459.8163559915906
 72
     1
 10
422.615274231595
 20
459.8163559915906
 11
422.615274231595
 21
460.0163559915907
 72
     1
 10
422.615274231595
 20
460.0163559915907
 11
424.7661956295357
 21
460.0163559915907
 72
     1
 10
424.7661956295357
 20
460.0163559915907
 11
424.7661956295357
 21
459.8163559915906
 72
     1
 10
424.7661956295357
 20
459.8163559915906
 11
440.3827049754731
 21
459.8163559915906
 72
     1
 10
440.3827049754731
 20
459.8163559915906
 11
440.3827049754731
 21
464.8163559915907
 72
     1
 10
440.3827049754731
 20
464.8163559915907
 11
428.0740843168591
 21
464.8163559915907
 72
     1
 10
428.0740843168591
 20
464.8163559915907
 11
428.0740843168591
 21
464.6163559915907
 72
     1
 10
428.0740843168591
 20
464.6163559915907
 11
426.5633095119303
 21
464.6163559915907
 72
     1
 10
426.5633095119303
 20
464.6163559915907
 11
426.5633095119303
 21
464.8163559915907
 72
     1
 10
426.5633095119303
 20
464.8163559915907
 11
423.3617090957347
 21
464.8163559915907
 72
     1
 10
423.3617090957347
 20
464.8163559915907
 11
423.3617090957347
 21
464.6163559915907
 72
     1
 10
423.3617090957347
 20
464.6163559915907
 11
421.8412450690633
 21
464.6163559915907
 72
     1
 10
421.8412450690633
 20
464.6163559915907
 11
421.8412450690633
 21
464.8163559915907
 72
     1
 10
421.8412450690633
 20
464.8163559915907
 11
409.382704975473
 21
464.8163559915907
 97
        0
 75
     0
 76
     1
 52
0.0
 41
2.0
 77
     0
 78
     1
 53
45.0
 43
0.0
 44
0.0
 45
-4.490128060534577
 46
4.490128060534577
 79
     0
 98
        1
 10
0.0
 20
0.0
  0
HATCH
  5
28A
330
1F
100
AcDbEntity
  8
0
  6
SLD-Durchgehend
 62
     7
370
    18
100
AcDbHatch
 10
0.0
 20
0.0
 30
0.0
210
0.0
220
0.0
230
1.0
  2
ANSI31
 70
     0
 71
     0
 91
        1
 92
        0
 93
        4
 72
     1
 10
480.882704975473
 20
464.8163559915884
 11
480.882704975473
 21
459.8163559915906
 72
     1
 10
480.882704975473
 20
459.8163559915906
 11
493.882704975473
 21
459.8163559915906
 72
     1
 10
493.882704975473
 20
459.8163559915906
 11
493.882704975473
 21
464.8163559915907
 72
     1
 10
493.882704975473
 20
464.8163559915907
 11
480.882704975473
 21
464.8163559915884
 97
        0
 75
     0
 76
     1
 52
0.0
 41
2.0
 77
     0
 78
     1
 53
45.0
 43
0.0
 44
0.0
 45
-4.490128060534577
 46
4.490128060534577
 79
     0
 98
        1
 10
0.0
 20
0.0
  0
HATCH
  5
28B
330
1F
100
AcDbEntity
  8
0
  6
SLD-Durchgehend
 62
     7
370
    18
100
AcDbHatch
 10
0.0
 20
0.0
 30
0.0
210
0.0
220
0.0
230
1.0
  2
ANSI31
 70
     0
 71
     0
 91
        1
 92
        0
 93
        4
 72
     1
 10
473.382704975473
 20
464.8163559915884
 11
464.382704975473
 21
464.8163559914179
 72
     1
 10
464.382704975473
 20
464.8163559914179
 11
464.382704975473
 21
459.8163559915906
 72
     1
 10
464.382704975473
 20
459.8163559915906
 11
473.382704975473
 21
459.8163559915906
 72
     1
 10
473.382704975473
 20
459.8163559915906
 11
473.382704975473
 21
464.8163559915884
 97
        0
 75
     0
 76
     1
 52
0.0
 41
2.0
 77
     0
 78
     1
 53
45.0
 43
0.0
 44
0.0
 45
-4.490128060534577
 46
4.490128060534577
 79
     0
 98
        1
 10
0.0
 20
0.0
  0
HATCH
  5
28C
330
1F
100
AcDbEntity
  8
0
  6
SLD-Durchgehend
 62
     7
370
    18
100
AcDbHatch
 10
0.0
 20
0.0
 30
0.0
210
0.0
220
0.0
230
1.0
  2
ANSI31
 70
     0
 71
     0
 91
        1
 92
        0
 93
        4
 72
     1
 10
355.882704975473
 20
464.8163559915907
 11
355.882704975473
 21
459.8163559915906
 72
     1
 10
355.882704975473
 20
459.8163559915906
 11
368.882704975473
 21
459.8163559915906
 72
     1
 10
368.882704975473
 20
459.8163559915906
 11
368.882704975473
 21
464.8163559915907
 72
     1
 10
368.882704975473
 20
464.8163559915907
 11
355.882704975473
 21
464.8163559915907
 97
        0
 75
     0
 76
     1
 52
0.0
 41
2.0
 77
     0
 78
     1
 53
45.0
 43
0.0
 44
0.0
 45
-4.490128060534577
 46
4.490128060534577
 79
     0
 98
        1
 10
0.0
 20
0.0
  0
HATCH
  5
28D
330
1F
100
AcDbEntity
  8
0
  6
SLD-Durchgehend
 62
     7
370
    18
100
AcDbHatch
 10
0.0
 20
0.0
 30
0.0
210
0.0
220
0.0
230
1.0
  2
ANSI31
 70
     0
 71
     0
 91
        1
 92
        0
 93
        4
 72
     1
 10
376.382704975473
 20
459.8163559915906
 11
385.382704975473
 21
459.8163559915906
 72
     1
 10
385.382704975473
 20
459.8163559915906
 11
385.382704975473
 21
464.8163559914179
 72
     1
 10
385.382704975473
 20
464.8163559914179
 11
376.382704975473
 21
464.8163559915884
 72
     1
 10
376.382704975473
 20
464.8163559915884
 11
376.382704975473
 21
459.8163559915906
 97
        0
 75
     0
 76
     1
 52
0.0
 41
2.0
 77
     0
 78
     1
 53
45.0
 43
0.0
 44
0.0
 45
-4.490128060534577
 46
4.490128060534577
 79
     0
 98
        1
 10
0.0
 20
0.0
  0
HATCH
  5
28E
330
1F
100
AcDbEntity
  8
0
  6
SLD-Durchgehend
 62
     7
370
    18
100
AcDbHatch
 10
0.0
 20
0.0
 30
0.0
210
0.0
220
0.0
230
1.0
  2
ANSI31
 70
     0
 71
     0
 91
        1
 92
        0
 93
        4
 72
     1
 10
456.882704975473
 20
464.8163559914179
 11
447.8827049754731
 21
464.8163559915907
 72
     1
 10
447.8827049754731
 20
464.8163559915907
 11
447.8827049754731
 21
459.8163559915906
 72
     1
 10
447.8827049754731
 20
459.8163559915906
 11
456.882704975473
 21
459.8163559915906
 72
     1
 10
456.882704975473
 20
459.8163559915906
 11
456.882704975473
 21
464.8163559914179
 97
        0
 75
     0
 76
     1
 52
0.0
 41
2.0
 77
     0
 78
     1
 53
45.0
 43
0.0
 44
0.0
 45
-4.490128060534577
 46
4.490128060534577
 79
     0
 98
        1
 10
0.0
 20
0.0
  0
HATCH
  5
28F
330
1F
100
AcDbEntity
  8
0
  6
SLD-Durchgehend
 62
     7
370
    18
100
AcDbHatch
 10
0.0
 20
0.0
 30
0.0
210
0.0
220
0.0
230
1.0
  2
ANSI31
 70
     0
 71
     0
 91
        1
 92
        0
 93
        4
 72
     1
 10
392.882704975473
 20
459.8163559915906
 11
401.882704975473
 21
459.8163559915906
 72
     1
 10
401.882704975473
 20
459.8163559915906
 11
401.882704975473
 21
464.8163559915907
 72
     1
 10
401.882704975473
 20
464.8163559915907
 11
392.882704975473
 21
464.8163559914179
 72
     1
 10
392.882704975473
 20
464.8163559914179
 11
392.882704975473
 21
459.8163559915906
 97
        0
 75
     0
 76
     1
 52
0.0
 41
2.0
 77
     0
 78
     1
 53
45.0
 43
0.0
 44
0.0
 45
-4.490128060534577
 46
4.490128060534577
 79
     0
 98
        1
 10
0.0
 20
0.0
  0
DIMENSION
  5
290
330
1F
100
AcDbEntity
  8
0
  6
SLD-Durchgehend
 62
     7
370
    18
100
AcDbDimension
280
     0
  2
_D
 10
499.8827049755
 20
477.5897808601
 30
0.0
 11
425.4480974241
 21
477.5897808601
 31
0.0
 70
   160
  1
{\fGDT;o}<>
 71
     2
 42
-1.0
 73
     0
 74
     0
 75
     0
  3
SLDDIMSTYLE0
100
AcDbAlignedDimension
 13
349.8827049755
 23
459.4163559916
 33
0.0
 14
499.8827049755
 24
459.4163559916
 34
0.0
100
AcDbRotatedDimension
  0
DIMENSION
  5
2A4
330
1F
100
AcDbEntity
  8
0
  6
SLD-Durchgehend
 62
     7
370
    18
100
AcDbDimension
280
     0
  2
_D_1
 10
487.3827049755
 20
406.3163559916
 30
0.0
 11
425.4480974241
 21
406.3163559916
 31
0.0
 70
   160
  1
<>
 71
     2
 42
-1.0
 73
     0
 74
     0
 75
     0
  3
SLDDIMSTYLE0
100
AcDbAlignedDimension
 13
362.3827049755
 23
426.5663559916
 33
0.0
 14
487.3827049755
 24
426.5663559916
 34
0.0
 50
0.0
100
AcDbRotatedDimension
  0
DIMENSION
  5
2AE
330
1F
100
AcDbEntity
  8
0
  6
SLD-Durchgehend
 62
     7
370
    18
100
AcDbDimension
280
     0
  2
_D_2
 10
509.6725047794
 20
457.3163559916
 30
0.0
 11
509.6725047794
 21
438.6430985059
 31
0.0
 70
   160
  1
<>
 71
     2
 42
-1.0
 73
     0
 74
     0
 75
     0
  3
SLDDIMSTYLE1
100
AcDbAlignedDimension
 13
496.6327049755
 23
465.3163559916
 33
0.0
 14
498.3827049755
 24
457.3163559916
 34
0.0
 50
90.0
100
AcDbRotatedDimension
  0
DIMENSION
  5
2BB
330
1F
100
AcDbEntity
  8
0
  6
SLD-Durchgehend
 62
     7
370
    18
100
AcDbDimension
280
     0
  2
_D_3
 10
531.8827049755
 20
426.3163559916
 30
0.0
 11
531.8827049755
 21
449.7575089095
 31
0.0
 70
   160
  1
<>
 71
     2
 42
-1.0
 73
     0
 74
     0
 75
     0
  3
SLDDIMSTYLE0
100
AcDbAlignedDimension
 13
496.6327049755
 23
465.3163559916
 33
0.0
 14
487.1327049755
 24
426.3163559916
 34
0.0
 50
90.0
100
AcDbRotatedDimension
  0
LINE
  5
2C5
330
1F
100
AcDbEntity
  8
0
  6
SLD-Punktstrich
 62
     7
370
    18
100
AcDbLine
 10
424.8827049755
 20
462.3163559916
 30
0.0
 11
424.8827049755
 21
426.1855387736
 31
0.0
  0
ENDSEC
  0
SECTION
  2
OBJECTS
  0
DICTIONARY
  5
C
330
0
100
AcDbDictionary
281
     1
  3
ACAD_DETAILVIEWSTYLE
350
2CD
  3
ACAD_GROUP
350
D
  3
ACAD_LAYOUT
350
1A
  3
ACAD_MATERIAL
350
43
  3
ACAD_MLEADERSTYLE
350
6B
  3
ACAD_MLINESTYLE
350
17
  3
ACAD_PLOTSETTINGS
350
19
  3
ACAD_PLOTSTYLENAME
350
E
  3
ACAD_SCALELIST
350
47
  3
ACAD_SECTIONVIEWSTYLE
350
2CE
  3
ACAD_TABLESTYLE
350
69
  3
ACAD_VISUALSTYLE
350
2A
  3
ACDB_RECOMPOSE_DATA
350
2CA
  3
AcDbVariableDictionary
350
2C6
  0
SUN
  5
6D
330
29
100
AcDbSun
 90
        1
290
     0
 63
     7
421
 16777215
 40
1.0
291
     1
 91
  2455826
 92
 54000000
292
     0
 70
     2
 71
   256
280
     1
  0
DICTIONARY
  5
2CD
102
{ACAD_REACTORS
330
C
102
}
330
C
100
AcDbDictionary
281
     1
  0
DICTIONARY
  5
D
102
{ACAD_REACTORS
330
C
102
}
330
C
100
AcDbDictionary
281
     1
  0
DICTIONARY
  5
1A
102
{ACAD_REACTORS
330
C
102
}
330
C
100
AcDbDictionary
281
     1
  3
Layout1
350
1E
  3
Layout2
350
26
  3
Model
350
22
  0
DICTIONARY
  5
43
102
{ACAD_REACTORS
330
C
102
}
330
C
100
AcDbDictionary
281
     1
  3
ByBlock
350
45
  3
ByLayer
350
44
  3
Global
350
46
  0
DICTIONARY
  5
6B
102
{ACAD_REACTORS
330
C
102
}
330
C
100
AcDbDictionary
281
     1
  3
Standard
350
6C
  0
DICTIONARY
  5
17
102
{ACAD_REACTORS
330
C
102
}
330
C
100
AcDbDictionary
281
     1
  3
Standard
350
18
  0
DICTIONARY
  5
19
102
{ACAD_REACTORS
330
C
102
}
330
C
100
AcDbDictionary
281
     1
  0
ACDBDICTIONARYWDFLT
  5
E
102
{ACAD_REACTORS
330
C
102
}
330
C
100
AcDbDictionary
281
     1
  3
Normal
350
F
100
AcDbDictionaryWithDefault
340
F
  0
DICTIONARY
  5
47
102
{ACAD_REACTORS
330
C
102
}
330
C
100
AcDbDictionary
281
     1
  3
A0
350
48
  3
A1
350
49
  3
A2
350
4A
  3
A3
350
4B
  3
A4
350
4C
  3
A5
350
4D
  3
A6
350
4E
  3
A7
350
4F
  3
A8
350
50
  3
A9
350
51
  3
B0
350
52
  3
B1
350
53
  3
B2
350
54
  3
B3
350
55
  3
B4
350
56
  3
B5
350
57
  3
B6
350
58
  3
B7
350
59
  3
B8
350
5A
  3
B9
350
5B
  3
C0
350
5C
  3
C1
350
5D
  3
C2
350
5E
  3
C3
350
5F
  3
C4
350
60
  3
C5
350
61
  3
C6
350
62
  3
C7
350
63
  3
C8
350
64
  3
C9
350
65
  3
D0
350
66
  3
D1
350
67
  3
D2
350
68
  0
DICTIONARY
  5
2CE
102
{ACAD_REACTORS
330
C
102
}
330
C
100
AcDbDictionary
281
     1
  0
DICTIONARY
  5
69
102
{ACAD_REACTORS
330
C
102
}
330
C
100
AcDbDictionary
281
     1
  3
Standard
350
6A
  0
DICTIONARY
  5
2A
102
{ACAD_REACTORS
330
C
102
}
330
C
100
AcDbDictionary
281
     1
  3
2dWireframe
350
2F
  3
Basic
350
32
  3
Brighten
350
36
  3
ColorChange
350
3A
  3
Conceptual
350
34
  3
Dim
350
35
  3
EdgeColorOff
350
3D
  3
Facepattern
350
39
  3
Flat
350
2B
  3
FlatWithEdges
350
2C
  3
Gouraud
350
2D
  3
GouraudWithEdges
350
2E
  3
Hidden
350
31
  3
JitterOff
350
3B
  3
Linepattern
350
38
  3
OverhangOff
350
3C
  3
Realistic
350
33
  3
Shaded
350
42
  3
Shaded with edges
350
41
  3
Shades of Gray
350
3E
  3
Sketchy
350
3F
  3
Thicken
350
37
  3
Wireframe
350
30
  3
X-Ray
350
40
  0
XRECORD
  5
2CA
102
{ACAD_REACTORS
330
C
102
}
330
C
100
AcDbXrecord
280
     1
 90
        1
330
6A
  0
DICTIONARY
  5
2C6
102
{ACAD_REACTORS
330
C
102
}
330
C
100
AcDbDictionary
281
     1
  3
CANNOSCALE
350
2C7
  3
CMLEADERSTYLE
350
2CC
  3
CTABLESTYLE
350
2CB
  3
SECTIONTHICKNESSINC
350
2CF
  0
LAYOUT
  5
1E
102
{ACAD_REACTORS
330
1A
102
}
330
1A
100
AcDbPlotSettings
  1

  2
none_device
  4

  6

 40
0.0
 41
0.0
 42
0.0
 43
0.0
 44
0.0
 45
0.0
 46
0.0
 47
0.0
 48
0.0
 49
0.0
140
0.0
141
0.0
142
1.0
143
1.0
 70
   688
 72
     1
 73
     0
 74
     5
  7

 75
    16
 76
     0
 77
     2
 78
   300
147
1.0
148
0.0
149
0.0
100
AcDbLayout
  1
Layout1
 70
     1
 71
     1
 10
0.0
 20
0.0
 11
420.0
 21
297.0
 12
0.0
 22
0.0
 32
0.0
 14
1.0000000000E+20
 24
1.0000000000E+20
 34
1.0000000000E+20
 15
-1.0000000000E+20
 25
-1.0000000000E+20
 35
-1.0000000000E+20
146
0.0
 13
0.0
 23
0.0
 33
0.0
 16
1.0
 26
0.0
 36
0.0
 17
0.0
 27
1.0
 37
0.0
 76
     0
330
1B
  0
LAYOUT
  5
26
102
{ACAD_REACTORS
330
1A
102
}
330
1A
100
AcDbPlotSettings
  1

  2
none_device
  4

  6

 40
0.0
 41
0.0
 42
0.0
 43
0.0
 44
0.0
 45
0.0
 46
0.0
 47
0.0
 48
0.0
 49
0.0
140
0.0
141
0.0
142
1.0
143
1.0
 70
   688
 72
     1
 73
     0
 74
     5
  7

 75
    16
 76
     0
 77
     2
 78
   300
147
1.0
148
0.0
149
0.0
100
AcDbLayout
  1
Layout2
 70
     1
 71
     2
 10
0.0
 20
0.0
 11
0.0
 21
0.0
 12
0.0
 22
0.0
 32
0.0
 14
0.0
 24
0.0
 34
0.0
 15
0.0
 25
0.0
 35
0.0
146
0.0
 13
0.0
 23
0.0
 33
0.0
 16
1.0
 26
0.0
 36
0.0
 17
0.0
 27
1.0
 37
0.0
 76
     0
330
23
  0
LAYOUT
  5
22
102
{ACAD_REACTORS
330
1A
102
}
330
1A
100
AcDbPlotSettings
  1

  2
none_device
  4
Letter_(8.50_x_11.00_Inches)
  6

 40
6.35
 41
6.35
 42
6.35000508
 43
6.35000508
 44
215.9
 45
279.4
 46
0.0
 47
0.0
 48
0.0
 49
0.0
140
0.0
141
0.0
142
1.0
143
1.0
 70
  1712
 72
     1
 73
     0
 74
     0
  7

 75
     0
 76
     0
 77
     2
 78
   300
147
1.0
148
0.0
149
0.0
100
AcDbLayout
  1
Model
 70
     1
 71
     0
 10
0.0
 20
0.0
 11
840.0
 21
594.0
 12
0.0
 22
0.0
 32
0.0
 14
0.0
 24
0.0
 34
0.0
 15
840.0
 25
594.0
 35
0.0
146
0.0
 13
0.0
 23
0.0
 33
0.0
 16
1.0
 26
0.0
 36
0.0
 17
0.0
 27
1.0
 37
0.0
 76
     0
330
1F
331
29
  0
MATERIAL
  5
45
102
{ACAD_REACTORS
330
43
102
}
330
43
100
AcDbMaterial
  1
ByBlock
 72
     1
 94
      127
  0
MATERIAL
  5
44
102
{ACAD_REACTORS
330
43
102
}
330
43
100
AcDbMaterial
  1
ByLayer
 72
     1
 94
      127
  0
MATERIAL
  5
46
102
{ACAD_REACTORS
330
43
102
}
330
43
100
AcDbMaterial
  1
Global
 72
     1
 94
      127
  0
MLEADERSTYLE
  5
6C
102
{ACAD_REACTORS
330
6B
102
}
330
6B
100
AcDbMLeaderStyle
179
     2
170
     2
171
     1
172
     0
 90
        2
 40
0.0
 41
0.0
173
     1
 91
-1056964608
340
14
 92
       -2
290
     1
 42
2.0
291
     1
 43
8.0
  3
Standard
341
0
 44
4.0
300

342
11
174
     1
178
     6
175
     1
176
     0
 93
-1056964608
 45
4.0
292
     0
297
     0
 46
4.0
343
0
 94
-1056964608
 47
1.0
 49
1.0
140
1.0
293
     1
141
0.0
294
     1
177
     0
142
1.0
295
     0
296
     0
143
3.75
271
     0
272
     9
273
     9
298
     0
  0
MLINESTYLE
  5
18
102
{ACAD_REACTORS
330
17
102
}
330
17
100
AcDbMlineStyle
  2
Standard
 70
     0
  3

 62
   256
 51
90.0
 52
90.0
 71
     2
 49
0.5
 62
   256
  6
BYLAYER
 49
-0.5
 62
   256
  6
BYLAYER
  0
ACDBPLACEHOLDER
  5
F
102
{ACAD_REACTORS
330
E
102
}
330
E
  0
SCALE
  5
48
102
{ACAD_REACTORS
330
47
102
}
330
47
100
AcDbScale
 70
     0
300
1:1
140
1.0
141
1.0
290
     1
  0
SCALE
  5
49
102
{ACAD_REACTORS
330
47
102
}
330
47
100
AcDbScale
 70
     0
300
1:2
140
1.0
141
2.0
290
     0
  0
SCALE
  5
4A
102
{ACAD_REACTORS
330
47
102
}
330
47
100
AcDbScale
 70
     0
300
1:4
140
1.0
141
4.0
290
     0
  0
SCALE
  5
4B
102
{ACAD_REACTORS
330
47
102
}
330
47
100
AcDbScale
 70
     0
300
1:5
140
1.0
141
5.0
290
     0
  0
SCALE
  5
4C
102
{ACAD_REACTORS
330
47
102
}
330
47
100
AcDbScale
 70
     0
300
1:8
140
1.0
141
8.0
290
     0
  0
SCALE
  5
4D
102
{ACAD_REACTORS
330
47
102
}
330
47
100
AcDbScale
 70
     0
300
1:10
140
1.0
141
10.0
290
     0
  0
SCALE
  5
4E
102
{ACAD_REACTORS
330
47
102
}
330
47
100
AcDbScale
 70
     0
300
1:16
140
1.0
141
16.0
290
     0
  0
SCALE
  5
4F
102
{ACAD_REACTORS
330
47
102
}
330
47
100
AcDbScale
 70
     0
300
1:20
140
1.0
141
20.0
290
     0
  0
SCALE
  5
50
102
{ACAD_REACTORS
330
47
102
}
330
47
100
AcDbScale
 70
     0
300
1:30
140
1.0
141
30.0
290
     0
  0
SCALE
  5
51
102
{ACAD_REACTORS
330
47
102
}
330
47
100
AcDbScale
 70
     0
300
1:40
140
1.0
141
40.0
290
     0
  0
SCALE
  5
52
102
{ACAD_REACTORS
330
47
102
}
330
47
100
AcDbScale
 70
     0
300
1:50
140
1.0
141
50.0
290
     0
  0
SCALE
  5
53
102
{ACAD_REACTORS
330
47
102
}
330
47
100
AcDbScale
 70
     0
300
1:100
140
1.0
141
100.0
290
     0
  0
SCALE
  5
54
102
{ACAD_REACTORS
330
47
102
}
330
47
100
AcDbScale
 70
     0
300
2:1
140
2.0
141
1.0
290
     0
  0
SCALE
  5
55
102
{ACAD_REACTORS
330
47
102
}
330
47
100
AcDbScale
 70
     0
300
4:1
140
4.0
141
1.0
290
     0
  0
SCALE
  5
56
102
{ACAD_REACTORS
330
47
102
}
330
47
100
AcDbScale
 70
     0
300
8:1
140
8.0
141
1.0
290
     0
  0
SCALE
  5
57
102
{ACAD_REACTORS
330
47
102
}
330
47
100
AcDbScale
 70
     0
300
10:1
140
10.0
141
1.0
290
     0
  0
SCALE
  5
58
102
{ACAD_REACTORS
330
47
102
}
330
47
100
AcDbScale
 70
     0
300
100:1
140
100.0
141
1.0
290
     0
  0
SCALE
  5
59
102
{ACAD_REACTORS
330
47
102
}
330
47
100
AcDbScale
 70
     0
300
1/128" = 1'-0"
140
0.0078125
141
12.0
290
     0
  0
SCALE
  5
5A
102
{ACAD_REACTORS
330
47
102
}
330
47
100
AcDbScale
 70
     0
300
1/64" = 1'-0"
140
0.015625
141
12.0
290
     0
  0
SCALE
  5
5B
102
{ACAD_REACTORS
330
47
102
}
330
47
100
AcDbScale
 70
     0
300
1/32" = 1'-0"
140
0.03125
141
12.0
290
     0
  0
SCALE
  5
5C
102
{ACAD_REACTORS
330
47
102
}
330
47
100
AcDbScale
 70
     0
300
1/16" = 1'-0"
140
0.0625
141
12.0
290
     0
  0
SCALE
  5
5D
102
{ACAD_REACTORS
330
47
102
}
330
47
100
AcDbScale
 70
     0
300
3/32" = 1'-0"
140
0.09375
141
12.0
290
     0
  0
SCALE
  5
5E
102
{ACAD_REACTORS
330
47
102
}
330
47
100
AcDbScale
 70
     0
300
1/8" = 1'-0"
140
0.125
141
12.0
290
     0
  0
SCALE
  5
5F
102
{ACAD_REACTORS
330
47
102
}
330
47
100
AcDbScale
 70
     0
300
3/16" = 1'-0"
140
0.1875
141
12.0
290
     0
  0
SCALE
  5
60
102
{ACAD_REACTORS
330
47
102
}
330
47
100
AcDbScale
 70
     0
300
1/4" = 1'-0"
140
0.25
141
12.0
290
     0
  0
SCALE
  5
61
102
{ACAD_REACTORS
330
47
102
}
330
47
100
AcDbScale
 70
     0
300
3/8" = 1'-0"
140
0.375
141
12.0
290
     0
  0
SCALE
  5
62
102
{ACAD_REACTORS
330
47
102
}
330
47
100
AcDbScale
 70
     0
300
1/2" = 1'-0"
140
0.5
141
12.0
290
     0
  0
SCALE
  5
63
102
{ACAD_REACTORS
330
47
102
}
330
47
100
AcDbScale
 70
     0
300
3/4" = 1'-0"
140
0.75
141
12.0
290
     0
  0
SCALE
  5
64
102
{ACAD_REACTORS
330
47
102
}
330
47
100
AcDbScale
 70
     0
300
1" = 1'-0"
140
1.0
141
12.0
290
     0
  0
SCALE
  5
65
102
{ACAD_REACTORS
330
47
102
}
330
47
100
AcDbScale
 70
     0
300
1-1/2" = 1'-0"
140
1.5
141
12.0
290
     0
  0
SCALE
  5
66
102
{ACAD_REACTORS
330
47
102
}
330
47
100
AcDbScale
 70
     0
300
3" = 1'-0"
140
3.0
141
12.0
290
     0
  0
SCALE
  5
67
102
{ACAD_REACTORS
330
47
102
}
330
47
100
AcDbScale
 70
     0
300
6" = 1'-0"
140
6.0
141
12.0
290
     0
  0
SCALE
  5
68
102
{ACAD_REACTORS
330
47
102
}
330
47
100
AcDbScale
 70
     0
300
1'-0" = 1'-0"
140
12.0
141
12.0
290
     0
  0
TABLESTYLE
  5
6A
102
{ACAD_REACTORS
330
69
102
}
102
{ACAD_XDICTIONARY
360
2C8
102
}
330
69
100
AcDbTableStyle
  3
Standard
 70
     0
 71
     0
 40
0.06
 41
0.06
280
     0
281
     0
  7
Standard
140
4.5
170
     2
 62
     0
 63
   257
283
     0
 90
        4
 91
        0
  1

274
    -2
284
     1
 64
     0
275
    -2
285
     1
 65
     0
276
    -2
286
     1
 66
     0
277
    -2
287
     1
 67
     0
278
    -2
288
     1
 68
     0
279
    -2
289
     1
 69
     0
  7
Standard
140
6.0
170
     5
 62
     0
 63
   257
283
     0
 90
        4
 91
        0
  1

274
    -2
284
     1
 64
     0
275
    -2
285
     1
 65
     0
276
    -2
286
     1
 66
     0
277
    -2
287
     1
 67
     0
278
    -2
288
     1
 68
     0
279
    -2
289
     1
 69
     0
  7
Standard
140
4.5
170
     5
 62
     0
 63
   257
283
     0
 90
        4
 91
        0
  1

274
    -2
284
     1
 64
     0
275
    -2
285
     1
 65
     0
276
    -2
286
     1
 66
     0
277
    -2
287
     1
 67
     0
278
    -2
288
     1
 68
     0
279
    -2
289
     1
 69
     0
  0
VISUALSTYLE
  5
2F
102
{ACAD_REACTORS
330
2A
102
}
330
2A
100
AcDbVisualStyle
  2
2dWireframe
 70
     4
177
     3
291
     0
 70
    58
 90
        0
176
     1
 90
        2
176
     1
 90
        0
176
     1
 90
        0
176
     1
 40
0.6
176
     1
 40
30.0
176
     1
 62
     7
420
 16777215
176
     1
 90
        1
176
     1
 90
        4
176
     1
 62
     7
176
     1
 62
   257
176
     1
 90
        1
176
     1
 90
        1
176
     1
 40
1.0
176
     1
 90
        0
176
     1
 62
   257
176
     1
 40
1.0
176
     1
 90
        1
176
     1
 90
        6
176
     1
 90
        2
176
     1
 62
     7
176
     1
 90
        5
176
     1
 90
        0
176
     1
 90
        0
176
     1
290
     0
176
     1
 90
        1
176
     1
 40
0.0
176
     1
 90
        0
176
     1
290
     1
176
     1
290
     1
176
     1
290
     0
176
     1
290
     0
176
     1
290
     0
176
     1
290
     0
176
     1
290
     0
176
     1
290
     0
176
     1
290
     0
176
     1
 90
       50
176
     1
 40
0.0
176
     1
 40
1.0
176
     1
 90
        0
176
     1
 62
    18
420
        0
176
     1
 90
       50
176
     1
 90
        3
176
     1
 62
     5
420
      255
176
     1
290
     0
176
     1
 90
       50
176
     1
 90
       50
176
     1
 90
       50
176
     1
290
     0
176
     1
 90
       50
176
     1
 62
   256
176
     0
 40
1.0
176
     0
 90
        2
176
     1
  1
strokes_ogs.tif
176
     1
290
     0
176
     1
 40
1.0
176
     1
 40
1.0
176
     1
  0
VISUALSTYLE
  5
32
102
{ACAD_REACTORS
330
2A
102
}
330
2A
100
AcDbVisualStyle
  2
Basic
 70
     7
177
     3
291
     1
 70
    58
 90
        1
176
     1
 90
        0
176
     1
 90
        1
176
     1
 90
        0
176
     1
 40
0.6
176
     1
 40
30.0
176
     1
 62
     7
420
 16777215
176
     1
 90
        0
176
     1
 90
        4
176
     1
 62
     7
176
     1
 62
   257
176
     1
 90
        1
176
     1
 90
        1
176
     1
 40
1.0
176
     1
 90
        8
176
     1
 62
     7
176
     1
 40
1.0
176
     1
 90
        1
176
     1
 90
        6
176
     1
 90
        2
176
     1
 62
     7
176
     1
 90
        5
176
     1
 90
        0
176
     1
 90
        0
176
     1
290
     0
176
     1
 90
        1
176
     1
 40
0.0
176
     1
 90
        0
176
     1
290
     0
176
     1
290
     1
176
     1
290
     1
176
     1
290
     0
176
     1
290
     0
176
     1
290
     0
176
     1
290
     0
176
     1
290
     0
176
     1
290
     0
176
     1
 90
       50
176
     1
 40
0.0
176
     1
 40
1.0
176
     1
 90
        0
176
     1
 62
    18
420
        0
176
     1
 90
       50
176
     1
 90
        3
176
     1
 62
     5
420
      255
176
     1
290
     0
176
     1
 90
       50
176
     1
 90
       50
176
     1
 90
       50
176
     1
290
     0
176
     1
 90
       50
176
     1
 62
   256
176
     0
 40
1.0
176
     0
 90
        2
176
     1
  1
strokes_ogs.tif
176
     1
290
     0
176
     1
 40
1.0
176
     1
 40
1.0
176
     1
  0
VISUALSTYLE
  5
36
102
{ACAD_REACTORS
330
2A
102
}
330
2A
100
AcDbVisualStyle
  2
Brighten
 70
    12
177
     3
291
     1
 70
    58
 90
        2
176
     1
 90
        2
176
     1
 90
        0
176
     1
 90
        0
176
     1
 40
0.6
176
     1
 40
30.0
176
     1
 62
     7
420
 16777215
176
     1
 90
        1
176
     1
 90
        4
176
     1
 62
     7
176
     1
 62
   257
176
     1
 90
        1
176
     1
 90
        1
176
     1
 40
1.0
176
     1
 90
        8
176
     1
 62
     7
176
     1
 40
1.0
176
     1
 90
        1
176
     1
 90
        6
176
     1
 90
        2
176
     1
 62
     7
176
     1
 90
        5
176
     1
 90
        0
176
     1
 90
        0
176
     1
290
     0
176
     1
 90
        1
176
     1
 40
50.0
176
     1
 90
        0
176
     1
290
     0
176
     1
290
     1
176
     1
290
     1
176
     1
290
     0
176
     1
290
     0
176
     1
290
     0
176
     1
290
     0
176
     1
290
     0
176
     1
290
     0
176
     1
 90
       50
176
     1
 40
0.0
176
     1
 40
1.0
176
     1
 90
        0
176
     1
 62
    18
420
        0
176
     1
 90
       50
176
     1
 90
        3
176
     1
 62
     5
420
      255
176
     1
290
     0
176
     1
 90
       50
176
     1
 90
       50
176
     1
 90
       50
176
     1
290
     0
176
     1
 90
       50
176
     1
 62
   256
176
     0
 40
1.0
176
     0
 90
        2
176
     1
  1
strokes_ogs.tif
176
     1
290
     0
176
     1
 40
1.0
176
     1
 40
1.0
176
     1
  0
VISUALSTYLE
  5
3A
102
{ACAD_REACTORS
330
2A
102
}
330
2A
100
AcDbVisualStyle
  2
ColorChange
 70
    16
177
     3
291
     1
 70
    58
 90
        2
176
     1
 90
        2
176
     1
 90
        3
176
     1
 90
        0
176
     1
 40
0.6
176
     1
 40
30.0
176
     1
 62
     8
420
  8421504
176
     1
 90
        1
176
     1
 90
        4
176
     1
 62
     7
176
     1
 62
   257
176
     1
 90
        1
176
     1
 90
        1
176
     1
 40
1.0
176
     1
 90
        8
176
     1
 62
     8
420
  8421504
176
     1
 40
1.0
176
     1
 90
        1
176
     1
 90
        6
176
     1
 90
        2
176
     1
 62
     7
176
     1
 90
        5
176
     1
 90
        0
176
     1
 90
        0
176
     1
290
     0
176
     1
 90
        1
176
     1
 40
0.0
176
     1
 90
        0
176
     1
290
     0
176
     1
290
     1
176
     1
290
     1
176
     1
290
     0
176
     1
290
     0
176
     1
290
     0
176
     1
290
     0
176
     1
290
     0
176
     1
290
     0
176
     1
 90
       50
176
     1
 40
0.0
176
     1
 40
1.0
176
     1
 90
        0
176
     1
 62
    18
420
        0
176
     1
 90
       50
176
     1
 90
        3
176
     1
 62
     5
420
      255
176
     1
290
     0
176
     1
 90
       50
176
     1
 90
       50
176
     1
 90
       50
176
     1
290
     0
176
     1
 90
       50
176
     1
 62
   256
176
     0
 40
1.0
176
     0
 90
        2
176
     1
  1
strokes_ogs.tif
176
     1
290
     0
176
     1
 40
1.0
176
     1
 40
1.0
176
     1
  0
VISUALSTYLE
  5
34
102
{ACAD_REACTORS
330
2A
102
}
330
2A
100
AcDbVisualStyle
  2
Conceptual
 70
     9
177
     3
291
     0
 70
    58
 90
        3
176
     1
 90
        2
176
     1
 90
        0
176
     1
 90
        0
176
     1
 40
0.6
176
     1
 40
30.0
176
     1
 62
     7
420
 16777215
176
     1
 90
        2
176
     1
 90
        2
176
     1
 62
     7
176
     1
 62
   257
176
     1
 90
        1
176
     1
 90
        1
176
     1
 40
179.0
176
     1
 90
        8
176
     1
 62
     7
176
     1
 40
1.0
176
     1
 90
        1
176
     1
 90
        6
176
     1
 90
        2
176
     1
 62
     7
176
     1
 90
        3
176
     1
 90
        0
176
     1
 90
        0
176
     1
290
     0
176
     1
 90
        1
176
     1
 40
0.0
176
     1
 90
        0
176
     1
290
     0
176
     1
290
     1
176
     1
290
     1
176
     1
290
     0
176
     1
290
     0
176
     1
290
     0
176
     1
290
     0
176
     1
290
     0
176
     1
290
     0
176
     1
 90
       50
176
     1
 40
0.0
176
     1
 40
1.0
176
     1
 90
        0
176
     1
 62
    18
420
        0
176
     1
 90
       50
176
     1
 90
        3
176
     1
 62
     5
420
      255
176
     1
290
     0
176
     1
 90
       50
176
     1
 90
       50
176
     1
 90
       50
176
     1
290
     0
176
     1
 90
       50
176
     1
 62
   256
176
     0
 40
1.0
176
     0
 90
        2
176
     1
  1
strokes_ogs.tif
176
     1
290
     0
176
     1
 40
1.0
176
     1
 40
1.0
176
     1
  0
VISUALSTYLE
  5
35
102
{ACAD_REACTORS
330
2A
102
}
330
2A
100
AcDbVisualStyle
  2
Dim
 70
    11
177
     3
291
     1
 70
    58
 90
        2
176
     1
 90
        2
176
     1
 90
        0
176
     1
 90
        0
176
     1
 40
0.6
176
     1
 40
30.0
176
     1
 62
     7
420
 16777215
176
     1
 90
        1
176
     1
 90
        4
176
     1
 62
     7
176
     1
 62
   257
176
     1
 90
        1
176
     1
 90
        1
176
     1
 40
1.0
176
     1
 90
        8
176
     1
 62
     7
176
     1
 40
1.0
176
     1
 90
        1
176
     1
 90
        6
176
     1
 90
        2
176
     1
 62
     7
176
     1
 90
        5
176
     1
 90
        0
176
     1
 90
        0
176
     1
290
     0
176
     1
 90
        1
176
     1
 40
-50.0
176
     1
 90
        0
176
     1
290
     0
176
     1
290
     1
176
     1
290
     1
176
     1
290
     0
176
     1
290
     0
176
     1
290
     0
176
     1
290
     0
176
     1
290
     0
176
     1
290
     0
176
     1
 90
       50
176
     1
 40
0.0
176
     1
 40
1.0
176
     1
 90
        0
176
     1
 62
    18
420
        0
176
     1
 90
       50
176
     1
 90
        3
176
     1
 62
     5
420
      255
176
     1
290
     0
176
     1
 90
       50
176
     1
 90
       50
176
     1
 90
       50
176
     1
290
     0
176
     1
 90
       50
176
     1
 62
   256
176
     0
 40
1.0
176
     0
 90
        2
176
     1
  1
strokes_ogs.tif
176
     1
290
     0
176
     1
 40
1.0
176
     1
 40
1.0
176
     1
  0
VISUALSTYLE
  5
3D
102
{ACAD_REACTORS
330
2A
102
}
330
2A
100
AcDbVisualStyle
  2
EdgeColorOff
 70
    22
177
     3
291
     1
 70
    58
 90
        2
176
     0
 90
        2
176
     0
 90
        0
176
     0
 90
        0
176
     0
 40
0.6
176
     0
 40
30.0
176
     0
 62
     7
420
 16777215
176
     0
 90
        1
176
     0
 90
        4
176
     0
 62
     7
176
     0
 62
   257
176
     0
 90
        1
176
     0
 90
        1
176
     0
 40
1.0
176
     0
 90
        8
176
     2
 62
     7
176
     0
 40
1.0
176
     0
 90
        1
176
     0
 90
        6
176
     0
 90
        2
176
     0
 62
     7
176
     0
 90
        5
176
     0
 90
        0
176
     0
 90
        0
176
     0
290
     0
176
     0
 90
        1
176
     0
 40
0.0
176
     0
 90
        0
176
     0
290
     0
176
     0
290
     1
176
     0
290
     1
176
     0
290
     0
176
     0
290
     0
176
     0
290
     0
176
     0
290
     0
176
     0
290
     0
176
     0
290
     0
176
     0
 90
       50
176
     0
 40
0.0
176
     0
 40
1.0
176
     0
 90
        0
176
     0
 62
    18
420
        0
176
     0
 90
       50
176
     0
 90
        3
176
     0
 62
     5
420
      255
176
     0
290
     0
176
     0
 90
       50
176
     0
 90
       50
176
     0
 90
       50
176
     0
290
     0
176
     0
 90
       50
176
     0
 62
   256
176
     0
 40
1.0
176
     0
 90
        2
176
     0
  1
strokes_ogs.tif
176
     0
290
     0
176
     0
 40
1.0
176
     0
 40
1.0
176
     0
  0
VISUALSTYLE
  5
39
102
{ACAD_REACTORS
330
2A
102
}
330
2A
100
AcDbVisualStyle
  2
Facepattern
 70
    15
177
     3
291
     1
 70
    58
 90
        2
176
     1
 90
        2
176
     1
 90
        0
176
     1
 90
        0
176
     1
 40
0.6
176
     1
 40
30.0
176
     1
 62
     7
420
 16777215
176
     1
 90
        1
176
     1
 90
        4
176
     1
 62
     7
176
     1
 62
   257
176
     1
 90
        1
176
     1
 90
        1
176
     1
 40
1.0
176
     1
 90
        8
176
     1
 62
     7
176
     1
 40
1.0
176
     1
 90
        1
176
     1
 90
        6
176
     1
 90
        2
176
     1
 62
     7
176
     1
 90
        5
176
     1
 90
        0
176
     1
 90
        0
176
     1
290
     0
176
     1
 90
        1
176
     1
 40
0.0
176
     1
 90
        0
176
     1
290
     0
176
     1
290
     1
176
     1
290
     1
176
     1
290
     0
176
     1
290
     0
176
     1
290
     0
176
     1
290
     0
176
     1
290
     0
176
     1
290
     0
176
     1
 90
       50
176
     1
 40
0.0
176
     1
 40
1.0
176
     1
 90
        0
176
     1
 62
    18
420
        0
176
     1
 90
       50
176
     1
 90
        3
176
     1
 62
     5
420
      255
176
     1
290
     0
176
     1
 90
       50
176
     1
 90
       50
176
     1
 90
       50
176
     1
290
     0
176
     1
 90
       50
176
     1
 62
   256
176
     0
 40
1.0
176
     0
 90
        2
176
     1
  1
strokes_ogs.tif
176
     1
290
     0
176
     1
 40
1.0
176
     1
 40
1.0
176
     1
  0
VISUALSTYLE
  5
2B
102
{ACAD_REACTORS
330
2A
102
}
330
2A
100
AcDbVisualStyle
  2
Flat
 70
     0
177
     3
291
     1
 70
    58
 90
        2
176
     1
 90
        1
176
     1
 90
        1
176
     1
 90
        2
176
     1
 40
0.6
176
     1
 40
30.0
176
     1
 62
     7
420
 16777215
176
     1
 90
        0
176
     1
 90
        0
176
     1
 62
     7
176
     1
 62
   257
176
     1
 90
        1
176
     1
 90
        1
176
     1
 40
1.0
176
     1
 90
        8
176
     1
 62
     7
176
     1
 40
1.0
176
     1
 90
        1
176
     1
 90
        6
176
     1
 90
        2
176
     1
 62
     7
176
     1
 90
        5
176
     1
 90
        0
176
     1
 90
        0
176
     1
290
     0
176
     1
 90
       13
176
     1
 40
0.0
176
     1
 90
        0
176
     1
290
     0
176
     1
290
     1
176
     1
290
     1
176
     1
290
     0
176
     1
290
     0
176
     1
290
     0
176
     1
290
     0
176
     1
290
     0
176
     1
290
     0
176
     1
 90
       50
176
     1
 40
0.0
176
     1
 40
1.0
176
     1
 90
        0
176
     1
 62
    18
420
        0
176
     1
 90
       50
176
     1
 90
        3
176
     1
 62
     5
420
      255
176
     1
290
     0
176
     1
 90
       50
176
     1
 90
       50
176
     1
 90
       50
176
     1
290
     0
176
     1
 90
       50
176
     1
 62
   256
176
     0
 40
1.0
176
     0
 90
        2
176
     1
  1
strokes_ogs.tif
176
     1
290
     0
176
     1
 40
1.0
176
     1
 40
1.0
176
     1
  0
VISUALSTYLE
  5
2C
102
{ACAD_REACTORS
330
2A
102
}
330
2A
100
AcDbVisualStyle
  2
FlatWithEdges
 70
     1
177
     3
291
     1
 70
    58
 90
        2
176
     1
 90
        1
176
     1
 90
        1
176
     1
 90
        2
176
     1
 40
0.6
176
     1
 40
30.0
176
     1
 62
     7
420
 16777215
176
     1
 90
        1
176
     1
 90
        0
176
     1
 62
     7
176
     1
 62
   257
176
     1
 90
        1
176
     1
 90
        1
176
     1
 40
1.0
176
     1
 90
        0
176
     1
 62
   257
176
     1
 40
1.0
176
     1
 90
        1
176
     1
 90
        6
176
     1
 90
        2
176
     1
 62
     7
176
     1
 90
        5
176
     1
 90
        0
176
     1
 90
        0
176
     1
290
     0
176
     1
 90
       13
176
     1
 40
0.0
176
     1
 90
        0
176
     1
290
     0
176
     1
290
     1
176
     1
290
     1
176
     1
290
     0
176
     1
290
     0
176
     1
290
     0
176
     1
290
     0
176
     1
290
     0
176
     1
290
     0
176
     1
 90
       50
176
     1
 40
0.0
176
     1
 40
1.0
176
     1
 90
        0
176
     1
 62
    18
420
        0
176
     1
 90
       50
176
     1
 90
        3
176
     1
 62
     5
420
      255
176
     1
290
     0
176
     1
 90
       50
176
     1
 90
       50
176
     1
 90
       50
176
     1
290
     0
176
     1
 90
       50
176
     1
 62
   256
176
     0
 40
1.0
176
     0
 90
        2
176
     1
  1
strokes_ogs.tif
176
     1
290
     0
176
     1
 40
1.0
176
     1
 40
1.0
176
     1
  0
VISUALSTYLE
  5
2D
102
{ACAD_REACTORS
330
2A
102
}
330
2A
100
AcDbVisualStyle
  2
Gouraud
 70
     2
177
     3
291
     1
 70
    58
 90
        2
176
     1
 90
        2
176
     1
 90
        1
176
     1
 90
        2
176
     1
 40
0.6
176
     1
 40
30.0
176
     1
 62
     7
420
 16777215
176
     1
 90
        0
176
     1
 90
        0
176
     1
 62
     7
176
     1
 62
   257
176
     1
 90
        1
176
     1
 90
        1
176
     1
 40
1.0
176
     1
 90
        0
176
     1
 62
     7
176
     1
 40
1.0
176
     1
 90
        1
176
     1
 90
        6
176
     1
 90
        2
176
     1
 62
     7
176
     1
 90
        5
176
     1
 90
        0
176
     1
 90
        0
176
     1
290
     0
176
     1
 90
       13
176
     1
 40
0.0
176
     1
 90
        0
176
     1
290
     0
176
     1
290
     1
176
     1
290
     1
176
     1
290
     0
176
     1
290
     0
176
     1
290
     0
176
     1
290
     0
176
     1
290
     0
176
     1
290
     0
176
     1
 90
       50
176
     1
 40
0.0
176
     1
 40
1.0
176
     1
 90
        0
176
     1
 62
    18
420
        0
176
     1
 90
       50
176
     1
 90
        3
176
     1
 62
     5
420
      255
176
     1
290
     0
176
     1
 90
       50
176
     1
 90
       50
176
     1
 90
       50
176
     1
290
     0
176
     1
 90
       50
176
     1
 62
   256
176
     0
 40
1.0
176
     0
 90
        2
176
     1
  1
strokes_ogs.tif
176
     1
290
     0
176
     1
 40
1.0
176
     1
 40
1.0
176
     1
  0
VISUALSTYLE
  5
2E
102
{ACAD_REACTORS
330
2A
102
}
330
2A
100
AcDbVisualStyle
  2
GouraudWithEdges
 70
     3
177
     3
291
     1
 70
    58
 90
        2
176
     1
 90
        2
176
     1
 90
        1
176
     1
 90
        2
176
     1
 40
0.6
176
     1
 40
30.0
176
     1
 62
     7
420
 16777215
176
     1
 90
        1
176
     1
 90
        0
176
     1
 62
     7
176
     1
 62
   257
176
     1
 90
        1
176
     1
 90
        1
176
     1
 40
1.0
176
     1
 90
        0
176
     1
 62
   257
176
     1
 40
1.0
176
     1
 90
        1
176
     1
 90
        6
176
     1
 90
        2
176
     1
 62
     7
176
     1
 90
        5
176
     1
 90
        0
176
     1
 90
        0
176
     1
290
     0
176
     1
 90
       13
176
     1
 40
0.0
176
     1
 90
        0
176
     1
290
     0
176
     1
290
     1
176
     1
290
     1
176
     1
290
     0
176
     1
290
     0
176
     1
290
     0
176
     1
290
     0
176
     1
290
     0
176
     1
290
     0
176
     1
 90
       50
176
     1
 40
0.0
176
     1
 40
1.0
176
     1
 90
        0
176
     1
 62
    18
420
        0
176
     1
 90
       50
176
     1
 90
        3
176
     1
 62
     5
420
      255
176
     1
290
     0
176
     1
 90
       50
176
     1
 90
       50
176
     1
 90
       50
176
     1
290
     0
176
     1
 90
       50
176
     1
 62
   256
176
     0
 40
1.0
176
     0
 90
        2
176
     1
  1
strokes_ogs.tif
176
     1
290
     0
176
     1
 40
1.0
176
     1
 40
1.0
176
     1
  0
VISUALSTYLE
  5
31
102
{ACAD_REACTORS
330
2A
102
}
330
2A
100
AcDbVisualStyle
  2
Hidden
 70
     6
177
     3
291
     0
 70
    58
 90
        1
176
     1
 90
        2
176
     1
 90
        2
176
     1
 90
        0
176
     1
 40
0.6
176
     1
 40
30.0
176
     1
 62
     7
420
 16777215
176
     1
 90
        2
176
     1
 90
        2
176
     1
 62
     7
176
     1
 62
   257
176
     1
 90
        2
176
     1
 90
        1
176
     1
 40
40.0
176
     1
 90
        0
176
     1
 62
   257
176
     1
 40
1.0
176
     1
 90
        1
176
     1
 90
        6
176
     1
 90
        2
176
     1
 62
     7
176
     1
 90
        3
176
     1
 90
        0
176
     1
 90
        0
176
     1
290
     0
176
     1
 90
        1
176
     1
 40
0.0
176
     1
 90
        0
176
     1
290
     0
176
     1
290
     1
176
     1
290
     1
176
     1
290
     0
176
     1
290
     0
176
     1
290
     0
176
     1
290
     0
176
     1
290
     0
176
     1
290
     0
176
     1
 90
       50
176
     1
 40
0.0
176
     1
 40
1.0
176
     1
 90
        0
176
     1
 62
    18
420
        0
176
     1
 90
       50
176
     1
 90
        3
176
     1
 62
     5
420
      255
176
     1
290
     0
176
     1
 90
       50
176
     1
 90
       50
176
     1
 90
       50
176
     1
290
     0
176
     1
 90
       50
176
     1
 62
   256
176
     0
 40
1.0
176
     0
 90
        2
176
     1
  1
strokes_ogs.tif
176
     1
290
     0
176
     1
 40
1.0
176
     1
 40
1.0
176
     1
  0
VISUALSTYLE
  5
3B
102
{ACAD_REACTORS
330
2A
102
}
330
2A
100
AcDbVisualStyle
  2
JitterOff
 70
    20
177
     3
291
     1
 70
    58
 90
        2
176
     0
 90
        2
176
     0
 90
        0
176
     0
 90
        0
176
     0
 40
0.6
176
     0
 40
30.0
176
     0
 62
     7
420
 16777215
176
     0
 90
        1
176
     0
 90
        4
176
     0
 62
     7
176
     0
 62
   257
176
     0
 90
        1
176
     0
 90
        1
176
     0
 40
1.0
176
     0
 90
       10
176
     2
 62
     7
176
     0
 40
1.0
176
     0
 90
        1
176
     0
 90
        6
176
     0
 90
        2
176
     0
 62
     7
176
     0
 90
        5
176
     0
 90
        0
176
     0
 90
        0
176
     0
290
     0
176
     0
 90
        1
176
     0
 40
0.0
176
     0
 90
        0
176
     0
290
     0
176
     0
290
     1
176
     0
290
     1
176
     0
290
     0
176
     0
290
     0
176
     0
290
     0
176
     0
290
     0
176
     0
290
     0
176
     0
290
     0
176
     0
 90
       50
176
     0
 40
0.0
176
     0
 40
1.0
176
     0
 90
        0
176
     0
 62
    18
420
        0
176
     0
 90
       50
176
     0
 90
        3
176
     0
 62
     5
420
      255
176
     0
290
     0
176
     0
 90
       50
176
     0
 90
       50
176
     0
 90
       50
176
     0
290
     0
176
     0
 90
       50
176
     0
 62
   256
176
     0
 40
1.0
176
     0
 90
        2
176
     0
  1
strokes_ogs.tif
176
     0
290
     0
176
     0
 40
1.0
176
     0
 40
1.0
176
     0
  0
VISUALSTYLE
  5
38
102
{ACAD_REACTORS
330
2A
102
}
330
2A
100
AcDbVisualStyle
  2
Linepattern
 70
    14
177
     3
291
     1
 70
    58
 90
        2
176
     1
 90
        2
176
     1
 90
        0
176
     1
 90
        0
176
     1
 40
0.6
176
     1
 40
30.0
176
     1
 62
     7
420
 16777215
176
     1
 90
        1
176
     1
 90
        4
176
     1
 62
     7
176
     1
 62
   257
176
     1
 90
        7
176
     1
 90
        7
176
     1
 40
1.0
176
     1
 90
        8
176
     1
 62
     7
176
     1
 40
1.0
176
     1
 90
        1
176
     1
 90
        6
176
     1
 90
        2
176
     1
 62
     7
176
     1
 90
        5
176
     1
 90
        0
176
     1
 90
        0
176
     1
290
     0
176
     1
 90
        1
176
     1
 40
0.0
176
     1
 90
        0
176
     1
290
     0
176
     1
290
     1
176
     1
290
     1
176
     1
290
     0
176
     1
290
     0
176
     1
290
     0
176
     1
290
     0
176
     1
290
     0
176
     1
290
     0
176
     1
 90
       50
176
     1
 40
0.0
176
     1
 40
1.0
176
     1
 90
        0
176
     1
 62
    18
420
        0
176
     1
 90
       50
176
     1
 90
        3
176
     1
 62
     5
420
      255
176
     1
290
     0
176
     1
 90
       50
176
     1
 90
       50
176
     1
 90
       50
176
     1
290
     0
176
     1
 90
       50
176
     1
 62
   256
176
     0
 40
1.0
176
     0
 90
        2
176
     1
  1
strokes_ogs.tif
176
     1
290
     0
176
     1
 40
1.0
176
     1
 40
1.0
176
     1
  0
VISUALSTYLE
  5
3C
102
{ACAD_REACTORS
330
2A
102
}
330
2A
100
AcDbVisualStyle
  2
OverhangOff
 70
    21
177
     3
291
     1
 70
    58
 90
        2
176
     0
 90
        2
176
     0
 90
        0
176
     0
 90
        0
176
     0
 40
0.6
176
     0
 40
30.0
176
     0
 62
     7
420
 16777215
176
     0
 90
        1
176
     0
 90
        4
176
     0
 62
     7
176
     0
 62
   257
176
     0
 90
        1
176
     0
 90
        1
176
     0
 40
1.0
176
     0
 90
        9
176
     2
 62
     7
176
     0
 40
1.0
176
     0
 90
        1
176
     0
 90
        6
176
     0
 90
        2
176
     0
 62
     7
176
     0
 90
        5
176
     0
 90
        0
176
     0
 90
        0
176
     0
290
     0
176
     0
 90
        1
176
     0
 40
0.0
176
     0
 90
        0
176
     0
290
     0
176
     0
290
     1
176
     0
290
     1
176
     0
290
     0
176
     0
290
     0
176
     0
290
     0
176
     0
290
     0
176
     0
290
     0
176
     0
290
     0
176
     0
 90
       50
176
     0
 40
0.0
176
     0
 40
1.0
176
     0
 90
        0
176
     0
 62
    18
420
        0
176
     0
 90
       50
176
     0
 90
        3
176
     0
 62
     5
420
      255
176
     0
290
     0
176
     0
 90
       50
176
     0
 90
       50
176
     0
 90
       50
176
     0
290
     0
176
     0
 90
       50
176
     0
 62
   256
176
     0
 40
1.0
176
     0
 90
        2
176
     0
  1
strokes_ogs.tif
176
     0
290
     0
176
     0
 40
1.0
176
     0
 40
1.0
176
     0
  0
VISUALSTYLE
  5
33
102
{ACAD_REACTORS
330
2A
102
}
330
2A
100
AcDbVisualStyle
  2
Realistic
 70
     8
177
     3
291
     0
 70
    58
 90
        2
176
     1
 90
        3
176
     1
 90
        0
176
     1
 90
        2
176
     1
 40
0.6
176
     1
 40
30.0
176
     1
 62
     7
420
 16777215
176
     1
 90
        0
176
     1
 90
        0
176
     1
 62
     7
176
     1
 62
   257
176
     1
 90
        1
176
     1
 90
        1
176
     1
 40
1.0
176
     1
 90
        8
176
     1
 62
   257
176
     1
 40
1.0
176
     1
 90
        1
176
     1
 90
        6
176
     1
 90
        2
176
     1
 62
     7
176
     1
 90
        3
176
     1
 90
        0
176
     1
 90
        0
176
     1
290
     0
176
     1
 90
       13
176
     1
 40
0.0
176
     1
 90
        0
176
     1
290
     0
176
     1
290
     1
176
     1
290
     1
176
     1
290
     0
176
     1
290
     0
176
     1
290
     0
176
     1
290
     0
176
     1
290
     0
176
     1
290
     0
176
     1
 90
       50
176
     1
 40
0.0
176
     1
 40
1.0
176
     1
 90
        0
176
     1
 62
    18
420
        0
176
     1
 90
       50
176
     1
 90
        3
176
     1
 62
     5
420
      255
176
     1
290
     0
176
     1
 90
       50
176
     1
 90
       50
176
     1
 90
       50
176
     1
290
     0
176
     1
 90
       50
176
     1
 62
   256
176
     0
 40
1.0
176
     0
 90
        2
176
     1
  1
strokes_ogs.tif
176
     1
290
     0
176
     1
 40
1.0
176
     1
 40
1.0
176
     1
  0
VISUALSTYLE
  5
42
102
{ACAD_REACTORS
330
2A
102
}
330
2A
100
AcDbVisualStyle
  2
Shaded
 70
    27
177
     3
291
     0
 70
    58
 90
        2
176
     1
 90
        2
176
     1
 90
        1
176
     1
 90
        2
176
     1
 40
0.6
176
     1
 40
30.0
176
     1
 62
     7
420
 16777215
176
     1
 90
        0
176
     1
 90
        4
176
     1
 62
     7
176
     1
 62
   257
176
     1
 90
        1
176
     1
 90
        1
176
     1
 40
1.0
176
     1
 90
        8
176
     1
 62
   257
176
     1
 40
1.0
176
     1
 90
        1
176
     1
 90
        6
176
     1
 90
        2
176
     1
 62
     8
420
  7895160
176
     1
 90
        3
176
     1
 90
        0
176
     1
 90
        0
176
     1
290
     0
176
     1
 90
        5
176
     1
 40
0.0
176
     1
 90
        0
176
     1
290
     0
176
     1
290
     1
176
     1
290
     1
176
     1
290
     0
176
     1
290
     0
176
     1
290
     0
176
     1
290
     0
176
     1
290
     0
176
     1
290
     0
176
     1
 90
       50
176
     1
 40
0.0
176
     1
 40
1.0
176
     1
 90
        0
176
     1
 62
    18
420
        0
176
     1
 90
       50
176
     1
 90
        3
176
     1
 62
     5
420
      255
176
     1
290
     0
176
     1
 90
       50
176
     1
 90
       50
176
     1
 90
       50
176
     1
290
     0
176
     1
 90
       50
176
     1
 62
   256
176
     0
 40
1.0
176
     0
 90
        2
176
     1
  1
strokes_ogs.tif
176
     1
290
     0
176
     1
 40
1.0
176
     1
 40
1.0
176
     1
  0
VISUALSTYLE
  5
41
102
{ACAD_REACTORS
330
2A
102
}
330
2A
100
AcDbVisualStyle
  2
Shaded with edges
 70
    26
177
     3
291
     0
 70
    58
 90
        2
176
     1
 90
        2
176
     1
 90
        1
176
     1
 90
        2
176
     1
 40
0.6
176
     1
 40
30.0
176
     1
 62
     7
420
 16777215
176
     1
 90
        1
176
     1
 90
       10
176
     1
 62
     7
176
     1
 62
   257
176
     1
 90
        2
176
     1
 90
        1
176
     1
 40
1.0
176
     1
 90
        8
176
     1
 62
   257
176
     1
 40
1.0
176
     1
 90
        1
176
     1
 90
        6
176
     1
 90
        2
176
     1
 62
     7
176
     1
 90
        3
176
     1
 90
        0
176
     1
 90
        0
176
     1
290
     0
176
     1
 90
        5
176
     1
 40
0.0
176
     1
 90
        0
176
     1
290
     0
176
     1
290
     1
176
     1
290
     1
176
     1
290
     0
176
     1
290
     0
176
     1
290
     0
176
     1
290
     0
176
     1
290
     0
176
     1
290
     0
176
     1
 90
       50
176
     1
 40
0.0
176
     1
 40
1.0
176
     1
 90
        0
176
     1
 62
    18
420
        0
176
     1
 90
       50
176
     1
 90
        3
176
     1
 62
     5
420
      255
176
     1
290
     0
176
     1
 90
       50
176
     1
 90
       50
176
     1
 90
       50
176
     1
290
     0
176
     1
 90
       50
176
     1
 62
   256
176
     0
 40
1.0
176
     0
 90
        2
176
     1
  1
strokes_ogs.tif
176
     1
290
     0
176
     1
 40
1.0
176
     1
 40
1.0
176
     1
  0
VISUALSTYLE
  5
3E
102
{ACAD_REACTORS
330
2A
102
}
330
2A
100
AcDbVisualStyle
  2
Shades of Gray
 70
    23
177
     3
291
     0
 70
    58
 90
        2
176
     1
 90
        2
176
     1
 90
        3
176
     1
 90
        0
176
     1
 40
0.6
176
     1
 40
30.0
176
     1
 62
     7
420
 16777215
176
     1
 90
        2
176
     1
 90
        2
176
     1
 62
     7
176
     1
 62
     7
176
     1
 90
        1
176
     1
 90
        1
176
     1
 40
40.0
176
     1
 90
        8
176
     1
 62
     7
176
     1
 40
1.0
176
     1
 90
        1
176
     1
 90
        6
176
     1
 90
        2
176
     1
 62
     7
176
     1
 90
        3
176
     1
 90
        0
176
     1
 90
        0
176
     1
290
     0
176
     1
 90
        1
176
     1
 40
0.0
176
     1
 90
        0
176
     1
290
     0
176
     1
290
     1
176
     1
290
     1
176
     1
290
     0
176
     1
290
     0
176
     1
290
     0
176
     1
290
     0
176
     1
290
     0
176
     1
290
     0
176
     1
 90
       50
176
     1
 40
0.0
176
     1
 40
1.0
176
     1
 90
        0
176
     1
 62
    18
420
        0
176
     1
 90
       50
176
     1
 90
        3
176
     1
 62
     5
420
      255
176
     1
290
     0
176
     1
 90
       50
176
     1
 90
       50
176
     1
 90
       50
176
     1
290
     0
176
     1
 90
       50
176
     1
 62
   256
176
     0
 40
1.0
176
     0
 90
        2
176
     1
  1
strokes_ogs.tif
176
     1
290
     0
176
     1
 40
1.0
176
     1
 40
1.0
176
     1
  0
VISUALSTYLE
  5
3F
102
{ACAD_REACTORS
330
2A
102
}
330
2A
100
AcDbVisualStyle
  2
Sketchy
 70
    24
177
     3
291
     0
 70
    58
 90
        1
176
     1
 90
        2
176
     1
 90
        2
176
     1
 90
        0
176
     1
 40
0.6
176
     1
 40
30.0
176
     1
 62
     7
420
 16777215
176
     1
 90
        2
176
     1
 90
        2
176
     1
 62
     7
176
     1
 62
     7
176
     1
 90
        1
176
     1
 90
        1
176
     1
 40
40.0
176
     1
 90
       11
176
     1
 62
     7
176
     1
 40
1.0
176
     1
 90
        1
176
     1
 90
        6
176
     1
 90
        2
176
     1
 62
     7
176
     1
 90
        6
176
     1
 90
        0
176
     1
 90
        0
176
     1
290
     0
176
     1
 90
        1
176
     1
 40
0.0
176
     1
 90
        0
176
     1
290
     0
176
     1
290
     1
176
     1
290
     1
176
     1
290
     0
176
     1
290
     0
176
     1
290
     0
176
     1
290
     0
176
     1
290
     0
176
     1
290
     0
176
     1
 90
       50
176
     1
 40
0.0
176
     1
 40
1.0
176
     1
 90
        0
176
     1
 62
    18
420
        0
176
     1
 90
       50
176
     1
 90
        3
176
     1
 62
     5
420
      255
176
     1
290
     0
176
     1
 90
       50
176
     1
 90
       50
176
     1
 90
       50
176
     1
290
     0
176
     1
 90
       50
176
     1
 62
   256
176
     0
 40
1.0
176
     0
 90
        2
176
     1
  1
strokes_ogs.tif
176
     1
290
     0
176
     1
 40
1.0
176
     1
 40
1.0
176
     1
  0
VISUALSTYLE
  5
37
102
{ACAD_REACTORS
330
2A
102
}
330
2A
100
AcDbVisualStyle
  2
Thicken
 70
    13
177
     3
291
     1
 70
    58
 90
        2
176
     1
 90
        2
176
     1
 90
        0
176
     1
 90
        0
176
     1
 40
0.6
176
     1
 40
30.0
176
     1
 62
     7
420
 16777215
176
     1
 90
        1
176
     1
 90
        4
176
     1
 62
     7
176
     1
 62
   257
176
     1
 90
        1
176
     1
 90
        1
176
     1
 40
1.0
176
     1
 90
       12
176
     1
 62
     7
176
     1
 40
1.0
176
     1
 90
        1
176
     1
 90
        6
176
     1
 90
        2
176
     1
 62
     7
176
     1
 90
        5
176
     1
 90
        0
176
     1
 90
        0
176
     1
290
     0
176
     1
 90
        1
176
     1
 40
0.0
176
     1
 90
        0
176
     1
290
     0
176
     1
290
     1
176
     1
290
     1
176
     1
290
     0
176
     1
290
     0
176
     1
290
     0
176
     1
290
     0
176
     1
290
     0
176
     1
290
     0
176
     1
 90
       50
176
     1
 40
0.0
176
     1
 40
1.0
176
     1
 90
        0
176
     1
 62
    18
420
        0
176
     1
 90
       50
176
     1
 90
        3
176
     1
 62
     5
420
      255
176
     1
290
     0
176
     1
 90
       50
176
     1
 90
       50
176
     1
 90
       50
176
     1
290
     0
176
     1
 90
       50
176
     1
 62
   256
176
     0
 40
1.0
176
     0
 90
        2
176
     1
  1
strokes_ogs.tif
176
     1
290
     0
176
     1
 40
1.0
176
     1
 40
1.0
176
     1
  0
VISUALSTYLE
  5
30
102
{ACAD_REACTORS
330
2A
102
}
330
2A
100
AcDbVisualStyle
  2
Wireframe
 70
     5
177
     3
291
     0
 70
    58
 90
        0
176
     1
 90
        2
176
     1
 90
        0
176
     1
 90
        0
176
     1
 40
0.6
176
     1
 40
30.0
176
     1
 62
     7
420
 16777215
176
     1
 90
        1
176
     1
 90
        4
176
     1
 62
     7
176
     1
 62
   257
176
     1
 90
        1
176
     1
 90
        1
176
     1
 40
1.0
176
     1
 90
        0
176
     1
 62
   257
176
     1
 40
1.0
176
     1
 90
        1
176
     1
 90
        6
176
     1
 90
        2
176
     1
 62
     7
176
     1
 90
        3
176
     1
 90
        0
176
     1
 90
        0
176
     1
290
     0
176
     1
 90
        1
176
     1
 40
0.0
176
     1
 90
        0
176
     1
290
     0
176
     1
290
     1
176
     1
290
     1
176
     1
290
     0
176
     1
290
     0
176
     1
290
     0
176
     1
290
     0
176
     1
290
     0
176
     1
290
     0
176
     1
 90
       50
176
     1
 40
0.0
176
     1
 40
1.0
176
     1
 90
        0
176
     1
 62
    18
420
        0
176
     1
 90
       50
176
     1
 90
        3
176
     1
 62
     5
420
      255
176
     1
290
     0
176
     1
 90
       50
176
     1
 90
       50
176
     1
 90
       50
176
     1
290
     0
176
     1
 90
       50
176
     1
 62
   256
176
     0
 40
1.0
176
     0
 90
        2
176
     1
  1
strokes_ogs.tif
176
     1
290
     0
176
     1
 40
1.0
176
     1
 40
1.0
176
     1
  0
VISUALSTYLE
  5
40
102
{ACAD_REACTORS
330
2A
102
}
330
2A
100
AcDbVisualStyle
  2
X-Ray
 70
    25
177
     3
291
     0
 70
    58
 90
        2
176
     1
 90
        2
176
     1
 90
        1
176
     1
 90
        1
176
     1
 40
0.5
176
     1
 40
30.0
176
     1
 62
     7
420
 16777215
176
     1
 90
        1
176
     1
 90
        0
176
     1
 62
     7
176
     1
 62
   257
176
     1
 90
        1
176
     1
 90
        1
176
     1
 40
1.0
176
     1
 90
        8
176
     1
 62
     7
176
     1
 40
1.0
176
     1
 90
        1
176
     1
 90
        6
176
     1
 90
        2
176
     1
 62
     7
176
     1
 90
        3
176
     1
 90
        0
176
     1
 90
        0
176
     1
290
     0
176
     1
 90
       13
176
     1
 40
0.0
176
     1
 90
        0
176
     1
290
     0
176
     1
290
     1
176
     1
290
     1
176
     1
290
     0
176
     1
290
     0
176
     1
290
     0
176
     1
290
     0
176
     1
290
     0
176
     1
290
     0
176
     1
 90
       50
176
     1
 40
0.0
176
     1
 40
1.0
176
     1
 90
        0
176
     1
 62
    18
420
        0
176
     1
 90
       50
176
     1
 90
        3
176
     1
 62
     5
420
      255
176
     1
290
     0
176
     1
 90
       50
176
     1
 90
       50
176
     1
 90
       50
176
     1
290
     0
176
     1
 90
       50
176
     1
 62
   256
176
     0
 40
1.0
176
     0
 90
        2
176
     1
  1
strokes_ogs.tif
176
     1
290
     0
176
     1
 40
1.0
176
     1
 40
1.0
176
     1
  0
DICTIONARYVAR
  5
2C7
102
{ACAD_REACTORS
330
2C6
102
}
330
2C6
100
DictionaryVariables
280
     0
  1
1:1
  0
DICTIONARYVAR
  5
2CC
102
{ACAD_REACTORS
330
2C6
102
}
330
2C6
100
DictionaryVariables
280
     0
  1
Standard
  0
DICTIONARYVAR
  5
2CB
102
{ACAD_REACTORS
330
2C6
102
}
330
2C6
100
DictionaryVariables
280
     0
  1
Standard
  0
DICTIONARYVAR
  5
2CF
102
{ACAD_REACTORS
330
2C6
102
}
330
2C6
100
DictionaryVariables
280
     0
  1
6.000000
  0
DICTIONARY
  5
2C8
330
6A
100
AcDbDictionary
280
     1
281
     1
  3
ACAD_ROUNDTRIP_2008_TABLESTYLE_CELLSTYLEMAP
360
2C9
  0
CELLSTYLEMAP
  5
2C9
102
{ACAD_REACTORS
330
2C8
102
}
330
2C8
100
AcDbCellStyleMap
 90
        3
300
CELLSTYLE
  1
TABLEFORMAT_BEGIN
 90
        5
170
     1
 91
        0
 92
    32768
 62
   257
 93
        1
300
CONTENTFORMAT
  1
CONTENTFORMAT_BEGIN
 90
        0
 91
        0
 92
        4
 93
        0
300

 40
0.0
140
1.0
 94
        5
 62
     0
340
11
144
6.0
309
CONTENTFORMAT_END
171
     1
301
MARGIN
  1
CELLMARGIN_BEGIN
 40
1.5
 40
1.5
 40
1.5
 40
1.5
 40
1.5
 40
1.5
309
CELLMARGIN_END
 94
        6
 95
        1
302
GRIDFORMAT
  1
GRIDFORMAT_BEGIN
 90
        0
 91
        1
 62
     0
 92
       -2
340
14
 93
        0
 40
0.045
309
GRIDFORMAT_END
 95
        2
302
GRIDFORMAT
  1
GRIDFORMAT_BEGIN
 90
        0
 91
        1
 62
     0
 92
       -2
340
14
 93
        0
 40
0.045
309
GRIDFORMAT_END
 95
        4
302
GRIDFORMAT
  1
GRIDFORMAT_BEGIN
 90
        0
 91
        1
 62
     0
 92
       -2
340
14
 93
        0
 40
0.045
309
GRIDFORMAT_END
 95
        8
302
GRIDFORMAT
  1
GRIDFORMAT_BEGIN
 90
        0
 91
        1
 62
     0
 92
       -2
340
14
 93
        0
 40
0.045
309
GRIDFORMAT_END
 95
       16
302
GRIDFORMAT
  1
GRIDFORMAT_BEGIN
 90
        0
 91
        1
 62
     0
 92
       -2
340
14
 93
        0
 40
0.045
309
GRIDFORMAT_END
 95
       32
302
GRIDFORMAT
  1
GRIDFORMAT_BEGIN
 90
        0
 91
        1
 62
     0
 92
       -2
340
14
 93
        0
 40
0.045
309
GRIDFORMAT_END
309
TABLEFORMAT_END
  1
CELLSTYLE_BEGIN
 90
        1
 91
        1
300
_TITLE
309
CELLSTYLE_END
300
CELLSTYLE
  1
TABLEFORMAT_BEGIN
 90
        5
170
     1
 91
        0
 92
        0
 62
   257
 93
        1
300
CONTENTFORMAT
  1
CONTENTFORMAT_BEGIN
 90
        0
 91
        0
 92
        4
 93
        0
300

 40
0.0
140
1.0
 94
        5
 62
     0
340
11
144
4.5
309
CONTENTFORMAT_END
171
     1
301
MARGIN
  1
CELLMARGIN_BEGIN
 40
1.5
 40
1.5
 40
1.5
 40
1.5
 40
1.5
 40
1.5
309
CELLMARGIN_END
 94
        6
 95
        1
302
GRIDFORMAT
  1
GRIDFORMAT_BEGIN
 90
        0
 91
        1
 62
     0
 92
       -2
340
14
 93
        0
 40
0.045
309
GRIDFORMAT_END
 95
        2
302
GRIDFORMAT
  1
GRIDFORMAT_BEGIN
 90
        0
 91
        1
 62
     0
 92
       -2
340
14
 93
        0
 40
0.045
309
GRIDFORMAT_END
 95
        4
302
GRIDFORMAT
  1
GRIDFORMAT_BEGIN
 90
        0
 91
        1
 62
     0
 92
       -2
340
14
 93
        0
 40
0.045
309
GRIDFORMAT_END
 95
        8
302
GRIDFORMAT
  1
GRIDFORMAT_BEGIN
 90
        0
 91
        1
 62
     0
 92
       -2
340
14
 93
        0
 40
0.045
309
GRIDFORMAT_END
 95
       16
302
GRIDFORMAT
  1
GRIDFORMAT_BEGIN
 90
        0
 91
        1
 62
     0
 92
       -2
340
14
 93
        0
 40
0.045
309
GRIDFORMAT_END
 95
       32
302
GRIDFORMAT
  1
GRIDFORMAT_BEGIN
 90
        0
 91
        1
 62
     0
 92
       -2
340
14
 93
        0
 40
0.045
309
GRIDFORMAT_END
309
TABLEFORMAT_END
  1
CELLSTYLE_BEGIN
 90
        2
 91
        1
300
_HEADER
309
CELLSTYLE_END
300
CELLSTYLE
  1
TABLEFORMAT_BEGIN
 90
        5
170
     1
 91
        0
 92
        0
 62
   257
 93
        1
300
CONTENTFORMAT
  1
CONTENTFORMAT_BEGIN
 90
        0
 91
        0
 92
        4
 93
        0
300

 40
0.0
140
1.0
 94
        2
 62
     0
340
11
144
4.5
309
CONTENTFORMAT_END
171
     1
301
MARGIN
  1
CELLMARGIN_BEGIN
 40
1.5
 40
1.5
 40
1.5
 40
1.5
 40
1.5
 40
1.5
309
CELLMARGIN_END
 94
        6
 95
        1
302
GRIDFORMAT
  1
GRIDFORMAT_BEGIN
 90
        0
 91
        1
 62
     0
 92
       -2
340
14
 93
        0
 40
0.045
309
GRIDFORMAT_END
 95
        2
302
GRIDFORMAT
  1
GRIDFORMAT_BEGIN
 90
        0
 91
        1
 62
     0
 92
       -2
340
14
 93
        0
 40
0.045
309
GRIDFORMAT_END
 95
        4
302
GRIDFORMAT
  1
GRIDFORMAT_BEGIN
 90
        0
 91
        1
 62
     0
 92
       -2
340
14
 93
        0
 40
0.045
309
GRIDFORMAT_END
 95
        8
302
GRIDFORMAT
  1
GRIDFORMAT_BEGIN
 90
        0
 91
        1
 62
     0
 92
       -2
340
14
 93
        0
 40
0.045
309
GRIDFORMAT_END
 95
       16
302
GRIDFORMAT
  1
GRIDFORMAT_BEGIN
 90
        0
 91
        1
 62
     0
 92
       -2
340
14
 93
        0
 40
0.045
309
GRIDFORMAT_END
 95
       32
302
GRIDFORMAT
  1
GRIDFORMAT_BEGIN
 90
        0
 91
        1
 62
     0
 92
       -2
340
14
 93
        0
 40
0.045
309
GRIDFORMAT_END
309
TABLEFORMAT_END
  1
CELLSTYLE_BEGIN
 90
        3
 91
        2
300
_DATA
309
CELLSTYLE_END
  0
ENDSEC
  0
EOF
