  0
SECTION
  2
HEADER
  9
$ACADVER
  1
AC1015
  9
$ACADMAINTVER
 70
     6
  9
$DWGCODEPAGE
  3
ANSI_1252
  9
$INSBASE
 10
0.0
 20
0.0
 30
0.0
  9
$EXTMIN
 10
-187.563374
 20
-58.295738
 30
0.0
  9
$EXTMAX
 10
652.436626
 20
535.704262
 30
0.0
  9
$LIMMIN
 10
-187.563374
 20
-58.295738
  9
$LIMMAX
 10
652.436626
 20
535.704262
  9
$ORTHOMODE
 70
     0
  9
$REGENMODE
 70
     1
  9
$FILLMODE
 70
     1
  9
$QTEXTMODE
 70
     0
  9
$MIRRTEXT
 70
     1
  9
$LTSCALE
 40
2.0
  9
$ATTMODE
 70
     1
  9
$TEXTSIZE
 40
2.5
  9
$TRACEWID
 40
1.0
  9
$TEXTSTYLE
  7
Standard
  9
$CLAYER
  8
0
  9
$CELTYPE
  6
ByLayer
  9
$CECOLOR
 62
     7
  9
$CELTSCALE
 40
1.0
  9
$DISPSILH
 70
     0
  9
$DIMSCALE
 40
2.0
  9
$DIMASZ
 40
3.5
  9
$DIMEXO
 40
0.625
  9
$DIMDLI
 40
3.75
  9
$DIMRND
 40
0.0
  9
$DIMDLE
 40
0.0
  9
$DIMEXE
 40
1.25
  9
$DIMTP
 40
0.0
  9
$DIMTM
 40
0.0
  9
$DIMTXT
 40
3.5
  9
$DIMCEN
 40
2.5
  9
$DIMTSZ
 40
0.0
  9
$DIMTOL
 70
     0
  9
$DIMLIM
 70
     0
  9
$DIMTIH
 70
     0
  9
$DIMTOH
 70
     0
  9
$DIMSE1
 70
     0
  9
$DIMSE2
 70
     0
  9
$DIMTAD
 70
     1
  9
$DIMZIN
 70
     8
  9
$DIMBLK
  1

  9
$DIMASO
 70
     1
  9
$DIMSHO
 70
     1
  9
$DIMPOST
  1

  9
$DIMAPOST
  1

  9
$DIMALT
 70
     0
  9
$DIMALTD
 70
     3
  9
$DIMALTF
 40
0.03937
  9
$DIMLFAC
 40
1.0
  9
$DIMTOFL
 70
     1
  9
$DIMTVP
 40
0.0
  9
$DIMTIX
 70
     0
  9
$DIMSOXD
 70
     0
  9
$DIMSAH
 70
     0
  9
$DIMBLK1
  1

  9
$DIMBLK2
  1

  9
$DIMSTYLE
  2
ISO-25
  9
$DIMCLRD
 70
     0
  9
$DIMCLRE
 70
     0
  9
$DIMCLRT
 70
     0
  9
$DIMTFAC
 40
1.0
  9
$DIMGAP
 40
0.625
  9
$DIMJUST
 70
     0
  9
$DIMSD1
 70
     0
  9
$DIMSD2
 70
     0
  9
$DIMTOLJ
 70
     0
  9
$DIMTZIN
 70
     8
  9
$DIMALTZ
 70
     0
  9
$DIMALTTZ
 70
     0
  9
$DIMUPT
 70
     0
  9
$DIMDEC
 70
     2
  9
$DIMTDEC
 70
     2
  9
$DIMALTU
 70
     2
  9
$DIMALTTD
 70
     3
  9
$DIMTXSTY
  7
Standard
  9
$DIMAUNIT
 70
     0
  9
$DIMADEC
 70
     0
  9
$DIMALTRND
 40
0.0
  9
$DIMAZIN
 70
     0
  9
$DIMDSEP
 70
    44
  9
$DIMATFIT
 70
     3
  9
$DIMFRAC
 70
     0
  9
$DIMLDRBLK
  1

  9
$DIMLUNIT
 70
     2
  9
$DIMLWD
 70
    -2
  9
$DIMLWE
 70
    -2
  9
$DIMTMOVE
 70
     0
  9
$LUNITS
 70
     2
  9
$LUPREC
 70
     4
  9
$SKETCHINC
 40
1.0
  9
$FILLETRAD
 40
10.0
  9
$AUNITS
 70
     0
  9
$AUPREC
 70
     0
  9
$MENU
  1
.
  9
$ELEVATION
 40
0.0
  9
$PELEVATION
 40
0.0
  9
$THICKNESS
 40
0.0
  9
$LIMCHECK
 70
     0
  9
$CHAMFERA
 40
10.0
  9
$CHAMFERB
 40
10.0
  9
$CHAMFERC
 40
20.0
  9
$CHAMFERD
 40
0.0
  9
$SKPOLY
 70
     0
  9
$TDCREATE
 40
2455791.541509456
  9
$TDUCREATE
 40
2455791.458176123
  9
$TDUPDATE
 40
2455791.541509468
  9
$TDUUPDATE
 40
2455791.458176134
  9
$TDINDWG
 40
0.0000000116
  9
$TDUSRTIMER
 40
0.0000000116
  9
$USRTIMER
 70
     1
  9
$ANGBASE
 50
0.0
  9
$ANGDIR
 70
     0
  9
$PDMODE
 70
     0
  9
$PDSIZE
 40
0.0
  9
$PLINEWID
 40
0.0
  9
$SPLFRAME
 70
     0
  9
$SPLINETYPE
 70
     6
  9
$SPLINESEGS
 70
     8
  9
$HANDSEED
  5
687
  9
$SURFTAB1
 70
     6
  9
$SURFTAB2
 70
     6
  9
$SURFTYPE
 70
     6
  9
$SURFU
 70
     6
  9
$SURFV
 70
     6
  9
$UCSBASE
  2

  9
$UCSNAME
  2

  9
$UCSORG
 10
0.0
 20
0.0
 30
0.0
  9
$UCSXDIR
 10
1.0
 20
0.0
 30
0.0
  9
$UCSYDIR
 10
0.0
 20
1.0
 30
0.0
  9
$UCSORTHOREF
  2

  9
$UCSORTHOVIEW
 70
     0
  9
$UCSORGTOP
 10
0.0
 20
0.0
 30
0.0
  9
$UCSORGBOTTOM
 10
0.0
 20
0.0
 30
0.0
  9
$UCSORGLEFT
 10
0.0
 20
0.0
 30
0.0
  9
$UCSORGRIGHT
 10
0.0
 20
0.0
 30
0.0
  9
$UCSORGFRONT
 10
0.0
 20
0.0
 30
0.0
  9
$UCSORGBACK
 10
0.0
 20
0.0
 30
0.0
  9
$PUCSBASE
  2

  9
$PUCSNAME
  2

  9
$PUCSORG
 10
0.0
 20
0.0
 30
0.0
  9
$PUCSXDIR
 10
1.0
 20
0.0
 30
0.0
  9
$PUCSYDIR
 10
0.0
 20
1.0
 30
0.0
  9
$PUCSORTHOREF
  2

  9
$PUCSORTHOVIEW
 70
     0
  9
$PUCSORGTOP
 10
0.0
 20
0.0
 30
0.0
  9
$PUCSORGBOTTOM
 10
0.0
 20
0.0
 30
0.0
  9
$PUCSORGLEFT
 10
0.0
 20
0.0
 30
0.0
  9
$PUCSORGRIGHT
 10
0.0
 20
0.0
 30
0.0
  9
$PUCSORGFRONT
 10
0.0
 20
0.0
 30
0.0
  9
$PUCSORGBACK
 10
0.0
 20
0.0
 30
0.0
  9
$USERI1
 70
     0
  9
$USERI2
 70
     0
  9
$USERI3
 70
     0
  9
$USERI4
 70
     0
  9
$USERI5
 70
     0
  9
$USERR1
 40
0.0
  9
$USERR2
 40
0.0
  9
$USERR3
 40
0.0
  9
$USERR4
 40
0.0
  9
$USERR5
 40
0.0
  9
$WORLDVIEW
 70
     1
  9
$SHADEDGE
 70
     3
  9
$SHADEDIF
 70
    70
  9
$TILEMODE
 70
     1
  9
$MAXACTVP
 70
    64
  9
$PINSBASE
 10
0.0
 20
0.0
 30
0.0
  9
$PLIMCHECK
 70
     0
  9
$PEXTMIN
 10
-187.563374
 20
-58.295738
 30
0.0
  9
$PEXTMAX
 10
652.436626
 20
535.704262
 30
0.0
  9
$PLIMMIN
 10
-187.563374
 20
-58.295738
  9
$PLIMMAX
 10
652.436626
 20
535.704262
  9
$UNITMODE
 70
     0
  9
$VISRETAIN
 70
     1
  9
$PLINEGEN
 70
     0
  9
$PSLTSCALE
 70
     1
  9
$TREEDEPTH
 70
  3020
  9
$CMLSTYLE
  2
Standard
  9
$CMLJUST
 70
     0
  9
$CMLSCALE
 40
20.0
  9
$PROXYGRAPHICS
 70
     1
  9
$MEASUREMENT
 70
     1
  9
$CELWEIGHT
370
    -1
  9
$ENDCAPS
280
     0
  9
$JOINSTYLE
280
     0
  9
$LWDISPLAY
290
     0
  9
$INSUNITS
 70
     4
  9
$HYPERLINKBASE
  1

  9
$STYLESHEET
  1

  9
$XEDIT
290
     1
  9
$CEPSNTYPE
380
     0
  9
$PSTYLEMODE
290
     1
  9
$FINGERPRINTGUID
  2
{FAEB1C30-E019-11D5-929B-00C0DF256EC4}
  9
$VERSIONGUID
  2
{FAEB1C32-E019-11D5-929B-00C0DF256EC4}
  9
$EXTNAMES
290
     1
  9
$PSVPSCALE
 40
0.0
  9
$OLESTARTUP
290
     0
  0
ENDSEC
  0
SECTION
  2
CLASSES
  0
CLASS
  1
ACDBDICTIONARYWDFLT
  2
AcDbDictionaryWithDefault
  3
ObjectDBX Classes
 90
        0
280
     0
281
     0
  0
CLASS
  1
ACDBPLACEHOLDER
  2
AcDbPlaceHolder
  3
ObjectDBX Classes
 90
        0
280
     0
281
     0
  0
CLASS
  1
LAYOUT
  2
AcDbLayout
  3
ObjectDBX Classes
 90
        0
280
     0
281
     0
  0
ENDSEC
  0
SECTION
  2
TABLES
  0
TABLE
  2
VPORT
  5
8
330
0
100
AcDbSymbolTable
 70
     2
  0
VPORT
  5
29
330
8
100
AcDbSymbolTableRecord
100
AcDbViewportTableRecord
  2
*ACTIVE
 70
     0
 10
0.0
 20
0.0
 11
1.0
 21
1.0
 12
232.436626
 22
238.704262
 13
0.0
 23
0.0
 14
1.0
 24
1.0
 15
0.0
 25
0.0
 16
0.0
 26
0.0
 36
1.0
 17
0.0
 27
0.0
 37
0.0
 40
594.0
 41
1.414141
 42
50.0
 43
0.0
 44
0.0
 50
0.0
 51
0.0
 71
    16
 72
   100
 73
     1
 74
     0
 75
     0
 76
     0
 77
     0
 78
     0
281
     0
 65
     0
110
0.0
120
0.0
130
0.0
111
1.0
121
0.0
131
0.0
112
0.0
122
1.0
132
0.0
 79
     0
146
0.0
  0
ENDTAB
  0
TABLE
  2
LTYPE
  5
5
330
0
100
AcDbSymbolTable
 70
     3
  0
LTYPE
  5
14
330
5
100
AcDbSymbolTableRecord
100
AcDbLinetypeTableRecord
  2
ByBlock
 70
     0
  3

 72
    65
 73
     0
 40
0.0
  0
LTYPE
  5
15
330
5
100
AcDbSymbolTableRecord
100
AcDbLinetypeTableRecord
  2
ByLayer
 70
     0
  3

 72
    65
 73
     0
 40
0.0
  0
LTYPE
  5
16
330
5
100
AcDbSymbolTableRecord
100
AcDbLinetypeTableRecord
  2
Continuous
 70
     0
  3
Solid line
 72
    65
 73
     0
 40
0.0
  0
LTYPE
  5
2A
330
5
100
AcDbSymbolTableRecord
100
AcDbLinetypeTableRecord
  2
DASHED
 70
     0
  3
__ __ __ __ __
 72
    65
 73
     2
 40
6.25
 49
5.0
 74
     4
 75
     0
340
0
 46
1.0
 50
0.0
 44
0.0
 45
0.0
 49
-1.25
 74
     4
 75
     0
340
0
 46
1.0
 50
0.0
 44
0.0
 45
0.0
  0
LTYPE
  5
500
330
5
100
AcDbSymbolTableRecord
100
AcDbLinetypeTableRecord
  2
DASHDOT
 70
     0
  3
__ . __ . __ . __ . __
 72
    65
 73
     4
 40
7.5
 49
5.0
 74
     4
 75
     0
340
0
 46
1.0
 50
0.0
 44
0.0
 45
0.0
 49
-1.25
 74
     4
 75
     0
340
0
 46
1.0
 50
0.0
 44
0.0
 45
0.0
 49
0.0
 74
     4
 75
     0
340
0
 46
1.0
 50
0.0
 44
0.0
 45
0.0
 49
-1.25
 74
     4
 75
     0
340
0
 46
1.0
 50
0.0
 44
0.0
 45
0.0
  0
ENDTAB
  0
TABLE
  2
LAYER
  5
2
330
0
100
AcDbSymbolTable
 70
     9
  0
LAYER
  5
10
330
2
100
AcDbSymbolTableRecord
100
AcDbLayerTableRecord
  2
0
 70
     0
 62
     7
  6
Continuous
370
    -3
390
F
  0
LAYER
  5
2B
330
2
100
AcDbSymbolTableRecord
100
AcDbLayerTableRecord
  2
LC-INFO-1-2-mm-A3-0
 70
     1
 62
     7
  6
ByBlock
370
    -3
390
F
  0
LAYER
  5
2C
330
2
100
AcDbSymbolTableRecord
100
AcDbLayerTableRecord
  2
LC-CUT-HIDDEN
 70
     0
 62
     7
  6
DASHED
370
    -3
390
F
  0
LAYER
  5
2D
330
2
100
AcDbSymbolTableRecord
100
AcDbLayerTableRecord
  2
LC-VIEWPORT
 70
     0
 62
     7
  6
ByBlock
370
    -3
390
F
  0
LAYER
  5
2E
330
2
100
AcDbSymbolTableRecord
100
AcDbLayerTableRecord
  2
LC-3D-HIDDEN
 70
     0
 62
     9
  6
DASHED
370
    -3
390
F
  0
LAYER
  5
30
330
2
100
AcDbSymbolTableRecord
100
AcDbLayerTableRecord
  2
LC-001-100-D00-0
 70
     0
 62
     1
  6
ByBlock
370
    -3
390
F
  0
LAYER
  5
508
330
2
100
AcDbSymbolTableRecord
100
AcDbLayerTableRecord
  2
LC-002-106-D00-0
 70
     0
 62
     2
  6
ByBlock
370
    -3
390
F
  0
LAYER
  5
50A
330
2
100
AcDbSymbolTableRecord
100
AcDbLayerTableRecord
  2
Defpoints
 70
     0
 62
     7
  6
Continuous
290
     0
370
    -3
390
F
  0
LAYER
  5
540
330
2
100
AcDbSymbolTableRecord
100
AcDbLayerTableRecord
  2
LC-003-003-----0
 70
     0
 62
     2
  6
ByBlock
370
    -3
390
F
  0
ENDTAB
  0
TABLE
  2
STYLE
  5
3
330
0
100
AcDbSymbolTable
 70
     3
  0
STYLE
  5
11
330
3
100
AcDbSymbolTableRecord
100
AcDbTextStyleTableRecord
  2
Standard
 70
     0
 40
0.0
 41
1.0
 50
0.0
 71
     0
 42
2.5
  3
txt
  4

  0
STYLE
  5
2F
330
3
100
AcDbSymbolTableRecord
100
AcDbTextStyleTableRecord
  2
LCTX15-400-0-0-Arial
 70
     0
 40
0.0
 41
0.8
 50
0.0
 71
     0
 42
3.5
  3

  4

1001
ACAD
1000
Arial
1071
 16777218
  0
STYLE
  5
506
330
3
100
AcDbSymbolTableRecord
100
AcDbTextStyleTableRecord
  2
LCTX15-400-0-0pDIN-Schrift
 70
     0
 40
2.5
 41
0.8
 50
15.0
 71
     0
 42
3.5
  3
STANDARD
  4

  0
ENDTAB
  0
TABLE
  2
VIEW
  5
6
330
0
100
AcDbSymbolTable
 70
     0
  0
ENDTAB
  0
TABLE
  2
UCS
  5
7
330
0
100
AcDbSymbolTable
 70
     0
  0
ENDTAB
  0
TABLE
  2
APPID
  5
9
330
0
100
AcDbSymbolTable
 70
     1
  0
APPID
  5
12
330
9
100
AcDbSymbolTableRecord
100
AcDbRegAppTableRecord
  2
ACAD
 70
     0
  0
ENDTAB
  0
TABLE
  2
DIMSTYLE
  5
A
330
0
100
AcDbSymbolTable
 70
     3
100
AcDbDimStyleTable
  0
DIMSTYLE
105
27
330
A
100
AcDbSymbolTableRecord
100
AcDbDimStyleTableRecord
  2
ISO-25
 70
     0
 41
2.5
 42
0.625
 43
3.75
 44
1.25
 73
     0
 74
     0
 77
     1
 78
     8
140
2.5
141
2.5
143
0.03937
147
0.625
171
     3
172
     1
271
     2
272
     2
274
     3
278
    44
283
     0
284
     8
340
11
  0
DIMSTYLE
105
507
102
{ACAD_REACTORS
330
509
330
517
330
525
330
541
330
54E
330
55B
330
569
330
678
102
}
330
A
100
AcDbSymbolTableRecord
100
AcDbDimStyleTableRecord
  2
LC-DIM-L-0140-02-02
 70
     0
 40
2.0
 41
14.0
 42
0.0
 43
7.5
 44
1.8
 73
     0
 74
     0
 77
     1
 78
     8
 79
     2
140
14.0
141
0.0
146
0.71
147
1.5
176
     2
177
     2
178
     2
179
     2
271
     2
278
    44
289
     1
340
506
  0
DIMSTYLE
105
532
102
{ACAD_REACTORS
330
533
330
577
102
}
330
A
100
AcDbSymbolTableRecord
100
AcDbDimStyleTableRecord
  2
LC-DIM-L-0140-00-02
 70
     0
 40
2.0
 41
14.0
 42
0.0
 43
7.5
 44
1.8
 73
     0
 74
     0
 77
     1
 78
     8
140
14.0
141
0.0
146
0.71
147
1.5
176
     2
177
     2
178
     2
271
     0
278
    44
289
     1
340
506
  0
ENDTAB
  0
TABLE
  2
BLOCK_RECORD
  5
1
330
0
100
AcDbSymbolTable
 70
    44
  0
BLOCK_RECORD
  5
1F
330
1
100
AcDbSymbolTableRecord
100
AcDbBlockTableRecord
  2
*Model_Space
340
22
  0
BLOCK_RECORD
  5
1B
330
1
100
AcDbSymbolTableRecord
100
AcDbBlockTableRecord
  2
*Paper_Space
340
1E
  0
BLOCK_RECORD
  5
23
330
1
100
AcDbSymbolTableRecord
100
AcDbBlockTableRecord
  2
*Paper_Space0
340
26
  0
BLOCK_RECORD
  5
E2
330
1
100
AcDbSymbolTableRecord
100
AcDbBlockTableRecord
  2
POLY1
340
0
102
{BLKREFS
331
EF
102
}
  0
BLOCK_RECORD
  5
F1
330
1
100
AcDbSymbolTableRecord
100
AcDbBlockTableRecord
  2
POLY2
340
0
102
{BLKREFS
331
FC
102
}
  0
BLOCK_RECORD
  5
FD
330
1
100
AcDbSymbolTableRecord
100
AcDbBlockTableRecord
  2
POLY3
340
0
102
{BLKREFS
331
108
102
}
  0
BLOCK_RECORD
  5
116
330
1
100
AcDbSymbolTableRecord
100
AcDbBlockTableRecord
  2
POLY4
340
0
102
{BLKREFS
331
127
102
}
  0
BLOCK_RECORD
  5
12A
330
1
100
AcDbSymbolTableRecord
100
AcDbBlockTableRecord
  2
POLY5
340
0
102
{BLKREFS
331
135
102
}
  0
BLOCK_RECORD
  5
14F
330
1
100
AcDbSymbolTableRecord
100
AcDbBlockTableRecord
  2
POLY6
340
0
102
{BLKREFS
331
15A
102
}
  0
BLOCK_RECORD
  5
174
330
1
100
AcDbSymbolTableRecord
100
AcDbBlockTableRecord
  2
POLY7
340
0
102
{BLKREFS
331
19B
102
}
  0
BLOCK_RECORD
  5
19C
330
1
100
AcDbSymbolTableRecord
100
AcDbBlockTableRecord
  2
POLY8
340
0
102
{BLKREFS
331
1A7
102
}
  0
BLOCK_RECORD
  5
20A
330
1
100
AcDbSymbolTableRecord
100
AcDbBlockTableRecord
  2
POLY9
340
0
102
{BLKREFS
331
217
102
}
  0
BLOCK_RECORD
  5
324
330
1
100
AcDbSymbolTableRecord
100
AcDbBlockTableRecord
  2
POLY10
340
0
102
{BLKREFS
331
347
102
}
  0
BLOCK_RECORD
  5
34D
330
1
100
AcDbSymbolTableRecord
100
AcDbBlockTableRecord
  2
POLY11
340
0
102
{BLKREFS
331
364
102
}
  0
BLOCK_RECORD
  5
3C6
330
1
100
AcDbSymbolTableRecord
100
AcDbBlockTableRecord
  2
POLY12
340
0
102
{BLKREFS
331
3E5
102
}
  0
BLOCK_RECORD
  5
3E7
330
1
100
AcDbSymbolTableRecord
100
AcDbBlockTableRecord
  2
POLY13
340
0
102
{BLKREFS
331
406
102
}
  0
BLOCK_RECORD
  5
416
330
1
100
AcDbSymbolTableRecord
100
AcDbBlockTableRecord
  2
KLON1
340
0
102
{BLKREFS
331
424
102
}
  0
BLOCK_RECORD
  5
425
330
1
100
AcDbSymbolTableRecord
100
AcDbBlockTableRecord
  2
KLON2
340
0
102
{BLKREFS
331
433
102
}
  0
BLOCK_RECORD
  5
434
330
1
100
AcDbSymbolTableRecord
100
AcDbBlockTableRecord
  2
KLON3
340
0
102
{BLKREFS
331
440
102
}
  0
BLOCK_RECORD
  5
441
330
1
100
AcDbSymbolTableRecord
100
AcDbBlockTableRecord
  2
KLON4
340
0
102
{BLKREFS
331
45D
102
}
  0
BLOCK_RECORD
  5
45E
330
1
100
AcDbSymbolTableRecord
100
AcDbBlockTableRecord
  2
KLON5
340
0
102
{BLKREFS
331
469
102
}
  0
BLOCK_RECORD
  5
46A
330
1
100
AcDbSymbolTableRecord
100
AcDbBlockTableRecord
  2
KLON6
340
0
102
{BLKREFS
331
475
102
}
  0
BLOCK_RECORD
  5
47E
330
1
100
AcDbSymbolTableRecord
100
AcDbBlockTableRecord
  2
KLON7
340
0
102
{BLKREFS
331
486
102
}
  0
BLOCK_RECORD
  5
487
330
1
100
AcDbSymbolTableRecord
100
AcDbBlockTableRecord
  2
KLON8
340
0
102
{BLKREFS
331
493
102
}
  0
BLOCK_RECORD
  5
494
330
1
100
AcDbSymbolTableRecord
100
AcDbBlockTableRecord
  2
KLON9
340
0
102
{BLKREFS
331
49F
102
}
  0
BLOCK_RECORD
  5
4A0
330
1
100
AcDbSymbolTableRecord
100
AcDbBlockTableRecord
  2
KLON10
340
0
102
{BLKREFS
331
4B9
102
}
  0
BLOCK_RECORD
  5
4BA
330
1
100
AcDbSymbolTableRecord
100
AcDbBlockTableRecord
  2
KLON11
340
0
102
{BLKREFS
331
4CC
102
}
  0
BLOCK_RECORD
  5
4CD
330
1
100
AcDbSymbolTableRecord
100
AcDbBlockTableRecord
  2
KLON12
340
0
102
{BLKREFS
331
4DF
102
}
  0
BLOCK_RECORD
  5
4E1
330
1
100
AcDbSymbolTableRecord
100
AcDbBlockTableRecord
  2
KLON13
340
0
102
{BLKREFS
331
4E6
102
}
  0
BLOCK_RECORD
  5
4E7
330
1
100
AcDbSymbolTableRecord
100
AcDbBlockTableRecord
  2
KLON14
340
0
102
{BLKREFS
331
4F1
102
}
  0
BLOCK_RECORD
  5
4F2
330
1
100
AcDbSymbolTableRecord
100
AcDbBlockTableRecord
  2
KLON15
340
0
102
{BLKREFS
331
4FC
102
}
  0
BLOCK_RECORD
  5
50B
330
1
100
AcDbSymbolTableRecord
100
AcDbBlockTableRecord
  2
*D29
340
0
  0
BLOCK_RECORD
  5
518
330
1
100
AcDbSymbolTableRecord
100
AcDbBlockTableRecord
  2
*D30
340
0
  0
BLOCK_RECORD
  5
526
330
1
100
AcDbSymbolTableRecord
100
AcDbBlockTableRecord
  2
*D31
340
0
  0
BLOCK_RECORD
  5
534
330
1
100
AcDbSymbolTableRecord
100
AcDbBlockTableRecord
  2
*D32
340
0
  0
BLOCK_RECORD
  5
542
330
1
100
AcDbSymbolTableRecord
100
AcDbBlockTableRecord
  2
*D33
340
0
  0
BLOCK_RECORD
  5
54F
330
1
100
AcDbSymbolTableRecord
100
AcDbBlockTableRecord
  2
*D34
340
0
  0
BLOCK_RECORD
  5
55C
330
1
100
AcDbSymbolTableRecord
100
AcDbBlockTableRecord
  2
*D35
340
0
  0
BLOCK_RECORD
  5
56A
330
1
100
AcDbSymbolTableRecord
100
AcDbBlockTableRecord
  2
*D36
340
0
  0
BLOCK_RECORD
  5
578
330
1
100
AcDbSymbolTableRecord
100
AcDbBlockTableRecord
  2
*D37
340
0
  0
BLOCK_RECORD
  5
5F4
330
1
100
AcDbSymbolTableRecord
100
AcDbBlockTableRecord
  2
POLY14
340
0
102
{BLKREFS
331
601
102
}
  0
BLOCK_RECORD
  5
603
330
1
100
AcDbSymbolTableRecord
100
AcDbBlockTableRecord
  2
KLON16
340
0
102
{BLKREFS
331
608
102
}
  0
BLOCK_RECORD
  5
609
330
1
100
AcDbSymbolTableRecord
100
AcDbBlockTableRecord
  2
KLON17
340
0
102
{BLKREFS
331
60E
102
}
  0
BLOCK_RECORD
  5
611
330
1
100
AcDbSymbolTableRecord
100
AcDbBlockTableRecord
  2
KLON18
340
0
102
{BLKREFS
331
616
102
}
  0
BLOCK_RECORD
  5
617
330
1
100
AcDbSymbolTableRecord
100
AcDbBlockTableRecord
  2
KLON19
340
0
102
{BLKREFS
331
61C
102
}
  0
BLOCK_RECORD
  5
679
330
1
100
AcDbSymbolTableRecord
100
AcDbBlockTableRecord
  2
*D43
340
0
  0
ENDTAB
  0
ENDSEC
  0
SECTION
  2
BLOCKS
  0
BLOCK
  5
20
330
1F
100
AcDbEntity
  8
0
100
AcDbBlockBegin
  2
*Model_Space
 70
     0
 71
     0
 10
0.0
 20
0.0
 30
0.0
  3
*Model_Space
  1

  0
ENDBLK
  5
21
330
1F
100
AcDbEntity
  8
0
100
AcDbBlockEnd
  0
BLOCK
  5
1C
330
1B
100
AcDbEntity
 67
     1
  8
0
100
AcDbBlockBegin
  2
*Paper_Space
 70
     0
 71
     0
 10
0.0
 20
0.0
 30
0.0
  3
*Paper_Space
  1

  0
ENDBLK
  5
1D
330
1B
100
AcDbEntity
 67
     1
  8
0
100
AcDbBlockEnd
  0
BLOCK
  5
24
330
23
100
AcDbEntity
  8
0
100
AcDbBlockBegin
  2
*Paper_Space0
 70
     0
 71
     0
 10
0.0
 20
0.0
 30
0.0
  3
*Paper_Space0
  1

  0
ENDBLK
  5
25
330
23
100
AcDbEntity
  8
0
100
AcDbBlockEnd
  0
BLOCK
  5
E3
330
E2
100
AcDbEntity
  8
0
100
AcDbBlockBegin
  2
POLY1
 70
     0
 71
     0
 10
0.0
 20
0.0
 30
0.0
  3
POLY1
  1

  4
POLY1
  0
LINE
  5
E5
330
E2
100
AcDbEntity
  8
LC-001-100-D00-0
 62
     7
370
    50
100
AcDbLine
 10
136.606895
 20
369.444262
 30
0.0
 11
136.606895
 21
369.444262
 31
0.0
  0
LINE
  5
E6
330
E2
100
AcDbEntity
  8
LC-001-100-D00-0
 62
     7
370
    50
100
AcDbLine
 10
136.606895
 20
369.444262
 30
0.0
 11
137.401833
 21
369.452761
 31
0.0
  0
LINE
  5
E7
330
E2
100
AcDbEntity
  8
LC-001-100-D00-0
 62
     7
370
    50
100
AcDbLine
 10
137.401833
 20
369.452761
 30
0.0
 11
137.401833
 21
369.452761
 31
0.0
  0
LINE
  5
E8
330
E2
100
AcDbEntity
  8
LC-001-100-D00-0
 62
     7
370
    50
100
AcDbLine
 10
137.401833
 20
369.452761
 30
0.0
 11
139.537165
 21
369.475592
 31
0.0
  0
LINE
  5
E9
330
E2
100
AcDbEntity
  8
LC-001-100-D00-0
 62
     7
370
    50
100
AcDbLine
 10
139.537165
 20
369.475592
 30
0.0
 11
139.537165
 21
369.475592
 31
0.0
  0
LINE
  5
EA
330
E2
100
AcDbEntity
  8
LC-001-100-D00-0
 62
     7
370
    50
100
AcDbLine
 10
139.537165
 20
369.475592
 30
0.0
 11
143.59036
 21
369.540679
 31
0.0
  0
LINE
  5
EB
330
E2
100
AcDbEntity
  8
LC-001-100-D00-0
 62
     7
370
    50
100
AcDbLine
 10
143.59036
 20
369.540679
 30
0.0
 11
143.59036
 21
369.540679
 31
0.0
  0
LINE
  5
EC
330
E2
100
AcDbEntity
  8
LC-001-100-D00-0
 62
     7
370
    50
100
AcDbLine
 10
143.59036
 20
369.540679
 30
0.0
 11
146.82404
 21
369.479816
 31
0.0
  0
LINE
  5
ED
330
E2
100
AcDbEntity
  8
LC-001-100-D00-0
 62
     7
370
    50
100
AcDbLine
 10
146.82404
 20
369.479816
 30
0.0
 11
146.82404
 21
369.479816
 31
0.0
  0
LINE
  5
EE
330
E2
100
AcDbEntity
  8
LC-001-100-D00-0
 62
     7
370
    50
100
AcDbLine
 10
146.82404
 20
369.479816
 30
0.0
 11
148.71309
 21
369.444262
 31
0.0
  0
ENDBLK
  5
E4
330
E2
100
AcDbEntity
  8
0
100
AcDbBlockEnd
  0
BLOCK
  5
F2
330
F1
100
AcDbEntity
  8
0
100
AcDbBlockBegin
  2
POLY2
 70
     0
 71
     0
 10
0.0
 20
0.0
 30
0.0
  3
POLY2
  1

  4
POLY2
  0
LINE
  5
F4
330
F1
100
AcDbEntity
  8
LC-001-100-D00-0
 62
     7
370
    50
100
AcDbLine
 10
188.659996
 20
369.512889
 30
0.0
 11
188.659996
 21
369.512889
 31
0.0
  0
LINE
  5
F5
330
F1
100
AcDbEntity
  8
LC-001-100-D00-0
 62
     7
370
    50
100
AcDbLine
 10
188.659996
 20
369.512889
 30
0.0
 11
188.659734
 21
369.512747
 31
0.0
  0
LINE
  5
F6
330
F1
100
AcDbEntity
  8
LC-001-100-D00-0
 62
     7
370
    50
100
AcDbLine
 10
188.659734
 20
369.512747
 30
0.0
 11
188.659734
 21
369.512747
 31
0.0
  0
LINE
  5
F7
330
F1
100
AcDbEntity
  8
LC-001-100-D00-0
 62
     7
370
    50
100
AcDbLine
 10
188.659734
 20
369.512747
 30
0.0
 11
188.655538
 21
369.510478
 31
0.0
  0
LINE
  5
F8
330
F1
100
AcDbEntity
  8
LC-001-100-D00-0
 62
     7
370
    50
100
AcDbLine
 10
188.655538
 20
369.510478
 30
0.0
 11
188.655538
 21
369.510478
 31
0.0
  0
LINE
  5
F9
330
F1
100
AcDbEntity
  8
LC-001-100-D00-0
 62
     7
370
    50
100
AcDbLine
 10
188.655538
 20
369.510478
 30
0.0
 11
188.451376
 21
369.4763
 31
0.0
  0
LINE
  5
FA
330
F1
100
AcDbEntity
  8
LC-001-100-D00-0
 62
     7
370
    50
100
AcDbLine
 10
188.451376
 20
369.4763
 30
0.0
 11
188.451376
 21
369.4763
 31
0.0
  0
LINE
  5
FB
330
F1
100
AcDbEntity
  8
LC-001-100-D00-0
 62
     7
370
    50
100
AcDbLine
 10
188.451376
 20
369.4763
 30
0.0
 11
188.259997
 21
369.444262
 31
0.0
  0
ENDBLK
  5
F3
330
F1
100
AcDbEntity
  8
0
100
AcDbBlockEnd
  0
BLOCK
  5
FE
330
FD
100
AcDbEntity
  8
0
100
AcDbBlockBegin
  2
POLY3
 70
     0
 71
     0
 10
0.0
 20
0.0
 30
0.0
  3
POLY3
  1

  4
POLY3
  0
LINE
  5
100
330
FD
100
AcDbEntity
  8
LC-001-100-D00-0
 62
     7
370
    50
100
AcDbLine
 10
96.659994
 20
369.512889
 30
0.0
 11
96.659994
 21
369.512889
 31
0.0
  0
LINE
  5
101
330
FD
100
AcDbEntity
  8
LC-001-100-D00-0
 62
     7
370
    50
100
AcDbLine
 10
96.659994
 20
369.512889
 30
0.0
 11
96.660256
 21
369.512747
 31
0.0
  0
LINE
  5
102
330
FD
100
AcDbEntity
  8
LC-001-100-D00-0
 62
     7
370
    50
100
AcDbLine
 10
96.660256
 20
369.512747
 30
0.0
 11
96.660256
 21
369.512747
 31
0.0
  0
LINE
  5
103
330
FD
100
AcDbEntity
  8
LC-001-100-D00-0
 62
     7
370
    50
100
AcDbLine
 10
96.660256
 20
369.512747
 30
0.0
 11
96.664431
 21
369.510478
 31
0.0
  0
LINE
  5
104
330
FD
100
AcDbEntity
  8
LC-001-100-D00-0
 62
     7
370
    50
100
AcDbLine
 10
96.664431
 20
369.510478
 30
0.0
 11
96.664431
 21
369.510478
 31
0.0
  0
LINE
  5
105
330
FD
100
AcDbEntity
  8
LC-001-100-D00-0
 62
     7
370
    50
100
AcDbLine
 10
96.664431
 20
369.510478
 30
0.0
 11
96.868605
 21
369.4763
 31
0.0
  0
LINE
  5
106
330
FD
100
AcDbEntity
  8
LC-001-100-D00-0
 62
     7
370
    50
100
AcDbLine
 10
96.868605
 20
369.4763
 30
0.0
 11
96.868605
 21
369.4763
 31
0.0
  0
LINE
  5
107
330
FD
100
AcDbEntity
  8
LC-001-100-D00-0
 62
     7
370
    50
100
AcDbLine
 10
96.868605
 20
369.4763
 30
0.0
 11
97.059996
 21
369.444262
 31
0.0
  0
ENDBLK
  5
FF
330
FD
100
AcDbEntity
  8
0
100
AcDbBlockEnd
  0
BLOCK
  5
117
330
116
100
AcDbEntity
  8
0
100
AcDbBlockBegin
  2
POLY4
 70
     0
 71
     0
 10
0.0
 20
0.0
 30
0.0
  3
POLY4
  1

  4
POLY4
  0
LINE
  5
119
330
116
100
AcDbEntity
  8
LC-001-100-D00-0
 62
     7
370
    50
100
AcDbLine
 10
152.209864
 20
369.444262
 30
0.0
 11
152.209864
 21
369.444262
 31
0.0
  0
LINE
  5
11A
330
116
100
AcDbEntity
  8
LC-001-100-D00-0
 62
     7
370
    50
100
AcDbLine
 10
152.209864
 20
369.444262
 30
0.0
 11
151.094801
 21
369.471546
 31
0.0
  0
LINE
  5
11B
330
116
100
AcDbEntity
  8
LC-001-100-D00-0
 62
     7
370
    50
100
AcDbLine
 10
151.094801
 20
369.471546
 30
0.0
 11
151.094801
 21
369.471546
 31
0.0
  0
LINE
  5
11C
330
116
100
AcDbEntity
  8
LC-001-100-D00-0
 62
     7
370
    50
100
AcDbLine
 10
151.094801
 20
369.471546
 30
0.0
 11
148.742171
 21
369.529113
 31
0.0
  0
LINE
  5
11D
330
116
100
AcDbEntity
  8
LC-001-100-D00-0
 62
     7
370
    50
100
AcDbLine
 10
148.742171
 20
369.529113
 30
0.0
 11
148.742171
 21
369.529113
 31
0.0
  0
LINE
  5
11E
330
116
100
AcDbEntity
  8
LC-001-100-D00-0
 62
     7
370
    50
100
AcDbLine
 10
148.742171
 20
369.529113
 30
0.0
 11
145.094409
 21
369.758153
 31
0.0
  0
LINE
  5
11F
330
116
100
AcDbEntity
  8
LC-001-100-D00-0
 62
     7
370
    50
100
AcDbLine
 10
145.094409
 20
369.758153
 30
0.0
 11
145.094409
 21
369.758153
 31
0.0
  0
LINE
  5
120
330
116
100
AcDbEntity
  8
LC-001-100-D00-0
 62
     7
370
    50
100
AcDbLine
 10
145.094409
 20
369.758153
 30
0.0
 11
141.190582
 21
369.797807
 31
0.0
  0
LINE
  5
121
330
116
100
AcDbEntity
  8
LC-001-100-D00-0
 62
     7
370
    50
100
AcDbLine
 10
141.190582
 20
369.797807
 30
0.0
 11
141.190582
 21
369.797807
 31
0.0
  0
LINE
  5
122
330
116
100
AcDbEntity
  8
LC-001-100-D00-0
 62
     7
370
    50
100
AcDbLine
 10
141.190582
 20
369.797807
 30
0.0
 11
137.176188
 21
369.563301
 31
0.0
  0
LINE
  5
123
330
116
100
AcDbEntity
  8
LC-001-100-D00-0
 62
     7
370
    50
100
AcDbLine
 10
137.176188
 20
369.563301
 30
0.0
 11
137.176188
 21
369.563301
 31
0.0
  0
LINE
  5
124
330
116
100
AcDbEntity
  8
LC-001-100-D00-0
 62
     7
370
    50
100
AcDbLine
 10
137.176188
 20
369.563301
 30
0.0
 11
134.469038
 21
369.484045
 31
0.0
  0
LINE
  5
125
330
116
100
AcDbEntity
  8
LC-001-100-D00-0
 62
     7
370
    50
100
AcDbLine
 10
134.469038
 20
369.484045
 30
0.0
 11
134.469038
 21
369.484045
 31
0.0
  0
LINE
  5
126
330
116
100
AcDbEntity
  8
LC-001-100-D00-0
 62
     7
370
    50
100
AcDbLine
 10
134.469038
 20
369.484045
 30
0.0
 11
133.110125
 21
369.444262
 31
0.0
  0
ENDBLK
  5
118
330
116
100
AcDbEntity
  8
0
100
AcDbBlockEnd
  0
BLOCK
  5
12B
330
12A
100
AcDbEntity
  8
0
100
AcDbBlockBegin
  2
POLY5
 70
     0
 71
     0
 10
0.0
 20
0.0
 30
0.0
  3
POLY5
  1

  4
POLY5
  0
LINE
  5
12D
330
12A
100
AcDbEntity
  8
LC-001-100-D00-0
 62
     7
370
    50
100
AcDbLine
 10
188.759998
 20
369.769487
 30
0.0
 11
188.759998
 21
369.769487
 31
0.0
  0
LINE
  5
12E
330
12A
100
AcDbEntity
  8
LC-001-100-D00-0
 62
     7
370
    50
100
AcDbLine
 10
188.759998
 20
369.769487
 30
0.0
 11
188.758649
 21
369.767475
 31
0.0
  0
LINE
  5
12F
330
12A
100
AcDbEntity
  8
LC-001-100-D00-0
 62
     7
370
    50
100
AcDbLine
 10
188.758649
 20
369.767475
 30
0.0
 11
188.758649
 21
369.767475
 31
0.0
  0
LINE
  5
130
330
12A
100
AcDbEntity
  8
LC-001-100-D00-0
 62
     7
370
    50
100
AcDbLine
 10
188.758649
 20
369.767475
 30
0.0
 11
188.755276
 21
369.762445
 31
0.0
  0
LINE
  5
131
330
12A
100
AcDbEntity
  8
LC-001-100-D00-0
 62
     7
370
    50
100
AcDbLine
 10
188.755276
 20
369.762445
 30
0.0
 11
188.755276
 21
369.762445
 31
0.0
  0
LINE
  5
132
330
12A
100
AcDbEntity
  8
LC-001-100-D00-0
 62
     7
370
    50
100
AcDbLine
 10
188.755276
 20
369.762445
 30
0.0
 11
188.650729
 21
369.704569
 31
0.0
  0
LINE
  5
133
330
12A
100
AcDbEntity
  8
LC-001-100-D00-0
 62
     7
370
    50
100
AcDbLine
 10
188.650729
 20
369.704569
 30
0.0
 11
188.650729
 21
369.704569
 31
0.0
  0
LINE
  5
134
330
12A
100
AcDbEntity
  8
LC-001-100-D00-0
 62
     7
370
    50
100
AcDbLine
 10
188.650729
 20
369.704569
 30
0.0
 11
188.588001
 21
369.669843
 31
0.0
  0
ENDBLK
  5
12C
330
12A
100
AcDbEntity
  8
0
100
AcDbBlockEnd
  0
BLOCK
  5
150
330
14F
100
AcDbEntity
  8
0
100
AcDbBlockBegin
  2
POLY6
 70
     0
 71
     0
 10
0.0
 20
0.0
 30
0.0
  3
POLY6
  1

  4
POLY6
  0
LINE
  5
152
330
14F
100
AcDbEntity
  8
LC-001-100-D00-0
 62
     7
370
    50
100
AcDbLine
 10
307.118744
 20
311.844263
 30
0.0
 11
307.118744
 21
311.844263
 31
0.0
  0
LINE
  5
153
330
14F
100
AcDbEntity
  8
LC-001-100-D00-0
 62
     7
370
    50
100
AcDbLine
 10
307.118744
 20
311.844263
 30
0.0
 11
307.503887
 21
312.515637
 31
0.0
  0
LINE
  5
154
330
14F
100
AcDbEntity
  8
LC-001-100-D00-0
 62
     7
370
    50
100
AcDbLine
 10
307.503887
 20
312.515637
 30
0.0
 11
307.503887
 21
312.515637
 31
0.0
  0
LINE
  5
155
330
14F
100
AcDbEntity
  8
LC-001-100-D00-0
 62
     7
370
    50
100
AcDbLine
 10
307.503887
 20
312.515637
 30
0.0
 11
309.339211
 21
315.714944
 31
0.0
  0
LINE
  5
156
330
14F
100
AcDbEntity
  8
LC-001-100-D00-0
 62
     7
370
    50
100
AcDbLine
 10
309.339211
 20
315.714944
 30
0.0
 11
309.339211
 21
315.714944
 31
0.0
  0
LINE
  5
157
330
14F
100
AcDbEntity
  8
LC-001-100-D00-0
 62
     7
370
    50
100
AcDbLine
 10
309.339211
 20
315.714944
 30
0.0
 11
311.179442
 21
318.911431
 31
0.0
  0
LINE
  5
158
330
14F
100
AcDbEntity
  8
LC-001-100-D00-0
 62
     7
370
    50
100
AcDbLine
 10
311.179442
 20
318.911431
 30
0.0
 11
311.179442
 21
318.911431
 31
0.0
  0
LINE
  5
159
330
14F
100
AcDbEntity
  8
LC-001-100-D00-0
 62
     7
370
    50
100
AcDbLine
 10
311.179442
 20
318.911431
 30
0.0
 11
312.6335
 21
321.437135
 31
0.0
  0
ENDBLK
  5
151
330
14F
100
AcDbEntity
  8
0
100
AcDbBlockEnd
  0
BLOCK
  5
175
330
174
100
AcDbEntity
  8
0
100
AcDbBlockBegin
  2
POLY7
 70
     0
 71
     0
 10
0.0
 20
0.0
 30
0.0
  3
POLY7
  1

  4
POLY7
  0
LINE
  5
177
330
174
100
AcDbEntity
  8
LC-001-100-D00-0
 62
     7
370
    50
100
AcDbLine
 10
314.341143
 20
275.661281
 30
0.0
 11
314.341143
 21
275.661281
 31
0.0
  0
LINE
  5
178
330
174
100
AcDbEntity
  8
LC-001-100-D00-0
 62
     7
370
    50
100
AcDbLine
 10
314.341143
 20
275.661281
 30
0.0
 11
314.270149
 21
275.870132
 31
0.0
  0
LINE
  5
179
330
174
100
AcDbEntity
  8
LC-001-100-D00-0
 62
     7
370
    50
100
AcDbLine
 10
314.270149
 20
275.870132
 30
0.0
 11
314.270149
 21
275.870132
 31
0.0
  0
LINE
  5
17A
330
174
100
AcDbEntity
  8
LC-001-100-D00-0
 62
     7
370
    50
100
AcDbLine
 10
314.270149
 20
275.870132
 30
0.0
 11
314.126131
 21
276.293806
 31
0.0
  0
LINE
  5
17B
330
174
100
AcDbEntity
  8
LC-001-100-D00-0
 62
     7
370
    50
100
AcDbLine
 10
314.126131
 20
276.293806
 30
0.0
 11
314.126131
 21
276.293806
 31
0.0
  0
LINE
  5
17C
330
174
100
AcDbEntity
  8
LC-001-100-D00-0
 62
     7
370
    50
100
AcDbLine
 10
314.126131
 20
276.293806
 30
0.0
 11
313.842304
 21
277.478766
 31
0.0
  0
LINE
  5
17D
330
174
100
AcDbEntity
  8
LC-001-100-D00-0
 62
     7
370
    50
100
AcDbLine
 10
313.842304
 20
277.478766
 30
0.0
 11
313.842304
 21
277.478766
 31
0.0
  0
LINE
  5
17E
330
174
100
AcDbEntity
  8
LC-001-100-D00-0
 62
     7
370
    50
100
AcDbLine
 10
313.842304
 20
277.478766
 30
0.0
 11
313.509783
 21
279.046381
 31
0.0
  0
LINE
  5
17F
330
174
100
AcDbEntity
  8
LC-001-100-D00-0
 62
     7
370
    50
100
AcDbLine
 10
313.509783
 20
279.046381
 30
0.0
 11
313.509783
 21
279.046381
 31
0.0
  0
LINE
  5
180
330
174
100
AcDbEntity
  8
LC-001-100-D00-0
 62
     7
370
    50
100
AcDbLine
 10
313.509783
 20
279.046381
 30
0.0
 11
313.133199
 21
280.973383
 31
0.0
  0
LINE
  5
181
330
174
100
AcDbEntity
  8
LC-001-100-D00-0
 62
     7
370
    50
100
AcDbLine
 10
313.133199
 20
280.973383
 30
0.0
 11
313.133199
 21
280.973383
 31
0.0
  0
LINE
  5
182
330
174
100
AcDbEntity
  8
LC-001-100-D00-0
 62
     7
370
    50
100
AcDbLine
 10
313.133199
 20
280.973383
 30
0.0
 11
312.714077
 21
283.227196
 31
0.0
  0
LINE
  5
183
330
174
100
AcDbEntity
  8
LC-001-100-D00-0
 62
     7
370
    50
100
AcDbLine
 10
312.714077
 20
283.227196
 30
0.0
 11
312.714077
 21
283.227196
 31
0.0
  0
LINE
  5
184
330
174
100
AcDbEntity
  8
LC-001-100-D00-0
 62
     7
370
    50
100
AcDbLine
 10
312.714077
 20
283.227196
 30
0.0
 11
312.265354
 21
285.718032
 31
0.0
  0
LINE
  5
185
330
174
100
AcDbEntity
  8
LC-001-100-D00-0
 62
     7
370
    50
100
AcDbLine
 10
312.265354
 20
285.718032
 30
0.0
 11
312.265354
 21
285.718032
 31
0.0
  0
LINE
  5
186
330
174
100
AcDbEntity
  8
LC-001-100-D00-0
 62
     7
370
    50
100
AcDbLine
 10
312.265354
 20
285.718032
 30
0.0
 11
311.789338
 21
288.413967
 31
0.0
  0
LINE
  5
187
330
174
100
AcDbEntity
  8
LC-001-100-D00-0
 62
     7
370
    50
100
AcDbLine
 10
311.789338
 20
288.413967
 30
0.0
 11
311.789338
 21
288.413967
 31
0.0
  0
LINE
  5
188
330
174
100
AcDbEntity
  8
LC-001-100-D00-0
 62
     7
370
    50
100
AcDbLine
 10
311.789338
 20
288.413967
 30
0.0
 11
311.30411
 21
291.199459
 31
0.0
  0
LINE
  5
189
330
174
100
AcDbEntity
  8
LC-001-100-D00-0
 62
     7
370
    50
100
AcDbLine
 10
311.30411
 20
291.199459
 30
0.0
 11
311.30411
 21
291.199459
 31
0.0
  0
LINE
  5
18A
330
174
100
AcDbEntity
  8
LC-001-100-D00-0
 62
     7
370
    50
100
AcDbLine
 10
311.30411
 20
291.199459
 30
0.0
 11
310.815436
 21
294.037708
 31
0.0
  0
LINE
  5
18B
330
174
100
AcDbEntity
  8
LC-001-100-D00-0
 62
     7
370
    50
100
AcDbLine
 10
310.815436
 20
294.037708
 30
0.0
 11
310.815436
 21
294.037708
 31
0.0
  0
LINE
  5
18C
330
174
100
AcDbEntity
  8
LC-001-100-D00-0
 62
     7
370
    50
100
AcDbLine
 10
310.815436
 20
294.037708
 30
0.0
 11
310.34763
 21
296.796718
 31
0.0
  0
LINE
  5
18D
330
174
100
AcDbEntity
  8
LC-001-100-D00-0
 62
     7
370
    50
100
AcDbLine
 10
310.34763
 20
296.796718
 30
0.0
 11
310.34763
 21
296.796718
 31
0.0
  0
LINE
  5
18E
330
174
100
AcDbEntity
  8
LC-001-100-D00-0
 62
     7
370
    50
100
AcDbLine
 10
310.34763
 20
296.796718
 30
0.0
 11
309.911232
 21
299.441972
 31
0.0
  0
LINE
  5
18F
330
174
100
AcDbEntity
  8
LC-001-100-D00-0
 62
     7
370
    50
100
AcDbLine
 10
309.911232
 20
299.441972
 30
0.0
 11
309.911232
 21
299.441972
 31
0.0
  0
LINE
  5
190
330
174
100
AcDbEntity
  8
LC-001-100-D00-0
 62
     7
370
    50
100
AcDbLine
 10
309.911232
 20
299.441972
 30
0.0
 11
309.536312
 21
301.836842
 31
0.0
  0
LINE
  5
191
330
174
100
AcDbEntity
  8
LC-001-100-D00-0
 62
     7
370
    50
100
AcDbLine
 10
309.536312
 20
301.836842
 30
0.0
 11
309.536312
 21
301.836842
 31
0.0
  0
LINE
  5
192
330
174
100
AcDbEntity
  8
LC-001-100-D00-0
 62
     7
370
    50
100
AcDbLine
 10
309.536312
 20
301.836842
 30
0.0
 11
309.235801
 21
303.961781
 31
0.0
  0
LINE
  5
193
330
174
100
AcDbEntity
  8
LC-001-100-D00-0
 62
     7
370
    50
100
AcDbLine
 10
309.235801
 20
303.961781
 30
0.0
 11
309.235801
 21
303.961781
 31
0.0
  0
LINE
  5
194
330
174
100
AcDbEntity
  8
LC-001-100-D00-0
 62
     7
370
    50
100
AcDbLine
 10
309.235801
 20
303.961781
 30
0.0
 11
309.019474
 21
305.857009
 31
0.0
  0
LINE
  5
195
330
174
100
AcDbEntity
  8
LC-001-100-D00-0
 62
     7
370
    50
100
AcDbLine
 10
309.019474
 20
305.857009
 30
0.0
 11
309.019474
 21
305.857009
 31
0.0
  0
LINE
  5
196
330
174
100
AcDbEntity
  8
LC-001-100-D00-0
 62
     7
370
    50
100
AcDbLine
 10
309.019474
 20
305.857009
 30
0.0
 11
308.931615
 21
307.286499
 31
0.0
  0
LINE
  5
197
330
174
100
AcDbEntity
  8
LC-001-100-D00-0
 62
     7
370
    50
100
AcDbLine
 10
308.931615
 20
307.286499
 30
0.0
 11
308.931615
 21
307.286499
 31
0.0
  0
LINE
  5
198
330
174
100
AcDbEntity
  8
LC-001-100-D00-0
 62
     7
370
    50
100
AcDbLine
 10
308.931615
 20
307.286499
 30
0.0
 11
308.989265
 21
307.811081
 31
0.0
  0
LINE
  5
199
330
174
100
AcDbEntity
  8
LC-001-100-D00-0
 62
     7
370
    50
100
AcDbLine
 10
308.989265
 20
307.811081
 30
0.0
 11
308.989265
 21
307.811081
 31
0.0
  0
LINE
  5
19A
330
174
100
AcDbEntity
  8
LC-001-100-D00-0
 62
     7
370
    50
100
AcDbLine
 10
308.989265
 20
307.811081
 30
0.0
 11
309.014142
 21
308.037448
 31
0.0
  0
ENDBLK
  5
176
330
174
100
AcDbEntity
  8
0
100
AcDbBlockEnd
  0
BLOCK
  5
19D
330
19C
100
AcDbEntity
  8
0
100
AcDbBlockBegin
  2
POLY8
 70
     0
 71
     0
 10
0.0
 20
0.0
 30
0.0
  3
POLY8
  1

  4
POLY8
  0
LINE
  5
19F
330
19C
100
AcDbEntity
  8
LC-001-100-D00-0
 62
     7
370
    50
100
AcDbLine
 10
309.111208
 20
308.247309
 30
0.0
 11
309.111208
 21
308.247309
 31
0.0
  0
LINE
  5
1A0
330
19C
100
AcDbEntity
  8
LC-001-100-D00-0
 62
     7
370
    50
100
AcDbLine
 10
309.111208
 20
308.247309
 30
0.0
 11
309.129771
 21
308.303847
 31
0.0
  0
LINE
  5
1A1
330
19C
100
AcDbEntity
  8
LC-001-100-D00-0
 62
     7
370
    50
100
AcDbLine
 10
309.129771
 20
308.303847
 30
0.0
 11
309.129771
 21
308.303847
 31
0.0
  0
LINE
  5
1A2
330
19C
100
AcDbEntity
  8
LC-001-100-D00-0
 62
     7
370
    50
100
AcDbLine
 10
309.129771
 20
308.303847
 30
0.0
 11
309.161236
 21
308.399683
 31
0.0
  0
LINE
  5
1A3
330
19C
100
AcDbEntity
  8
LC-001-100-D00-0
 62
     7
370
    50
100
AcDbLine
 10
309.161236
 20
308.399683
 30
0.0
 11
309.161236
 21
308.399683
 31
0.0
  0
LINE
  5
1A4
330
19C
100
AcDbEntity
  8
LC-001-100-D00-0
 62
     7
370
    50
100
AcDbLine
 10
309.161236
 20
308.399683
 30
0.0
 11
309.213628
 21
308.39938
 31
0.0
  0
LINE
  5
1A5
330
19C
100
AcDbEntity
  8
LC-001-100-D00-0
 62
     7
370
    50
100
AcDbLine
 10
309.213628
 20
308.39938
 30
0.0
 11
309.213628
 21
308.39938
 31
0.0
  0
LINE
  5
1A6
330
19C
100
AcDbEntity
  8
LC-001-100-D00-0
 62
     7
370
    50
100
AcDbLine
 10
309.213628
 20
308.39938
 30
0.0
 11
309.235112
 21
308.399256
 31
0.0
  0
ENDBLK
  5
19E
330
19C
100
AcDbEntity
  8
0
100
AcDbBlockEnd
  0
BLOCK
  5
20B
330
20A
100
AcDbEntity
  8
0
100
AcDbBlockBegin
  2
POLY9
 70
     0
 71
     0
 10
0.0
 20
0.0
 30
0.0
  3
POLY9
  1

  4
POLY9
  0
LINE
  5
20D
330
20A
100
AcDbEntity
  8
LC-001-100-D00-0
 62
     7
370
    50
100
AcDbLine
 10
142.684326
 20
373.644266
 30
0.0
 11
142.684326
 21
373.644266
 31
0.0
  0
LINE
  5
20E
330
20A
100
AcDbEntity
  8
LC-001-100-D00-0
 62
     7
370
    50
100
AcDbLine
 10
142.684326
 20
373.644266
 30
0.0
 11
142.830408
 21
373.644266
 31
0.0
  0
LINE
  5
20F
330
20A
100
AcDbEntity
  8
LC-001-100-D00-0
 62
     7
370
    50
100
AcDbLine
 10
142.830408
 20
373.644266
 30
0.0
 11
142.830408
 21
373.644266
 31
0.0
  0
LINE
  5
210
330
20A
100
AcDbEntity
  8
LC-001-100-D00-0
 62
     7
370
    50
100
AcDbLine
 10
142.830408
 20
373.644266
 30
0.0
 11
143.033859
 21
373.644266
 31
0.0
  0
LINE
  5
211
330
20A
100
AcDbEntity
  8
LC-001-100-D00-0
 62
     7
370
    50
100
AcDbLine
 10
143.033859
 20
373.644266
 30
0.0
 11
143.033859
 21
373.644266
 31
0.0
  0
LINE
  5
212
330
20A
100
AcDbEntity
  8
LC-001-100-D00-0
 62
     7
370
    50
100
AcDbLine
 10
143.033859
 20
373.644266
 30
0.0
 11
143.214915
 21
373.644266
 31
0.0
  0
LINE
  5
213
330
20A
100
AcDbEntity
  8
LC-001-100-D00-0
 62
     7
370
    50
100
AcDbLine
 10
143.214915
 20
373.644266
 30
0.0
 11
143.214915
 21
373.644266
 31
0.0
  0
LINE
  5
214
330
20A
100
AcDbEntity
  8
LC-001-100-D00-0
 62
     7
370
    50
100
AcDbLine
 10
143.214915
 20
373.644266
 30
0.0
 11
143.233866
 21
373.644266
 31
0.0
  0
LINE
  5
215
330
20A
100
AcDbEntity
  8
LC-001-100-D00-0
 62
     7
370
    50
100
AcDbLine
 10
143.233866
 20
373.644266
 30
0.0
 11
143.233866
 21
373.644266
 31
0.0
  0
LINE
  5
216
330
20A
100
AcDbEntity
  8
LC-001-100-D00-0
 62
     7
370
    50
100
AcDbLine
 10
143.233866
 20
373.644266
 30
0.0
 11
143.243328
 21
373.644266
 31
0.0
  0
ENDBLK
  5
20C
330
20A
100
AcDbEntity
  8
0
100
AcDbBlockEnd
  0
BLOCK
  5
325
330
324
100
AcDbEntity
  8
0
100
AcDbBlockBegin
  2
POLY10
 70
     0
 71
     0
 10
0.0
 20
0.0
 30
0.0
  3
POLY10
  1

  4
POLY10
  0
LINE
  5
327
330
324
100
AcDbEntity
  8
LC-001-100-D00-0
 62
     7
370
    50
100
AcDbLine
 10
196.013742
 20
279.844261
 30
0.0
 11
196.013742
 21
279.844261
 31
0.0
  0
LINE
  5
328
330
324
100
AcDbEntity
  8
LC-001-100-D00-0
 62
     7
370
    50
100
AcDbLine
 10
196.013742
 20
279.844261
 30
0.0
 11
195.837058
 21
280.67365
 31
0.0
  0
LINE
  5
329
330
324
100
AcDbEntity
  8
LC-001-100-D00-0
 62
     7
370
    50
100
AcDbLine
 10
195.837058
 20
280.67365
 30
0.0
 11
195.837058
 21
280.67365
 31
0.0
  0
LINE
  5
32A
330
324
100
AcDbEntity
  8
LC-001-100-D00-0
 62
     7
370
    50
100
AcDbLine
 10
195.837058
 20
280.67365
 30
0.0
 11
195.478776
 21
282.355491
 31
0.0
  0
LINE
  5
32B
330
324
100
AcDbEntity
  8
LC-001-100-D00-0
 62
     7
370
    50
100
AcDbLine
 10
195.478776
 20
282.355491
 30
0.0
 11
195.478776
 21
282.355491
 31
0.0
  0
LINE
  5
32C
330
324
100
AcDbEntity
  8
LC-001-100-D00-0
 62
     7
370
    50
100
AcDbLine
 10
195.478776
 20
282.355491
 30
0.0
 11
195.039566
 21
285.224982
 31
0.0
  0
LINE
  5
32D
330
324
100
AcDbEntity
  8
LC-001-100-D00-0
 62
     7
370
    50
100
AcDbLine
 10
195.039566
 20
285.224982
 30
0.0
 11
195.039566
 21
285.224982
 31
0.0
  0
LINE
  5
32E
330
324
100
AcDbEntity
  8
LC-001-100-D00-0
 62
     7
370
    50
100
AcDbLine
 10
195.039566
 20
285.224982
 30
0.0
 11
194.735888
 21
288.299618
 31
0.0
  0
LINE
  5
32F
330
324
100
AcDbEntity
  8
LC-001-100-D00-0
 62
     7
370
    50
100
AcDbLine
 10
194.735888
 20
288.299618
 30
0.0
 11
194.735888
 21
288.299618
 31
0.0
  0
LINE
  5
330
330
324
100
AcDbEntity
  8
LC-001-100-D00-0
 62
     7
370
    50
100
AcDbLine
 10
194.735888
 20
288.299618
 30
0.0
 11
194.616781
 21
291.425187
 31
0.0
  0
LINE
  5
331
330
324
100
AcDbEntity
  8
LC-001-100-D00-0
 62
     7
370
    50
100
AcDbLine
 10
194.616781
 20
291.425187
 30
0.0
 11
194.616781
 21
291.425187
 31
0.0
  0
LINE
  5
332
330
324
100
AcDbEntity
  8
LC-001-100-D00-0
 62
     7
370
    50
100
AcDbLine
 10
194.616781
 20
291.425187
 30
0.0
 11
194.687456
 21
294.547605
 31
0.0
  0
LINE
  5
333
330
324
100
AcDbEntity
  8
LC-001-100-D00-0
 62
     7
370
    50
100
AcDbLine
 10
194.687456
 20
294.547605
 30
0.0
 11
194.687456
 21
294.547605
 31
0.0
  0
LINE
  5
334
330
324
100
AcDbEntity
  8
LC-001-100-D00-0
 62
     7
370
    50
100
AcDbLine
 10
194.687456
 20
294.547605
 30
0.0
 11
194.92837
 21
297.514073
 31
0.0
  0
LINE
  5
335
330
324
100
AcDbEntity
  8
LC-001-100-D00-0
 62
     7
370
    50
100
AcDbLine
 10
194.92837
 20
297.514073
 30
0.0
 11
194.92837
 21
297.514073
 31
0.0
  0
LINE
  5
336
330
324
100
AcDbEntity
  8
LC-001-100-D00-0
 62
     7
370
    50
100
AcDbLine
 10
194.92837
 20
297.514073
 30
0.0
 11
195.31378
 21
300.339503
 31
0.0
  0
LINE
  5
337
330
324
100
AcDbEntity
  8
LC-001-100-D00-0
 62
     7
370
    50
100
AcDbLine
 10
195.31378
 20
300.339503
 30
0.0
 11
195.31378
 21
300.339503
 31
0.0
  0
LINE
  5
338
330
324
100
AcDbEntity
  8
LC-001-100-D00-0
 62
     7
370
    50
100
AcDbLine
 10
195.31378
 20
300.339503
 30
0.0
 11
195.846995
 21
303.196868
 31
0.0
  0
LINE
  5
339
330
324
100
AcDbEntity
  8
LC-001-100-D00-0
 62
     7
370
    50
100
AcDbLine
 10
195.846995
 20
303.196868
 30
0.0
 11
195.846995
 21
303.196868
 31
0.0
  0
LINE
  5
33A
330
324
100
AcDbEntity
  8
LC-001-100-D00-0
 62
     7
370
    50
100
AcDbLine
 10
195.846995
 20
303.196868
 30
0.0
 11
196.453758
 21
305.733262
 31
0.0
  0
LINE
  5
33B
330
324
100
AcDbEntity
  8
LC-001-100-D00-0
 62
     7
370
    50
100
AcDbLine
 10
196.453758
 20
305.733262
 30
0.0
 11
196.453758
 21
305.733262
 31
0.0
  0
LINE
  5
33C
330
324
100
AcDbEntity
  8
LC-001-100-D00-0
 62
     7
370
    50
100
AcDbLine
 10
196.453758
 20
305.733262
 30
0.0
 11
197.04371
 21
307.840388
 31
0.0
  0
LINE
  5
33D
330
324
100
AcDbEntity
  8
LC-001-100-D00-0
 62
     7
370
    50
100
AcDbLine
 10
197.04371
 20
307.840388
 30
0.0
 11
197.04371
 21
307.840388
 31
0.0
  0
LINE
  5
33E
330
324
100
AcDbEntity
  8
LC-001-100-D00-0
 62
     7
370
    50
100
AcDbLine
 10
197.04371
 20
307.840388
 30
0.0
 11
197.508955
 21
309.344357
 31
0.0
  0
LINE
  5
33F
330
324
100
AcDbEntity
  8
LC-001-100-D00-0
 62
     7
370
    50
100
AcDbLine
 10
197.508955
 20
309.344357
 30
0.0
 11
197.508955
 21
309.344357
 31
0.0
  0
LINE
  5
340
330
324
100
AcDbEntity
  8
LC-001-100-D00-0
 62
     7
370
    50
100
AcDbLine
 10
197.508955
 20
309.344357
 30
0.0
 11
197.848245
 21
310.372312
 31
0.0
  0
LINE
  5
341
330
324
100
AcDbEntity
  8
LC-001-100-D00-0
 62
     7
370
    50
100
AcDbLine
 10
197.848245
 20
310.372312
 30
0.0
 11
197.848245
 21
310.372312
 31
0.0
  0
LINE
  5
342
330
324
100
AcDbEntity
  8
LC-001-100-D00-0
 62
     7
370
    50
100
AcDbLine
 10
197.848245
 20
310.372312
 30
0.0
 11
197.994716
 21
310.799716
 31
0.0
  0
LINE
  5
343
330
324
100
AcDbEntity
  8
LC-001-100-D00-0
 62
     7
370
    50
100
AcDbLine
 10
197.994716
 20
310.799716
 30
0.0
 11
197.994716
 21
310.799716
 31
0.0
  0
LINE
  5
344
330
324
100
AcDbEntity
  8
LC-001-100-D00-0
 62
     7
370
    50
100
AcDbLine
 10
197.994716
 20
310.799716
 30
0.0
 11
198.00649
 21
310.834034
 31
0.0
  0
LINE
  5
345
330
324
100
AcDbEntity
  8
LC-001-100-D00-0
 62
     7
370
    50
100
AcDbLine
 10
198.00649
 20
310.834034
 30
0.0
 11
198.00649
 21
310.834034
 31
0.0
  0
LINE
  5
346
330
324
100
AcDbEntity
  8
LC-001-100-D00-0
 62
     7
370
    50
100
AcDbLine
 10
198.00649
 20
310.834034
 30
0.0
 11
198.009998
 21
310.844261
 31
0.0
  0
ENDBLK
  5
326
330
324
100
AcDbEntity
  8
0
100
AcDbBlockEnd
  0
BLOCK
  5
34E
330
34D
100
AcDbEntity
  8
0
100
AcDbBlockBegin
  2
POLY11
 70
     0
 71
     0
 10
0.0
 20
0.0
 30
0.0
  3
POLY11
  1

  4
POLY11
  0
LINE
  5
350
330
34D
100
AcDbEntity
  8
LC-001-100-D00-0
 62
     7
370
    50
100
AcDbLine
 10
191.009992
 20
272.844262
 30
0.0
 11
191.009992
 21
272.844262
 31
0.0
  0
LINE
  5
351
330
34D
100
AcDbEntity
  8
LC-001-100-D00-0
 62
     7
370
    50
100
AcDbLine
 10
191.009992
 20
272.844262
 30
0.0
 11
191.01476
 21
272.844265
 31
0.0
  0
LINE
  5
352
330
34D
100
AcDbEntity
  8
LC-001-100-D00-0
 62
     7
370
    50
100
AcDbLine
 10
191.01476
 20
272.844265
 30
0.0
 11
191.01476
 21
272.844265
 31
0.0
  0
LINE
  5
353
330
34D
100
AcDbEntity
  8
LC-001-100-D00-0
 62
     7
370
    50
100
AcDbLine
 10
191.01476
 20
272.844265
 30
0.0
 11
191.62658
 21
272.844693
 31
0.0
  0
LINE
  5
354
330
34D
100
AcDbEntity
  8
LC-001-100-D00-0
 62
     7
370
    50
100
AcDbLine
 10
191.62658
 20
272.844693
 30
0.0
 11
191.62658
 21
272.844693
 31
0.0
  0
LINE
  5
355
330
34D
100
AcDbEntity
  8
LC-001-100-D00-0
 62
     7
370
    50
100
AcDbLine
 10
191.62658
 20
272.844693
 30
0.0
 11
192.816003
 21
273.007999
 31
0.0
  0
LINE
  5
356
330
34D
100
AcDbEntity
  8
LC-001-100-D00-0
 62
     7
370
    50
100
AcDbLine
 10
192.816003
 20
273.007999
 30
0.0
 11
192.816003
 21
273.007999
 31
0.0
  0
LINE
  5
357
330
34D
100
AcDbEntity
  8
LC-001-100-D00-0
 62
     7
370
    50
100
AcDbLine
 10
192.816003
 20
273.007999
 30
0.0
 11
194.218943
 21
273.710365
 31
0.0
  0
LINE
  5
358
330
34D
100
AcDbEntity
  8
LC-001-100-D00-0
 62
     7
370
    50
100
AcDbLine
 10
194.218943
 20
273.710365
 30
0.0
 11
194.218943
 21
273.710365
 31
0.0
  0
LINE
  5
359
330
34D
100
AcDbEntity
  8
LC-001-100-D00-0
 62
     7
370
    50
100
AcDbLine
 10
194.218943
 20
273.710365
 30
0.0
 11
195.242265
 21
274.756001
 31
0.0
  0
LINE
  5
35A
330
34D
100
AcDbEntity
  8
LC-001-100-D00-0
 62
     7
370
    50
100
AcDbLine
 10
195.242265
 20
274.756001
 30
0.0
 11
195.242265
 21
274.756001
 31
0.0
  0
LINE
  5
35B
330
34D
100
AcDbEntity
  8
LC-001-100-D00-0
 62
     7
370
    50
100
AcDbLine
 10
195.242265
 20
274.756001
 30
0.0
 11
195.860973
 21
275.906106
 31
0.0
  0
LINE
  5
35C
330
34D
100
AcDbEntity
  8
LC-001-100-D00-0
 62
     7
370
    50
100
AcDbLine
 10
195.860973
 20
275.906106
 30
0.0
 11
195.860973
 21
275.906106
 31
0.0
  0
LINE
  5
35D
330
34D
100
AcDbEntity
  8
LC-001-100-D00-0
 62
     7
370
    50
100
AcDbLine
 10
195.860973
 20
275.906106
 30
0.0
 11
196.185128
 21
277.230518
 31
0.0
  0
LINE
  5
35E
330
34D
100
AcDbEntity
  8
LC-001-100-D00-0
 62
     7
370
    50
100
AcDbLine
 10
196.185128
 20
277.230518
 30
0.0
 11
196.185128
 21
277.230518
 31
0.0
  0
LINE
  5
35F
330
34D
100
AcDbEntity
  8
LC-001-100-D00-0
 62
     7
370
    50
100
AcDbLine
 10
196.185128
 20
277.230518
 30
0.0
 11
196.248347
 21
278.524008
 31
0.0
  0
LINE
  5
360
330
34D
100
AcDbEntity
  8
LC-001-100-D00-0
 62
     7
370
    50
100
AcDbLine
 10
196.248347
 20
278.524008
 30
0.0
 11
196.248347
 21
278.524008
 31
0.0
  0
LINE
  5
361
330
34D
100
AcDbEntity
  8
LC-001-100-D00-0
 62
     7
370
    50
100
AcDbLine
 10
196.248347
 20
278.524008
 30
0.0
 11
196.084672
 21
279.445098
 31
0.0
  0
LINE
  5
362
330
34D
100
AcDbEntity
  8
LC-001-100-D00-0
 62
     7
370
    50
100
AcDbLine
 10
196.084672
 20
279.445098
 30
0.0
 11
196.084672
 21
279.445098
 31
0.0
  0
LINE
  5
363
330
34D
100
AcDbEntity
  8
LC-001-100-D00-0
 62
     7
370
    50
100
AcDbLine
 10
196.084672
 20
279.445098
 30
0.0
 11
196.013742
 21
279.844261
 31
0.0
  0
ENDBLK
  5
34F
330
34D
100
AcDbEntity
  8
0
100
AcDbBlockEnd
  0
BLOCK
  5
3C7
330
3C6
100
AcDbEntity
  8
0
100
AcDbBlockBegin
  2
POLY12
 70
     0
 71
     0
 10
0.0
 20
0.0
 30
0.0
  3
POLY12
  1

  4
POLY12
  0
LINE
  5
3C9
330
3C6
100
AcDbEntity
  8
LC-001-100-D00-0
 62
     7
370
    50
100
AcDbLine
 10
233.659998
 20
225.770875
 30
0.0
 11
233.659998
 21
225.770875
 31
0.0
  0
LINE
  5
3CA
330
3C6
100
AcDbEntity
  8
LC-001-100-D00-0
 62
     7
370
    50
100
AcDbLine
 10
233.659998
 20
225.770875
 30
0.0
 11
233.780216
 21
225.770875
 31
0.0
  0
LINE
  5
3CB
330
3C6
100
AcDbEntity
  8
LC-001-100-D00-0
 62
     7
370
    50
100
AcDbLine
 10
233.780216
 20
225.770875
 30
0.0
 11
233.780216
 21
225.770875
 31
0.0
  0
LINE
  5
3CC
330
3C6
100
AcDbEntity
  8
LC-001-100-D00-0
 62
     7
370
    50
100
AcDbLine
 10
233.780216
 20
225.770875
 30
0.0
 11
233.965149
 21
225.770875
 31
0.0
  0
LINE
  5
3CD
330
3C6
100
AcDbEntity
  8
LC-001-100-D00-0
 62
     7
370
    50
100
AcDbLine
 10
233.965149
 20
225.770875
 30
0.0
 11
233.965149
 21
225.770875
 31
0.0
  0
LINE
  5
3CE
330
3C6
100
AcDbEntity
  8
LC-001-100-D00-0
 62
     7
370
    50
100
AcDbLine
 10
233.965149
 20
225.770875
 30
0.0
 11
235.087436
 21
225.770875
 31
0.0
  0
LINE
  5
3CF
330
3C6
100
AcDbEntity
  8
LC-001-100-D00-0
 62
     7
370
    50
100
AcDbLine
 10
235.087436
 20
225.770875
 30
0.0
 11
235.087436
 21
225.770875
 31
0.0
  0
LINE
  5
3D0
330
3C6
100
AcDbEntity
  8
LC-001-100-D00-0
 62
     7
370
    50
100
AcDbLine
 10
235.087436
 20
225.770875
 30
0.0
 11
236.248982
 21
225.770875
 31
0.0
  0
LINE
  5
3D1
330
3C6
100
AcDbEntity
  8
LC-001-100-D00-0
 62
     7
370
    50
100
AcDbLine
 10
236.248982
 20
225.770875
 30
0.0
 11
236.248982
 21
225.770875
 31
0.0
  0
LINE
  5
3D2
330
3C6
100
AcDbEntity
  8
LC-001-100-D00-0
 62
     7
370
    50
100
AcDbLine
 10
236.248982
 20
225.770875
 30
0.0
 11
237.690853
 21
225.770875
 31
0.0
  0
LINE
  5
3D3
330
3C6
100
AcDbEntity
  8
LC-001-100-D00-0
 62
     7
370
    50
100
AcDbLine
 10
237.690853
 20
225.770875
 30
0.0
 11
237.690853
 21
225.770875
 31
0.0
  0
LINE
  5
3D4
330
3C6
100
AcDbEntity
  8
LC-001-100-D00-0
 62
     7
370
    50
100
AcDbLine
 10
237.690853
 20
225.770875
 30
0.0
 11
239.786199
 21
225.770875
 31
0.0
  0
LINE
  5
3D5
330
3C6
100
AcDbEntity
  8
LC-001-100-D00-0
 62
     7
370
    50
100
AcDbLine
 10
239.786199
 20
225.770875
 30
0.0
 11
239.786199
 21
225.770875
 31
0.0
  0
LINE
  5
3D6
330
3C6
100
AcDbEntity
  8
LC-001-100-D00-0
 62
     7
370
    50
100
AcDbLine
 10
239.786199
 20
225.770875
 30
0.0
 11
242.659997
 21
225.770875
 31
0.0
  0
LINE
  5
3D7
330
3C6
100
AcDbEntity
  8
LC-001-100-D00-0
 62
     7
370
    50
100
AcDbLine
 10
242.659997
 20
225.770875
 30
0.0
 11
242.659997
 21
225.770875
 31
0.0
  0
LINE
  5
3D8
330
3C6
100
AcDbEntity
  8
LC-001-100-D00-0
 62
     7
370
    50
100
AcDbLine
 10
242.659997
 20
225.770875
 30
0.0
 11
245.533794
 21
225.770875
 31
0.0
  0
LINE
  5
3D9
330
3C6
100
AcDbEntity
  8
LC-001-100-D00-0
 62
     7
370
    50
100
AcDbLine
 10
245.533794
 20
225.770875
 30
0.0
 11
245.533794
 21
225.770875
 31
0.0
  0
LINE
  5
3DA
330
3C6
100
AcDbEntity
  8
LC-001-100-D00-0
 62
     7
370
    50
100
AcDbLine
 10
245.533794
 20
225.770875
 30
0.0
 11
247.629135
 21
225.770875
 31
0.0
  0
LINE
  5
3DB
330
3C6
100
AcDbEntity
  8
LC-001-100-D00-0
 62
     7
370
    50
100
AcDbLine
 10
247.629135
 20
225.770875
 30
0.0
 11
247.629135
 21
225.770875
 31
0.0
  0
LINE
  5
3DC
330
3C6
100
AcDbEntity
  8
LC-001-100-D00-0
 62
     7
370
    50
100
AcDbLine
 10
247.629135
 20
225.770875
 30
0.0
 11
249.071006
 21
225.770875
 31
0.0
  0
LINE
  5
3DD
330
3C6
100
AcDbEntity
  8
LC-001-100-D00-0
 62
     7
370
    50
100
AcDbLine
 10
249.071006
 20
225.770875
 30
0.0
 11
249.071006
 21
225.770875
 31
0.0
  0
LINE
  5
3DE
330
3C6
100
AcDbEntity
  8
LC-001-100-D00-0
 62
     7
370
    50
100
AcDbLine
 10
249.071006
 20
225.770875
 30
0.0
 11
250.232552
 21
225.770875
 31
0.0
  0
LINE
  5
3DF
330
3C6
100
AcDbEntity
  8
LC-001-100-D00-0
 62
     7
370
    50
100
AcDbLine
 10
250.232552
 20
225.770875
 30
0.0
 11
250.232552
 21
225.770875
 31
0.0
  0
LINE
  5
3E0
330
3C6
100
AcDbEntity
  8
LC-001-100-D00-0
 62
     7
370
    50
100
AcDbLine
 10
250.232552
 20
225.770875
 30
0.0
 11
251.35484
 21
225.770875
 31
0.0
  0
LINE
  5
3E1
330
3C6
100
AcDbEntity
  8
LC-001-100-D00-0
 62
     7
370
    50
100
AcDbLine
 10
251.35484
 20
225.770875
 30
0.0
 11
251.35484
 21
225.770875
 31
0.0
  0
LINE
  5
3E2
330
3C6
100
AcDbEntity
  8
LC-001-100-D00-0
 62
     7
370
    50
100
AcDbLine
 10
251.35484
 20
225.770875
 30
0.0
 11
251.539772
 21
225.770875
 31
0.0
  0
LINE
  5
3E3
330
3C6
100
AcDbEntity
  8
LC-001-100-D00-0
 62
     7
370
    50
100
AcDbLine
 10
251.539772
 20
225.770875
 30
0.0
 11
251.539772
 21
225.770875
 31
0.0
  0
LINE
  5
3E4
330
3C6
100
AcDbEntity
  8
LC-001-100-D00-0
 62
     7
370
    50
100
AcDbLine
 10
251.539772
 20
225.770875
 30
0.0
 11
251.65999
 21
225.770875
 31
0.0
  0
ENDBLK
  5
3C8
330
3C6
100
AcDbEntity
  8
0
100
AcDbBlockEnd
  0
BLOCK
  5
3E8
330
3E7
100
AcDbEntity
  8
0
100
AcDbBlockBegin
  2
POLY13
 70
     0
 71
     0
 10
0.0
 20
0.0
 30
0.0
  3
POLY13
  1

  4
POLY13
  0
LINE
  5
3EA
330
3E7
100
AcDbEntity
  8
LC-001-100-D00-0
 62
     7
370
    50
100
AcDbLine
 10
33.659995
 20
225.770875
 30
0.0
 11
33.659995
 21
225.770875
 31
0.0
  0
LINE
  5
3EB
330
3E7
100
AcDbEntity
  8
LC-001-100-D00-0
 62
     7
370
    50
100
AcDbLine
 10
33.659995
 20
225.770875
 30
0.0
 11
33.780216
 21
225.770875
 31
0.0
  0
LINE
  5
3EC
330
3E7
100
AcDbEntity
  8
LC-001-100-D00-0
 62
     7
370
    50
100
AcDbLine
 10
33.780216
 20
225.770875
 30
0.0
 11
33.780216
 21
225.770875
 31
0.0
  0
LINE
  5
3ED
330
3E7
100
AcDbEntity
  8
LC-001-100-D00-0
 62
     7
370
    50
100
AcDbLine
 10
33.780216
 20
225.770875
 30
0.0
 11
33.965154
 21
225.770875
 31
0.0
  0
LINE
  5
3EE
330
3E7
100
AcDbEntity
  8
LC-001-100-D00-0
 62
     7
370
    50
100
AcDbLine
 10
33.965154
 20
225.770875
 30
0.0
 11
33.965154
 21
225.770875
 31
0.0
  0
LINE
  5
3EF
330
3E7
100
AcDbEntity
  8
LC-001-100-D00-0
 62
     7
370
    50
100
AcDbLine
 10
33.965154
 20
225.770875
 30
0.0
 11
35.08744
 21
225.770875
 31
0.0
  0
LINE
  5
3F0
330
3E7
100
AcDbEntity
  8
LC-001-100-D00-0
 62
     7
370
    50
100
AcDbLine
 10
35.08744
 20
225.770875
 30
0.0
 11
35.08744
 21
225.770875
 31
0.0
  0
LINE
  5
3F1
330
3E7
100
AcDbEntity
  8
LC-001-100-D00-0
 62
     7
370
    50
100
AcDbLine
 10
35.08744
 20
225.770875
 30
0.0
 11
36.248986
 21
225.770875
 31
0.0
  0
LINE
  5
3F2
330
3E7
100
AcDbEntity
  8
LC-001-100-D00-0
 62
     7
370
    50
100
AcDbLine
 10
36.248986
 20
225.770875
 30
0.0
 11
36.248986
 21
225.770875
 31
0.0
  0
LINE
  5
3F3
330
3E7
100
AcDbEntity
  8
LC-001-100-D00-0
 62
     7
370
    50
100
AcDbLine
 10
36.248986
 20
225.770875
 30
0.0
 11
37.690851
 21
225.770875
 31
0.0
  0
LINE
  5
3F4
330
3E7
100
AcDbEntity
  8
LC-001-100-D00-0
 62
     7
370
    50
100
AcDbLine
 10
37.690851
 20
225.770875
 30
0.0
 11
37.690851
 21
225.770875
 31
0.0
  0
LINE
  5
3F5
330
3E7
100
AcDbEntity
  8
LC-001-100-D00-0
 62
     7
370
    50
100
AcDbLine
 10
37.690851
 20
225.770875
 30
0.0
 11
39.786195
 21
225.770875
 31
0.0
  0
LINE
  5
3F6
330
3E7
100
AcDbEntity
  8
LC-001-100-D00-0
 62
     7
370
    50
100
AcDbLine
 10
39.786195
 20
225.770875
 30
0.0
 11
39.786195
 21
225.770875
 31
0.0
  0
LINE
  5
3F7
330
3E7
100
AcDbEntity
  8
LC-001-100-D00-0
 62
     7
370
    50
100
AcDbLine
 10
39.786195
 20
225.770875
 30
0.0
 11
42.659995
 21
225.770875
 31
0.0
  0
LINE
  5
3F8
330
3E7
100
AcDbEntity
  8
LC-001-100-D00-0
 62
     7
370
    50
100
AcDbLine
 10
42.659995
 20
225.770875
 30
0.0
 11
42.659995
 21
225.770875
 31
0.0
  0
LINE
  5
3F9
330
3E7
100
AcDbEntity
  8
LC-001-100-D00-0
 62
     7
370
    50
100
AcDbLine
 10
42.659995
 20
225.770875
 30
0.0
 11
45.533794
 21
225.770875
 31
0.0
  0
LINE
  5
3FA
330
3E7
100
AcDbEntity
  8
LC-001-100-D00-0
 62
     7
370
    50
100
AcDbLine
 10
45.533794
 20
225.770875
 30
0.0
 11
45.533794
 21
225.770875
 31
0.0
  0
LINE
  5
3FB
330
3E7
100
AcDbEntity
  8
LC-001-100-D00-0
 62
     7
370
    50
100
AcDbLine
 10
45.533794
 20
225.770875
 30
0.0
 11
47.629137
 21
225.770875
 31
0.0
  0
LINE
  5
3FC
330
3E7
100
AcDbEntity
  8
LC-001-100-D00-0
 62
     7
370
    50
100
AcDbLine
 10
47.629137
 20
225.770875
 30
0.0
 11
47.629137
 21
225.770875
 31
0.0
  0
LINE
  5
3FD
330
3E7
100
AcDbEntity
  8
LC-001-100-D00-0
 62
     7
370
    50
100
AcDbLine
 10
47.629137
 20
225.770875
 30
0.0
 11
49.071001
 21
225.770875
 31
0.0
  0
LINE
  5
3FE
330
3E7
100
AcDbEntity
  8
LC-001-100-D00-0
 62
     7
370
    50
100
AcDbLine
 10
49.071001
 20
225.770875
 30
0.0
 11
49.071001
 21
225.770875
 31
0.0
  0
LINE
  5
3FF
330
3E7
100
AcDbEntity
  8
LC-001-100-D00-0
 62
     7
370
    50
100
AcDbLine
 10
49.071001
 20
225.770875
 30
0.0
 11
50.232552
 21
225.770875
 31
0.0
  0
LINE
  5
400
330
3E7
100
AcDbEntity
  8
LC-001-100-D00-0
 62
     7
370
    50
100
AcDbLine
 10
50.232552
 20
225.770875
 30
0.0
 11
50.232552
 21
225.770875
 31
0.0
  0
LINE
  5
401
330
3E7
100
AcDbEntity
  8
LC-001-100-D00-0
 62
     7
370
    50
100
AcDbLine
 10
50.232552
 20
225.770875
 30
0.0
 11
51.354837
 21
225.770875
 31
0.0
  0
LINE
  5
402
330
3E7
100
AcDbEntity
  8
LC-001-100-D00-0
 62
     7
370
    50
100
AcDbLine
 10
51.354837
 20
225.770875
 30
0.0
 11
51.354837
 21
225.770875
 31
0.0
  0
LINE
  5
403
330
3E7
100
AcDbEntity
  8
LC-001-100-D00-0
 62
     7
370
    50
100
AcDbLine
 10
51.354837
 20
225.770875
 30
0.0
 11
51.539774
 21
225.770875
 31
0.0
  0
LINE
  5
404
330
3E7
100
AcDbEntity
  8
LC-001-100-D00-0
 62
     7
370
    50
100
AcDbLine
 10
51.539774
 20
225.770875
 30
0.0
 11
51.539774
 21
225.770875
 31
0.0
  0
LINE
  5
405
330
3E7
100
AcDbEntity
  8
LC-001-100-D00-0
 62
     7
370
    50
100
AcDbLine
 10
51.539774
 20
225.770875
 30
0.0
 11
51.659994
 21
225.770875
 31
0.0
  0
ENDBLK
  5
3E9
330
3E7
100
AcDbEntity
  8
0
100
AcDbBlockEnd
  0
BLOCK
  5
417
330
416
100
AcDbEntity
  8
0
100
AcDbBlockBegin
  2
KLON1
 70
     0
 71
     0
 10
0.0
 20
0.0
 30
0.0
  3
KLON1
  1

  4
KLON1
  0
LINE
  5
419
330
416
100
AcDbEntity
  8
LC-001-100-D00-0
 62
     7
370
    25
100
AcDbLine
 10
27.868996
 20
310.344262
 30
0.0
 11
15.998559
 21
322.214699
 31
0.0
  0
LINE
  5
41A
330
416
100
AcDbEntity
  8
LC-001-100-D00-0
 62
     7
370
    25
100
AcDbLine
 10
36.849252
 20
310.344262
 30
0.0
 11
16.573601
 21
330.619913
 31
0.0
  0
LINE
  5
41B
330
416
100
AcDbEntity
  8
LC-001-100-D00-0
 62
     7
370
    25
100
AcDbLine
 10
45.829508
 20
310.344262
 30
0.0
 11
18.471353
 21
337.702417
 31
0.0
  0
LINE
  5
41C
330
416
100
AcDbEntity
  8
LC-001-100-D00-0
 62
     7
370
    25
100
AcDbLine
 10
54.809764
 20
310.344262
 30
0.0
 11
24.809764
 21
340.344262
 31
0.0
  0
LINE
  5
41D
330
416
100
AcDbEntity
  8
LC-001-100-D00-0
 62
     7
370
    25
100
AcDbLine
 10
63.79002
 20
310.344262
 30
0.0
 11
33.79002
 21
340.344262
 31
0.0
  0
LINE
  5
41E
330
416
100
AcDbEntity
  8
LC-001-100-D00-0
 62
     7
370
    25
100
AcDbLine
 10
72.770276
 20
310.344262
 30
0.0
 11
42.770276
 21
340.344262
 31
0.0
  0
LINE
  5
41F
330
416
100
AcDbEntity
  8
LC-001-100-D00-0
 62
     7
370
    25
100
AcDbLine
 10
81.750532
 20
310.344262
 30
0.0
 11
51.750532
 21
340.344262
 31
0.0
  0
LINE
  5
420
330
416
100
AcDbEntity
  8
LC-001-100-D00-0
 62
     7
370
    25
100
AcDbLine
 10
84.809995
 20
316.265056
 30
0.0
 11
78.230789
 21
322.844262
 31
0.0
  0
LINE
  5
421
330
416
100
AcDbEntity
  8
LC-001-100-D00-0
 62
     7
370
    25
100
AcDbLine
 10
77.659995
 20
323.415056
 30
0.0
 11
60.730789
 21
340.344262
 31
0.0
  0
LINE
  5
422
330
416
100
AcDbEntity
  8
LC-001-100-D00-0
 62
     7
370
    25
100
AcDbLine
 10
84.711045
 20
325.344262
 30
0.0
 11
69.711045
 21
340.344262
 31
0.0
  0
LINE
  5
423
330
416
100
AcDbEntity
  8
LC-001-100-D00-0
 62
     7
370
    25
100
AcDbLine
 10
80.659995
 20
338.375568
 30
0.0
 11
78.691301
 21
340.344262
 31
0.0
  0
ENDBLK
  5
418
330
416
100
AcDbEntity
  8
0
100
AcDbBlockEnd
  0
BLOCK
  5
426
330
425
100
AcDbEntity
  8
0
100
AcDbBlockBegin
  2
KLON2
 70
     0
 71
     0
 10
0.0
 20
0.0
 30
0.0
  3
KLON2
  1

  4
KLON2
  0
LINE
  5
428
330
425
100
AcDbEntity
  8
LC-001-100-D00-0
 62
     7
370
    25
100
AcDbLine
 10
204.474118
 20
313.344262
 30
0.0
 11
200.509995
 21
317.308385
 31
0.0
  0
LINE
  5
429
330
425
100
AcDbEntity
  8
LC-001-100-D00-0
 62
     7
370
    25
100
AcDbLine
 10
213.454374
 20
313.344262
 30
0.0
 11
203.954374
 21
322.844262
 31
0.0
  0
LINE
  5
42A
330
425
100
AcDbEntity
  8
LC-001-100-D00-0
 62
     7
370
    25
100
AcDbLine
 10
201.454374
 20
325.344262
 30
0.0
 11
200.509995
 21
326.288642
 31
0.0
  0
LINE
  5
42B
330
425
100
AcDbEntity
  8
LC-001-100-D00-0
 62
     7
370
    25
100
AcDbLine
 10
222.43463
 20
313.344262
 30
0.0
 11
202.43463
 21
333.344262
 31
0.0
  0
LINE
  5
42C
330
425
100
AcDbEntity
  8
LC-001-100-D00-0
 62
     7
370
    25
100
AcDbLine
 10
223.414887
 20
321.344262
 30
0.0
 11
204.659995
 21
340.099154
 31
0.0
  0
LINE
  5
42D
330
425
100
AcDbEntity
  8
LC-001-100-D00-0
 62
     7
370
    25
100
AcDbLine
 10
232.395143
 20
321.344262
 30
0.0
 11
213.395143
 21
340.344262
 31
0.0
  0
LINE
  5
42E
330
425
100
AcDbEntity
  8
LC-001-100-D00-0
 62
     7
370
    25
100
AcDbLine
 10
241.375399
 20
321.344262
 30
0.0
 11
222.375399
 21
340.344262
 31
0.0
  0
LINE
  5
42F
330
425
100
AcDbEntity
  8
LC-001-100-D00-0
 62
     7
370
    25
100
AcDbLine
 10
250.355655
 20
321.344262
 30
0.0
 11
231.355655
 21
340.344262
 31
0.0
  0
LINE
  5
430
330
425
100
AcDbEntity
  8
LC-001-100-D00-0
 62
     7
370
    25
100
AcDbLine
 10
259.335911
 20
321.344262
 30
0.0
 11
240.335911
 21
340.344262
 31
0.0
  0
LINE
  5
431
330
425
100
AcDbEntity
  8
LC-001-100-D00-0
 62
     7
370
    25
100
AcDbLine
 10
268.316167
 20
321.344262
 30
0.0
 11
249.316167
 21
340.344262
 31
0.0
  0
LINE
  5
432
330
425
100
AcDbEntity
  8
LC-001-100-D00-0
 62
     7
370
    25
100
AcDbLine
 10
269.011982
 20
329.628703
 30
0.0
 11
258.296423
 21
340.344262
 31
0.0
  0
ENDBLK
  5
427
330
425
100
AcDbEntity
  8
0
100
AcDbBlockEnd
  0
BLOCK
  5
435
330
434
100
AcDbEntity
  8
0
100
AcDbBlockBegin
  2
KLON3
 70
     0
 71
     0
 10
0.0
 20
0.0
 30
0.0
  3
KLON3
  1

  4
KLON3
  0
LINE
  5
437
330
434
100
AcDbEntity
  8
LC-001-100-D00-0
 62
     7
370
    25
100
AcDbLine
 10
206.974118
 20
310.844262
 30
0.0
 11
204.474118
 21
313.344262
 31
0.0
  0
LINE
  5
438
330
434
100
AcDbEntity
  8
LC-001-100-D00-0
 62
     7
370
    25
100
AcDbLine
 10
200.509995
 20
317.308385
 30
0.0
 11
198.009995
 21
319.808385
 31
0.0
  0
LINE
  5
439
330
434
100
AcDbEntity
  8
LC-001-100-D00-0
 62
     7
370
    25
100
AcDbLine
 10
215.954374
 20
310.844262
 30
0.0
 11
213.454374
 21
313.344262
 31
0.0
  0
LINE
  5
43A
330
434
100
AcDbEntity
  8
LC-001-100-D00-0
 62
     7
370
    25
100
AcDbLine
 10
203.954374
 20
322.844262
 30
0.0
 11
201.454374
 21
325.344262
 31
0.0
  0
LINE
  5
43B
330
434
100
AcDbEntity
  8
LC-001-100-D00-0
 62
     7
370
    25
100
AcDbLine
 10
224.93463
 20
310.844262
 30
0.0
 11
222.43463
 21
313.344262
 31
0.0
  0
LINE
  5
43C
330
434
100
AcDbEntity
  8
LC-001-100-D00-0
 62
     7
370
    25
100
AcDbLine
 10
233.914887
 20
310.844262
 30
0.0
 11
228.227317
 21
316.531831
 31
0.0
  0
LINE
  5
43D
330
434
100
AcDbEntity
  8
LC-001-100-D00-0
 62
     7
370
    25
100
AcDbLine
 10
242.895143
 20
310.844262
 30
0.0
 11
237.327998
 21
316.411407
 31
0.0
  0
LINE
  5
43E
330
434
100
AcDbEntity
  8
LC-001-100-D00-0
 62
     7
370
    25
100
AcDbLine
 10
235.859995
 20
317.87941
 30
0.0
 11
234.616338
 21
319.123067
 31
0.0
  0
LINE
  5
43F
330
434
100
AcDbEntity
  8
LC-001-100-D00-0
 62
     7
370
    25
100
AcDbLine
 10
251.364964
 20
311.354697
 30
0.0
 11
249.886441
 21
312.833219
 31
0.0
  0
ENDBLK
  5
436
330
434
100
AcDbEntity
  8
0
100
AcDbBlockEnd
  0
BLOCK
  5
442
330
441
100
AcDbEntity
  8
0
100
AcDbBlockBegin
  2
KLON4
 70
     0
 71
     0
 10
0.0
 20
0.0
 30
0.0
  3
KLON4
  1

  4
KLON4
  0
LINE
  5
444
330
441
100
AcDbEntity
  8
LC-001-100-D00-0
 62
     7
370
    25
100
AcDbLine
 10
94.809764
 20
270.344262
 30
0.0
 11
91.87118
 21
273.282846
 31
0.0
  0
LINE
  5
445
330
441
100
AcDbEntity
  8
LC-001-100-D00-0
 62
     7
370
    25
100
AcDbLine
 10
91.309995
 20
273.844031
 30
0.0
 11
84.809995
 21
280.344031
 31
0.0
  0
LINE
  5
446
330
441
100
AcDbEntity
  8
LC-001-100-D00-0
 62
     7
370
    25
100
AcDbLine
 10
103.79002
 20
270.344262
 30
0.0
 11
101.29002
 21
272.844262
 31
0.0
  0
LINE
  5
447
330
441
100
AcDbEntity
  8
LC-001-100-D00-0
 62
     7
370
    25
100
AcDbLine
 10
91.309995
 20
282.824287
 30
0.0
 11
84.809995
 21
289.324287
 31
0.0
  0
LINE
  5
448
330
441
100
AcDbEntity
  8
LC-001-100-D00-0
 62
     7
370
    25
100
AcDbLine
 10
118.770276
 20
264.344262
 30
0.0
 11
116.270276
 21
266.844262
 31
0.0
  0
LINE
  5
449
330
441
100
AcDbEntity
  8
LC-001-100-D00-0
 62
     7
370
    25
100
AcDbLine
 10
91.309995
 20
291.804544
 30
0.0
 11
84.809995
 21
298.304544
 31
0.0
  0
LINE
  5
44A
330
441
100
AcDbEntity
  8
LC-001-100-D00-0
 62
     7
370
    25
100
AcDbLine
 10
127.750532
 20
264.344262
 30
0.0
 11
125.250532
 21
266.844262
 31
0.0
  0
LINE
  5
44B
330
441
100
AcDbEntity
  8
LC-001-100-D00-0
 62
     7
370
    25
100
AcDbLine
 10
91.309995
 20
300.7848
 30
0.0
 11
84.809995
 21
307.2848
 31
0.0
  0
LINE
  5
44C
330
441
100
AcDbEntity
  8
LC-001-100-D00-0
 62
     7
370
    25
100
AcDbLine
 10
136.730789
 20
264.344262
 30
0.0
 11
134.230789
 21
266.844262
 31
0.0
  0
LINE
  5
44D
330
441
100
AcDbEntity
  8
LC-001-100-D00-0
 62
     7
370
    25
100
AcDbLine
 10
87.309995
 20
313.765056
 30
0.0
 11
84.809995
 21
316.265056
 31
0.0
  0
LINE
  5
44E
330
441
100
AcDbEntity
  8
LC-001-100-D00-0
 62
     7
370
    25
100
AcDbLine
 10
78.230789
 20
322.844262
 30
0.0
 11
77.659995
 21
323.415056
 31
0.0
  0
LINE
  5
44F
330
441
100
AcDbEntity
  8
LC-001-100-D00-0
 62
     7
370
    25
100
AcDbLine
 10
145.711045
 20
264.344262
 30
0.0
 11
143.211045
 21
266.844262
 31
0.0
  0
LINE
  5
450
330
441
100
AcDbEntity
  8
LC-001-100-D00-0
 62
     7
370
    25
100
AcDbLine
 10
87.309995
 20
322.745312
 30
0.0
 11
84.711045
 21
325.344262
 31
0.0
  0
LINE
  5
451
330
441
100
AcDbEntity
  8
LC-001-100-D00-0
 62
     7
370
    25
100
AcDbLine
 10
154.691301
 20
264.344262
 30
0.0
 11
152.191301
 21
266.844262
 31
0.0
  0
LINE
  5
452
330
441
100
AcDbEntity
  8
LC-001-100-D00-0
 62
     7
370
    25
100
AcDbLine
 10
163.671557
 20
264.344262
 30
0.0
 11
161.171557
 21
266.844262
 31
0.0
  0
LINE
  5
453
330
441
100
AcDbEntity
  8
LC-001-100-D00-0
 62
     7
370
    25
100
AcDbLine
 10
172.32493
 20
264.671145
 30
0.0
 11
170.13093
 21
266.865145
 31
0.0
  0
LINE
  5
454
330
441
100
AcDbEntity
  8
LC-001-100-D00-0
 62
     7
370
    25
100
AcDbLine
 10
178.145605
 20
267.830726
 30
0.0
 11
176.377398
 21
269.598934
 31
0.0
  0
LINE
  5
455
330
441
100
AcDbEntity
  8
LC-001-100-D00-0
 62
     7
370
    25
100
AcDbLine
 10
184.612325
 20
270.344262
 30
0.0
 11
182.112325
 21
272.844262
 31
0.0
  0
LINE
  5
456
330
441
100
AcDbEntity
  8
LC-001-100-D00-0
 62
     7
370
    25
100
AcDbLine
 10
193.592581
 20
270.344262
 30
0.0
 11
191.092581
 21
272.844262
 31
0.0
  0
LINE
  5
457
330
441
100
AcDbEntity
  8
LC-001-100-D00-0
 62
     7
370
    25
100
AcDbLine
 10
202.572838
 20
270.344262
 30
0.0
 11
200.072838
 21
272.844262
 31
0.0
  0
LINE
  5
458
330
441
100
AcDbEntity
  8
LC-001-100-D00-0
 62
     7
370
    25
100
AcDbLine
 10
211.553094
 20
270.344262
 30
0.0
 11
209.053094
 21
272.844262
 31
0.0
  0
LINE
  5
459
330
441
100
AcDbEntity
  8
LC-001-100-D00-0
 62
     7
370
    25
100
AcDbLine
 10
220.53335
 20
270.344262
 30
0.0
 11
218.03335
 21
272.844262
 31
0.0
  0
LINE
  5
45A
330
441
100
AcDbEntity
  8
LC-001-100-D00-0
 62
     7
370
    25
100
AcDbLine
 10
229.927516
 20
269.930352
 30
0.0
 11
227.013606
 21
272.844262
 31
0.0
  0
LINE
  5
45B
330
441
100
AcDbEntity
  8
LC-001-100-D00-0
 62
     7
370
    25
100
AcDbLine
 10
241.993839
 20
266.844285
 30
0.0
 11
235.993862
 21
272.844262
 31
0.0
  0
LINE
  5
45C
330
441
100
AcDbEntity
  8
LC-001-100-D00-0
 62
     7
370
    25
100
AcDbLine
 10
246.724118
 20
271.094262
 30
0.0
 11
244.974118
 21
272.844262
 31
0.0
  0
ENDBLK
  5
443
330
441
100
AcDbEntity
  8
0
100
AcDbBlockEnd
  0
BLOCK
  5
45F
330
45E
100
AcDbEntity
  8
0
100
AcDbBlockBegin
  2
KLON5
 70
     0
 71
     0
 10
0.0
 20
0.0
 30
0.0
  3
KLON5
  1

  4
KLON5
  0
LINE
  5
461
330
45E
100
AcDbEntity
  8
LC-001-100-D00-0
 62
     7
370
    25
100
AcDbLine
 10
185.03335
 20
305.844262
 30
0.0
 11
183.659995
 21
307.217617
 31
0.0
  0
LINE
  5
462
330
45E
100
AcDbEntity
  8
LC-001-100-D00-0
 62
     7
370
    25
100
AcDbLine
 10
185.659995
 20
314.197873
 30
0.0
 11
183.659995
 21
316.197873
 31
0.0
  0
LINE
  5
463
330
45E
100
AcDbEntity
  8
LC-001-100-D00-0
 62
     7
370
    25
100
AcDbLine
 10
185.659995
 20
323.178129
 30
0.0
 11
183.659995
 21
325.178129
 31
0.0
  0
LINE
  5
464
330
45E
100
AcDbEntity
  8
LC-001-100-D00-0
 62
     7
370
    25
100
AcDbLine
 10
197.909995
 20
319.908385
 30
0.0
 11
195.909995
 21
321.908385
 31
0.0
  0
LINE
  5
465
330
45E
100
AcDbEntity
  8
LC-001-100-D00-0
 62
     7
370
    25
100
AcDbLine
 10
187.159995
 20
330.658385
 30
0.0
 11
185.159995
 21
332.658385
 31
0.0
  0
LINE
  5
466
330
45E
100
AcDbEntity
  8
LC-001-100-D00-0
 62
     7
370
    25
100
AcDbLine
 10
201.159995
 20
325.638642
 30
0.0
 11
195.909995
 21
330.888642
 31
0.0
  0
LINE
  5
467
330
45E
100
AcDbEntity
  8
LC-001-100-D00-0
 62
     7
370
    25
100
AcDbLine
 10
193.454374
 20
333.344262
 30
0.0
 11
191.154374
 21
335.644262
 31
0.0
  0
LINE
  5
468
330
45E
100
AcDbEntity
  8
LC-001-100-D00-0
 62
     7
370
    25
100
AcDbLine
 10
202.43463
 20
333.344262
 30
0.0
 11
200.13463
 21
335.644262
 31
0.0
  0
ENDBLK
  5
460
330
45E
100
AcDbEntity
  8
0
100
AcDbBlockEnd
  0
BLOCK
  5
46B
330
46A
100
AcDbEntity
  8
0
100
AcDbBlockBegin
  2
KLON6
 70
     0
 71
     0
 10
0.0
 20
0.0
 30
0.0
  3
KLON6
  1

  4
KLON6
  0
LINE
  5
46D
330
46A
100
AcDbEntity
  8
LC-001-100-D00-0
 62
     7
370
    25
100
AcDbLine
 10
101.659995
 20
308.395312
 30
0.0
 11
99.659995
 21
310.395312
 31
0.0
  0
LINE
  5
46E
330
46A
100
AcDbEntity
  8
LC-001-100-D00-0
 62
     7
370
    25
100
AcDbLine
 10
89.409995
 20
320.645312
 30
0.0
 11
87.409995
 21
322.645312
 31
0.0
  0
LINE
  5
46F
330
46A
100
AcDbEntity
  8
LC-001-100-D00-0
 62
     7
370
    25
100
AcDbLine
 10
84.711045
 20
325.344262
 30
0.0
 11
84.159995
 21
325.895312
 31
0.0
  0
LINE
  5
470
330
46A
100
AcDbEntity
  8
LC-001-100-D00-0
 62
     7
370
    25
100
AcDbLine
 10
101.659995
 20
317.375568
 30
0.0
 11
99.659995
 21
319.375568
 31
0.0
  0
LINE
  5
471
330
46A
100
AcDbEntity
  8
LC-001-100-D00-0
 62
     7
370
    25
100
AcDbLine
 10
89.409995
 20
329.625568
 30
0.0
 11
83.391301
 21
335.644262
 31
0.0
  0
LINE
  5
472
330
46A
100
AcDbEntity
  8
LC-001-100-D00-0
 62
     7
370
    25
100
AcDbLine
 10
101.659995
 20
326.355824
 30
0.0
 11
101.171557
 21
326.844262
 31
0.0
  0
LINE
  5
473
330
46A
100
AcDbEntity
  8
LC-001-100-D00-0
 62
     7
370
    25
100
AcDbLine
 10
100.159995
 20
327.855824
 30
0.0
 11
98.159995
 21
329.855824
 31
0.0
  0
LINE
  5
474
330
46A
100
AcDbEntity
  8
LC-001-100-D00-0
 62
     7
370
    25
100
AcDbLine
 10
94.671557
 20
333.344262
 30
0.0
 11
92.371557
 21
335.644262
 31
0.0
  0
ENDBLK
  5
46C
330
46A
100
AcDbEntity
  8
0
100
AcDbBlockEnd
  0
BLOCK
  5
47F
330
47E
100
AcDbEntity
  8
0
100
AcDbBlockBegin
  2
KLON7
 70
     0
 71
     0
 10
0.0
 20
0.0
 30
0.0
  3
KLON7
  1

  4
KLON7
  0
LINE
  5
481
330
47E
100
AcDbEntity
  8
LC-001-100-D00-0
 62
     7
370
    25
100
AcDbLine
 10
126.213606
 20
373.644262
 30
0.0
 11
124.713606
 21
375.144262
 31
0.0
  0
LINE
  5
482
330
47E
100
AcDbEntity
  8
LC-001-100-D00-0
 62
     7
370
    25
100
AcDbLine
 10
135.193862
 20
373.644262
 30
0.0
 11
133.793862
 21
375.044262
 31
0.0
  0
LINE
  5
483
330
47E
100
AcDbEntity
  8
LC-001-100-D00-0
 62
     7
370
    25
100
AcDbLine
 10
144.174118
 20
373.644262
 30
0.0
 11
142.674118
 21
375.144262
 31
0.0
  0
LINE
  5
484
330
47E
100
AcDbEntity
  8
LC-001-100-D00-0
 62
     7
370
    25
100
AcDbLine
 10
153.154374
 20
373.644262
 30
0.0
 11
151.654374
 21
375.144262
 31
0.0
  0
LINE
  5
485
330
47E
100
AcDbEntity
  8
LC-001-100-D00-0
 62
     7
370
    25
100
AcDbLine
 10
163.659995
 20
372.118898
 30
0.0
 11
160.63463
 21
375.144262
 31
0.0
  0
ENDBLK
  5
480
330
47E
100
AcDbEntity
  8
0
100
AcDbBlockEnd
  0
BLOCK
  5
488
330
487
100
AcDbEntity
  8
0
100
AcDbBlockBegin
  2
KLON8
 70
     0
 71
     0
 10
0.0
 20
0.0
 30
0.0
  3
KLON8
  1

  4
KLON8
  0
LINE
  5
48A
330
487
100
AcDbEntity
  8
LC-001-100-D00-0
 62
     7
370
    25
100
AcDbLine
 10
163.659605
 20
282.316726
 30
0.0
 11
160.659605
 21
285.316726
 31
0.0
  0
LINE
  5
48B
330
487
100
AcDbEntity
  8
LC-001-100-D00-0
 62
     7
370
    25
100
AcDbLine
 10
163.659605
 20
291.296983
 30
0.0
 11
160.659605
 21
294.296983
 31
0.0
  0
LINE
  5
48C
330
487
100
AcDbEntity
  8
LC-001-100-D00-0
 62
     7
370
    25
100
AcDbLine
 10
163.659605
 20
300.277239
 30
0.0
 11
160.659605
 21
303.277239
 31
0.0
  0
LINE
  5
48D
330
487
100
AcDbEntity
  8
LC-001-100-D00-0
 62
     7
370
    25
100
AcDbLine
 10
163.659605
 20
309.257495
 30
0.0
 11
160.659605
 21
312.257495
 31
0.0
  0
LINE
  5
48E
330
487
100
AcDbEntity
  8
LC-001-100-D00-0
 62
     7
370
    25
100
AcDbLine
 10
163.659605
 20
318.237751
 30
0.0
 11
161.355876
 21
320.541479
 31
0.0
  0
LINE
  5
48F
330
487
100
AcDbEntity
  8
LC-001-100-D00-0
 62
     7
370
    25
100
AcDbLine
 10
166.047944
 20
324.829668
 30
0.0
 11
164.914578
 21
325.963034
 31
0.0
  0
LINE
  5
490
330
487
100
AcDbEntity
  8
LC-001-100-D00-0
 62
     7
370
    25
100
AcDbLine
 10
171.706379
 20
328.151489
 30
0.0
 11
170.826309
 21
329.031559
 31
0.0
  0
LINE
  5
491
330
487
100
AcDbEntity
  8
LC-001-100-D00-0
 62
     7
370
    25
100
AcDbLine
 10
180.415105
 20
328.423019
 30
0.0
 11
179.365509
 21
329.472615
 31
0.0
  0
LINE
  5
492
330
487
100
AcDbEntity
  8
LC-001-100-D00-0
 62
     7
370
    25
100
AcDbLine
 10
184.469829
 20
333.348551
 30
0.0
 11
182.800034
 21
335.018347
 31
0.0
  0
ENDBLK
  5
489
330
487
100
AcDbEntity
  8
0
100
AcDbBlockEnd
  0
BLOCK
  5
495
330
494
100
AcDbEntity
  8
0
100
AcDbBlockBegin
  2
KLON9
 70
     0
 71
     0
 10
0.0
 20
0.0
 30
0.0
  3
KLON9
  1

  4
KLON9
  0
LINE
  5
497
330
494
100
AcDbEntity
  8
LC-001-100-D00-0
 62
     7
370
    25
100
AcDbLine
 10
122.731371
 20
278.34368
 30
0.0
 11
121.660385
 21
279.414666
 31
0.0
  0
LINE
  5
498
330
494
100
AcDbEntity
  8
LC-001-100-D00-0
 62
     7
370
    25
100
AcDbLine
 10
124.660385
 20
285.394922
 30
0.0
 11
121.660385
 21
288.394922
 31
0.0
  0
LINE
  5
499
330
494
100
AcDbEntity
  8
LC-001-100-D00-0
 62
     7
370
    25
100
AcDbLine
 10
124.660385
 20
294.375178
 30
0.0
 11
121.660385
 21
297.375178
 31
0.0
  0
LINE
  5
49A
330
494
100
AcDbEntity
  8
LC-001-100-D00-0
 62
     7
370
    25
100
AcDbLine
 10
124.660385
 20
303.355434
 30
0.0
 11
121.660385
 21
306.355434
 31
0.0
  0
LINE
  5
49B
330
494
100
AcDbEntity
  8
LC-001-100-D00-0
 62
     7
370
    25
100
AcDbLine
 10
124.660385
 20
312.33569
 30
0.0
 11
121.660385
 21
315.33569
 31
0.0
  0
LINE
  5
49C
330
494
100
AcDbEntity
  8
LC-001-100-D00-0
 62
     7
370
    25
100
AcDbLine
 10
109.009685
 20
327.98639
 30
0.0
 11
107.652007
 21
329.344068
 31
0.0
  0
LINE
  5
49D
330
494
100
AcDbEntity
  8
LC-001-100-D00-0
 62
     7
370
    25
100
AcDbLine
 10
104.653363
 20
332.342712
 30
0.0
 11
101.858384
 21
335.137691
 31
0.0
  0
LINE
  5
49E
330
494
100
AcDbEntity
  8
LC-001-100-D00-0
 62
     7
370
    25
100
AcDbLine
 10
122.583563
 20
323.392768
 30
0.0
 11
118.709085
 21
327.267246
 31
0.0
  0
ENDBLK
  5
496
330
494
100
AcDbEntity
  8
0
100
AcDbBlockEnd
  0
BLOCK
  5
4A1
330
4A0
100
AcDbEntity
  8
0
100
AcDbBlockBegin
  2
KLON10
 70
     0
 71
     0
 10
0.0
 20
0.0
 30
0.0
  3
KLON10
  1

  4
KLON10
  0
LINE
  5
4A3
330
4A0
100
AcDbEntity
  8
LC-001-100-D00-0
 62
     7
370
    25
100
AcDbLine
 10
115.607924
 20
267.506614
 30
0.0
 11
109.822347
 21
273.292192
 31
0.0
  0
LINE
  5
4A4
330
4A0
100
AcDbEntity
  8
LC-001-100-D00-0
 62
     7
370
    25
100
AcDbLine
 10
124.750532
 20
267.344262
 30
0.0
 11
123.250532
 21
268.844262
 31
0.0
  0
LINE
  5
4A5
330
4A0
100
AcDbEntity
  8
LC-001-100-D00-0
 62
     7
370
    25
100
AcDbLine
 10
111.159995
 20
280.9348
 30
0.0
 11
109.659995
 21
282.4348
 31
0.0
  0
LINE
  5
4A6
330
4A0
100
AcDbEntity
  8
LC-001-100-D00-0
 62
     7
370
    25
100
AcDbLine
 10
133.730789
 20
267.344262
 30
0.0
 11
132.230789
 21
268.844262
 31
0.0
  0
LINE
  5
4A7
330
4A0
100
AcDbEntity
  8
LC-001-100-D00-0
 62
     7
370
    25
100
AcDbLine
 10
111.159995
 20
289.915056
 30
0.0
 11
109.659995
 21
291.415056
 31
0.0
  0
LINE
  5
4A8
330
4A0
100
AcDbEntity
  8
LC-001-100-D00-0
 62
     7
370
    25
100
AcDbLine
 10
142.711045
 20
267.344262
 30
0.0
 11
141.211045
 21
268.844262
 31
0.0
  0
LINE
  5
4A9
330
4A0
100
AcDbEntity
  8
LC-001-100-D00-0
 62
     7
370
    25
100
AcDbLine
 10
111.159995
 20
298.895312
 30
0.0
 11
109.659995
 21
300.395312
 31
0.0
  0
LINE
  5
4AA
330
4A0
100
AcDbEntity
  8
LC-001-100-D00-0
 62
     7
370
    25
100
AcDbLine
 10
151.691301
 20
267.344262
 30
0.0
 11
150.191301
 21
268.844262
 31
0.0
  0
LINE
  5
4AB
330
4A0
100
AcDbEntity
  8
LC-001-100-D00-0
 62
     7
370
    25
100
AcDbLine
 10
111.159995
 20
307.875568
 30
0.0
 11
109.659995
 21
309.375568
 31
0.0
  0
LINE
  5
4AC
330
4A0
100
AcDbEntity
  8
LC-001-100-D00-0
 62
     7
370
    25
100
AcDbLine
 10
160.671557
 20
267.344262
 30
0.0
 11
159.171557
 21
268.844262
 31
0.0
  0
LINE
  5
4AD
330
4A0
100
AcDbEntity
  8
LC-001-100-D00-0
 62
     7
370
    25
100
AcDbLine
 10
111.159995
 20
316.855824
 30
0.0
 11
109.671557
 21
318.344262
 31
0.0
  0
LINE
  5
4AE
330
4A0
100
AcDbEntity
  8
LC-001-100-D00-0
 62
     7
370
    25
100
AcDbLine
 10
109.646177
 20
318.369642
 30
0.0
 11
106.133981
 21
321.881838
 31
0.0
  0
LINE
  5
4AF
330
4A0
100
AcDbEntity
  8
LC-001-100-D00-0
 62
     7
370
    25
100
AcDbLine
 10
100.671557
 20
327.344262
 30
0.0
 11
100.159995
 21
327.855824
 31
0.0
  0
LINE
  5
4B0
330
4A0
100
AcDbEntity
  8
LC-001-100-D00-0
 62
     7
370
    25
100
AcDbLine
 10
169.526309
 20
267.469766
 30
0.0
 11
168.151813
 21
268.844262
 31
0.0
  0
LINE
  5
4B1
330
4A0
100
AcDbEntity
  8
LC-001-100-D00-0
 62
     7
370
    25
100
AcDbLine
 10
174.736876
 20
271.239455
 30
0.0
 11
173.619908
 21
272.356423
 31
0.0
  0
LINE
  5
4B2
330
4A0
100
AcDbEntity
  8
LC-001-100-D00-0
 62
     7
370
    25
100
AcDbLine
 10
175.659995
 20
279.296593
 30
0.0
 11
174.159995
 21
280.796593
 31
0.0
  0
LINE
  5
4B3
330
4A0
100
AcDbEntity
  8
LC-001-100-D00-0
 62
     7
370
    25
100
AcDbLine
 10
175.659995
 20
288.276849
 30
0.0
 11
174.159995
 21
289.776849
 31
0.0
  0
LINE
  5
4B4
330
4A0
100
AcDbEntity
  8
LC-001-100-D00-0
 62
     7
370
    25
100
AcDbLine
 10
175.659995
 20
297.257105
 30
0.0
 11
174.159995
 21
298.757105
 31
0.0
  0
LINE
  5
4B5
330
4A0
100
AcDbEntity
  8
LC-001-100-D00-0
 62
     7
370
    25
100
AcDbLine
 10
175.659995
 20
306.237361
 30
0.0
 11
174.159995
 21
307.737361
 31
0.0
  0
LINE
  5
4B6
330
4A0
100
AcDbEntity
  8
LC-001-100-D00-0
 62
     7
370
    25
100
AcDbLine
 10
175.659995
 20
315.217617
 30
0.0
 11
174.159995
 21
316.717617
 31
0.0
  0
LINE
  5
4B7
330
4A0
100
AcDbEntity
  8
LC-001-100-D00-0
 62
     7
370
    25
100
AcDbLine
 10
178.759469
 20
321.098399
 30
0.0
 11
177.723498
 21
322.13437
 31
0.0
  0
LINE
  5
4B8
330
4A0
100
AcDbEntity
  8
LC-001-100-D00-0
 62
     7
370
    25
100
AcDbLine
 10
181.925171
 20
326.912953
 30
0.0
 11
180.559995
 21
328.278129
 31
0.0
  0
ENDBLK
  5
4A2
330
4A0
100
AcDbEntity
  8
0
100
AcDbBlockEnd
  0
BLOCK
  5
4BB
330
4BA
100
AcDbEntity
  8
0
100
AcDbBlockBegin
  2
KLON11
 70
     0
 71
     0
 10
0.0
 20
0.0
 30
0.0
  3
KLON11
  1

  4
KLON11
  0
LINE
  5
4BD
330
4BA
100
AcDbEntity
  8
LC-001-100-D00-0
 62
     7
370
    25
100
AcDbLine
 10
237.498904
 20
316.240501
 30
0.0
 11
235.859995
 21
317.87941
 31
0.0
  0
LINE
  5
4BE
330
4BA
100
AcDbEntity
  8
LC-001-100-D00-0
 62
     7
370
    25
100
AcDbLine
 10
246.069538
 20
316.650123
 30
0.0
 11
243.378585
 21
319.341076
 31
0.0
  0
LINE
  5
4BF
330
4BA
100
AcDbEntity
  8
LC-001-100-D00-0
 62
     7
370
    25
100
AcDbLine
 10
262.484628
 20
309.215289
 30
0.0
 11
255.259446
 21
316.440471
 31
0.0
  0
LINE
  5
4C0
330
4BA
100
AcDbEntity
  8
LC-001-100-D00-0
 62
     7
370
    25
100
AcDbLine
 10
271.62442
 20
309.055753
 30
0.0
 11
268.835911
 21
311.844262
 31
0.0
  0
LINE
  5
4C1
330
4BA
100
AcDbEntity
  8
LC-001-100-D00-0
 62
     7
370
    25
100
AcDbLine
 10
280.764212
 20
308.896217
 30
0.0
 11
277.816167
 21
311.844262
 31
0.0
  0
LINE
  5
4C2
330
4BA
100
AcDbEntity
  8
LC-001-100-D00-0
 62
     7
370
    25
100
AcDbLine
 10
289.904003
 20
308.736682
 30
0.0
 11
286.796423
 21
311.844262
 31
0.0
  0
LINE
  5
4C3
330
4BA
100
AcDbEntity
  8
LC-001-100-D00-0
 62
     7
370
    25
100
AcDbLine
 10
299.043795
 20
308.577146
 30
0.0
 11
295.776679
 21
311.844262
 31
0.0
  0
LINE
  5
4C4
330
4BA
100
AcDbEntity
  8
LC-001-100-D00-0
 62
     7
370
    25
100
AcDbLine
 10
308.183587
 20
308.41761
 30
0.0
 11
304.756935
 21
311.844262
 31
0.0
  0
LINE
  5
4C5
330
4BA
100
AcDbEntity
  8
LC-001-100-D00-0
 62
     7
370
    25
100
AcDbLine
 10
312.132106
 20
313.449348
 30
0.0
 11
309.534682
 21
316.046772
 31
0.0
  0
LINE
  5
4C6
330
4BA
100
AcDbEntity
  8
LC-001-100-D00-0
 62
     7
370
    25
100
AcDbLine
 10
316.675498
 20
317.886212
 30
0.0
 11
313.124576
 21
321.437133
 31
0.0
  0
LINE
  5
4C7
330
4BA
100
AcDbEntity
  8
LC-001-100-D00-0
 62
     7
370
    25
100
AcDbLine
 10
325.655754
 20
317.886212
 30
0.0
 11
322.104832
 21
321.437133
 31
0.0
  0
LINE
  5
4C8
330
4BA
100
AcDbEntity
  8
LC-001-100-D00-0
 62
     7
370
    25
100
AcDbLine
 10
334.63601
 20
317.886212
 30
0.0
 11
331.085089
 21
321.437133
 31
0.0
  0
LINE
  5
4C9
330
4BA
100
AcDbEntity
  8
LC-001-100-D00-0
 62
     7
370
    25
100
AcDbLine
 10
343.616266
 20
317.886212
 30
0.0
 11
340.065345
 21
321.437133
 31
0.0
  0
LINE
  5
4CA
330
4BA
100
AcDbEntity
  8
LC-001-100-D00-0
 62
     7
370
    25
100
AcDbLine
 10
352.596522
 20
317.886212
 30
0.0
 11
349.045601
 21
321.437133
 31
0.0
  0
LINE
  5
4CB
330
4BA
100
AcDbEntity
  8
LC-001-100-D00-0
 62
     7
370
    25
100
AcDbLine
 10
360.859995
 20
318.602996
 30
0.0
 11
358.086794
 21
321.376197
 31
0.0
  0
ENDBLK
  5
4BC
330
4BA
100
AcDbEntity
  8
0
100
AcDbBlockEnd
  0
BLOCK
  5
4CE
330
4CD
100
AcDbEntity
  8
0
100
AcDbBlockBegin
  2
KLON12
 70
     0
 71
     0
 10
0.0
 20
0.0
 30
0.0
  3
KLON12
  1

  4
KLON12
  0
LINE
  5
4D0
330
4CD
100
AcDbEntity
  8
LC-001-100-D00-0
 62
     7
370
    25
100
AcDbLine
 10
244.453288
 20
264.384836
 30
0.0
 11
241.974428
 21
266.863696
 31
0.0
  0
LINE
  5
4D1
330
4CD
100
AcDbEntity
  8
LC-001-100-D00-0
 62
     7
370
    25
100
AcDbLine
 10
251.959769
 20
265.858611
 30
0.0
 11
249.970927
 21
267.847453
 31
0.0
  0
LINE
  5
4D2
330
4CD
100
AcDbEntity
  8
LC-001-100-D00-0
 62
     7
370
    25
100
AcDbLine
 10
257.986176
 20
268.81246
 30
0.0
 11
256.175707
 21
270.622929
 31
0.0
  0
LINE
  5
4D3
330
4CD
100
AcDbEntity
  8
LC-001-100-D00-0
 62
     7
370
    25
100
AcDbLine
 10
263.93463
 20
271.844262
 30
0.0
 11
261.581399
 21
274.197493
 31
0.0
  0
LINE
  5
4D4
330
4CD
100
AcDbEntity
  8
LC-001-100-D00-0
 62
     7
370
    25
100
AcDbLine
 10
272.914887
 20
271.844262
 30
0.0
 11
270.152077
 21
274.607071
 31
0.0
  0
LINE
  5
4D5
330
4CD
100
AcDbEntity
  8
LC-001-100-D00-0
 62
     7
370
    25
100
AcDbLine
 10
281.895143
 20
271.844262
 30
0.0
 11
278.978272
 21
274.761133
 31
0.0
  0
LINE
  5
4D6
330
4CD
100
AcDbEntity
  8
LC-001-100-D00-0
 62
     7
370
    25
100
AcDbLine
 10
290.875399
 20
271.844262
 30
0.0
 11
287.804466
 21
274.915195
 31
0.0
  0
LINE
  5
4D7
330
4CD
100
AcDbEntity
  8
LC-001-100-D00-0
 62
     7
370
    25
100
AcDbLine
 10
299.855655
 20
271.844262
 30
0.0
 11
296.63066
 21
275.069256
 31
0.0
  0
LINE
  5
4D8
330
4CD
100
AcDbEntity
  8
LC-001-100-D00-0
 62
     7
370
    25
100
AcDbLine
 10
308.835911
 20
271.844262
 30
0.0
 11
305.456855
 21
275.223318
 31
0.0
  0
LINE
  5
4D9
330
4CD
100
AcDbEntity
  8
LC-001-100-D00-0
 62
     7
370
    25
100
AcDbLine
 10
318.09132
 20
271.569109
 30
0.0
 11
314.283049
 21
275.37738
 31
0.0
  0
LINE
  5
4DA
330
4CD
100
AcDbEntity
  8
LC-001-100-D00-0
 62
     7
370
    25
100
AcDbLine
 10
327.071576
 20
271.569109
 30
0.0
 11
323.520655
 21
275.12003
 31
0.0
  0
LINE
  5
4DB
330
4CD
100
AcDbEntity
  8
LC-001-100-D00-0
 62
     7
370
    25
100
AcDbLine
 10
336.051833
 20
271.569109
 30
0.0
 11
332.500911
 21
275.12003
 31
0.0
  0
LINE
  5
4DC
330
4CD
100
AcDbEntity
  8
LC-001-100-D00-0
 62
     7
370
    25
100
AcDbLine
 10
345.032089
 20
271.569109
 30
0.0
 11
341.481167
 21
275.12003
 31
0.0
  0
LINE
  5
4DD
330
4CD
100
AcDbEntity
  8
LC-001-100-D00-0
 62
     7
370
    25
100
AcDbLine
 10
354.012345
 20
271.569109
 30
0.0
 11
350.461423
 21
275.12003
 31
0.0
  0
LINE
  5
4DE
330
4CD
100
AcDbEntity
  8
LC-001-100-D00-0
 62
     7
370
    25
100
AcDbLine
 10
360.859995
 20
273.701715
 30
0.0
 11
359.441679
 21
275.12003
 31
0.0
  0
ENDBLK
  5
4CF
330
4CD
100
AcDbEntity
  8
0
100
AcDbBlockEnd
  0
BLOCK
  5
4E2
330
4E1
100
AcDbEntity
  8
0
100
AcDbBlockBegin
  2
KLON13
 70
     0
 71
     0
 10
0.0
 20
0.0
 30
0.0
  3
KLON13
  1

  4
KLON13
  0
LINE
  5
4E4
330
4E1
100
AcDbEntity
  8
LC-001-100-D00-0
 62
     7
370
    50
100
AcDbLine
 10
193.159995
 20
369.559666
 30
0.0
 11
191.959995
 21
370.759666
 31
0.0
  0
LINE
  5
4E5
330
4E1
100
AcDbEntity
  8
LC-001-100-D00-0
 62
     7
370
    50
100
AcDbLine
 10
189.459995
 20
373.259666
 30
0.0
 11
188.759995
 21
373.959666
 31
0.0
  0
ENDBLK
  5
4E3
330
4E1
100
AcDbEntity
  8
0
100
AcDbBlockEnd
  0
BLOCK
  5
4E8
330
4E7
100
AcDbEntity
  8
0
100
AcDbBlockBegin
  2
KLON14
 70
     0
 71
     0
 10
0.0
 20
0.0
 30
0.0
  3
KLON14
  1

  4
KLON14
  0
LINE
  5
4EA
330
4E7
100
AcDbEntity
  8
LC-001-100-D00-0
 62
     7
370
    25
100
AcDbLine
 10
190.159995
 20
336.638642
 30
0.0
 11
189.954374
 21
336.844262
 31
0.0
  0
LINE
  5
4EB
330
4E7
100
AcDbEntity
  8
LC-001-100-D00-0
 62
     7
370
    25
100
AcDbLine
 10
188.959995
 20
337.838642
 30
0.0
 11
188.659995
 21
338.138642
 31
0.0
  0
LINE
  5
4EC
330
4E7
100
AcDbEntity
  8
LC-001-100-D00-0
 62
     7
370
    25
100
AcDbLine
 10
189.93463
 20
345.844262
 30
0.0
 11
188.659995
 21
347.118898
 31
0.0
  0
LINE
  5
4ED
330
4E7
100
AcDbEntity
  8
LC-001-100-D00-0
 62
     7
370
    25
100
AcDbLine
 10
188.959995
 20
355.799154
 30
0.0
 11
188.659995
 21
356.099154
 31
0.0
  0
LINE
  5
4EE
330
4E7
100
AcDbEntity
  8
LC-001-100-D00-0
 62
     7
370
    25
100
AcDbLine
 10
190.159995
 20
363.57941
 30
0.0
 11
189.395143
 21
364.344262
 31
0.0
  0
LINE
  5
4EF
330
4E7
100
AcDbEntity
  8
LC-001-100-D00-0
 62
     7
370
    25
100
AcDbLine
 10
188.959995
 20
364.77941
 30
0.0
 11
188.659995
 21
365.07941
 31
0.0
  0
LINE
  5
4F0
330
4E7
100
AcDbEntity
  8
LC-001-100-D00-0
 62
     7
370
    25
100
AcDbLine
 10
191.959995
 20
370.759666
 30
0.0
 11
189.459995
 21
373.259666
 31
0.0
  0
ENDBLK
  5
4E9
330
4E7
100
AcDbEntity
  8
0
100
AcDbBlockEnd
  0
BLOCK
  5
4F3
330
4F2
100
AcDbEntity
  8
0
100
AcDbBlockBegin
  2
KLON15
 70
     0
 71
     0
 10
0.0
 20
0.0
 30
0.0
  3
KLON15
  1

  4
KLON15
  0
LINE
  5
4F5
330
4F2
100
AcDbEntity
  8
LC-001-100-D00-0
 62
     7
370
    25
100
AcDbLine
 10
96.659995
 20
340.33608
 30
0.0
 11
96.359995
 21
340.63608
 31
0.0
  0
LINE
  5
4F6
330
4F2
100
AcDbEntity
  8
LC-001-100-D00-0
 62
     7
370
    25
100
AcDbLine
 10
96.151813
 20
340.844262
 30
0.0
 11
95.159995
 21
341.83608
 31
0.0
  0
LINE
  5
4F7
330
4F2
100
AcDbEntity
  8
LC-001-100-D00-0
 62
     7
370
    25
100
AcDbLine
 10
96.659995
 20
349.316336
 30
0.0
 11
96.359995
 21
349.616336
 31
0.0
  0
LINE
  5
4F8
330
4F2
100
AcDbEntity
  8
LC-001-100-D00-0
 62
     7
370
    25
100
AcDbLine
 10
96.659995
 20
358.296593
 30
0.0
 11
95.612325
 21
359.344262
 31
0.0
  0
LINE
  5
4F9
330
4F2
100
AcDbEntity
  8
LC-001-100-D00-0
 62
     7
370
    25
100
AcDbLine
 10
96.659995
 20
367.276849
 30
0.0
 11
96.359995
 21
367.576849
 31
0.0
  0
LINE
  5
4FA
330
4F2
100
AcDbEntity
  8
LC-001-100-D00-0
 62
     7
370
    25
100
AcDbLine
 10
95.592581
 20
368.344262
 30
0.0
 11
95.159995
 21
368.776849
 31
0.0
  0
LINE
  5
4FB
330
4F2
100
AcDbEntity
  8
LC-001-100-D00-0
 62
     7
370
    25
100
AcDbLine
 10
94.492581
 20
369.444262
 30
0.0
 11
93.358199
 21
370.578644
 31
0.0
  0
ENDBLK
  5
4F4
330
4F2
100
AcDbEntity
  8
0
100
AcDbBlockEnd
  0
BLOCK
  5
515
330
50B
100
AcDbEntity
  8
0
100
AcDbBlockBegin
  2
*D29
 70
     1
 71
     0
 10
0.0
 20
0.0
 30
0.0
  3
*D29
  1

  0
LINE
  5
50C
330
50B
100
AcDbEntity
  8
LC-002-106-D00-0
 62
     2
370
    -2
100
AcDbLine
 10
19.946557
 20
340.230525
 30
0.0
 11
-141.74884
 21
340.230525
 31
0.0
  0
LINE
  5
50D
330
50B
100
AcDbEntity
  8
LC-002-106-D00-0
 62
     2
370
    -2
100
AcDbLine
 10
115.834992
 20
264.230525
 30
0.0
 11
-141.74884
 21
264.230525
 31
0.0
  0
LINE
  5
50E
330
50B
100
AcDbEntity
  8
LC-002-106-D00-0
 62
     2
370
    -2
100
AcDbLine
 10
-138.14884
 20
312.230525
 30
0.0
 11
-138.14884
 21
292.230525
 31
0.0
  0
SOLID
  5
50F
330
50B
100
AcDbEntity
  8
LC-002-106-D00-0
 62
     2
100
AcDbTrace
 10
-133.482173
 20
312.230525
 30
0.0
 11
-142.815506
 21
312.230525
 31
0.0
 12
-138.14884
 22
340.230525
 32
0.0
 13
-138.14884
 23
340.230525
 33
0.0
  0
SOLID
  5
510
330
50B
100
AcDbEntity
  8
LC-002-106-D00-0
 62
     2
100
AcDbTrace
 10
-142.815506
 20
292.230525
 30
0.0
 11
-133.482173
 21
292.230525
 31
0.0
 12
-138.14884
 22
264.230525
 32
0.0
 13
-138.14884
 23
264.230525
 33
0.0
  0
MTEXT
  5
511
330
50B
100
AcDbEntity
  8
LC-002-106-D00-0
 62
     2
100
AcDbMText
 10
-168.94884
 20
299.18518
 30
0.0
 40
28.0
 41
0.0
 71
     5
 72
     1
  1
\A1;76
  7
LCTX15-400-0-0pDIN-Schrift
 11
6.123031769111886E-17
 21
1.0
 31
0.0
 73
     1
 44
1.0
  0
POINT
  5
512
330
50B
100
AcDbEntity
  8
Defpoints
 62
     0
100
AcDbPoint
 10
19.946557
 20
340.230525
 30
0.0
  0
POINT
  5
513
330
50B
100
AcDbEntity
  8
Defpoints
 62
     0
100
AcDbPoint
 10
115.834992
 20
264.230525
 30
0.0
  0
POINT
  5
514
330
50B
100
AcDbEntity
  8
Defpoints
 62
     0
100
AcDbPoint
 10
-138.14884
 20
264.230525
 30
0.0
  0
ENDBLK
  5
516
330
50B
100
AcDbEntity
  8
0
100
AcDbBlockEnd
  0
BLOCK
  5
523
330
518
100
AcDbEntity
  8
0
100
AcDbBlockBegin
  2
*D30
 70
     1
 71
     0
 10
0.0
 20
0.0
 30
0.0
  3
*D30
  1

  0
LINE
  5
519
330
518
100
AcDbEntity
  8
LC-002-106-D00-0
 62
     2
370
    -2
100
AcDbLine
 10
19.946557
 20
340.230525
 30
0.0
 11
-105.542952
 21
340.230525
 31
0.0
  0
LINE
  5
51A
330
518
100
AcDbEntity
  8
LC-002-106-D00-0
 62
     2
370
    -2
100
AcDbLine
 10
19.946557
 20
310.230525
 30
0.0
 11
-105.542952
 21
310.230525
 31
0.0
  0
LINE
  5
51B
330
518
100
AcDbEntity
  8
LC-002-106-D00-0
 62
     2
370
    -2
100
AcDbLine
 10
-101.942952
 20
282.230525
 30
0.0
 11
-101.942952
 21
254.230525
 31
0.0
  0
LINE
  5
51C
330
518
100
AcDbEntity
  8
LC-002-106-D00-0
 62
     2
370
    -2
100
AcDbLine
 10
-101.942952
 20
368.230525
 30
0.0
 11
-101.942952
 21
381.507406
 31
0.0
  0
SOLID
  5
51D
330
518
100
AcDbEntity
  8
LC-002-106-D00-0
 62
     2
100
AcDbTrace
 10
-106.609619
 20
368.230525
 30
0.0
 11
-97.276285
 21
368.230525
 31
0.0
 12
-101.942952
 22
340.230525
 32
0.0
 13
-101.942952
 23
340.230525
 33
0.0
  0
SOLID
  5
51E
330
518
100
AcDbEntity
  8
LC-002-106-D00-0
 62
     2
100
AcDbTrace
 10
-97.276285
 20
282.230525
 30
0.0
 11
-106.609619
 21
282.230525
 31
0.0
 12
-101.942952
 22
310.230525
 32
0.0
 13
-101.942952
 23
310.230525
 33
0.0
  0
MTEXT
  5
51F
330
518
100
AcDbEntity
  8
LC-002-106-D00-0
 62
     2
100
AcDbMText
 10
-132.742952
 20
358.58518
 30
0.0
 40
28.0
 41
0.0
 71
     5
 72
     1
  1
\A1;30
  7
LCTX15-400-0-0pDIN-Schrift
 11
6.123031769111886E-17
 21
1.0
 31
0.0
 73
     1
 44
1.0
  0
POINT
  5
520
330
518
100
AcDbEntity
  8
Defpoints
 62
     0
100
AcDbPoint
 10
19.946557
 20
340.230525
 30
0.0
  0
POINT
  5
521
330
518
100
AcDbEntity
  8
Defpoints
 62
     0
100
AcDbPoint
 10
19.946557
 20
310.230525
 30
0.0
  0
POINT
  5
522
330
518
100
AcDbEntity
  8
Defpoints
 62
     0
100
AcDbPoint
 10
-101.942952
 20
310.230525
 30
0.0
  0
ENDBLK
  5
524
330
518
100
AcDbEntity
  8
0
100
AcDbBlockEnd
  0
BLOCK
  5
530
330
526
100
AcDbEntity
  8
0
100
AcDbBlockBegin
  2
*D31
 70
     1
 71
     0
 10
0.0
 20
0.0
 30
0.0
  3
*D31
  1

  0
LINE
  5
527
330
526
100
AcDbEntity
  8
LC-002-106-D00-0
 62
     2
370
    -2
100
AcDbLine
 10
369.159992
 20
328.244264
 30
0.0
 11
369.159992
 21
494.160262
 31
0.0
  0
LINE
  5
528
330
526
100
AcDbEntity
  8
LC-002-106-D00-0
 62
     2
370
    -2
100
AcDbLine
 10
-83.840008
 20
328.244264
 30
0.0
 11
-83.840008
 21
494.160262
 31
0.0
  0
LINE
  5
529
330
526
100
AcDbEntity
  8
LC-002-106-D00-0
 62
     2
370
    -2
100
AcDbLine
 10
341.159992
 20
490.560262
 30
0.0
 11
-55.840008
 21
490.560262
 31
0.0
  0
SOLID
  5
52A
330
526
100
AcDbEntity
  8
LC-002-106-D00-0
 62
     2
100
AcDbTrace
 10
341.159992
 20
485.893595
 30
0.0
 11
341.159992
 21
495.226929
 31
0.0
 12
369.159992
 22
490.560262
 32
0.0
 13
369.159992
 23
490.560262
 33
0.0
  0
SOLID
  5
52B
330
526
100
AcDbEntity
  8
LC-002-106-D00-0
 62
     2
100
AcDbTrace
 10
-55.840008
 20
495.226929
 30
0.0
 11
-55.840008
 21
485.893595
 31
0.0
 12
-83.840008
 22
490.560262
 32
0.0
 13
-83.840008
 23
490.560262
 33
0.0
  0
MTEXT
  5
52C
330
526
100
AcDbEntity
  8
LC-002-106-D00-0
 62
     2
100
AcDbMText
 10
153.635576
 20
521.360262
 30
0.0
 40
28.0
 41
0.0
 71
     5
 72
     1
  1
\A1;453
  7
LCTX15-400-0-0pDIN-Schrift
 73
     1
 44
1.0
  0
POINT
  5
52D
330
526
100
AcDbEntity
  8
Defpoints
 62
     0
100
AcDbPoint
 10
369.159992
 20
328.244264
 30
0.0
  0
POINT
  5
52E
330
526
100
AcDbEntity
  8
Defpoints
 62
     0
100
AcDbPoint
 10
-83.840008
 20
328.244264
 30
0.0
  0
POINT
  5
52F
330
526
100
AcDbEntity
  8
Defpoints
 62
     0
100
AcDbPoint
 10
-83.840008
 20
490.560262
 30
0.0
  0
ENDBLK
  5
531
330
526
100
AcDbEntity
  8
0
100
AcDbBlockEnd
  0
BLOCK
  5
53E
330
534
100
AcDbEntity
  8
0
100
AcDbBlockBegin
  2
*D32
 70
     1
 71
     0
 10
0.0
 20
0.0
 30
0.0
  3
*D32
  1

  0
LINE
  5
535
330
534
100
AcDbEntity
  8
LC-002-106-D00-0
 62
     2
370
    -2
100
AcDbLine
 10
270.124716
 20
325.230525
 30
0.0
 11
270.124716
 21
441.888262
 31
0.0
  0
LINE
  5
536
330
534
100
AcDbEntity
  8
LC-002-106-D00-0
 62
     2
370
    -2
100
AcDbLine
 10
15.195268
 20
325.230525
 30
0.0
 11
15.195268
 21
441.888262
 31
0.0
  0
LINE
  5
537
330
534
100
AcDbEntity
  8
LC-002-106-D00-0
 62
     2
370
    -2
100
AcDbLine
 10
242.124716
 20
438.288262
 30
0.0
 11
43.195268
 21
438.288262
 31
0.0
  0
SOLID
  5
538
330
534
100
AcDbEntity
  8
LC-002-106-D00-0
 62
     2
100
AcDbTrace
 10
242.124716
 20
433.621595
 30
0.0
 11
242.124716
 21
442.954929
 31
0.0
 12
270.124716
 22
438.288262
 32
0.0
 13
270.124716
 23
438.288262
 33
0.0
  0
SOLID
  5
539
330
534
100
AcDbEntity
  8
LC-002-106-D00-0
 62
     2
100
AcDbTrace
 10
43.195268
 20
442.954929
 30
0.0
 11
43.195268
 21
433.621595
 31
0.0
 12
15.195268
 22
438.288262
 32
0.0
 13
15.195268
 23
438.288262
 33
0.0
  0
MTEXT
  5
53A
330
534
100
AcDbEntity
  8
LC-002-106-D00-0
 62
     2
100
AcDbMText
 10
154.700455
 20
469.088262
 30
0.0
 40
28.0
 41
0.0
 71
     5
 72
     1
  1
\A1;255
  7
LCTX15-400-0-0pDIN-Schrift
 73
     1
 44
1.0
  0
POINT
  5
53B
330
534
100
AcDbEntity
  8
Defpoints
 62
     0
100
AcDbPoint
 10
270.124716
 20
325.230525
 30
0.0
  0
POINT
  5
53C
330
534
100
AcDbEntity
  8
Defpoints
 62
     0
100
AcDbPoint
 10
15.195268
 20
325.230525
 30
0.0
  0
POINT
  5
53D
330
534
100
AcDbEntity
  8
Defpoints
 62
     0
100
AcDbPoint
 10
15.195268
 20
438.288262
 30
0.0
  0
ENDBLK
  5
53F
330
534
100
AcDbEntity
  8
0
100
AcDbBlockEnd
  0
BLOCK
  5
54C
330
542
100
AcDbEntity
  8
0
100
AcDbBlockBegin
  2
*D33
 70
     1
 71
     0
 10
0.0
 20
0.0
 30
0.0
  3
*D33
  1

  0
LINE
  5
543
330
542
100
AcDbEntity
  8
LC-003-003-----0
 62
     2
370
    -2
100
AcDbLine
 10
92.659995
 20
374.144259
 30
0.0
 11
92.659995
 21
389.022262
 31
0.0
  0
LINE
  5
544
330
542
100
AcDbEntity
  8
LC-003-003-----0
 62
     2
370
    -2
100
AcDbLine
 10
192.659995
 20
374.144258
 30
0.0
 11
192.659995
 21
389.022262
 31
0.0
  0
LINE
  5
545
330
542
100
AcDbEntity
  8
LC-003-003-----0
 62
     2
370
    -2
100
AcDbLine
 10
120.659995
 20
385.422262
 30
0.0
 11
164.659995
 21
385.422262
 31
0.0
  0
SOLID
  5
546
330
542
100
AcDbEntity
  8
LC-003-003-----0
 62
     2
100
AcDbTrace
 10
120.659995
 20
390.088929
 30
0.0
 11
120.659995
 21
380.755595
 31
0.0
 12
92.659995
 22
385.422262
 32
0.0
 13
92.659995
 23
385.422262
 33
0.0
  0
SOLID
  5
547
330
542
100
AcDbEntity
  8
LC-003-003-----0
 62
     2
100
AcDbTrace
 10
164.659995
 20
380.755595
 30
0.0
 11
164.659995
 21
390.088929
 31
0.0
 12
192.659995
 22
385.422262
 32
0.0
 13
192.659995
 23
385.422262
 33
0.0
  0
MTEXT
  5
548
330
542
100
AcDbEntity
  8
LC-003-003-----0
 62
     2
100
AcDbMText
 10
157.895092
 20
416.222262
 30
0.0
 40
28.0
 41
0.0
 71
     5
 72
     1
  1
\A1;100
  7
LCTX15-400-0-0pDIN-Schrift
 73
     1
 44
1.0
  0
POINT
  5
549
330
542
100
AcDbEntity
  8
Defpoints
 62
     0
100
AcDbPoint
 10
92.659995
 20
374.144259
 30
0.0
  0
POINT
  5
54A
330
542
100
AcDbEntity
  8
Defpoints
 62
     0
100
AcDbPoint
 10
192.659995
 20
374.144258
 30
0.0
  0
POINT
  5
54B
330
542
100
AcDbEntity
  8
Defpoints
 62
     0
100
AcDbPoint
 10
192.659995
 20
385.422262
 30
0.0
  0
ENDBLK
  5
54D
330
542
100
AcDbEntity
  8
0
100
AcDbBlockEnd
  0
BLOCK
  5
559
330
54F
100
AcDbEntity
  8
0
100
AcDbBlockBegin
  2
*D34
 70
     1
 71
     0
 10
0.0
 20
0.0
 30
0.0
  3
*D34
  1

  0
LINE
  5
550
330
54F
100
AcDbEntity
  8
LC-003-003-----0
 62
     2
370
    -2
100
AcDbLine
 10
142.659992
 20
264.230525
 30
0.0
 11
142.659992
 21
202.500262
 31
0.0
  0
LINE
  5
551
330
54F
100
AcDbEntity
  8
LC-003-003-----0
 62
     2
370
    -2
100
AcDbLine
 10
360.859991
 20
274.504536
 30
0.0
 11
360.859991
 21
202.500262
 31
0.0
  0
LINE
  5
552
330
54F
100
AcDbEntity
  8
LC-003-003-----0
 62
     2
370
    -2
100
AcDbLine
 10
170.659992
 20
206.100262
 30
0.0
 11
332.859991
 21
206.100262
 31
0.0
  0
SOLID
  5
553
330
54F
100
AcDbEntity
  8
LC-003-003-----0
 62
     2
100
AcDbTrace
 10
170.659992
 20
210.766929
 30
0.0
 11
170.659992
 21
201.433595
 31
0.0
 12
142.659992
 22
206.100262
 32
0.0
 13
142.659992
 23
206.100262
 33
0.0
  0
SOLID
  5
554
330
54F
100
AcDbEntity
  8
LC-003-003-----0
 62
     2
100
AcDbTrace
 10
332.859991
 20
201.433595
 30
0.0
 11
332.859991
 21
210.766929
 31
0.0
 12
360.859991
 22
206.100262
 32
0.0
 13
360.859991
 23
206.100262
 33
0.0
  0
MTEXT
  5
555
330
54F
100
AcDbEntity
  8
LC-003-003-----0
 62
     2
100
AcDbMText
 10
287.749156
 20
236.900262
 30
0.0
 40
28.0
 41
0.0
 71
     5
 72
     1
  1
\A1;218
  7
LCTX15-400-0-0pDIN-Schrift
 73
     1
 44
1.0
  0
POINT
  5
556
330
54F
100
AcDbEntity
  8
Defpoints
 62
     0
100
AcDbPoint
 10
142.659992
 20
264.230525
 30
0.0
  0
POINT
  5
557
330
54F
100
AcDbEntity
  8
Defpoints
 62
     0
100
AcDbPoint
 10
360.859991
 20
274.504536
 30
0.0
  0
POINT
  5
558
330
54F
100
AcDbEntity
  8
Defpoints
 62
     0
100
AcDbPoint
 10
360.859991
 20
206.100262
 30
0.0
  0
ENDBLK
  5
55A
330
54F
100
AcDbEntity
  8
0
100
AcDbBlockEnd
  0
BLOCK
  5
567
330
55C
100
AcDbEntity
  8
0
100
AcDbBlockBegin
  2
*D35
 70
     1
 71
     0
 10
0.0
 20
0.0
 30
0.0
  3
*D35
  1

  0
LINE
  5
55D
330
55C
100
AcDbEntity
  8
LC-001-100-D00-0
 62
     2
370
    -2
100
AcDbLine
 10
121.660382
 20
278.229943
 30
0.0
 11
-9.703837
 21
278.229943
 31
0.0
  0
LINE
  5
55E
330
55C
100
AcDbEntity
  8
LC-001-100-D00-0
 62
     2
370
    -2
100
AcDbLine
 10
109.659992
 20
318.230525
 30
0.0
 11
-9.703837
 21
318.230525
 31
0.0
  0
LINE
  5
55F
330
55C
100
AcDbEntity
  8
LC-001-100-D00-0
 62
     2
370
    -2
100
AcDbLine
 10
-6.103837
 20
346.230525
 30
0.0
 11
-6.103837
 21
374.230525
 31
0.0
  0
LINE
  5
560
330
55C
100
AcDbEntity
  8
LC-001-100-D00-0
 62
     2
370
    -2
100
AcDbLine
 10
-6.103837
 20
250.229943
 30
0.0
 11
-6.103837
 21
229.278852
 31
0.0
  0
SOLID
  5
561
330
55C
100
AcDbEntity
  8
LC-001-100-D00-0
 62
     2
100
AcDbTrace
 10
-1.437171
 20
250.229943
 30
0.0
 11
-10.770504
 21
250.229943
 31
0.0
 12
-6.103837
 22
278.229943
 32
0.0
 13
-6.103837
 23
278.229943
 33
0.0
  0
SOLID
  5
562
330
55C
100
AcDbEntity
  8
LC-001-100-D00-0
 62
     2
100
AcDbTrace
 10
-10.770504
 20
346.230525
 30
0.0
 11
-1.437171
 21
346.230525
 31
0.0
 12
-6.103837
 22
318.230525
 32
0.0
 13
-6.103837
 23
318.230525
 33
0.0
  0
MTEXT
  5
563
330
55C
100
AcDbEntity
  8
LC-001-100-D00-0
 62
     2
100
AcDbMText
 10
-36.903837
 20
251.66518
 30
0.0
 40
28.0
 41
0.0
 71
     5
 72
     1
  1
\A1;40
  7
LCTX15-400-0-0pDIN-Schrift
 11
6.123031769111886E-17
 21
1.0
 31
0.0
 73
     1
 44
1.0
  0
POINT
  5
564
330
55C
100
AcDbEntity
  8
Defpoints
 62
     0
100
AcDbPoint
 10
121.660382
 20
278.229943
 30
0.0
  0
POINT
  5
565
330
55C
100
AcDbEntity
  8
Defpoints
 62
     0
100
AcDbPoint
 10
109.659992
 20
318.230525
 30
0.0
  0
POINT
  5
566
330
55C
100
AcDbEntity
  8
Defpoints
 62
     0
100
AcDbPoint
 10
-6.103837
 20
318.230525
 30
0.0
  0
ENDBLK
  5
568
330
55C
100
AcDbEntity
  8
0
100
AcDbBlockEnd
  0
BLOCK
  5
575
330
56A
100
AcDbEntity
  8
0
100
AcDbBlockBegin
  2
*D36
 70
     1
 71
     0
 10
0.0
 20
0.0
 30
0.0
  3
*D36
  1

  0
LINE
  5
56B
330
56A
100
AcDbEntity
  8
LC-002-106-D00-0
 62
     2
370
    -2
100
AcDbLine
 10
307.118737
 20
311.730525
 30
0.0
 11
484.092265
 21
311.730525
 31
0.0
  0
LINE
  5
56C
330
56A
100
AcDbEntity
  8
LC-002-106-D00-0
 62
     2
370
    -2
100
AcDbLine
 10
312.475059
 20
271.730525
 30
0.0
 11
484.092265
 21
271.730525
 31
0.0
  0
LINE
  5
56D
330
56A
100
AcDbEntity
  8
LC-002-106-D00-0
 62
     2
370
    -2
100
AcDbLine
 10
480.492265
 20
243.730525
 30
0.0
 11
480.492265
 21
215.730525
 31
0.0
  0
LINE
  5
56E
330
56A
100
AcDbEntity
  8
LC-002-106-D00-0
 62
     2
370
    -2
100
AcDbLine
 10
480.492265
 20
339.730525
 30
0.0
 11
480.492265
 21
382.817019
 31
0.0
  0
SOLID
  5
56F
330
56A
100
AcDbEntity
  8
LC-002-106-D00-0
 62
     2
100
AcDbTrace
 10
475.825598
 20
339.730525
 30
0.0
 11
485.158931
 21
339.730525
 31
0.0
 12
480.492265
 22
311.730525
 32
0.0
 13
480.492265
 23
311.730525
 33
0.0
  0
SOLID
  5
570
330
56A
100
AcDbEntity
  8
LC-002-106-D00-0
 62
     2
100
AcDbTrace
 10
485.158931
 20
243.730525
 30
0.0
 11
475.825598
 21
243.730525
 31
0.0
 12
480.492265
 22
271.730525
 32
0.0
 13
480.492265
 23
271.730525
 33
0.0
  0
MTEXT
  5
571
330
56A
100
AcDbEntity
  8
LC-002-106-D00-0
 62
     2
100
AcDbMText
 10
449.692265
 20
336.780262
 30
0.0
 40
28.0
 41
0.0
 71
     5
 72
     1
  1
\A1;DN40
  7
LCTX15-400-0-0pDIN-Schrift
 11
6.123031769111886E-17
 21
1.0
 31
0.0
 73
     1
 44
1.0
  0
POINT
  5
572
330
56A
100
AcDbEntity
  8
Defpoints
 62
     0
100
AcDbPoint
 10
307.118737
 20
311.730525
 30
0.0
  0
POINT
  5
573
330
56A
100
AcDbEntity
  8
Defpoints
 62
     0
100
AcDbPoint
 10
312.475059
 20
271.730525
 30
0.0
  0
POINT
  5
574
330
56A
100
AcDbEntity
  8
Defpoints
 62
     0
100
AcDbPoint
 10
480.492265
 20
271.730525
 30
0.0
  0
ENDBLK
  5
576
330
56A
100
AcDbEntity
  8
0
100
AcDbBlockEnd
  0
BLOCK
  5
583
330
578
100
AcDbEntity
  8
0
100
AcDbBlockBegin
  2
*D37
 70
     1
 71
     0
 10
0.0
 20
0.0
 30
0.0
  3
*D37
  1

  0
LINE
  5
579
330
578
100
AcDbEntity
  8
LC-002-106-D00-0
 62
     2
370
    -2
100
AcDbLine
 10
357.859992
 20
321.323396
 30
0.0
 11
534.14158
 21
321.323396
 31
0.0
  0
LINE
  5
57A
330
578
100
AcDbEntity
  8
LC-002-106-D00-0
 62
     2
370
    -2
100
AcDbLine
 10
357.859992
 20
271.455372
 30
0.0
 11
534.14158
 21
271.455372
 31
0.0
  0
LINE
  5
57B
330
578
100
AcDbEntity
  8
LC-002-106-D00-0
 62
     2
370
    -2
100
AcDbLine
 10
530.54158
 20
243.455372
 30
0.0
 11
530.54158
 21
215.455372
 31
0.0
  0
LINE
  5
57C
330
578
100
AcDbEntity
  8
LC-002-106-D00-0
 62
     2
370
    -2
100
AcDbLine
 10
530.54158
 20
349.323396
 30
0.0
 11
530.54158
 21
399.449019
 31
0.0
  0
SOLID
  5
57D
330
578
100
AcDbEntity
  8
LC-002-106-D00-0
 62
     2
100
AcDbTrace
 10
525.874914
 20
349.323396
 30
0.0
 11
535.208247
 21
349.323396
 31
0.0
 12
530.54158
 22
321.323396
 32
0.0
 13
530.54158
 23
321.323396
 33
0.0
  0
SOLID
  5
57E
330
578
100
AcDbEntity
  8
LC-002-106-D00-0
 62
     2
100
AcDbTrace
 10
535.208247
 20
243.455372
 30
0.0
 11
525.874914
 21
243.455372
 31
0.0
 12
530.54158
 22
271.455372
 32
0.0
 13
530.54158
 23
271.455372
 33
0.0
  0
MTEXT
  5
57F
330
578
100
AcDbEntity
  8
LC-002-106-D00-0
 62
     2
100
AcDbMText
 10
499.74158
 20
353.412262
 30
0.0
 40
28.0
 41
0.0
 71
     5
 72
     1
  1
\A1;DN50
  7
LCTX15-400-0-0pDIN-Schrift
 11
6.123031769111886E-17
 21
1.0
 31
0.0
 73
     1
 44
1.0
  0
POINT
  5
580
330
578
100
AcDbEntity
  8
Defpoints
 62
     0
100
AcDbPoint
 10
357.859992
 20
321.323396
 30
0.0
  0
POINT
  5
581
330
578
100
AcDbEntity
  8
Defpoints
 62
     0
100
AcDbPoint
 10
357.859992
 20
271.455372
 30
0.0
  0
POINT
  5
582
330
578
100
AcDbEntity
  8
Defpoints
 62
     0
100
AcDbPoint
 10
530.54158
 20
271.455372
 30
0.0
  0
ENDBLK
  5
584
330
578
100
AcDbEntity
  8
0
100
AcDbBlockEnd
  0
BLOCK
  5
5F5
330
5F4
100
AcDbEntity
  8
0
100
AcDbBlockBegin
  2
POLY14
 70
     0
 71
     0
 10
0.0
 20
0.0
 30
0.0
  3
POLY14
  1

  4
POLY14
  0
LINE
  5
5F7
330
5F4
100
AcDbEntity
  8
LC-001-100-D00-0
 62
     7
370
    50
100
AcDbLine
 10
136.606896
 20
-6.131738
 30
0.0
 11
136.606896
 21
-6.131738
 31
0.0
  0
LINE
  5
5F8
330
5F4
100
AcDbEntity
  8
LC-001-100-D00-0
 62
     7
370
    50
100
AcDbLine
 10
136.606896
 20
-6.131738
 30
0.0
 11
137.401835
 21
-6.039531
 31
0.0
  0
LINE
  5
5F9
330
5F4
100
AcDbEntity
  8
LC-001-100-D00-0
 62
     7
370
    50
100
AcDbLine
 10
137.401835
 20
-6.039531
 30
0.0
 11
137.401835
 21
-6.039531
 31
0.0
  0
LINE
  5
5FA
330
5F4
100
AcDbEntity
  8
LC-001-100-D00-0
 62
     7
370
    50
100
AcDbLine
 10
137.401835
 20
-6.039531
 30
0.0
 11
139.537167
 21
-5.791849
 31
0.0
  0
LINE
  5
5FB
330
5F4
100
AcDbEntity
  8
LC-001-100-D00-0
 62
     7
370
    50
100
AcDbLine
 10
139.537167
 20
-5.791849
 30
0.0
 11
139.537167
 21
-5.791849
 31
0.0
  0
LINE
  5
5FC
330
5F4
100
AcDbEntity
  8
LC-001-100-D00-0
 62
     7
370
    50
100
AcDbLine
 10
139.537167
 20
-5.791849
 30
0.0
 11
143.590362
 21
-5.636866
 31
0.0
  0
LINE
  5
5FD
330
5F4
100
AcDbEntity
  8
LC-001-100-D00-0
 62
     7
370
    50
100
AcDbLine
 10
143.590362
 20
-5.636866
 30
0.0
 11
143.590362
 21
-5.636866
 31
0.0
  0
LINE
  5
5FE
330
5F4
100
AcDbEntity
  8
LC-001-100-D00-0
 62
     7
370
    50
100
AcDbLine
 10
143.590362
 20
-5.636866
 30
0.0
 11
146.824043
 21
-5.94925
 31
0.0
  0
LINE
  5
5FF
330
5F4
100
AcDbEntity
  8
LC-001-100-D00-0
 62
     7
370
    50
100
AcDbLine
 10
146.824043
 20
-5.94925
 30
0.0
 11
146.824043
 21
-5.94925
 31
0.0
  0
LINE
  5
600
330
5F4
100
AcDbEntity
  8
LC-001-100-D00-0
 62
     7
370
    50
100
AcDbLine
 10
146.824043
 20
-5.94925
 30
0.0
 11
148.713093
 21
-6.131738
 31
0.0
  0
ENDBLK
  5
5F6
330
5F4
100
AcDbEntity
  8
0
100
AcDbBlockEnd
  0
BLOCK
  5
604
330
603
100
AcDbEntity
  8
0
100
AcDbBlockBegin
  2
KLON16
 70
     0
 71
     0
 10
0.0
 20
0.0
 30
0.0
  3
KLON16
  1

  4
KLON16
  0
LINE
  5
606
330
603
100
AcDbEntity
  8
LC-001-100-D00-0
 62
     7
370
    15
100
AcDbLine
 10
167.052617
 20
-12.731738
 30
0.0
 11
168.584359
 21
-13.732694
 31
0.0
  0
LINE
  5
607
330
603
100
AcDbEntity
  8
LC-001-100-D00-0
 62
     7
370
    15
100
AcDbLine
 10
168.584359
 20
-13.732694
 30
0.0
 11
171.646705
 21
-16.013806
 31
0.0
  0
ENDBLK
  5
605
330
603
100
AcDbEntity
  8
0
100
AcDbBlockEnd
  0
BLOCK
  5
60A
330
609
100
AcDbEntity
  8
0
100
AcDbBlockBegin
  2
KLON17
 70
     0
 71
     0
 10
0.0
 20
0.0
 30
0.0
  3
KLON17
  1

  4
KLON17
  0
LINE
  5
60C
330
609
100
AcDbEntity
  8
LC-001-100-D00-0
 62
     7
370
    15
100
AcDbLine
 10
178.377926
 20
-22.745028
 30
0.0
 11
180.659039
 21
-25.807374
 31
0.0
  0
LINE
  5
60D
330
609
100
AcDbEntity
  8
LC-001-100-D00-0
 62
     7
370
    15
100
AcDbLine
 10
180.659039
 20
-25.807374
 30
0.0
 11
181.659995
 21
-27.339116
 31
0.0
  0
ENDBLK
  5
60B
330
609
100
AcDbEntity
  8
0
100
AcDbBlockEnd
  0
BLOCK
  5
612
330
611
100
AcDbEntity
  8
0
100
AcDbBlockBegin
  2
KLON18
 70
     0
 71
     0
 10
0.0
 20
0.0
 30
0.0
  3
KLON18
  1

  4
KLON18
  0
LINE
  5
614
330
611
100
AcDbEntity
  8
LC-001-100-D00-0
 62
     7
370
    15
100
AcDbLine
 10
103.659995
 20
-27.339116
 30
0.0
 11
104.660951
 21
-25.807374
 31
0.0
  0
LINE
  5
615
330
611
100
AcDbEntity
  8
LC-001-100-D00-0
 62
     7
370
    15
100
AcDbLine
 10
104.660951
 20
-25.807374
 30
0.0
 11
106.942063
 21
-22.745028
 31
0.0
  0
ENDBLK
  5
613
330
611
100
AcDbEntity
  8
0
100
AcDbBlockEnd
  0
BLOCK
  5
618
330
617
100
AcDbEntity
  8
0
100
AcDbBlockBegin
  2
KLON19
 70
     0
 71
     0
 10
0.0
 20
0.0
 30
0.0
  3
KLON19
  1

  4
KLON19
  0
LINE
  5
61A
330
617
100
AcDbEntity
  8
LC-001-100-D00-0
 62
     7
370
    15
100
AcDbLine
 10
113.673285
 20
-16.013806
 30
0.0
 11
116.735631
 21
-13.732694
 31
0.0
  0
LINE
  5
61B
330
617
100
AcDbEntity
  8
LC-001-100-D00-0
 62
     7
370
    15
100
AcDbLine
 10
116.735631
 20
-13.732694
 30
0.0
 11
118.267373
 21
-12.731738
 31
0.0
  0
ENDBLK
  5
619
330
617
100
AcDbEntity
  8
0
100
AcDbBlockEnd
  0
BLOCK
  5
685
330
679
100
AcDbEntity
  8
0
100
AcDbBlockBegin
  2
*D43
 70
     1
 71
     0
 10
0.0
 20
0.0
 30
0.0
  3
*D43
  1

  0
LINE
  5
67A
330
679
100
AcDbEntity
  8
LC-003-003-----0
 62
     2
370
    -2
100
AcDbLine
 10
190.959998
 20
375.844266
 30
0.0
 11
420.199521
 21
375.844266
 31
0.0
  0
LINE
  5
67B
330
679
100
AcDbEntity
  8
LC-003-003-----0
 62
     2
370
    -2
100
AcDbLine
 10
265.373424
 20
340.344261
 30
0.0
 11
420.199521
 21
340.344261
 31
0.0
  0
LINE
  5
67C
330
679
100
AcDbEntity
  8
LC-003-003-----0
 62
     2
370
    -2
100
AcDbLine
 10
416.599521
 20
403.844266
 30
0.0
 11
416.599521
 21
431.844266
 31
0.0
  0
LINE
  5
67D
330
679
100
AcDbEntity
  8
LC-003-003-----0
 62
     2
370
    -2
100
AcDbLine
 10
416.599521
 20
312.344261
 30
0.0
 11
416.599521
 21
284.344261
 31
0.0
  0
LINE
  5
67E
330
679
100
AcDbEntity
  8
LC-003-003-----0
 62
     2
370
    -2
100
AcDbLine
 10
416.599521
 20
375.844266
 30
0.0
 11
416.599521
 21
340.344261
 31
0.0
  0
SOLID
  5
67F
330
679
100
AcDbEntity
  8
LC-003-003-----0
 62
     2
100
AcDbTrace
 10
411.932855
 20
403.844266
 30
0.0
 11
421.266188
 21
403.844266
 31
0.0
 12
416.599521
 22
375.844266
 32
0.0
 13
416.599521
 23
375.844266
 33
0.0
  0
SOLID
  5
680
330
679
100
AcDbEntity
  8
LC-003-003-----0
 62
     2
100
AcDbTrace
 10
421.266188
 20
312.344261
 30
0.0
 11
411.932855
 21
312.344261
 31
0.0
 12
416.599521
 22
340.344261
 32
0.0
 13
416.599521
 23
340.344261
 33
0.0
  0
MTEXT
  5
681
330
679
100
AcDbEntity
  8
LC-003-003-----0
 62
     2
100
AcDbMText
 10
385.799521
 20
375.390262
 30
0.0
 40
28.0
 41
0.0
 71
     5
 72
     1
  1
\A1;6,5-35
  7
LCTX15-400-0-0pDIN-Schrift
 11
6.123031769111886E-17
 21
1.0
 31
0.0
 73
     1
 44
1.0
  0
POINT
  5
682
330
679
100
AcDbEntity
  8
Defpoints
 62
     0
100
AcDbPoint
 10
190.959998
 20
375.844266
 30
0.0
  0
POINT
  5
683
330
679
100
AcDbEntity
  8
Defpoints
 62
     0
100
AcDbPoint
 10
265.373424
 20
340.344261
 30
0.0
  0
POINT
  5
684
330
679
100
AcDbEntity
  8
Defpoints
 62
     0
100
AcDbPoint
 10
416.599521
 20
340.344261
 30
0.0
  0
ENDBLK
  5
686
330
679
100
AcDbEntity
  8
0
100
AcDbBlockEnd
  0
ENDSEC
  0
SECTION
  2
ENTITIES
  0
LINE
  5
31
330
1F
100
AcDbEntity
  8
LC-001-100-D00-0
 62
     7
370
    50
100
AcDbLine
 10
245.959998
 20
269.094262
 30
0.0
 11
245.959998
 21
270.994262
 31
0.0
  0
LINE
  5
32
330
1F
100
AcDbEntity
  8
LC-001-100-D00-0
 62
     7
370
    50
100
AcDbLine
 10
245.959998
 20
312.694262
 30
0.0
 11
245.959998
 21
314.594261
 31
0.0
  0
ARC
  5
33
330
1F
100
AcDbEntity
  8
LC-001-100-D00-0
 62
     7
370
    50
100
AcDbCircle
 10
97.559971
 20
371.144041
 30
0.0
 40
0.9999761373793682
100
AcDbArc
 50
180.02499
 51
246.422775
  0
ARC
  5
34
330
1F
100
AcDbEntity
  8
LC-001-100-D00-0
 62
     7
370
    50
100
AcDbCircle
 10
187.760005
 20
371.144053
 30
0.0
 40
0.9999928091145424
100
AcDbArc
 50
293.577733
 51
359.974339
  0
LINE
  5
35
330
1F
100
AcDbEntity
  8
LC-001-100-D00-0
 62
     7
370
    50
100
AcDbLine
 10
312.6335
 20
271.503121
 30
0.0
 11
312.436537
 21
271.844262
 31
0.0
  0
LINE
  5
36
330
1F
100
AcDbEntity
  8
LC-001-100-D00-0
 62
     7
370
    50
100
AcDbLine
 10
307.056949
 20
311.844263
 30
0.0
 11
312.6335
 21
321.503121
 31
0.0
  0
LINE
  5
37
330
1F
100
AcDbEntity
  8
LC-001-100-D00-0
 62
     7
370
    50
100
AcDbLine
 10
357.86
 20
271.503121
 30
0.0
 11
312.6335
 21
271.503121
 31
0.0
  0
LINE
  5
38
330
1F
100
AcDbEntity
  8
LC-001-100-D00-0
 62
     7
370
    50
100
AcDbLine
 10
312.6335
 20
321.503121
 30
0.0
 11
357.86
 21
321.503121
 31
0.0
  0
LINE
  5
39
330
1F
100
AcDbEntity
  8
LC-001-100-D00-0
 62
     7
370
    50
100
AcDbLine
 10
357.86
 20
321.503121
 30
0.0
 11
360.859991
 21
320.699274
 31
0.0
  0
LINE
  5
3A
330
1F
100
AcDbEntity
  8
LC-001-100-D00-0
 62
     7
370
    50
100
AcDbLine
 10
360.859991
 20
272.306969
 30
0.0
 11
357.86
 21
271.503121
 31
0.0
  0
LINE
  5
3B
330
1F
100
AcDbEntity
  8
LC-001-100-D00-0
 62
     7
370
    15
100
AcDbLine
 10
-82.878514
 20
325.244259
 30
0.0
 11
-83.840012
 21
325.244259
 31
0.0
  0
LINE
  5
3C
330
1F
100
AcDbEntity
  8
LC-001-100-D00-0
 62
     7
370
    50
100
AcDbLine
 10
-32.878525
 20
325.244259
 30
0.0
 11
-81.801488
 21
325.244259
 31
0.0
  0
LINE
  5
3D
330
1F
100
AcDbEntity
  8
LC-001-100-D00-0
 62
     7
370
    50
100
AcDbLine
 10
15.200284
 20
325.244259
 30
0.0
 11
-31.801491
 21
325.244259
 31
0.0
  0
LINE
  5
3E
330
1F
100
AcDbEntity
  8
LC-001-100-D00-0
 62
     7
370
    50
100
AcDbLine
 10
-83.840012
 20
328.244265
 30
0.0
 11
15.937046
 21
328.244265
 31
0.0
  0
LINE
  5
3F
330
1F
100
AcDbEntity
  8
LC-001-100-D00-0
 62
     7
370
    50
100
AcDbLine
 10
317.121477
 20
325.244259
 30
0.0
 11
270.119712
 21
325.244259
 31
0.0
  0
LINE
  5
40
330
1F
100
AcDbEntity
  8
LC-001-100-D00-0
 62
     7
370
    50
100
AcDbLine
 10
367.121489
 20
325.244259
 30
0.0
 11
318.198518
 21
325.244259
 31
0.0
  0
LINE
  5
41
330
1F
100
AcDbEntity
  8
LC-001-100-D00-0
 62
     7
370
    50
100
AcDbLine
 10
369.159997
 20
325.244259
 30
0.0
 11
368.198515
 21
325.244259
 31
0.0
  0
LINE
  5
42
330
1F
100
AcDbEntity
  8
LC-001-100-D00-0
 62
     7
370
    50
100
AcDbLine
 10
269.382939
 20
328.244265
 30
0.0
 11
369.159997
 21
328.244265
 31
0.0
  0
ARC
  5
43
330
1F
100
AcDbEntity
  8
LC-001-100-D00-0
 62
     7
370
    50
100
AcDbCircle
 10
251.659995
 20
225.270876
 30
0.0
 40
0.5
100
AcDbArc
 50
0.0
 51
90.0
  0
ARC
  5
44
330
1F
100
AcDbEntity
  8
LC-001-100-D00-0
 62
     7
370
    50
100
AcDbCircle
 10
233.659995
 20
225.270876
 30
0.0
 40
0.5
100
AcDbArc
 50
90.0
 51
180.0
  0
LINE
  5
45
330
1F
100
AcDbEntity
  8
LC-001-100-D00-0
 62
     7
370
    50
100
AcDbLine
 10
252.159998
 20
225.270878
 30
0.0
 11
252.159998
 21
217.770878
 31
0.0
  0
LINE
  5
46
330
1F
100
AcDbEntity
  8
LC-001-100-D00-0
 62
     7
370
    50
100
AcDbLine
 10
233.15999
 20
217.770878
 30
0.0
 11
233.15999
 21
225.270878
 31
0.0
  0
ARC
  5
47
330
1F
100
AcDbEntity
  8
LC-001-100-D00-0
 62
     7
370
    50
100
AcDbCircle
 10
51.659995
 20
225.270876
 30
0.0
 40
0.5
100
AcDbArc
 50
0.0
 51
90.0
  0
ARC
  5
48
330
1F
100
AcDbEntity
  8
LC-001-100-D00-0
 62
     7
370
    50
100
AcDbCircle
 10
33.659995
 20
225.270876
 30
0.0
 40
0.5
100
AcDbArc
 50
90.0
 51
180.0
  0
LINE
  5
49
330
1F
100
AcDbEntity
  8
LC-001-100-D00-0
 62
     7
370
    50
100
AcDbLine
 10
52.159995
 20
225.270878
 30
0.0
 11
52.159995
 21
217.770878
 31
0.0
  0
LINE
  5
4A
330
1F
100
AcDbEntity
  8
LC-001-100-D00-0
 62
     7
370
    50
100
AcDbLine
 10
33.159994
 20
217.770878
 30
0.0
 11
33.159994
 21
225.270878
 31
0.0
  0
LINE
  5
4B
330
1F
100
AcDbEntity
  8
LC-001-100-D00-0
 62
     7
370
    50
100
AcDbLine
 10
52.659995
 20
310.344263
 30
0.0
 11
52.659995
 21
240.770876
 31
0.0
  0
LINE
  5
4C
330
1F
100
AcDbEntity
  8
LC-001-100-D00-0
 62
     7
370
    50
100
AcDbLine
 10
32.659993
 20
240.770876
 30
0.0
 11
32.659993
 21
310.344263
 31
0.0
  0
LINE
  5
4D
330
1F
100
AcDbEntity
  8
LC-001-100-D00-0
 62
     7
370
    50
100
AcDbLine
 10
52.659995
 20
226.770877
 30
0.0
 11
51.659994
 21
225.770875
 31
0.0
  0
LINE
  5
4E
330
1F
100
AcDbEntity
  8
LC-001-100-D00-0
 62
     7
370
    50
100
AcDbLine
 10
33.659995
 20
225.770875
 30
0.0
 11
32.659993
 21
226.770877
 31
0.0
  0
LINE
  5
4F
330
1F
100
AcDbEntity
  8
LC-001-100-D00-0
 62
     7
370
    50
100
AcDbLine
 10
52.659995
 20
237.270876
 30
0.0
 11
52.659995
 21
226.770877
 31
0.0
  0
LINE
  5
50
330
1F
100
AcDbEntity
  8
LC-001-100-D00-0
 62
     7
370
    50
100
AcDbLine
 10
32.659993
 20
226.770877
 30
0.0
 11
32.659993
 21
237.270876
 31
0.0
  0
LINE
  5
51
330
1F
100
AcDbEntity
  8
LC-001-100-D00-0
 62
     7
370
    50
100
AcDbLine
 10
50.559994
 20
240.770876
 30
0.0
 11
50.559994
 21
237.270876
 31
0.0
  0
LINE
  5
52
330
1F
100
AcDbEntity
  8
LC-001-100-D00-0
 62
     7
370
    50
100
AcDbLine
 10
34.759995
 20
237.270876
 30
0.0
 11
34.759995
 21
240.770876
 31
0.0
  0
LINE
  5
53
330
1F
100
AcDbEntity
  8
LC-001-100-D00-0
 62
     7
370
    50
100
AcDbLine
 10
252.659992
 20
226.770877
 30
0.0
 11
251.65999
 21
225.770875
 31
0.0
  0
LINE
  5
54
330
1F
100
AcDbEntity
  8
LC-001-100-D00-0
 62
     7
370
    50
100
AcDbLine
 10
233.659998
 20
225.770875
 30
0.0
 11
232.659996
 21
226.770877
 31
0.0
  0
LINE
  5
55
330
1F
100
AcDbEntity
  8
LC-001-100-D00-0
 62
     7
370
    50
100
AcDbLine
 10
252.659992
 20
266.111792
 30
0.0
 11
252.659992
 21
240.770876
 31
0.0
  0
LINE
  5
56
330
1F
100
AcDbEntity
  8
LC-001-100-D00-0
 62
     7
370
    50
100
AcDbLine
 10
232.659996
 20
240.770876
 30
0.0
 11
232.659996
 21
268.638444
 31
0.0
  0
LINE
  5
57
330
1F
100
AcDbEntity
  8
LC-001-100-D00-0
 62
     7
370
    50
100
AcDbLine
 10
252.659992
 20
237.270876
 30
0.0
 11
252.659992
 21
226.770877
 31
0.0
  0
LINE
  5
58
330
1F
100
AcDbEntity
  8
LC-001-100-D00-0
 62
     7
370
    50
100
AcDbLine
 10
232.659996
 20
226.770877
 30
0.0
 11
232.659996
 21
237.270876
 31
0.0
  0
LINE
  5
59
330
1F
100
AcDbEntity
  8
LC-001-100-D00-0
 62
     7
370
    50
100
AcDbLine
 10
250.560001
 20
240.770876
 30
0.0
 11
250.560001
 21
237.270876
 31
0.0
  0
LINE
  5
5A
330
1F
100
AcDbEntity
  8
LC-001-100-D00-0
 62
     7
370
    50
100
AcDbLine
 10
234.760002
 20
237.270876
 30
0.0
 11
234.760002
 21
240.770876
 31
0.0
  0
CIRCLE
  5
5B
330
1F
100
AcDbEntity
  8
LC-001-100-D00-0
 62
     7
370
    50
100
AcDbCircle
 10
184.309995
 20
331.848551
 30
0.0
 40
1.499999999999943
  0
CIRCLE
  5
5C
330
1F
100
AcDbEntity
  8
LC-001-100-D00-0
 62
     7
370
    50
100
AcDbCircle
 10
101.009995
 20
331.848551
 30
0.0
 40
1.500000000000057
  0
CIRCLE
  5
5D
330
1F
100
AcDbEntity
  8
LC-001-100-D00-0
 62
     7
370
    50
100
AcDbCircle
 10
247.959995
 20
269.094262
 30
0.0
 40
2.0
  0
CIRCLE
  5
5E
330
1F
100
AcDbEntity
  8
LC-001-100-D00-0
 62
     7
370
    50
100
AcDbCircle
 10
247.959995
 20
314.594262
 30
0.0
 40
2.0
  0
LINE
  5
5F
330
1F
100
AcDbEntity
  8
LC-001-100-D00-0
 62
     7
370
    50
100
AcDbLine
 10
95.159995
 20
346.844259
 30
0.0
 11
96.359995
 21
346.844259
 31
0.0
  0
LINE
  5
60
330
1F
100
AcDbEntity
  8
LC-001-100-D00-0
 62
     7
370
    50
100
AcDbLine
 10
95.159995
 20
346.844259
 30
0.0
 11
95.159995
 21
345.844264
 31
0.0
  0
LINE
  5
61
330
1F
100
AcDbEntity
  8
LC-001-100-D00-0
 62
     7
370
    50
100
AcDbLine
 10
96.359995
 20
345.844264
 30
0.0
 11
95.159995
 21
345.844264
 31
0.0
  0
LINE
  5
62
330
1F
100
AcDbEntity
  8
LC-001-100-D00-0
 62
     7
370
    50
100
AcDbLine
 10
96.359995
 20
345.844264
 30
0.0
 11
96.359995
 21
344.344261
 31
0.0
  0
LINE
  5
63
330
1F
100
AcDbEntity
  8
LC-001-100-D00-0
 62
     7
370
    50
100
AcDbLine
 10
95.159995
 20
344.344261
 30
0.0
 11
96.359995
 21
344.344261
 31
0.0
  0
LINE
  5
64
330
1F
100
AcDbEntity
  8
LC-001-100-D00-0
 62
     7
370
    50
100
AcDbLine
 10
95.159995
 20
344.344261
 30
0.0
 11
95.159995
 21
343.344259
 31
0.0
  0
LINE
  5
65
330
1F
100
AcDbEntity
  8
LC-001-100-D00-0
 62
     7
370
    50
100
AcDbLine
 10
96.359995
 20
343.344259
 30
0.0
 11
95.159995
 21
343.344259
 31
0.0
  0
LINE
  5
66
330
1F
100
AcDbEntity
  8
LC-001-100-D00-0
 62
     7
370
    50
100
AcDbLine
 10
96.359995
 20
343.344259
 30
0.0
 11
96.359995
 21
341.844264
 31
0.0
  0
LINE
  5
67
330
1F
100
AcDbEntity
  8
LC-001-100-D00-0
 62
     7
370
    50
100
AcDbLine
 10
95.159995
 20
341.844264
 30
0.0
 11
96.359995
 21
341.844264
 31
0.0
  0
LINE
  5
68
330
1F
100
AcDbEntity
  8
LC-001-100-D00-0
 62
     7
370
    50
100
AcDbLine
 10
95.159995
 20
341.844264
 30
0.0
 11
95.159995
 21
340.844262
 31
0.0
  0
LINE
  5
69
330
1F
100
AcDbEntity
  8
LC-001-100-D00-0
 62
     7
370
    50
100
AcDbLine
 10
96.359995
 20
340.844262
 30
0.0
 11
95.159995
 21
340.844262
 31
0.0
  0
LINE
  5
6A
330
1F
100
AcDbEntity
  8
LC-001-100-D00-0
 62
     7
370
    50
100
AcDbLine
 10
96.359995
 20
340.844262
 30
0.0
 11
96.359995
 21
339.344259
 31
0.0
  0
LINE
  5
6B
330
1F
100
AcDbEntity
  8
LC-001-100-D00-0
 62
     7
370
    50
100
AcDbLine
 10
95.159995
 20
339.344259
 30
0.0
 11
96.359995
 21
339.344259
 31
0.0
  0
LINE
  5
6C
330
1F
100
AcDbEntity
  8
LC-001-100-D00-0
 62
     7
370
    50
100
AcDbLine
 10
95.159995
 20
339.344259
 30
0.0
 11
95.159995
 21
338.344264
 31
0.0
  0
LINE
  5
6D
330
1F
100
AcDbEntity
  8
LC-001-100-D00-0
 62
     7
370
    50
100
AcDbLine
 10
96.359995
 20
338.344264
 30
0.0
 11
95.159995
 21
338.344264
 31
0.0
  0
LINE
  5
6E
330
1F
100
AcDbEntity
  8
LC-001-100-D00-0
 62
     7
370
    50
100
AcDbLine
 10
96.359995
 20
338.344264
 30
0.0
 11
96.359995
 21
336.844261
 31
0.0
  0
LINE
  5
6F
330
1F
100
AcDbEntity
  8
LC-001-100-D00-0
 62
     7
370
    50
100
AcDbLine
 10
95.159995
 20
336.844261
 30
0.0
 11
96.359995
 21
336.844261
 31
0.0
  0
LINE
  5
70
330
1F
100
AcDbEntity
  8
LC-001-100-D00-0
 62
     7
370
    50
100
AcDbLine
 10
95.159995
 20
336.844261
 30
0.0
 11
95.159995
 21
335.844259
 31
0.0
  0
LINE
  5
71
330
1F
100
AcDbEntity
  8
LC-001-100-D00-0
 62
     7
370
    50
100
AcDbLine
 10
96.659994
 20
335.844259
 30
0.0
 11
95.159995
 21
335.844259
 31
0.0
  0
LINE
  5
72
330
1F
100
AcDbEntity
  8
LC-001-100-D00-0
 62
     7
370
    50
100
AcDbLine
 10
96.659994
 20
368.44426
 30
0.0
 11
96.659994
 21
335.844259
 31
0.0
  0
LINE
  5
73
330
1F
100
AcDbEntity
  8
LC-001-100-D00-0
 62
     7
370
    50
100
AcDbLine
 10
96.659994
 20
369.512889
 30
0.0
 11
96.659994
 21
368.44426
 31
0.0
  0
ARC
  5
74
330
1F
100
AcDbEntity
  8
LC-001-100-D00-0
 62
     7
370
    50
100
AcDbCircle
 10
94.859995
 20
374.144262
 30
0.0
 40
1.0
100
AcDbArc
 50
0.0
 51
90.0
  0
LINE
  5
75
330
1F
100
AcDbEntity
  8
LC-001-100-D00-0
 62
     7
370
    50
100
AcDbLine
 10
94.359995
 20
375.144261
 30
0.0
 11
94.859996
 21
375.144261
 31
0.0
  0
ARC
  5
76
330
1F
100
AcDbEntity
  8
LC-001-100-D00-0
 62
     7
370
    50
100
AcDbCircle
 10
94.359995
 20
374.144262
 30
0.0
 40
1.0
100
AcDbArc
 50
90.0
 51
180.0
  0
LINE
  5
77
330
1F
100
AcDbEntity
  8
LC-001-100-D00-0
 62
     7
370
    50
100
AcDbLine
 10
96.359995
 20
368.344265
 30
0.0
 11
95.159995
 21
368.344265
 31
0.0
  0
LINE
  5
78
330
1F
100
AcDbEntity
  8
LC-001-100-D00-0
 62
     7
370
    50
100
AcDbLine
 10
96.359995
 20
368.344265
 30
0.0
 11
96.359995
 21
366.844262
 31
0.0
  0
LINE
  5
79
330
1F
100
AcDbEntity
  8
LC-001-100-D00-0
 62
     7
370
    50
100
AcDbLine
 10
95.159995
 20
366.844262
 30
0.0
 11
96.359995
 21
366.844262
 31
0.0
  0
LINE
  5
7A
330
1F
100
AcDbEntity
  8
LC-001-100-D00-0
 62
     7
370
    50
100
AcDbLine
 10
95.159995
 20
366.844262
 30
0.0
 11
95.159995
 21
365.84426
 31
0.0
  0
LINE
  5
7B
330
1F
100
AcDbEntity
  8
LC-001-100-D00-0
 62
     7
370
    50
100
AcDbLine
 10
96.359995
 20
365.84426
 30
0.0
 11
95.159995
 21
365.84426
 31
0.0
  0
LINE
  5
7C
330
1F
100
AcDbEntity
  8
LC-001-100-D00-0
 62
     7
370
    50
100
AcDbLine
 10
96.359995
 20
365.84426
 30
0.0
 11
96.359995
 21
364.344265
 31
0.0
  0
LINE
  5
7D
330
1F
100
AcDbEntity
  8
LC-001-100-D00-0
 62
     7
370
    50
100
AcDbLine
 10
95.159995
 20
364.344265
 30
0.0
 11
96.359995
 21
364.344265
 31
0.0
  0
LINE
  5
7E
330
1F
100
AcDbEntity
  8
LC-001-100-D00-0
 62
     7
370
    50
100
AcDbLine
 10
95.159995
 20
364.344265
 30
0.0
 11
95.159995
 21
363.344263
 31
0.0
  0
LINE
  5
7F
330
1F
100
AcDbEntity
  8
LC-001-100-D00-0
 62
     7
370
    50
100
AcDbLine
 10
96.359995
 20
363.344263
 30
0.0
 11
95.159995
 21
363.344263
 31
0.0
  0
LINE
  5
80
330
1F
100
AcDbEntity
  8
LC-001-100-D00-0
 62
     7
370
    50
100
AcDbLine
 10
96.359995
 20
363.344263
 30
0.0
 11
96.359995
 21
361.84426
 31
0.0
  0
LINE
  5
81
330
1F
100
AcDbEntity
  8
LC-001-100-D00-0
 62
     7
370
    50
100
AcDbLine
 10
95.159995
 20
361.84426
 30
0.0
 11
96.359995
 21
361.84426
 31
0.0
  0
LINE
  5
82
330
1F
100
AcDbEntity
  8
LC-001-100-D00-0
 62
     7
370
    50
100
AcDbLine
 10
95.159995
 20
361.84426
 30
0.0
 11
95.159995
 21
360.844265
 31
0.0
  0
LINE
  5
83
330
1F
100
AcDbEntity
  8
LC-001-100-D00-0
 62
     7
370
    50
100
AcDbLine
 10
96.359995
 20
360.844265
 30
0.0
 11
95.159995
 21
360.844265
 31
0.0
  0
LINE
  5
84
330
1F
100
AcDbEntity
  8
LC-001-100-D00-0
 62
     7
370
    50
100
AcDbLine
 10
96.359995
 20
360.844265
 30
0.0
 11
96.359995
 21
359.344262
 31
0.0
  0
LINE
  5
85
330
1F
100
AcDbEntity
  8
LC-001-100-D00-0
 62
     7
370
    50
100
AcDbLine
 10
95.159995
 20
359.344262
 30
0.0
 11
96.359995
 21
359.344262
 31
0.0
  0
LINE
  5
86
330
1F
100
AcDbEntity
  8
LC-001-100-D00-0
 62
     7
370
    50
100
AcDbLine
 10
95.159995
 20
359.344262
 30
0.0
 11
95.159995
 21
358.34426
 31
0.0
  0
LINE
  5
87
330
1F
100
AcDbEntity
  8
LC-001-100-D00-0
 62
     7
370
    50
100
AcDbLine
 10
96.359995
 20
358.34426
 30
0.0
 11
95.159995
 21
358.34426
 31
0.0
  0
LINE
  5
88
330
1F
100
AcDbEntity
  8
LC-001-100-D00-0
 62
     7
370
    50
100
AcDbLine
 10
96.359995
 20
358.34426
 30
0.0
 11
96.359995
 21
356.844264
 31
0.0
  0
LINE
  5
89
330
1F
100
AcDbEntity
  8
LC-001-100-D00-0
 62
     7
370
    50
100
AcDbLine
 10
95.159995
 20
356.844264
 30
0.0
 11
96.359995
 21
356.844264
 31
0.0
  0
LINE
  5
8A
330
1F
100
AcDbEntity
  8
LC-001-100-D00-0
 62
     7
370
    50
100
AcDbLine
 10
95.159995
 20
356.844264
 30
0.0
 11
95.159995
 21
355.844262
 31
0.0
  0
LINE
  5
8B
330
1F
100
AcDbEntity
  8
LC-001-100-D00-0
 62
     7
370
    50
100
AcDbLine
 10
96.359995
 20
355.844262
 30
0.0
 11
95.159995
 21
355.844262
 31
0.0
  0
LINE
  5
8C
330
1F
100
AcDbEntity
  8
LC-001-100-D00-0
 62
     7
370
    50
100
AcDbLine
 10
96.359995
 20
355.844262
 30
0.0
 11
96.359995
 21
354.344259
 31
0.0
  0
LINE
  5
8D
330
1F
100
AcDbEntity
  8
LC-001-100-D00-0
 62
     7
370
    50
100
AcDbLine
 10
95.159995
 20
354.344259
 30
0.0
 11
96.359995
 21
354.344259
 31
0.0
  0
LINE
  5
8E
330
1F
100
AcDbEntity
  8
LC-001-100-D00-0
 62
     7
370
    50
100
AcDbLine
 10
95.159995
 20
354.344259
 30
0.0
 11
95.159995
 21
353.344265
 31
0.0
  0
LINE
  5
8F
330
1F
100
AcDbEntity
  8
LC-001-100-D00-0
 62
     7
370
    50
100
AcDbLine
 10
96.359995
 20
353.344265
 30
0.0
 11
95.159995
 21
353.344265
 31
0.0
  0
LINE
  5
90
330
1F
100
AcDbEntity
  8
LC-001-100-D00-0
 62
     7
370
    50
100
AcDbLine
 10
96.359995
 20
353.344265
 30
0.0
 11
96.359995
 21
351.844262
 31
0.0
  0
LINE
  5
91
330
1F
100
AcDbEntity
  8
LC-001-100-D00-0
 62
     7
370
    50
100
AcDbLine
 10
95.159995
 20
351.844262
 30
0.0
 11
96.359995
 21
351.844262
 31
0.0
  0
LINE
  5
92
330
1F
100
AcDbEntity
  8
LC-001-100-D00-0
 62
     7
370
    50
100
AcDbLine
 10
95.159995
 20
351.844262
 30
0.0
 11
95.159995
 21
350.84426
 31
0.0
  0
LINE
  5
93
330
1F
100
AcDbEntity
  8
LC-001-100-D00-0
 62
     7
370
    50
100
AcDbLine
 10
96.359995
 20
350.84426
 30
0.0
 11
95.159995
 21
350.84426
 31
0.0
  0
LINE
  5
94
330
1F
100
AcDbEntity
  8
LC-001-100-D00-0
 62
     7
370
    50
100
AcDbLine
 10
96.359995
 20
350.84426
 30
0.0
 11
96.359995
 21
349.344264
 31
0.0
  0
LINE
  5
95
330
1F
100
AcDbEntity
  8
LC-001-100-D00-0
 62
     7
370
    50
100
AcDbLine
 10
95.159995
 20
349.344264
 30
0.0
 11
96.359995
 21
349.344264
 31
0.0
  0
LINE
  5
96
330
1F
100
AcDbEntity
  8
LC-001-100-D00-0
 62
     7
370
    50
100
AcDbLine
 10
95.159995
 20
349.344264
 30
0.0
 11
95.159995
 21
348.344262
 31
0.0
  0
LINE
  5
97
330
1F
100
AcDbEntity
  8
LC-001-100-D00-0
 62
     7
370
    50
100
AcDbLine
 10
96.359995
 20
348.344262
 30
0.0
 11
95.159995
 21
348.344262
 31
0.0
  0
LINE
  5
98
330
1F
100
AcDbEntity
  8
LC-001-100-D00-0
 62
     7
370
    50
100
AcDbLine
 10
96.359995
 20
348.344262
 30
0.0
 11
96.359995
 21
346.844259
 31
0.0
  0
LINE
  5
99
330
1F
100
AcDbEntity
  8
LC-001-100-D00-0
 62
     7
370
    50
100
AcDbLine
 10
95.159995
 20
369.444262
 30
0.0
 11
95.159995
 21
368.344265
 31
0.0
  0
LINE
  5
9A
330
1F
100
AcDbEntity
  8
LC-001-100-D00-0
 62
     7
370
    50
100
AcDbLine
 10
92.159995
 20
369.444262
 30
0.0
 11
95.159995
 21
369.444262
 31
0.0
  0
ARC
  5
9B
330
1F
100
AcDbEntity
  8
LC-001-100-D00-0
 62
     7
370
    50
100
AcDbCircle
 10
92.159995
 20
370.644262
 30
0.0
 40
1.200000000000159
100
AcDbArc
 50
270.0
 51
0.0
  0
LINE
  5
9C
330
1F
100
AcDbEntity
  8
LC-001-100-D00-0
 62
     7
370
    50
100
AcDbLine
 10
93.359994
 20
374.144259
 30
0.0
 11
93.359994
 21
370.64426
 31
0.0
  0
LINE
  5
9D
330
1F
100
AcDbEntity
  8
LC-001-100-D00-0
 62
     7
370
    50
100
AcDbLine
 10
95.859994
 20
374.144259
 30
0.0
 11
95.859994
 21
370.64426
 31
0.0
  0
ARC
  5
9E
330
1F
100
AcDbEntity
  8
LC-001-100-D00-0
 62
     7
370
    50
100
AcDbCircle
 10
97.059995
 20
370.644262
 30
0.0
 40
1.200000000000131
100
AcDbArc
 50
180.0
 51
250.528779
  0
LINE
  5
9F
330
1F
100
AcDbEntity
  8
LC-001-100-D00-0
 62
     7
370
    50
100
AcDbLine
 10
190.159992
 20
340.844262
 30
0.0
 11
190.159992
 21
341.844264
 31
0.0
  0
LINE
  5
A0
330
1F
100
AcDbEntity
  8
LC-001-100-D00-0
 62
     7
370
    50
100
AcDbLine
 10
188.959994
 20
341.844264
 30
0.0
 11
190.159992
 21
341.844264
 31
0.0
  0
LINE
  5
A1
330
1F
100
AcDbEntity
  8
LC-001-100-D00-0
 62
     7
370
    50
100
AcDbLine
 10
188.959994
 20
343.344259
 30
0.0
 11
188.959994
 21
341.844264
 31
0.0
  0
LINE
  5
A2
330
1F
100
AcDbEntity
  8
LC-001-100-D00-0
 62
     7
370
    50
100
AcDbLine
 10
190.159992
 20
343.344259
 30
0.0
 11
188.959994
 21
343.344259
 31
0.0
  0
LINE
  5
A3
330
1F
100
AcDbEntity
  8
LC-001-100-D00-0
 62
     7
370
    50
100
AcDbLine
 10
190.159992
 20
343.344259
 30
0.0
 11
190.159992
 21
344.344261
 31
0.0
  0
LINE
  5
A4
330
1F
100
AcDbEntity
  8
LC-001-100-D00-0
 62
     7
370
    50
100
AcDbLine
 10
188.959994
 20
344.344261
 30
0.0
 11
190.159992
 21
344.344261
 31
0.0
  0
LINE
  5
A5
330
1F
100
AcDbEntity
  8
LC-001-100-D00-0
 62
     7
370
    50
100
AcDbLine
 10
188.959994
 20
345.844264
 30
0.0
 11
188.959994
 21
344.344261
 31
0.0
  0
LINE
  5
A6
330
1F
100
AcDbEntity
  8
LC-001-100-D00-0
 62
     7
370
    50
100
AcDbLine
 10
190.159992
 20
345.844264
 30
0.0
 11
188.959994
 21
345.844264
 31
0.0
  0
LINE
  5
A7
330
1F
100
AcDbEntity
  8
LC-001-100-D00-0
 62
     7
370
    50
100
AcDbLine
 10
190.159992
 20
345.844264
 30
0.0
 11
190.159992
 21
346.844259
 31
0.0
  0
LINE
  5
A8
330
1F
100
AcDbEntity
  8
LC-001-100-D00-0
 62
     7
370
    50
100
AcDbLine
 10
188.959994
 20
346.844259
 30
0.0
 11
190.159992
 21
346.844259
 31
0.0
  0
LINE
  5
A9
330
1F
100
AcDbEntity
  8
LC-001-100-D00-0
 62
     7
370
    50
100
AcDbLine
 10
188.959994
 20
348.344262
 30
0.0
 11
188.959994
 21
346.844259
 31
0.0
  0
LINE
  5
AA
330
1F
100
AcDbEntity
  8
LC-001-100-D00-0
 62
     7
370
    50
100
AcDbLine
 10
190.159992
 20
348.344262
 30
0.0
 11
188.959994
 21
348.344262
 31
0.0
  0
LINE
  5
AB
330
1F
100
AcDbEntity
  8
LC-001-100-D00-0
 62
     7
370
    50
100
AcDbLine
 10
190.159992
 20
348.344262
 30
0.0
 11
190.159992
 21
349.344264
 31
0.0
  0
LINE
  5
AC
330
1F
100
AcDbEntity
  8
LC-001-100-D00-0
 62
     7
370
    50
100
AcDbLine
 10
188.959994
 20
349.344264
 30
0.0
 11
190.159992
 21
349.344264
 31
0.0
  0
LINE
  5
AD
330
1F
100
AcDbEntity
  8
LC-001-100-D00-0
 62
     7
370
    50
100
AcDbLine
 10
188.959994
 20
350.84426
 30
0.0
 11
188.959994
 21
349.344264
 31
0.0
  0
LINE
  5
AE
330
1F
100
AcDbEntity
  8
LC-001-100-D00-0
 62
     7
370
    50
100
AcDbLine
 10
190.159992
 20
350.84426
 30
0.0
 11
188.959994
 21
350.84426
 31
0.0
  0
LINE
  5
AF
330
1F
100
AcDbEntity
  8
LC-001-100-D00-0
 62
     7
370
    50
100
AcDbLine
 10
190.159992
 20
350.84426
 30
0.0
 11
190.159992
 21
351.844262
 31
0.0
  0
LINE
  5
B0
330
1F
100
AcDbEntity
  8
LC-001-100-D00-0
 62
     7
370
    50
100
AcDbLine
 10
188.959994
 20
351.844262
 30
0.0
 11
190.159992
 21
351.844262
 31
0.0
  0
LINE
  5
B1
330
1F
100
AcDbEntity
  8
LC-001-100-D00-0
 62
     7
370
    50
100
AcDbLine
 10
188.959994
 20
353.344265
 30
0.0
 11
188.959994
 21
351.844262
 31
0.0
  0
LINE
  5
B2
330
1F
100
AcDbEntity
  8
LC-001-100-D00-0
 62
     7
370
    50
100
AcDbLine
 10
190.159992
 20
353.344265
 30
0.0
 11
188.959994
 21
353.344265
 31
0.0
  0
LINE
  5
B3
330
1F
100
AcDbEntity
  8
LC-001-100-D00-0
 62
     7
370
    50
100
AcDbLine
 10
190.159992
 20
353.344265
 30
0.0
 11
190.159992
 21
354.344259
 31
0.0
  0
LINE
  5
B4
330
1F
100
AcDbEntity
  8
LC-001-100-D00-0
 62
     7
370
    50
100
AcDbLine
 10
188.959994
 20
354.344259
 30
0.0
 11
190.159992
 21
354.344259
 31
0.0
  0
LINE
  5
B5
330
1F
100
AcDbEntity
  8
LC-001-100-D00-0
 62
     7
370
    50
100
AcDbLine
 10
188.959994
 20
355.844262
 30
0.0
 11
188.959994
 21
354.344259
 31
0.0
  0
LINE
  5
B6
330
1F
100
AcDbEntity
  8
LC-001-100-D00-0
 62
     7
370
    50
100
AcDbLine
 10
190.159992
 20
355.844262
 30
0.0
 11
188.959994
 21
355.844262
 31
0.0
  0
LINE
  5
B7
330
1F
100
AcDbEntity
  8
LC-001-100-D00-0
 62
     7
370
    50
100
AcDbLine
 10
190.159992
 20
355.844262
 30
0.0
 11
190.159992
 21
356.844264
 31
0.0
  0
LINE
  5
B8
330
1F
100
AcDbEntity
  8
LC-001-100-D00-0
 62
     7
370
    50
100
AcDbLine
 10
188.959994
 20
356.844264
 30
0.0
 11
190.159992
 21
356.844264
 31
0.0
  0
LINE
  5
B9
330
1F
100
AcDbEntity
  8
LC-001-100-D00-0
 62
     7
370
    50
100
AcDbLine
 10
188.959994
 20
358.34426
 30
0.0
 11
188.959994
 21
356.844264
 31
0.0
  0
LINE
  5
BA
330
1F
100
AcDbEntity
  8
LC-001-100-D00-0
 62
     7
370
    50
100
AcDbLine
 10
190.159992
 20
358.34426
 30
0.0
 11
188.959994
 21
358.34426
 31
0.0
  0
LINE
  5
BB
330
1F
100
AcDbEntity
  8
LC-001-100-D00-0
 62
     7
370
    50
100
AcDbLine
 10
190.159992
 20
358.34426
 30
0.0
 11
190.159992
 21
359.344262
 31
0.0
  0
LINE
  5
BC
330
1F
100
AcDbEntity
  8
LC-001-100-D00-0
 62
     7
370
    50
100
AcDbLine
 10
188.959994
 20
359.344262
 30
0.0
 11
190.159992
 21
359.344262
 31
0.0
  0
LINE
  5
BD
330
1F
100
AcDbEntity
  8
LC-001-100-D00-0
 62
     7
370
    50
100
AcDbLine
 10
188.959994
 20
360.844265
 30
0.0
 11
188.959994
 21
359.344262
 31
0.0
  0
LINE
  5
BE
330
1F
100
AcDbEntity
  8
LC-001-100-D00-0
 62
     7
370
    50
100
AcDbLine
 10
190.159992
 20
360.844265
 30
0.0
 11
188.959994
 21
360.844265
 31
0.0
  0
LINE
  5
BF
330
1F
100
AcDbEntity
  8
LC-001-100-D00-0
 62
     7
370
    50
100
AcDbLine
 10
190.159992
 20
360.844265
 30
0.0
 11
190.159992
 21
361.84426
 31
0.0
  0
LINE
  5
C0
330
1F
100
AcDbEntity
  8
LC-001-100-D00-0
 62
     7
370
    50
100
AcDbLine
 10
188.959994
 20
361.84426
 30
0.0
 11
190.159992
 21
361.84426
 31
0.0
  0
LINE
  5
C1
330
1F
100
AcDbEntity
  8
LC-001-100-D00-0
 62
     7
370
    50
100
AcDbLine
 10
188.959994
 20
363.344263
 30
0.0
 11
188.959994
 21
361.84426
 31
0.0
  0
LINE
  5
C2
330
1F
100
AcDbEntity
  8
LC-001-100-D00-0
 62
     7
370
    50
100
AcDbLine
 10
190.159992
 20
363.344263
 30
0.0
 11
188.959994
 21
363.344263
 31
0.0
  0
LINE
  5
C3
330
1F
100
AcDbEntity
  8
LC-001-100-D00-0
 62
     7
370
    50
100
AcDbLine
 10
190.159992
 20
363.344263
 30
0.0
 11
190.159992
 21
364.344265
 31
0.0
  0
LINE
  5
C4
330
1F
100
AcDbEntity
  8
LC-001-100-D00-0
 62
     7
370
    50
100
AcDbLine
 10
188.959994
 20
364.344265
 30
0.0
 11
190.159992
 21
364.344265
 31
0.0
  0
LINE
  5
C5
330
1F
100
AcDbEntity
  8
LC-001-100-D00-0
 62
     7
370
    50
100
AcDbLine
 10
188.959994
 20
365.84426
 30
0.0
 11
188.959994
 21
364.344265
 31
0.0
  0
LINE
  5
C6
330
1F
100
AcDbEntity
  8
LC-001-100-D00-0
 62
     7
370
    50
100
AcDbLine
 10
190.159992
 20
365.84426
 30
0.0
 11
188.959994
 21
365.84426
 31
0.0
  0
LINE
  5
C7
330
1F
100
AcDbEntity
  8
LC-001-100-D00-0
 62
     7
370
    50
100
AcDbLine
 10
190.159992
 20
365.84426
 30
0.0
 11
190.159992
 21
366.844262
 31
0.0
  0
LINE
  5
C8
330
1F
100
AcDbEntity
  8
LC-001-100-D00-0
 62
     7
370
    50
100
AcDbLine
 10
188.959994
 20
366.844262
 30
0.0
 11
190.159992
 21
366.844262
 31
0.0
  0
LINE
  5
C9
330
1F
100
AcDbEntity
  8
LC-001-100-D00-0
 62
     7
370
    50
100
AcDbLine
 10
188.959994
 20
368.344265
 30
0.0
 11
188.959994
 21
366.844262
 31
0.0
  0
LINE
  5
CA
330
1F
100
AcDbEntity
  8
LC-001-100-D00-0
 62
     7
370
    50
100
AcDbLine
 10
190.159992
 20
368.344265
 30
0.0
 11
188.959994
 21
368.344265
 31
0.0
  0
LINE
  5
CB
330
1F
100
AcDbEntity
  8
LC-001-100-D00-0
 62
     7
370
    50
100
AcDbLine
 10
190.159992
 20
368.344265
 30
0.0
 11
190.159992
 21
369.444262
 31
0.0
  0
ARC
  5
CC
330
1F
100
AcDbEntity
  8
LC-001-100-D00-0
 62
     7
370
    50
100
AcDbCircle
 10
190.959995
 20
374.144262
 30
0.0
 40
1.0
100
AcDbArc
 50
0.0
 51
90.0
  0
LINE
  5
CD
330
1F
100
AcDbEntity
  8
LC-001-100-D00-0
 62
     7
370
    50
100
AcDbLine
 10
190.459997
 20
375.144261
 30
0.0
 11
190.959998
 21
375.144261
 31
0.0
  0
ARC
  5
CE
330
1F
100
AcDbEntity
  8
LC-001-100-D00-0
 62
     7
370
    50
100
AcDbCircle
 10
190.459995
 20
374.144262
 30
0.0
 40
1.0
100
AcDbArc
 50
90.0
 51
180.0
  0
LINE
  5
CF
330
1F
100
AcDbEntity
  8
LC-001-100-D00-0
 62
     7
370
    50
100
AcDbLine
 10
188.659996
 20
368.44426
 30
0.0
 11
188.659996
 21
369.512889
 31
0.0
  0
LINE
  5
D0
330
1F
100
AcDbEntity
  8
LC-001-100-D00-0
 62
     7
370
    50
100
AcDbLine
 10
188.659996
 20
335.844259
 30
0.0
 11
188.659996
 21
368.44426
 31
0.0
  0
LINE
  5
D1
330
1F
100
AcDbEntity
  8
LC-001-100-D00-0
 62
     7
370
    50
100
AcDbLine
 10
190.159992
 20
335.844259
 30
0.0
 11
188.659996
 21
335.844259
 31
0.0
  0
LINE
  5
D2
330
1F
100
AcDbEntity
  8
LC-001-100-D00-0
 62
     7
370
    50
100
AcDbLine
 10
190.159992
 20
335.844259
 30
0.0
 11
190.159992
 21
336.844261
 31
0.0
  0
LINE
  5
D3
330
1F
100
AcDbEntity
  8
LC-001-100-D00-0
 62
     7
370
    50
100
AcDbLine
 10
188.959994
 20
336.844261
 30
0.0
 11
190.159992
 21
336.844261
 31
0.0
  0
LINE
  5
D4
330
1F
100
AcDbEntity
  8
LC-001-100-D00-0
 62
     7
370
    50
100
AcDbLine
 10
188.959994
 20
338.344264
 30
0.0
 11
188.959994
 21
336.844261
 31
0.0
  0
LINE
  5
D5
330
1F
100
AcDbEntity
  8
LC-001-100-D00-0
 62
     7
370
    50
100
AcDbLine
 10
190.159992
 20
338.344264
 30
0.0
 11
188.959994
 21
338.344264
 31
0.0
  0
LINE
  5
D6
330
1F
100
AcDbEntity
  8
LC-001-100-D00-0
 62
     7
370
    50
100
AcDbLine
 10
190.159992
 20
338.344264
 30
0.0
 11
190.159992
 21
339.344259
 31
0.0
  0
LINE
  5
D7
330
1F
100
AcDbEntity
  8
LC-001-100-D00-0
 62
     7
370
    50
100
AcDbLine
 10
188.959994
 20
339.344259
 30
0.0
 11
190.159992
 21
339.344259
 31
0.0
  0
LINE
  5
D8
330
1F
100
AcDbEntity
  8
LC-001-100-D00-0
 62
     7
370
    50
100
AcDbLine
 10
188.959994
 20
340.844262
 30
0.0
 11
188.959994
 21
339.344259
 31
0.0
  0
LINE
  5
D9
330
1F
100
AcDbEntity
  8
LC-001-100-D00-0
 62
     7
370
    50
100
AcDbLine
 10
190.159992
 20
340.844262
 30
0.0
 11
188.959994
 21
340.844262
 31
0.0
  0
LINE
  5
DA
330
1F
100
AcDbEntity
  8
LC-001-100-D00-0
 62
     7
370
    50
100
AcDbLine
 10
190.159992
 20
369.444262
 30
0.0
 11
193.159998
 21
369.444262
 31
0.0
  0
ARC
  5
DB
330
1F
100
AcDbEntity
  8
LC-001-100-D00-0
 62
     7
370
    50
100
AcDbCircle
 10
193.159995
 20
370.644262
 30
0.0
 40
1.200000000000159
100
AcDbArc
 50
180.0
 51
270.0
  0
ARC
  5
DC
330
1F
100
AcDbEntity
  8
LC-001-100-D00-0
 62
     7
370
    50
100
AcDbCircle
 10
188.259995
 20
370.644262
 30
0.0
 40
1.200000000000139
100
AcDbArc
 50
289.471221
 51
0.0
  0
LINE
  5
DD
330
1F
100
AcDbEntity
  8
LC-001-100-D00-0
 62
     7
370
    50
100
AcDbLine
 10
191.959993
 20
370.64426
 30
0.0
 11
191.959993
 21
374.144259
 31
0.0
  0
LINE
  5
DE
330
1F
100
AcDbEntity
  8
LC-001-100-D00-0
 62
     7
370
    50
100
AcDbLine
 10
189.459995
 20
370.64426
 30
0.0
 11
189.459995
 21
374.144259
 31
0.0
  0
LINE
  5
DF
330
1F
100
AcDbEntity
  8
LC-001-100-D00-0
 62
     7
370
    50
100
AcDbLine
 10
96.659994
 20
368.44426
 30
0.0
 11
142.659993
 21
368.44426
 31
0.0
  0
LINE
  5
E0
330
1F
100
AcDbEntity
  8
LC-001-100-D00-0
 62
     7
370
    50
100
AcDbLine
 10
142.659993
 20
368.44426
 30
0.0
 11
188.659996
 21
368.44426
 31
0.0
  0
LINE
  5
E1
330
1F
100
AcDbEntity
  8
LC-001-100-D00-0
 62
     7
370
    50
100
AcDbLine
 10
148.71309
 20
369.444262
 30
0.0
 11
188.259997
 21
369.444262
 31
0.0
  0
INSERT
  5
EF
330
1F
100
AcDbEntity
  8
LC-001-100-D00-0
 62
     7
370
    50
100
AcDbBlockReference
  2
POLY1
 10
0.0
 20
0.0
 30
0.0
  0
LINE
  5
F0
330
1F
100
AcDbEntity
  8
LC-001-100-D00-0
 62
     7
370
    50
100
AcDbLine
 10
97.059996
 20
369.444262
 30
0.0
 11
136.606895
 21
369.444262
 31
0.0
  0
INSERT
  5
FC
330
1F
100
AcDbEntity
  8
LC-001-100-D00-0
 62
     7
370
    50
100
AcDbBlockReference
  2
POLY2
 10
0.0
 20
0.0
 30
0.0
  0
INSERT
  5
108
330
1F
100
AcDbEntity
  8
LC-001-100-D00-0
 62
     7
370
    50
100
AcDbBlockReference
  2
POLY3
 10
0.0
 20
0.0
 30
0.0
  0
LINE
  5
109
330
1F
100
AcDbEntity
  8
LC-001-100-D00-0
 62
     7
370
    50
100
AcDbLine
 10
96.750085
 20
335.844259
 30
0.0
 11
96.750085
 21
368.44426
 31
0.0
  0
LINE
  5
10A
330
1F
100
AcDbEntity
  8
LC-001-100-D00-0
 62
     7
370
    50
100
AcDbLine
 10
96.750085
 20
335.844259
 30
0.0
 11
96.659994
 21
335.844259
 31
0.0
  0
LINE
  5
10B
330
1F
100
AcDbEntity
  8
LC-001-100-D00-0
 62
     7
370
    50
100
AcDbLine
 10
188.569904
 20
368.44426
 30
0.0
 11
188.569904
 21
335.844259
 31
0.0
  0
LINE
  5
10C
330
1F
100
AcDbEntity
  8
LC-001-100-D00-0
 62
     7
370
    50
100
AcDbLine
 10
188.659996
 20
335.844259
 30
0.0
 11
188.569904
 21
335.844259
 31
0.0
  0
LINE
  5
10D
330
1F
100
AcDbEntity
  8
LC-001-100-D00-0
 62
     7
370
    50
100
AcDbLine
 10
188.569904
 20
335.844259
 30
0.0
 11
174.7268
 21
335.844259
 31
0.0
  0
LINE
  5
10E
330
1F
100
AcDbEntity
  8
LC-001-100-D00-0
 62
     7
370
    50
100
AcDbLine
 10
110.593185
 20
335.844259
 30
0.0
 11
96.750085
 21
335.844259
 31
0.0
  0
LINE
  5
10F
330
1F
100
AcDbEntity
  8
LC-001-100-D00-0
 62
     7
370
    50
100
AcDbLine
 10
110.879496
 20
335.844259
 30
0.0
 11
110.593185
 21
335.844259
 31
0.0
  0
LINE
  5
110
330
1F
100
AcDbEntity
  8
LC-001-100-D00-0
 62
     7
370
    50
100
AcDbLine
 10
174.7268
 20
335.844259
 30
0.0
 11
174.440489
 21
335.844259
 31
0.0
  0
LINE
  5
111
330
1F
100
AcDbEntity
  8
LC-001-100-D00-0
 62
     7
370
    50
100
AcDbLine
 10
174.440489
 20
335.844259
 30
0.0
 11
110.879496
 21
335.844259
 31
0.0
  0
LINE
  5
112
330
1F
100
AcDbEntity
  8
LC-001-100-D00-0
 62
     7
370
    50
100
AcDbLine
 10
156.415359
 20
370.144259
 30
0.0
 11
186.659992
 21
370.144259
 31
0.0
  0
LINE
  5
113
330
1F
100
AcDbEntity
  8
LC-001-100-D00-0
 62
     7
370
    50
100
AcDbLine
 10
98.659995
 20
370.144259
 30
0.0
 11
128.904634
 21
370.144259
 31
0.0
  0
LINE
  5
114
330
1F
100
AcDbEntity
  8
LC-001-100-D00-0
 62
     7
370
    50
100
AcDbLine
 10
96.559995
 20
370.144259
 30
0.0
 11
97.159995
 21
370.144259
 31
0.0
  0
LINE
  5
115
330
1F
100
AcDbEntity
  8
LC-001-100-D00-0
 62
     7
370
    50
100
AcDbLine
 10
96.559995
 20
369.769487
 30
0.0
 11
96.559995
 21
370.144259
 31
0.0
  0
INSERT
  5
127
330
1F
100
AcDbEntity
  8
LC-001-100-D00-0
 62
     7
370
    50
100
AcDbBlockReference
  2
POLY4
 10
0.0
 20
0.0
 30
0.0
  0
LINE
  5
128
330
1F
100
AcDbEntity
  8
LC-001-100-D00-0
 62
     7
370
    50
100
AcDbLine
 10
188.759998
 20
370.144259
 30
0.0
 11
188.759998
 21
369.769487
 31
0.0
  0
LINE
  5
129
330
1F
100
AcDbEntity
  8
LC-001-100-D00-0
 62
     7
370
    50
100
AcDbLine
 10
188.159995
 20
370.144259
 30
0.0
 11
188.759998
 21
370.144259
 31
0.0
  0
INSERT
  5
135
330
1F
100
AcDbEntity
  8
LC-001-100-D00-0
 62
     7
370
    50
100
AcDbBlockReference
  2
POLY5
 10
0.0
 20
0.0
 30
0.0
  0
ARC
  5
136
330
1F
100
AcDbEntity
  8
LC-001-100-D00-0
 62
     7
370
    50
100
AcDbCircle
 10
91.159995
 20
371.262296
 30
0.0
 40
1.499999999999983
100
AcDbArc
 50
311.810315
 51
0.0
  0
LINE
  5
137
330
1F
100
AcDbEntity
  8
LC-001-100-D00-0
 62
     7
370
    50
100
AcDbLine
 10
92.659995
 20
374.144259
 30
0.0
 11
92.659995
 21
371.262293
 31
0.0
  0
LINE
  5
138
330
1F
100
AcDbEntity
  8
LC-001-100-D00-0
 62
     7
370
    50
100
AcDbLine
 10
92.159995
 20
370.144259
 30
0.0
 11
92.159995
 21
369.444262
 31
0.0
  0
ARC
  5
139
330
1F
100
AcDbEntity
  8
LC-001-100-D00-0
 62
     7
370
    50
100
AcDbCircle
 10
94.359995
 20
374.144262
 30
0.0
 40
1.700000000000046
100
AcDbArc
 50
90.0
 51
180.0
  0
ARC
  5
13A
330
1F
100
AcDbEntity
  8
LC-001-100-D00-0
 62
     7
370
    50
100
AcDbCircle
 10
94.859995
 20
374.144262
 30
0.0
 40
1.700000000000046
100
AcDbArc
 50
0.0
 51
90.0
  0
LINE
  5
13B
330
1F
100
AcDbEntity
  8
LC-001-100-D00-0
 62
     7
370
    50
100
AcDbLine
 10
96.559995
 20
370.144259
 30
0.0
 11
96.559995
 21
374.144259
 31
0.0
  0
LINE
  5
13C
330
1F
100
AcDbEntity
  8
LC-001-100-D00-0
 62
     7
370
    50
100
AcDbLine
 10
94.859996
 20
375.844266
 30
0.0
 11
94.359995
 21
375.844266
 31
0.0
  0
LINE
  5
13D
330
1F
100
AcDbEntity
  8
LC-001-100-D00-0
 62
     7
370
    50
100
AcDbLine
 10
95.859994
 20
371.144261
 30
0.0
 11
95.859994
 21
374.144259
 31
0.0
  0
ARC
  5
13E
330
1F
100
AcDbEntity
  8
LC-001-100-D00-0
 62
     7
370
    50
100
AcDbCircle
 10
97.559995
 20
371.144262
 30
0.0
 40
1.700000000000046
100
AcDbArc
 50
180.0
 51
233.968121
  0
LINE
  5
13F
330
1F
100
AcDbEntity
  8
LC-001-100-D00-0
 62
     7
370
    50
100
AcDbLine
 10
192.659997
 20
371.262293
 30
0.0
 11
192.659997
 21
374.144259
 31
0.0
  0
ARC
  5
140
330
1F
100
AcDbEntity
  8
LC-001-100-D00-0
 62
     7
370
    50
100
AcDbCircle
 10
190.959995
 20
374.144262
 30
0.0
 40
1.700000000000046
100
AcDbArc
 50
0.0
 51
90.0
  0
ARC
  5
141
330
1F
100
AcDbEntity
  8
LC-001-100-D00-0
 62
     7
370
    50
100
AcDbCircle
 10
187.759995
 20
371.144262
 30
0.0
 40
1.700000000000072
100
AcDbArc
 50
306.031879
 51
0.0
  0
LINE
  5
142
330
1F
100
AcDbEntity
  8
LC-001-100-D00-0
 62
     7
370
    50
100
AcDbLine
 10
188.759998
 20
374.144259
 30
0.0
 11
188.759998
 21
370.144259
 31
0.0
  0
ARC
  5
143
330
1F
100
AcDbEntity
  8
LC-001-100-D00-0
 62
     7
370
    50
100
AcDbCircle
 10
194.159995
 20
371.262296
 30
0.0
 40
1.5
100
AcDbArc
 50
180.0
 51
228.189685
  0
LINE
  5
144
330
1F
100
AcDbEntity
  8
LC-001-100-D00-0
 62
     7
370
    50
100
AcDbLine
 10
193.159998
 20
369.444262
 30
0.0
 11
193.159998
 21
370.144259
 31
0.0
  0
LINE
  5
145
330
1F
100
AcDbEntity
  8
LC-001-100-D00-0
 62
     7
370
    50
100
AcDbLine
 10
190.959998
 20
375.844266
 30
0.0
 11
190.459997
 21
375.844266
 31
0.0
  0
LINE
  5
146
330
1F
100
AcDbEntity
  8
LC-001-100-D00-0
 62
     7
370
    50
100
AcDbLine
 10
189.459995
 20
374.144259
 30
0.0
 11
189.459995
 21
371.144261
 31
0.0
  0
ARC
  5
147
330
1F
100
AcDbEntity
  8
LC-001-100-D00-0
 62
     7
370
    50
100
AcDbCircle
 10
190.459995
 20
374.144262
 30
0.0
 40
1.700000000000046
100
AcDbArc
 50
90.0
 51
180.0
  0
LINE
  5
148
330
1F
100
AcDbEntity
  8
LC-001-100-D00-0
 62
     7
370
    50
100
AcDbLine
 10
190.459997
 20
375.844266
 30
0.0
 11
185.959995
 21
375.844266
 31
0.0
  0
LINE
  5
149
330
1F
100
AcDbEntity
  8
LC-001-100-D00-0
 62
     7
370
    50
100
AcDbLine
 10
99.359995
 20
375.844266
 30
0.0
 11
94.859996
 21
375.844266
 31
0.0
  0
LINE
  5
14A
330
1F
100
AcDbEntity
  8
LC-001-100-D00-0
 62
     7
370
    50
100
AcDbLine
 10
185.959995
 20
375.844266
 30
0.0
 11
99.359995
 21
375.844266
 31
0.0
  0
LINE
  5
14B
330
1F
100
AcDbEntity
  8
LC-001-100-D00-0
 62
     7
370
    50
100
AcDbLine
 10
235.859991
 20
264.344262
 30
0.0
 11
242.959992
 21
264.344262
 31
0.0
  0
LINE
  5
14C
330
1F
100
AcDbEntity
  8
LC-001-100-D00-0
 62
     7
370
    50
100
AcDbLine
 10
242.959992
 20
319.344263
 30
0.0
 11
235.859991
 21
319.344263
 31
0.0
  0
ARC
  5
14D
330
1F
100
AcDbEntity
  8
LC-001-100-D00-0
 62
     7
370
    50
100
AcDbCircle
 10
242.959995
 20
291.844262
 30
0.0
 40
27.50000000000013
100
AcDbArc
 50
46.658242
 51
90.0
  0
ARC
  5
14E
330
1F
100
AcDbEntity
  8
LC-001-100-D00-0
 62
     7
370
    50
100
AcDbCircle
 10
242.959995
 20
291.844262
 30
0.0
 40
27.5
100
AcDbArc
 50
270.0
 51
313.341758
  0
INSERT
  5
15A
330
1F
100
AcDbEntity
  8
LC-001-100-D00-0
 62
     7
370
    50
100
AcDbBlockReference
  2
POLY6
 10
0.0
 20
0.0
 30
0.0
  0
LINE
  5
15B
330
1F
100
AcDbEntity
  8
LC-001-100-D00-0
 62
     7
370
    50
100
AcDbLine
 10
312.6335
 20
321.437135
 30
0.0
 11
312.6335
 21
321.503121
 31
0.0
  0
LINE
  5
15C
330
1F
100
AcDbEntity
  8
LC-001-100-D00-0
 62
     7
370
    50
100
AcDbLine
 10
312.6335
 20
271.503121
 30
0.0
 11
312.6335
 21
271.569109
 31
0.0
  0
LINE
  5
15D
330
1F
100
AcDbEntity
  8
LC-001-100-D00-0
 62
     7
370
    50
100
AcDbLine
 10
312.6335
 20
271.569109
 30
0.0
 11
312.475056
 21
271.844262
 31
0.0
  0
ARC
  5
15E
330
1F
100
AcDbEntity
  8
LC-001-100-D00-0
 62
     7
370
    50
100
AcDbCircle
 10
236.659995
 20
316.863255
 30
0.0
 40
0.8000000000000682
100
AcDbArc
 50
180.0
 51
284.133737
  0
ARC
  5
15F
330
1F
100
AcDbEntity
  8
LC-001-100-D00-0
 62
     7
370
    50
100
AcDbCircle
 10
236.659995
 20
266.825269
 30
0.0
 40
0.8000000000000428
100
AcDbArc
 50
75.866263
 51
180.0
  0
LINE
  5
160
330
1F
100
AcDbEntity
  8
LC-001-100-D00-0
 62
     7
370
    50
100
AcDbLine
 10
235.859991
 20
267.599881
 30
0.0
 11
235.859991
 21
266.825269
 31
0.0
  0
ARC
  5
161
330
1F
100
AcDbEntity
  8
LC-001-100-D00-0
 62
     7
370
    50
100
AcDbCircle
 10
242.959995
 20
291.844262
 30
0.0
 40
24.99999999999999
100
AcDbArc
 50
255.866263
 51
312.916156
  0
LINE
  5
162
330
1F
100
AcDbEntity
  8
LC-001-100-D00-0
 62
     7
370
    50
100
AcDbLine
 10
259.983183
 20
273.535489
 30
0.0
 11
259.983183
 21
310.153037
 31
0.0
  0
ARC
  5
163
330
1F
100
AcDbEntity
  8
LC-001-100-D00-0
 62
     7
370
    50
100
AcDbCircle
 10
242.959995
 20
291.844262
 30
0.0
 40
25.00000000000009
100
AcDbArc
 50
47.083844
 51
104.133737
  0
LINE
  5
164
330
1F
100
AcDbEntity
  8
LC-001-100-D00-0
 62
     7
370
    50
100
AcDbLine
 10
312.6335
 20
321.437135
 30
0.0
 11
357.86
 21
321.437135
 31
0.0
  0
LINE
  5
165
330
1F
100
AcDbEntity
  8
LC-001-100-D00-0
 62
     7
370
    50
100
AcDbLine
 10
357.86
 20
271.569109
 30
0.0
 11
357.86
 21
271.503121
 31
0.0
  0
LINE
  5
166
330
1F
100
AcDbEntity
  8
LC-001-100-D00-0
 62
     7
370
    50
100
AcDbLine
 10
357.86
 20
321.503121
 30
0.0
 11
357.86
 21
321.437135
 31
0.0
  0
LINE
  5
167
330
1F
100
AcDbEntity
  8
LC-001-100-D00-0
 62
     7
370
    50
100
AcDbLine
 10
357.86
 20
271.569109
 30
0.0
 11
312.6335
 21
271.569109
 31
0.0
  0
LINE
  5
168
330
1F
100
AcDbEntity
  8
LC-001-100-D00-0
 62
     7
370
    50
100
AcDbLine
 10
357.86
 20
321.437135
 30
0.0
 11
360.859991
 21
320.631086
 31
0.0
  0
LINE
  5
169
330
1F
100
AcDbEntity
  8
LC-001-100-D00-0
 62
     7
370
    50
100
AcDbLine
 10
360.859991
 20
320.631086
 30
0.0
 11
360.859991
 21
320.699274
 31
0.0
  0
LINE
  5
16A
330
1F
100
AcDbEntity
  8
LC-001-100-D00-0
 62
     7
370
    50
100
AcDbLine
 10
360.859991
 20
272.306969
 30
0.0
 11
360.859991
 21
272.375155
 31
0.0
  0
LINE
  5
16B
330
1F
100
AcDbEntity
  8
LC-001-100-D00-0
 62
     7
370
    50
100
AcDbLine
 10
360.859991
 20
272.375155
 30
0.0
 11
357.86
 21
271.569109
 31
0.0
  0
LINE
  5
16C
330
1F
100
AcDbEntity
  8
LC-001-100-D00-0
 62
     7
370
    50
100
AcDbLine
 10
261.834577
 20
271.844262
 30
0.0
 11
312.475056
 21
271.844262
 31
0.0
  0
LINE
  5
16D
330
1F
100
AcDbEntity
  8
LC-001-100-D00-0
 62
     7
370
    50
100
AcDbLine
 10
307.118744
 20
311.844263
 30
0.0
 11
261.834577
 21
311.844263
 31
0.0
  0
LINE
  5
16E
330
1F
100
AcDbEntity
  8
LC-001-100-D00-0
 62
     7
370
    50
100
AcDbLine
 10
360.359997
 20
317.88621
 30
0.0
 11
360.359997
 21
275.120031
 31
0.0
  0
LINE
  5
16F
330
1F
100
AcDbEntity
  8
LC-001-100-D00-0
 62
     7
370
    50
100
AcDbLine
 10
360.359997
 20
275.120031
 30
0.0
 11
360.859991
 21
274.618273
 31
0.0
  0
LINE
  5
170
330
1F
100
AcDbEntity
  8
LC-001-100-D00-0
 62
     7
370
    50
100
AcDbLine
 10
360.859991
 20
318.38797
 30
0.0
 11
360.359997
 21
317.88621
 31
0.0
  0
LINE
  5
171
330
1F
100
AcDbEntity
  8
LC-001-100-D00-0
 62
     7
370
    50
100
AcDbLine
 10
360.859991
 20
274.618273
 30
0.0
 11
360.859991
 21
318.38797
 31
0.0
  0
LINE
  5
172
330
1F
100
AcDbEntity
  8
LC-001-100-D00-0
 62
     7
370
    50
100
AcDbLine
 10
309.235112
 20
308.399256
 30
0.0
 11
314.677314
 21
317.88621
 31
0.0
  0
LINE
  5
173
330
1F
100
AcDbEntity
  8
LC-001-100-D00-0
 62
     7
370
    50
100
AcDbLine
 10
314.526827
 20
275.381635
 30
0.0
 11
314.415917
 21
275.548683
 31
0.0
  0
INSERT
  5
19B
330
1F
100
AcDbEntity
  8
LC-001-100-D00-0
 62
     7
370
    50
100
AcDbBlockReference
  2
POLY7
 10
0.0
 20
0.0
 30
0.0
  0
INSERT
  5
1A7
330
1F
100
AcDbEntity
  8
LC-001-100-D00-0
 62
     7
370
    50
100
AcDbBlockReference
  2
POLY8
 10
0.0
 20
0.0
 30
0.0
  0
LINE
  5
1A8
330
1F
100
AcDbEntity
  8
LC-001-100-D00-0
 62
     7
370
    50
100
AcDbLine
 10
314.677314
 20
275.120031
 30
0.0
 11
314.526827
 21
275.381635
 31
0.0
  0
LINE
  5
1A9
330
1F
100
AcDbEntity
  8
LC-001-100-D00-0
 62
     7
370
    50
100
AcDbLine
 10
314.677314
 20
317.88621
 30
0.0
 11
314.677314
 21
275.314475
 31
0.0
  0
LINE
  5
1AA
330
1F
100
AcDbEntity
  8
LC-001-100-D00-0
 62
     7
370
    50
100
AcDbLine
 10
314.677314
 20
317.88621
 30
0.0
 11
360.359997
 21
317.88621
 31
0.0
  0
LINE
  5
1AB
330
1F
100
AcDbEntity
  8
LC-001-100-D00-0
 62
     7
370
    50
100
AcDbLine
 10
360.359997
 20
275.120031
 30
0.0
 11
314.677314
 21
275.120031
 31
0.0
  0
LINE
  5
1AC
330
1F
100
AcDbEntity
  8
LC-001-100-D00-0
 62
     7
370
    50
100
AcDbLine
 10
314.526827
 20
275.381635
 30
0.0
 11
262.236655
 21
274.468907
 31
0.0
  0
LINE
  5
1AD
330
1F
100
AcDbEntity
  8
LC-001-100-D00-0
 62
     7
370
    50
100
AcDbLine
 10
262.236655
 20
309.219617
 30
0.0
 11
309.235112
 21
308.399256
 31
0.0
  0
LINE
  5
1AE
330
1F
100
AcDbEntity
  8
LC-001-100-D00-0
 62
     7
370
    50
100
AcDbLine
 10
262.236655
 20
309.219617
 30
0.0
 11
262.236655
 21
274.468907
 31
0.0
  0
LINE
  5
1AF
330
1F
100
AcDbEntity
  8
LC-001-100-D00-0
 62
     7
370
    50
100
AcDbLine
 10
259.983183
 20
273.535489
 30
0.0
 11
262.236655
 21
274.468907
 31
0.0
  0
LINE
  5
1B0
330
1F
100
AcDbEntity
  8
LC-001-100-D00-0
 62
     7
370
    50
100
AcDbLine
 10
262.236655
 20
309.219617
 30
0.0
 11
259.983183
 21
310.153037
 31
0.0
  0
LINE
  5
1B1
330
1F
100
AcDbEntity
  8
LC-001-100-D00-0
 62
     7
370
    50
100
AcDbLine
 10
360.859991
 20
320.631086
 30
0.0
 11
360.859991
 21
318.38797
 31
0.0
  0
LINE
  5
1B2
330
1F
100
AcDbEntity
  8
LC-001-100-D00-0
 62
     7
370
    50
100
AcDbLine
 10
235.859991
 20
319.344263
 30
0.0
 11
235.859991
 21
316.863253
 31
0.0
  0
LINE
  5
1B3
330
1F
100
AcDbEntity
  8
LC-001-100-D00-0
 62
     7
370
    50
100
AcDbLine
 10
360.859991
 20
274.618273
 30
0.0
 11
360.859991
 21
272.375155
 31
0.0
  0
LINE
  5
1B4
330
1F
100
AcDbEntity
  8
LC-001-100-D00-0
 62
     7
370
    50
100
AcDbLine
 10
235.859991
 20
266.825269
 30
0.0
 11
235.859991
 21
264.344262
 31
0.0
  0
LINE
  5
1B5
330
1F
100
AcDbEntity
  8
LC-001-100-D00-0
 62
     7
370
    50
100
AcDbLine
 10
259.485558
 20
269.863455
 30
0.0
 11
259.581298
 21
269.863455
 31
0.0
  0
LINE
  5
1B6
330
1F
100
AcDbEntity
  8
LC-001-100-D00-0
 62
     7
370
    50
100
AcDbLine
 10
257.111729
 20
268.265067
 30
0.0
 11
257.118121
 21
268.265067
 31
0.0
  0
ARC
  5
1B7
330
1F
100
AcDbEntity
  8
LC-001-100-D00-0
 62
     7
370
    50
100
AcDbCircle
 10
245.406193
 20
289.010715
 30
0.0
 40
23.82333250597189
100
AcDbArc
 50
299.446844
 51
306.513298
  0
LINE
  5
1B8
330
1F
100
AcDbEntity
  8
LC-001-100-D00-0
 62
     7
370
    50
100
AcDbLine
 10
259.553195
 20
269.914472
 30
0.0
 11
259.596185
 21
269.914472
 31
0.0
  0
ARC
  5
1B9
330
1F
100
AcDbEntity
  8
LC-001-100-D00-0
 62
     7
370
    50
100
AcDbCircle
 10
259.54533
 20
269.90163
 30
0.0
 40
0.0524507500565348
100
AcDbArc
 50
313.294806
 51
14.171691
  0
LINE
  5
1BA
330
1F
100
AcDbEntity
  8
LC-001-100-D00-0
 62
     7
370
    50
100
AcDbLine
 10
260.176868
 20
270.400627
 30
0.0
 11
260.223896
 21
270.400627
 31
0.0
  0
ARC
  5
1BB
330
1F
100
AcDbEntity
  8
LC-001-100-D00-0
 62
     7
370
    50
100
AcDbCircle
 10
243.087414
 20
291.878511
 30
0.0
 40
27.47650833470197
100
AcDbArc
 50
306.929523
 51
308.585191
  0
LINE
  5
1BC
330
1F
100
AcDbEntity
  8
LC-001-100-D00-0
 62
     7
370
    50
100
AcDbLine
 10
260.189981
 20
270.411162
 30
0.0
 11
260.219366
 21
270.411162
 31
0.0
  0
ARC
  5
1BD
330
1F
100
AcDbEntity
  8
LC-001-100-D00-0
 62
     7
370
    50
100
AcDbCircle
 10
260.169777
 20
270.383598
 30
0.0
 40
0.0567343714344338
100
AcDbArc
 50
17.466505
 51
29.067537
  0
LINE
  5
1BE
330
1F
100
AcDbEntity
  8
LC-001-100-D00-0
 62
     7
370
    50
100
AcDbLine
 10
109.659997
 20
315.405487
 30
0.0
 11
109.659997
 21
274.844262
 31
0.0
  0
LINE
  5
1BF
330
1F
100
AcDbEntity
  8
LC-001-100-D00-0
 62
     7
370
    50
100
AcDbLine
 10
175.659992
 20
274.844262
 30
0.0
 11
175.659992
 21
315.405487
 31
0.0
  0
LINE
  5
1C0
330
1F
100
AcDbEntity
  8
LC-001-100-D00-0
 62
     7
370
    50
100
AcDbLine
 10
100.159994
 20
328.84426
 30
0.0
 11
100.159994
 21
327.344264
 31
0.0
  0
LINE
  5
1C1
330
1F
100
AcDbEntity
  8
LC-001-100-D00-0
 62
     7
370
    50
100
AcDbLine
 10
185.159997
 20
327.344264
 30
0.0
 11
185.159997
 21
328.84426
 31
0.0
  0
ARC
  5
1C2
330
1F
100
AcDbEntity
  8
LC-001-100-D00-0
 62
     7
370
    50
100
AcDbCircle
 10
117.159995
 20
274.844262
 30
0.0
 40
6.0
100
AcDbArc
 50
180.0
 51
270.0
  0
ARC
  5
1C3
330
1F
100
AcDbEntity
  8
LC-001-100-D00-0
 62
     7
370
    50
100
AcDbCircle
 10
168.159995
 20
274.844262
 30
0.0
 40
6.0
100
AcDbArc
 50
270.0
 51
0.0
  0
LINE
  5
1C4
330
1F
100
AcDbEntity
  8
LC-001-100-D00-0
 62
     7
370
    50
100
AcDbLine
 10
111.159996
 20
274.844262
 30
0.0
 11
174.159997
 21
274.844262
 31
0.0
  0
LINE
  5
1C5
330
1F
100
AcDbEntity
  8
LC-001-100-D00-0
 62
     7
370
    50
100
AcDbLine
 10
104.878914
 20
327.344264
 30
0.0
 11
104.759996
 21
327.344264
 31
0.0
  0
LINE
  5
1C6
330
1F
100
AcDbEntity
  8
LC-001-100-D00-0
 62
     7
370
    50
100
AcDbLine
 10
104.759996
 20
327.344264
 30
0.0
 11
109.659997
 21
318.344261
 31
0.0
  0
LINE
  5
1C7
330
1F
100
AcDbEntity
  8
LC-001-100-D00-0
 62
     7
370
    50
100
AcDbLine
 10
109.659997
 20
315.405487
 30
0.0
 11
103.159995
 21
327.344264
 31
0.0
  0
ARC
  5
1C8
330
1F
100
AcDbEntity
  8
LC-001-100-D00-0
 62
     7
370
    50
100
AcDbCircle
 10
117.159995
 20
274.844262
 30
0.0
 40
7.5
100
AcDbArc
 50
180.0
 51
270.0
  0
LINE
  5
1C9
330
1F
100
AcDbEntity
  8
LC-001-100-D00-0
 62
     7
370
    50
100
AcDbLine
 10
117.159993
 20
267.344262
 30
0.0
 11
168.159992
 21
267.344262
 31
0.0
  0
ARC
  5
1CA
330
1F
100
AcDbEntity
  8
LC-001-100-D00-0
 62
     7
370
    50
100
AcDbCircle
 10
168.159995
 20
274.844262
 30
0.0
 40
7.5
100
AcDbArc
 50
270.0
 51
0.0
  0
LINE
  5
1CB
330
1F
100
AcDbEntity
  8
LC-001-100-D00-0
 62
     7
370
    50
100
AcDbLine
 10
182.159998
 20
327.344264
 30
0.0
 11
175.659992
 21
315.405487
 31
0.0
  0
LINE
  5
1CC
330
1F
100
AcDbEntity
  8
LC-001-100-D00-0
 62
     7
370
    50
100
AcDbLine
 10
185.159997
 20
328.84426
 30
0.0
 11
180.559993
 21
328.84426
 31
0.0
  0
LINE
  5
1CD
330
1F
100
AcDbEntity
  8
LC-001-100-D00-0
 62
     7
370
    50
100
AcDbLine
 10
180.559993
 20
328.84426
 30
0.0
 11
180.559993
 21
327.344264
 31
0.0
  0
LINE
  5
1CE
330
1F
100
AcDbEntity
  8
LC-001-100-D00-0
 62
     7
370
    50
100
AcDbLine
 10
175.659992
 20
318.344261
 30
0.0
 11
180.559993
 21
327.344264
 31
0.0
  0
LINE
  5
1CF
330
1F
100
AcDbEntity
  8
LC-001-100-D00-0
 62
     7
370
    50
100
AcDbLine
 10
174.159997
 20
318.344261
 30
0.0
 11
174.159997
 21
274.844262
 31
0.0
  0
LINE
  5
1D0
330
1F
100
AcDbEntity
  8
LC-001-100-D00-0
 62
     7
370
    50
100
AcDbLine
 10
168.159992
 20
268.844262
 30
0.0
 11
117.159993
 21
268.844262
 31
0.0
  0
LINE
  5
1D1
330
1F
100
AcDbEntity
  8
LC-001-100-D00-0
 62
     7
370
    50
100
AcDbLine
 10
111.159996
 20
274.844262
 30
0.0
 11
111.159996
 21
318.344261
 31
0.0
  0
LINE
  5
1D2
330
1F
100
AcDbEntity
  8
LC-001-100-D00-0
 62
     7
370
    50
100
AcDbLine
 10
104.759996
 20
327.344264
 30
0.0
 11
104.759996
 21
328.84426
 31
0.0
  0
LINE
  5
1D3
330
1F
100
AcDbEntity
  8
LC-001-100-D00-0
 62
     7
370
    50
100
AcDbLine
 10
104.759996
 20
328.84426
 30
0.0
 11
100.159994
 21
328.84426
 31
0.0
  0
LINE
  5
1D4
330
1F
100
AcDbEntity
  8
LC-001-100-D00-0
 62
     7
370
    50
100
AcDbLine
 10
111.159996
 20
318.344261
 30
0.0
 11
109.659997
 21
318.344261
 31
0.0
  0
LINE
  5
1D5
330
1F
100
AcDbEntity
  8
LC-001-100-D00-0
 62
     7
370
    50
100
AcDbLine
 10
175.659992
 20
318.344261
 30
0.0
 11
174.159997
 21
318.344261
 31
0.0
  0
LINE
  5
1D6
330
1F
100
AcDbEntity
  8
LC-001-100-D00-0
 62
     7
370
    50
100
AcDbLine
 10
182.159998
 20
327.344264
 30
0.0
 11
185.159997
 21
327.344264
 31
0.0
  0
LINE
  5
1D7
330
1F
100
AcDbEntity
  8
LC-001-100-D00-0
 62
     7
370
    50
100
AcDbLine
 10
100.159994
 20
327.344264
 30
0.0
 11
103.159995
 21
327.344264
 31
0.0
  0
LINE
  5
1D8
330
1F
100
AcDbEntity
  8
LC-001-100-D00-0
 62
     7
370
    50
100
AcDbLine
 10
180.559993
 20
327.344264
 30
0.0
 11
180.441075
 21
327.344264
 31
0.0
  0
LINE
  5
1D9
330
1F
100
AcDbEntity
  8
LC-001-100-D00-0
 62
     7
370
    50
100
AcDbLine
 10
111.159996
 20
318.344261
 30
0.0
 11
121.660386
 21
318.344261
 31
0.0
  0
LINE
  5
1DA
330
1F
100
AcDbEntity
  8
LC-001-100-D00-0
 62
     7
370
    50
100
AcDbLine
 10
163.659603
 20
318.344261
 30
0.0
 11
174.159997
 21
318.344261
 31
0.0
  0
ARC
  5
1DB
330
1F
100
AcDbEntity
  8
LC-001-100-D00-0
 62
     7
370
    50
100
AcDbCircle
 10
173.659605
 20
316.344068
 30
0.0
 40
12.99999999999998
100
AcDbArc
 50
89.999993
 51
180.0
  0
LINE
  5
1DC
330
1F
100
AcDbEntity
  8
LC-001-100-D00-0
 62
     7
370
    50
100
AcDbLine
 10
173.659608
 20
329.344067
 30
0.0
 11
111.660384
 21
329.344067
 31
0.0
  0
ARC
  5
1DD
330
1F
100
AcDbEntity
  8
LC-001-100-D00-0
 62
     7
370
    50
100
AcDbCircle
 10
111.660385
 20
316.344068
 30
0.0
 40
13.0
100
AcDbArc
 50
0.0
 51
90.000007
  0
LINE
  5
1DE
330
1F
100
AcDbEntity
  8
LC-001-100-D00-0
 62
     7
370
    50
100
AcDbLine
 10
160.659604
 20
316.344067
 30
0.0
 11
160.659604
 21
278.343681
 31
0.0
  0
LINE
  5
1DF
330
1F
100
AcDbEntity
  8
LC-001-100-D00-0
 62
     7
370
    50
100
AcDbLine
 10
124.660385
 20
278.343681
 30
0.0
 11
124.660385
 21
316.344067
 31
0.0
  0
LINE
  5
1E0
330
1F
100
AcDbEntity
  8
LC-001-100-D00-0
 62
     7
370
    50
100
AcDbLine
 10
160.659604
 20
278.343681
 30
0.0
 11
124.660385
 21
278.343681
 31
0.0
  0
LINE
  5
1E1
330
1F
100
AcDbEntity
  8
LC-001-100-D00-0
 62
     7
370
    50
100
AcDbLine
 10
163.659603
 20
318.344097
 30
0.0
 11
163.659603
 21
278.343681
 31
0.0
  0
LINE
  5
1E2
330
1F
100
AcDbEntity
  8
LC-001-100-D00-0
 62
     7
370
    50
100
AcDbLine
 10
121.660386
 20
278.343681
 30
0.0
 11
121.660386
 21
318.344097
 31
0.0
  0
ARC
  5
1E3
330
1F
100
AcDbEntity
  8
LC-001-100-D00-0
 62
     7
370
    50
100
AcDbCircle
 10
183.660056
 20
332.144262
 30
0.0
 40
3.0
100
AcDbArc
 50
90.0
 51
180.0
  0
LINE
  5
1E4
330
1F
100
AcDbEntity
  8
LC-001-100-D00-0
 62
     7
370
    50
100
AcDbLine
 10
183.660053
 20
335.144262
 30
0.0
 11
101.659934
 21
335.144262
 31
0.0
  0
ARC
  5
1E5
330
1F
100
AcDbEntity
  8
LC-001-100-D00-0
 62
     7
370
    50
100
AcDbCircle
 10
101.659934
 20
332.144262
 30
0.0
 40
3.0
100
AcDbArc
 50
0.0
 51
90.0
  0
LINE
  5
1E6
330
1F
100
AcDbEntity
  8
LC-001-100-D00-0
 62
     7
370
    50
100
AcDbLine
 10
100.659995
 20
333.348553
 30
0.0
 11
102.009996
 21
333.348553
 31
0.0
  0
ARC
  5
1E7
330
1F
100
AcDbEntity
  8
LC-001-100-D00-0
 62
     7
370
    50
100
AcDbCircle
 10
102.009995
 20
332.848551
 30
0.0
 40
0.5
100
AcDbArc
 50
0.0
 51
90.0
  0
LINE
  5
1E8
330
1F
100
AcDbEntity
  8
LC-001-100-D00-0
 62
     7
370
    50
100
AcDbLine
 10
102.509995
 20
332.848552
 30
0.0
 11
102.509995
 21
330.344263
 31
0.0
  0
ARC
  5
1E9
330
1F
100
AcDbEntity
  8
LC-001-100-D00-0
 62
     7
370
    50
100
AcDbCircle
 10
102.009995
 20
330.344262
 30
0.0
 40
0.5
100
AcDbArc
 50
270.0
 51
0.0
  0
LINE
  5
1EA
330
1F
100
AcDbEntity
  8
LC-001-100-D00-0
 62
     7
370
    50
100
AcDbLine
 10
100.907488
 20
329.844262
 30
0.0
 11
102.009996
 21
329.844262
 31
0.0
  0
ARC
  5
1EB
330
1F
100
AcDbEntity
  8
LC-001-100-D00-0
 62
     7
370
    50
100
AcDbCircle
 10
100.907489
 20
329.344262
 30
0.0
 40
0.5000000000001137
100
AcDbArc
 50
90.0
 51
180.0
  0
LINE
  5
1EC
330
1F
100
AcDbEntity
  8
LC-001-100-D00-0
 62
     7
370
    50
100
AcDbLine
 10
100.407489
 20
329.344261
 30
0.0
 11
100.407489
 21
328.84426
 31
0.0
  0
LINE
  5
1ED
330
1F
100
AcDbEntity
  8
LC-001-100-D00-0
 62
     7
370
    50
100
AcDbLine
 10
100.407489
 20
328.84426
 30
0.0
 11
104.904885
 21
328.84426
 31
0.0
  0
LINE
  5
1EE
330
1F
100
AcDbEntity
  8
LC-001-100-D00-0
 62
     7
370
    50
100
AcDbLine
 10
104.904885
 20
327.569249
 30
0.0
 11
104.904885
 21
328.84426
 31
0.0
  0
LINE
  5
1EF
330
1F
100
AcDbEntity
  8
LC-001-100-D00-0
 62
     7
370
    50
100
AcDbLine
 10
107.800775
 20
327.569249
 30
0.0
 11
104.904885
 21
327.569249
 31
0.0
  0
ARC
  5
1F0
330
1F
100
AcDbEntity
  8
LC-001-100-D00-0
 62
     7
370
    50
100
AcDbCircle
 10
111.660385
 20
318.344098
 30
0.0
 40
10.00000000000006
100
AcDbArc
 50
0.0
 51
112.703416
  0
LINE
  5
1F1
330
1F
100
AcDbEntity
  8
LC-001-100-D00-0
 62
     7
370
    50
100
AcDbLine
 10
121.660386
 20
278.343681
 30
0.0
 11
124.660385
 21
278.343681
 31
0.0
  0
ARC
  5
1F2
330
1F
100
AcDbEntity
  8
LC-001-100-D00-0
 62
     7
370
    50
100
AcDbCircle
 10
106.659934
 20
331.344068
 30
0.0
 40
1.999999999107217
100
AcDbArc
 50
180.0
 51
270.0
  0
LINE
  5
1F3
330
1F
100
AcDbEntity
  8
LC-001-100-D00-0
 62
     7
370
    50
100
AcDbLine
 10
104.659934
 20
331.344071
 30
0.0
 11
104.659934
 21
332.144264
 31
0.0
  0
LINE
  5
1F4
330
1F
100
AcDbEntity
  8
LC-001-100-D00-0
 62
     7
370
    50
100
AcDbLine
 10
100.159994
 20
335.144262
 30
0.0
 11
101.659934
 21
335.144262
 31
0.0
  0
LINE
  5
1F5
330
1F
100
AcDbEntity
  8
LC-001-100-D00-0
 62
     7
370
    50
100
AcDbLine
 10
100.159994
 20
333.848554
 30
0.0
 11
100.159994
 21
335.144262
 31
0.0
  0
ARC
  5
1F6
330
1F
100
AcDbEntity
  8
LC-001-100-D00-0
 62
     7
370
    50
100
AcDbCircle
 10
100.659995
 20
333.848551
 30
0.0
 40
0.5
100
AcDbArc
 50
180.0
 51
270.0
  0
LINE
  5
1F7
330
1F
100
AcDbEntity
  8
LC-001-100-D00-0
 62
     7
370
    50
100
AcDbLine
 10
111.660384
 20
329.344067
 30
0.0
 11
106.659935
 21
329.344067
 31
0.0
  0
ARC
  5
1F8
330
1F
100
AcDbEntity
  8
LC-001-100-D00-0
 62
     7
370
    50
100
AcDbCircle
 10
183.309995
 20
330.344262
 30
0.0
 40
0.5
100
AcDbArc
 50
180.0
 51
270.0
  0
ARC
  5
1F9
330
1F
100
AcDbEntity
  8
LC-001-100-D00-0
 62
     7
370
    50
100
AcDbCircle
 10
173.659605
 20
318.344098
 30
0.0
 40
10.00000000000007
100
AcDbArc
 50
67.296584
 51
180.0
  0
LINE
  5
1FA
330
1F
100
AcDbEntity
  8
LC-001-100-D00-0
 62
     7
370
    50
100
AcDbLine
 10
180.660055
 20
332.144264
 30
0.0
 11
180.660055
 21
331.344071
 31
0.0
  0
ARC
  5
1FB
330
1F
100
AcDbEntity
  8
LC-001-100-D00-0
 62
     7
370
    50
100
AcDbCircle
 10
178.660056
 20
331.344068
 30
0.0
 40
1.999999999107217
100
AcDbArc
 50
270.0
 51
0.0
  0
LINE
  5
1FC
330
1F
100
AcDbEntity
  8
LC-001-100-D00-0
 62
     7
370
    50
100
AcDbLine
 10
180.415102
 20
327.569249
 30
0.0
 11
177.519218
 21
327.569249
 31
0.0
  0
LINE
  5
1FD
330
1F
100
AcDbEntity
  8
LC-001-100-D00-0
 62
     7
370
    50
100
AcDbLine
 10
180.415102
 20
328.84426
 30
0.0
 11
180.415102
 21
327.569249
 31
0.0
  0
LINE
  5
1FE
330
1F
100
AcDbEntity
  8
LC-001-100-D00-0
 62
     7
370
    50
100
AcDbLine
 10
180.415102
 20
328.84426
 30
0.0
 11
184.912503
 21
328.84426
 31
0.0
  0
LINE
  5
1FF
330
1F
100
AcDbEntity
  8
LC-001-100-D00-0
 62
     7
370
    50
100
AcDbLine
 10
184.912503
 20
328.84426
 30
0.0
 11
184.912503
 21
329.344261
 31
0.0
  0
ARC
  5
200
330
1F
100
AcDbEntity
  8
LC-001-100-D00-0
 62
     7
370
    50
100
AcDbCircle
 10
184.412501
 20
329.344262
 30
0.0
 40
0.5000000000001137
100
AcDbArc
 50
0.0
 51
90.0
  0
LINE
  5
201
330
1F
100
AcDbEntity
  8
LC-001-100-D00-0
 62
     7
370
    50
100
AcDbLine
 10
183.309995
 20
329.844262
 30
0.0
 11
184.412502
 21
329.844262
 31
0.0
  0
LINE
  5
202
330
1F
100
AcDbEntity
  8
LC-001-100-D00-0
 62
     7
370
    50
100
AcDbLine
 10
182.809994
 20
330.344263
 30
0.0
 11
182.809994
 21
332.848552
 31
0.0
  0
ARC
  5
203
330
1F
100
AcDbEntity
  8
LC-001-100-D00-0
 62
     7
370
    50
100
AcDbCircle
 10
183.309995
 20
332.848551
 30
0.0
 40
0.5000000000001137
100
AcDbArc
 50
90.0
 51
180.0
  0
ARC
  5
204
330
1F
100
AcDbEntity
  8
LC-001-100-D00-0
 62
     7
370
    50
100
AcDbCircle
 10
184.659995
 20
333.848551
 30
0.0
 40
0.5000000000001137
100
AcDbArc
 50
270.0
 51
0.0
  0
LINE
  5
205
330
1F
100
AcDbEntity
  8
LC-001-100-D00-0
 62
     7
370
    50
100
AcDbLine
 10
185.159997
 20
335.144262
 30
0.0
 11
185.159997
 21
333.848554
 31
0.0
  0
LINE
  5
206
330
1F
100
AcDbEntity
  8
LC-001-100-D00-0
 62
     7
370
    50
100
AcDbLine
 10
183.660053
 20
335.144262
 30
0.0
 11
185.159997
 21
335.144262
 31
0.0
  0
LINE
  5
207
330
1F
100
AcDbEntity
  8
LC-001-100-D00-0
 62
     7
370
    50
100
AcDbLine
 10
183.309995
 20
333.348553
 30
0.0
 11
184.659996
 21
333.348553
 31
0.0
  0
LINE
  5
208
330
1F
100
AcDbEntity
  8
LC-001-100-D00-0
 62
     7
370
    50
100
AcDbLine
 10
160.659604
 20
278.343681
 30
0.0
 11
163.659603
 21
278.343681
 31
0.0
  0
LINE
  5
209
330
1F
100
AcDbEntity
  8
LC-001-100-D00-0
 62
     7
370
    50
100
AcDbLine
 10
178.660058
 20
329.344067
 30
0.0
 11
173.659608
 21
329.344067
 31
0.0
  0
INSERT
  5
217
330
1F
100
AcDbEntity
  8
LC-001-100-D00-0
 62
     7
370
    50
100
AcDbBlockReference
  2
POLY9
 10
0.0
 20
0.0
 30
0.0
  0
LINE
  5
218
330
1F
100
AcDbEntity
  8
LC-001-100-D00-0
 62
     7
370
    50
100
AcDbLine
 10
143.243328
 20
373.74426
 30
0.0
 11
143.243328
 21
373.644266
 31
0.0
  0
LINE
  5
219
330
1F
100
AcDbEntity
  8
LC-001-100-D00-0
 62
     7
370
    50
100
AcDbLine
 10
142.684326
 20
373.74426
 30
0.0
 11
142.684326
 21
373.644266
 31
0.0
  0
LINE
  5
21A
330
1F
100
AcDbEntity
  8
LC-001-100-D00-0
 62
     7
370
    50
100
AcDbLine
 10
142.374285
 20
375.04426
 30
0.0
 11
142.659993
 21
375.04426
 31
0.0
  0
LINE
  5
21B
330
1F
100
AcDbEntity
  8
LC-001-100-D00-0
 62
     7
370
    50
100
AcDbLine
 10
142.374285
 20
375.144261
 30
0.0
 11
142.374285
 21
375.04426
 31
0.0
  0
LINE
  5
21C
330
1F
100
AcDbEntity
  8
LC-001-100-D00-0
 62
     7
370
    50
100
AcDbLine
 10
141.641387
 20
375.144261
 30
0.0
 11
142.374285
 21
375.144261
 31
0.0
  0
LINE
  5
21D
330
1F
100
AcDbEntity
  8
LC-001-100-D00-0
 62
     7
370
    50
100
AcDbLine
 10
141.641387
 20
375.04426
 30
0.0
 11
141.641387
 21
375.144261
 31
0.0
  0
LINE
  5
21E
330
1F
100
AcDbEntity
  8
LC-001-100-D00-0
 62
     7
370
    50
100
AcDbLine
 10
141.355672
 20
375.04426
 30
0.0
 11
141.641387
 21
375.04426
 31
0.0
  0
LINE
  5
21F
330
1F
100
AcDbEntity
  8
LC-001-100-D00-0
 62
     7
370
    50
100
AcDbLine
 10
141.355672
 20
375.144261
 30
0.0
 11
141.355672
 21
375.04426
 31
0.0
  0
LINE
  5
220
330
1F
100
AcDbEntity
  8
LC-001-100-D00-0
 62
     7
370
    50
100
AcDbLine
 10
140.413665
 20
375.144261
 30
0.0
 11
141.355672
 21
375.144261
 31
0.0
  0
LINE
  5
221
330
1F
100
AcDbEntity
  8
LC-001-100-D00-0
 62
     7
370
    50
100
AcDbLine
 10
140.413665
 20
375.144261
 30
0.0
 11
140.413665
 21
375.04426
 31
0.0
  0
LINE
  5
222
330
1F
100
AcDbEntity
  8
LC-001-100-D00-0
 62
     7
370
    50
100
AcDbLine
 10
140.127958
 20
375.04426
 30
0.0
 11
140.413665
 21
375.04426
 31
0.0
  0
LINE
  5
223
330
1F
100
AcDbEntity
  8
LC-001-100-D00-0
 62
     7
370
    50
100
AcDbLine
 10
140.127958
 20
375.144261
 30
0.0
 11
140.127958
 21
375.04426
 31
0.0
  0
LINE
  5
224
330
1F
100
AcDbEntity
  8
LC-001-100-D00-0
 62
     7
370
    50
100
AcDbLine
 10
139.322594
 20
375.144261
 30
0.0
 11
140.127958
 21
375.144261
 31
0.0
  0
LINE
  5
225
330
1F
100
AcDbEntity
  8
LC-001-100-D00-0
 62
     7
370
    50
100
AcDbLine
 10
139.322594
 20
375.04426
 30
0.0
 11
139.322594
 21
375.144261
 31
0.0
  0
LINE
  5
226
330
1F
100
AcDbEntity
  8
LC-001-100-D00-0
 62
     7
370
    50
100
AcDbLine
 10
139.036883
 20
375.04426
 30
0.0
 11
139.322594
 21
375.04426
 31
0.0
  0
LINE
  5
227
330
1F
100
AcDbEntity
  8
LC-001-100-D00-0
 62
     7
370
    50
100
AcDbLine
 10
139.036883
 20
375.144261
 30
0.0
 11
139.036883
 21
375.04426
 31
0.0
  0
LINE
  5
228
330
1F
100
AcDbEntity
  8
LC-001-100-D00-0
 62
     7
370
    50
100
AcDbLine
 10
138.094877
 20
375.144261
 30
0.0
 11
139.036883
 21
375.144261
 31
0.0
  0
LINE
  5
229
330
1F
100
AcDbEntity
  8
LC-001-100-D00-0
 62
     7
370
    50
100
AcDbLine
 10
138.094877
 20
375.144261
 30
0.0
 11
138.094877
 21
375.04426
 31
0.0
  0
LINE
  5
22A
330
1F
100
AcDbEntity
  8
LC-001-100-D00-0
 62
     7
370
    50
100
AcDbLine
 10
137.809165
 20
375.04426
 30
0.0
 11
138.094877
 21
375.04426
 31
0.0
  0
LINE
  5
22B
330
1F
100
AcDbEntity
  8
LC-001-100-D00-0
 62
     7
370
    50
100
AcDbLine
 10
137.809165
 20
375.144261
 30
0.0
 11
137.809165
 21
375.04426
 31
0.0
  0
LINE
  5
22C
330
1F
100
AcDbEntity
  8
LC-001-100-D00-0
 62
     7
370
    50
100
AcDbLine
 10
137.076263
 20
375.144261
 30
0.0
 11
137.809165
 21
375.144261
 31
0.0
  0
LINE
  5
22D
330
1F
100
AcDbEntity
  8
LC-001-100-D00-0
 62
     7
370
    50
100
AcDbLine
 10
137.076263
 20
375.04426
 30
0.0
 11
137.076263
 21
375.144261
 31
0.0
  0
LINE
  5
22E
330
1F
100
AcDbEntity
  8
LC-001-100-D00-0
 62
     7
370
    50
100
AcDbLine
 10
136.790556
 20
375.04426
 30
0.0
 11
137.076263
 21
375.04426
 31
0.0
  0
LINE
  5
22F
330
1F
100
AcDbEntity
  8
LC-001-100-D00-0
 62
     7
370
    50
100
AcDbLine
 10
136.790556
 20
375.144261
 30
0.0
 11
136.790556
 21
375.04426
 31
0.0
  0
LINE
  5
230
330
1F
100
AcDbEntity
  8
LC-001-100-D00-0
 62
     7
370
    50
100
AcDbLine
 10
136.210859
 20
375.144261
 30
0.0
 11
136.790556
 21
375.144261
 31
0.0
  0
LINE
  5
231
330
1F
100
AcDbEntity
  8
LC-001-100-D00-0
 62
     7
370
    50
100
AcDbLine
 10
136.210859
 20
375.144261
 30
0.0
 11
136.210859
 21
375.04426
 31
0.0
  0
LINE
  5
232
330
1F
100
AcDbEntity
  8
LC-001-100-D00-0
 62
     7
370
    50
100
AcDbLine
 10
135.925148
 20
375.04426
 30
0.0
 11
136.210859
 21
375.04426
 31
0.0
  0
LINE
  5
233
330
1F
100
AcDbEntity
  8
LC-001-100-D00-0
 62
     7
370
    50
100
AcDbLine
 10
135.925148
 20
375.144261
 30
0.0
 11
135.925148
 21
375.04426
 31
0.0
  0
LINE
  5
234
330
1F
100
AcDbEntity
  8
LC-001-100-D00-0
 62
     7
370
    50
100
AcDbLine
 10
135.19225
 20
375.144261
 30
0.0
 11
135.925148
 21
375.144261
 31
0.0
  0
LINE
  5
235
330
1F
100
AcDbEntity
  8
LC-001-100-D00-0
 62
     7
370
    50
100
AcDbLine
 10
135.19225
 20
375.04426
 30
0.0
 11
135.19225
 21
375.144261
 31
0.0
  0
LINE
  5
236
330
1F
100
AcDbEntity
  8
LC-001-100-D00-0
 62
     7
370
    50
100
AcDbLine
 10
133.022521
 20
375.04426
 30
0.0
 11
135.19225
 21
375.04426
 31
0.0
  0
LINE
  5
237
330
1F
100
AcDbEntity
  8
LC-001-100-D00-0
 62
     7
370
    50
100
AcDbLine
 10
133.022521
 20
375.144261
 30
0.0
 11
133.022521
 21
375.04426
 31
0.0
  0
LINE
  5
238
330
1F
100
AcDbEntity
  8
LC-001-100-D00-0
 62
     7
370
    50
100
AcDbLine
 10
132.225436
 20
375.144261
 30
0.0
 11
133.022521
 21
375.144261
 31
0.0
  0
LINE
  5
239
330
1F
100
AcDbEntity
  8
LC-001-100-D00-0
 62
     7
370
    50
100
AcDbLine
 10
132.225436
 20
375.144261
 30
0.0
 11
132.225436
 21
375.04426
 31
0.0
  0
LINE
  5
23A
330
1F
100
AcDbEntity
  8
LC-001-100-D00-0
 62
     7
370
    50
100
AcDbLine
 10
131.939728
 20
375.04426
 30
0.0
 11
132.225436
 21
375.04426
 31
0.0
  0
LINE
  5
23B
330
1F
100
AcDbEntity
  8
LC-001-100-D00-0
 62
     7
370
    50
100
AcDbLine
 10
131.939728
 20
375.144261
 30
0.0
 11
131.939728
 21
375.04426
 31
0.0
  0
LINE
  5
23C
330
1F
100
AcDbEntity
  8
LC-001-100-D00-0
 62
     7
370
    50
100
AcDbLine
 10
128.866088
 20
375.144261
 30
0.0
 11
131.939728
 21
375.144261
 31
0.0
  0
LINE
  5
23D
330
1F
100
AcDbEntity
  8
LC-001-100-D00-0
 62
     7
370
    50
100
AcDbLine
 10
128.866088
 20
375.04426
 30
0.0
 11
128.866088
 21
375.144261
 31
0.0
  0
LINE
  5
23E
330
1F
100
AcDbEntity
  8
LC-001-100-D00-0
 62
     7
370
    50
100
AcDbLine
 10
128.482383
 20
375.04426
 30
0.0
 11
128.866088
 21
375.04426
 31
0.0
  0
LINE
  5
23F
330
1F
100
AcDbEntity
  8
LC-001-100-D00-0
 62
     7
370
    50
100
AcDbLine
 10
128.482383
 20
375.04426
 30
0.0
 11
128.482383
 21
375.144261
 31
0.0
  0
LINE
  5
240
330
1F
100
AcDbEntity
  8
LC-001-100-D00-0
 62
     7
370
    50
100
AcDbLine
 10
124.159996
 20
375.144261
 30
0.0
 11
128.482383
 21
375.144261
 31
0.0
  0
ARC
  5
241
330
1F
100
AcDbEntity
  8
LC-001-100-D00-0
 62
     7
370
    50
100
AcDbCircle
 10
124.159995
 20
372.644262
 30
0.0
 40
2.500000000000114
100
AcDbArc
 50
90.0
 51
180.0
  0
LINE
  5
242
330
1F
100
AcDbEntity
  8
LC-001-100-D00-0
 62
     7
370
    50
100
AcDbLine
 10
121.659995
 20
371.144261
 30
0.0
 11
121.659995
 21
372.644264
 31
0.0
  0
LINE
  5
243
330
1F
100
AcDbEntity
  8
LC-001-100-D00-0
 62
     7
370
    50
100
AcDbLine
 10
123.159994
 20
371.144261
 30
0.0
 11
121.659995
 21
371.144261
 31
0.0
  0
LINE
  5
244
330
1F
100
AcDbEntity
  8
LC-001-100-D00-0
 62
     7
370
    50
100
AcDbLine
 10
123.159994
 20
371.144261
 30
0.0
 11
123.159994
 21
372.644264
 31
0.0
  0
ARC
  5
245
330
1F
100
AcDbEntity
  8
LC-001-100-D00-0
 62
     7
370
    50
100
AcDbCircle
 10
124.159995
 20
372.644262
 30
0.0
 40
1.000000000000227
100
AcDbArc
 50
90.0
 51
180.0
  0
ARC
  5
246
330
1F
100
AcDbEntity
  8
LC-001-100-D00-0
 62
     7
370
    50
100
AcDbCircle
 10
161.159995
 20
372.644262
 30
0.0
 40
1.0
100
AcDbArc
 50
0.0
 51
90.0
  0
LINE
  5
247
330
1F
100
AcDbEntity
  8
LC-001-100-D00-0
 62
     7
370
    50
100
AcDbLine
 10
162.159995
 20
372.644264
 30
0.0
 11
162.159995
 21
371.144261
 31
0.0
  0
LINE
  5
248
330
1F
100
AcDbEntity
  8
LC-001-100-D00-0
 62
     7
370
    50
100
AcDbLine
 10
163.659998
 20
371.144261
 30
0.0
 11
162.159995
 21
371.144261
 31
0.0
  0
LINE
  5
249
330
1F
100
AcDbEntity
  8
LC-001-100-D00-0
 62
     7
370
    50
100
AcDbLine
 10
163.659998
 20
372.644264
 30
0.0
 11
163.659998
 21
371.144261
 31
0.0
  0
ARC
  5
24A
330
1F
100
AcDbEntity
  8
LC-001-100-D00-0
 62
     7
370
    50
100
AcDbCircle
 10
161.159995
 20
372.644262
 30
0.0
 40
2.5
100
AcDbArc
 50
0.0
 51
90.0
  0
LINE
  5
24B
330
1F
100
AcDbEntity
  8
LC-001-100-D00-0
 62
     7
370
    50
100
AcDbLine
 10
157.73213
 20
375.144261
 30
0.0
 11
161.159993
 21
375.144261
 31
0.0
  0
LINE
  5
24C
330
1F
100
AcDbEntity
  8
LC-001-100-D00-0
 62
     7
370
    50
100
AcDbLine
 10
157.73213
 20
375.144261
 30
0.0
 11
157.73213
 21
375.04426
 31
0.0
  0
LINE
  5
24D
330
1F
100
AcDbEntity
  8
LC-001-100-D00-0
 62
     7
370
    50
100
AcDbLine
 10
157.446422
 20
375.04426
 30
0.0
 11
157.73213
 21
375.04426
 31
0.0
  0
LINE
  5
24E
330
1F
100
AcDbEntity
  8
LC-001-100-D00-0
 62
     7
370
    50
100
AcDbLine
 10
157.446422
 20
375.144261
 30
0.0
 11
157.446422
 21
375.04426
 31
0.0
  0
LINE
  5
24F
330
1F
100
AcDbEntity
  8
LC-001-100-D00-0
 62
     7
370
    50
100
AcDbLine
 10
156.641059
 20
375.144261
 30
0.0
 11
157.446422
 21
375.144261
 31
0.0
  0
LINE
  5
250
330
1F
100
AcDbEntity
  8
LC-001-100-D00-0
 62
     7
370
    50
100
AcDbLine
 10
156.641059
 20
375.04426
 30
0.0
 11
156.641059
 21
375.144261
 31
0.0
  0
LINE
  5
251
330
1F
100
AcDbEntity
  8
LC-001-100-D00-0
 62
     7
370
    50
100
AcDbLine
 10
156.355352
 20
375.04426
 30
0.0
 11
156.641059
 21
375.04426
 31
0.0
  0
LINE
  5
252
330
1F
100
AcDbEntity
  8
LC-001-100-D00-0
 62
     7
370
    50
100
AcDbLine
 10
156.355352
 20
375.144261
 30
0.0
 11
156.355352
 21
375.04426
 31
0.0
  0
LINE
  5
253
330
1F
100
AcDbEntity
  8
LC-001-100-D00-0
 62
     7
370
    50
100
AcDbLine
 10
155.392633
 20
375.144261
 30
0.0
 11
156.355352
 21
375.144261
 31
0.0
  0
LINE
  5
254
330
1F
100
AcDbEntity
  8
LC-001-100-D00-0
 62
     7
370
    50
100
AcDbLine
 10
155.392633
 20
375.144261
 30
0.0
 11
155.392633
 21
375.04426
 31
0.0
  0
LINE
  5
255
330
1F
100
AcDbEntity
  8
LC-001-100-D00-0
 62
     7
370
    50
100
AcDbLine
 10
155.106925
 20
375.04426
 30
0.0
 11
155.392633
 21
375.04426
 31
0.0
  0
LINE
  5
256
330
1F
100
AcDbEntity
  8
LC-001-100-D00-0
 62
     7
370
    50
100
AcDbLine
 10
155.106925
 20
375.144261
 30
0.0
 11
155.106925
 21
375.04426
 31
0.0
  0
LINE
  5
257
330
1F
100
AcDbEntity
  8
LC-001-100-D00-0
 62
     7
370
    50
100
AcDbLine
 10
154.446483
 20
375.144261
 30
0.0
 11
155.106925
 21
375.144261
 31
0.0
  0
LINE
  5
258
330
1F
100
AcDbEntity
  8
LC-001-100-D00-0
 62
     7
370
    50
100
AcDbLine
 10
154.446483
 20
375.04426
 30
0.0
 11
154.446483
 21
375.144261
 31
0.0
  0
LINE
  5
259
330
1F
100
AcDbEntity
  8
LC-001-100-D00-0
 62
     7
370
    50
100
AcDbLine
 10
154.160776
 20
375.04426
 30
0.0
 11
154.446483
 21
375.04426
 31
0.0
  0
LINE
  5
25A
330
1F
100
AcDbEntity
  8
LC-001-100-D00-0
 62
     7
370
    50
100
AcDbLine
 10
154.160776
 20
375.144261
 30
0.0
 11
154.160776
 21
375.04426
 31
0.0
  0
LINE
  5
25B
330
1F
100
AcDbEntity
  8
LC-001-100-D00-0
 62
     7
370
    50
100
AcDbLine
 10
153.529324
 20
375.144261
 30
0.0
 11
154.160776
 21
375.144261
 31
0.0
  0
LINE
  5
25C
330
1F
100
AcDbEntity
  8
LC-001-100-D00-0
 62
     7
370
    50
100
AcDbLine
 10
153.529324
 20
375.144261
 30
0.0
 11
153.529324
 21
375.04426
 31
0.0
  0
LINE
  5
25D
330
1F
100
AcDbEntity
  8
LC-001-100-D00-0
 62
     7
370
    50
100
AcDbLine
 10
153.243617
 20
375.04426
 30
0.0
 11
153.529324
 21
375.04426
 31
0.0
  0
LINE
  5
25E
330
1F
100
AcDbEntity
  8
LC-001-100-D00-0
 62
     7
370
    50
100
AcDbLine
 10
153.243617
 20
375.144261
 30
0.0
 11
153.243617
 21
375.04426
 31
0.0
  0
LINE
  5
25F
330
1F
100
AcDbEntity
  8
LC-001-100-D00-0
 62
     7
370
    50
100
AcDbLine
 10
149.902076
 20
375.144261
 30
0.0
 11
153.243617
 21
375.144261
 31
0.0
  0
LINE
  5
260
330
1F
100
AcDbEntity
  8
LC-001-100-D00-0
 62
     7
370
    50
100
AcDbLine
 10
149.902076
 20
375.04426
 30
0.0
 11
149.902076
 21
375.144261
 31
0.0
  0
LINE
  5
261
330
1F
100
AcDbEntity
  8
LC-001-100-D00-0
 62
     7
370
    50
100
AcDbLine
 10
149.616369
 20
375.04426
 30
0.0
 11
149.902076
 21
375.04426
 31
0.0
  0
LINE
  5
262
330
1F
100
AcDbEntity
  8
LC-001-100-D00-0
 62
     7
370
    50
100
AcDbLine
 10
149.616369
 20
375.144261
 30
0.0
 11
149.616369
 21
375.04426
 31
0.0
  0
LINE
  5
263
330
1F
100
AcDbEntity
  8
LC-001-100-D00-0
 62
     7
370
    50
100
AcDbLine
 10
148.891748
 20
375.144261
 30
0.0
 11
149.616369
 21
375.144261
 31
0.0
  0
LINE
  5
264
330
1F
100
AcDbEntity
  8
LC-001-100-D00-0
 62
     7
370
    50
100
AcDbLine
 10
148.891748
 20
375.144261
 30
0.0
 11
148.891748
 21
375.04426
 31
0.0
  0
LINE
  5
265
330
1F
100
AcDbEntity
  8
LC-001-100-D00-0
 62
     7
370
    50
100
AcDbLine
 10
148.606033
 20
375.04426
 30
0.0
 11
148.891748
 21
375.04426
 31
0.0
  0
LINE
  5
266
330
1F
100
AcDbEntity
  8
LC-001-100-D00-0
 62
     7
370
    50
100
AcDbLine
 10
148.606033
 20
375.144261
 30
0.0
 11
148.606033
 21
375.04426
 31
0.0
  0
LINE
  5
267
330
1F
100
AcDbEntity
  8
LC-001-100-D00-0
 62
     7
370
    50
100
AcDbLine
 10
147.873134
 20
375.144261
 30
0.0
 11
148.606033
 21
375.144261
 31
0.0
  0
LINE
  5
268
330
1F
100
AcDbEntity
  8
LC-001-100-D00-0
 62
     7
370
    50
100
AcDbLine
 10
147.873134
 20
375.04426
 30
0.0
 11
147.873134
 21
375.144261
 31
0.0
  0
LINE
  5
269
330
1F
100
AcDbEntity
  8
LC-001-100-D00-0
 62
     7
370
    50
100
AcDbLine
 10
147.587427
 20
375.04426
 30
0.0
 11
147.873134
 21
375.04426
 31
0.0
  0
LINE
  5
26A
330
1F
100
AcDbEntity
  8
LC-001-100-D00-0
 62
     7
370
    50
100
AcDbLine
 10
147.587427
 20
375.144261
 30
0.0
 11
147.587427
 21
375.04426
 31
0.0
  0
LINE
  5
26B
330
1F
100
AcDbEntity
  8
LC-001-100-D00-0
 62
     7
370
    50
100
AcDbLine
 10
145.77587
 20
375.144261
 30
0.0
 11
147.587427
 21
375.144261
 31
0.0
  0
LINE
  5
26C
330
1F
100
AcDbEntity
  8
LC-001-100-D00-0
 62
     7
370
    50
100
AcDbLine
 10
145.77587
 20
375.144261
 30
0.0
 11
145.77587
 21
375.04426
 31
0.0
  0
LINE
  5
26D
330
1F
100
AcDbEntity
  8
LC-001-100-D00-0
 62
     7
370
    50
100
AcDbLine
 10
145.490163
 20
375.04426
 30
0.0
 11
145.77587
 21
375.04426
 31
0.0
  0
LINE
  5
26E
330
1F
100
AcDbEntity
  8
LC-001-100-D00-0
 62
     7
370
    50
100
AcDbLine
 10
145.490163
 20
375.144261
 30
0.0
 11
145.490163
 21
375.04426
 31
0.0
  0
LINE
  5
26F
330
1F
100
AcDbEntity
  8
LC-001-100-D00-0
 62
     7
370
    50
100
AcDbLine
 10
144.757257
 20
375.144261
 30
0.0
 11
145.490163
 21
375.144261
 31
0.0
  0
LINE
  5
270
330
1F
100
AcDbEntity
  8
LC-001-100-D00-0
 62
     7
370
    50
100
AcDbLine
 10
144.757257
 20
375.04426
 30
0.0
 11
144.757257
 21
375.144261
 31
0.0
  0
LINE
  5
271
330
1F
100
AcDbEntity
  8
LC-001-100-D00-0
 62
     7
370
    50
100
AcDbLine
 10
144.471549
 20
375.04426
 30
0.0
 11
144.757257
 21
375.04426
 31
0.0
  0
LINE
  5
272
330
1F
100
AcDbEntity
  8
LC-001-100-D00-0
 62
     7
370
    50
100
AcDbLine
 10
144.471549
 20
375.144261
 30
0.0
 11
144.471549
 21
375.04426
 31
0.0
  0
LINE
  5
273
330
1F
100
AcDbEntity
  8
LC-001-100-D00-0
 62
     7
370
    50
100
AcDbLine
 10
142.659993
 20
375.144261
 30
0.0
 11
144.471549
 21
375.144261
 31
0.0
  0
LINE
  5
274
330
1F
100
AcDbEntity
  8
LC-001-100-D00-0
 62
     7
370
    50
100
AcDbLine
 10
142.659993
 20
375.144261
 30
0.0
 11
142.659993
 21
375.04426
 31
0.0
  0
LINE
  5
275
330
1F
100
AcDbEntity
  8
LC-001-100-D00-0
 62
     7
370
    50
100
AcDbLine
 10
143.304155
 20
373.644266
 30
0.0
 11
143.304155
 21
373.74426
 31
0.0
  0
LINE
  5
276
330
1F
100
AcDbEntity
  8
LC-001-100-D00-0
 62
     7
370
    50
100
AcDbLine
 10
143.304155
 20
373.644266
 30
0.0
 11
161.159993
 21
373.644266
 31
0.0
  0
LINE
  5
277
330
1F
100
AcDbEntity
  8
LC-001-100-D00-0
 62
     7
370
    50
100
AcDbLine
 10
124.159996
 20
373.644266
 30
0.0
 11
142.684326
 21
373.644266
 31
0.0
  0
LINE
  5
278
330
1F
100
AcDbEntity
  8
LC-001-100-D00-0
 62
     7
370
    50
100
AcDbLine
 10
143.304155
 20
373.74426
 30
0.0
 11
142.684326
 21
373.74426
 31
0.0
  0
LINE
  5
279
330
1F
100
AcDbEntity
  8
LC-001-100-D00-0
 62
     7
370
    50
100
AcDbLine
 10
98.659995
 20
372.644264
 30
0.0
 11
98.659995
 21
370.144259
 31
0.0
  0
ARC
  5
27A
330
1F
100
AcDbEntity
  8
LC-001-100-D00-0
 62
     7
370
    50
100
AcDbCircle
 10
99.659995
 20
372.644262
 30
0.0
 40
1.0
100
AcDbArc
 50
90.0
 51
180.0
  0
ARC
  5
27B
330
1F
100
AcDbEntity
  8
LC-001-100-D00-0
 62
     7
370
    50
100
AcDbCircle
 10
101.159995
 20
372.644262
 30
0.0
 40
1.0
100
AcDbArc
 50
0.0
 51
90.0
  0
LINE
  5
27C
330
1F
100
AcDbEntity
  8
LC-001-100-D00-0
 62
     7
370
    50
100
AcDbLine
 10
102.159994
 20
372.644264
 30
0.0
 11
102.159994
 21
371.144261
 31
0.0
  0
LINE
  5
27D
330
1F
100
AcDbEntity
  8
LC-001-100-D00-0
 62
     7
370
    50
100
AcDbLine
 10
103.659996
 20
371.144261
 30
0.0
 11
102.159994
 21
371.144261
 31
0.0
  0
LINE
  5
27E
330
1F
100
AcDbEntity
  8
LC-001-100-D00-0
 62
     7
370
    50
100
AcDbLine
 10
103.659996
 20
372.644264
 30
0.0
 11
103.659996
 21
371.144261
 31
0.0
  0
ARC
  5
27F
330
1F
100
AcDbEntity
  8
LC-001-100-D00-0
 62
     7
370
    50
100
AcDbCircle
 10
101.159995
 20
372.644262
 30
0.0
 40
2.5
100
AcDbArc
 50
0.0
 51
90.0
  0
ARC
  5
280
330
1F
100
AcDbEntity
  8
LC-001-100-D00-0
 62
     7
370
    50
100
AcDbCircle
 10
99.659995
 20
372.644262
 30
0.0
 40
2.500000000000114
100
AcDbArc
 50
90.0
 51
180.0
  0
LINE
  5
281
330
1F
100
AcDbEntity
  8
LC-001-100-D00-0
 62
     7
370
    50
100
AcDbLine
 10
97.159995
 20
372.644264
 30
0.0
 11
97.159995
 21
370.144259
 31
0.0
  0
LINE
  5
282
330
1F
100
AcDbEntity
  8
LC-001-100-D00-0
 62
     7
370
    50
100
AcDbLine
 10
99.659995
 20
375.144261
 30
0.0
 11
101.159994
 21
375.144261
 31
0.0
  0
LINE
  5
283
330
1F
100
AcDbEntity
  8
LC-001-100-D00-0
 62
     7
370
    50
100
AcDbLine
 10
97.159995
 20
370.144259
 30
0.0
 11
98.659995
 21
370.144259
 31
0.0
  0
LINE
  5
284
330
1F
100
AcDbEntity
  8
LC-001-100-D00-0
 62
     7
370
    50
100
AcDbLine
 10
99.659995
 20
373.644266
 30
0.0
 11
101.159994
 21
373.644266
 31
0.0
  0
LINE
  5
285
330
1F
100
AcDbEntity
  8
LC-001-100-D00-0
 62
     7
370
    50
100
AcDbLine
 10
188.159995
 20
370.144259
 30
0.0
 11
188.159995
 21
372.644264
 31
0.0
  0
ARC
  5
286
330
1F
100
AcDbEntity
  8
LC-001-100-D00-0
 62
     7
370
    50
100
AcDbCircle
 10
185.659995
 20
372.644262
 30
0.0
 40
2.499999999999886
100
AcDbArc
 50
0.0
 51
90.0
  0
ARC
  5
287
330
1F
100
AcDbEntity
  8
LC-001-100-D00-0
 62
     7
370
    50
100
AcDbCircle
 10
184.159995
 20
372.644262
 30
0.0
 40
2.500000000000114
100
AcDbArc
 50
90.0
 51
180.0
  0
LINE
  5
288
330
1F
100
AcDbEntity
  8
LC-001-100-D00-0
 62
     7
370
    50
100
AcDbLine
 10
181.659997
 20
371.144261
 30
0.0
 11
181.659997
 21
372.644264
 31
0.0
  0
LINE
  5
289
330
1F
100
AcDbEntity
  8
LC-001-100-D00-0
 62
     7
370
    50
100
AcDbLine
 10
183.159993
 20
371.144261
 30
0.0
 11
181.659997
 21
371.144261
 31
0.0
  0
LINE
  5
28A
330
1F
100
AcDbEntity
  8
LC-001-100-D00-0
 62
     7
370
    50
100
AcDbLine
 10
183.159993
 20
371.144261
 30
0.0
 11
183.159993
 21
372.644264
 31
0.0
  0
ARC
  5
28B
330
1F
100
AcDbEntity
  8
LC-001-100-D00-0
 62
     7
370
    50
100
AcDbCircle
 10
184.159995
 20
372.644262
 30
0.0
 40
1.0
100
AcDbArc
 50
90.0
 51
180.0
  0
ARC
  5
28C
330
1F
100
AcDbEntity
  8
LC-001-100-D00-0
 62
     7
370
    50
100
AcDbCircle
 10
185.659995
 20
372.644262
 30
0.0
 40
1.0
100
AcDbArc
 50
0.0
 51
90.0
  0
LINE
  5
28D
330
1F
100
AcDbEntity
  8
LC-001-100-D00-0
 62
     7
370
    50
100
AcDbLine
 10
186.659992
 20
370.144259
 30
0.0
 11
186.659992
 21
372.644264
 31
0.0
  0
LINE
  5
28E
330
1F
100
AcDbEntity
  8
LC-001-100-D00-0
 62
     7
370
    50
100
AcDbLine
 10
184.159995
 20
375.144261
 30
0.0
 11
185.659998
 21
375.144261
 31
0.0
  0
LINE
  5
28F
330
1F
100
AcDbEntity
  8
LC-001-100-D00-0
 62
     7
370
    50
100
AcDbLine
 10
186.659992
 20
370.144259
 30
0.0
 11
188.159995
 21
370.144259
 31
0.0
  0
LINE
  5
290
330
1F
100
AcDbEntity
  8
LC-001-100-D00-0
 62
     7
370
    50
100
AcDbLine
 10
184.159995
 20
373.644266
 30
0.0
 11
185.659998
 21
373.644266
 31
0.0
  0
ARC
  5
291
330
1F
100
AcDbEntity
  8
LC-001-100-D00-0
 62
     7
370
    50
100
AcDbCircle
 10
112.159995
 20
372.644262
 30
0.0
 40
1.000000000000114
100
AcDbArc
 50
90.0
 51
180.0
  0
ARC
  5
292
330
1F
100
AcDbEntity
  8
LC-001-100-D00-0
 62
     7
370
    50
100
AcDbCircle
 10
113.159995
 20
372.644262
 30
0.0
 40
1.000000000000114
100
AcDbArc
 50
0.0
 51
90.0
  0
LINE
  5
293
330
1F
100
AcDbEntity
  8
LC-001-100-D00-0
 62
     7
370
    50
100
AcDbLine
 10
114.159994
 20
372.644264
 30
0.0
 11
114.159994
 21
371.144261
 31
0.0
  0
LINE
  5
294
330
1F
100
AcDbEntity
  8
LC-001-100-D00-0
 62
     7
370
    50
100
AcDbLine
 10
115.659994
 20
371.144261
 30
0.0
 11
114.159994
 21
371.144261
 31
0.0
  0
LINE
  5
295
330
1F
100
AcDbEntity
  8
LC-001-100-D00-0
 62
     7
370
    50
100
AcDbLine
 10
115.659994
 20
372.644264
 30
0.0
 11
115.659994
 21
371.144261
 31
0.0
  0
ARC
  5
296
330
1F
100
AcDbEntity
  8
LC-001-100-D00-0
 62
     7
370
    50
100
AcDbCircle
 10
113.159995
 20
372.644262
 30
0.0
 40
2.5
100
AcDbArc
 50
0.0
 51
90.0
  0
LINE
  5
297
330
1F
100
AcDbEntity
  8
LC-001-100-D00-0
 62
     7
370
    50
100
AcDbLine
 10
111.159996
 20
371.144261
 30
0.0
 11
111.159996
 21
372.644264
 31
0.0
  0
LINE
  5
298
330
1F
100
AcDbEntity
  8
LC-001-100-D00-0
 62
     7
370
    50
100
AcDbLine
 10
109.659997
 20
371.144261
 30
0.0
 11
109.659997
 21
372.644264
 31
0.0
  0
ARC
  5
299
330
1F
100
AcDbEntity
  8
LC-001-100-D00-0
 62
     7
370
    50
100
AcDbCircle
 10
112.159995
 20
372.644262
 30
0.0
 40
2.5
100
AcDbArc
 50
90.0
 51
180.0
  0
LINE
  5
29A
330
1F
100
AcDbEntity
  8
LC-001-100-D00-0
 62
     7
370
    50
100
AcDbLine
 10
111.159996
 20
371.144261
 30
0.0
 11
109.659997
 21
371.144261
 31
0.0
  0
LINE
  5
29B
330
1F
100
AcDbEntity
  8
LC-001-100-D00-0
 62
     7
370
    50
100
AcDbLine
 10
112.159994
 20
375.144261
 30
0.0
 11
113.159996
 21
375.144261
 31
0.0
  0
LINE
  5
29C
330
1F
100
AcDbEntity
  8
LC-001-100-D00-0
 62
     7
370
    50
100
AcDbLine
 10
112.159994
 20
373.644266
 30
0.0
 11
113.159996
 21
373.644266
 31
0.0
  0
LINE
  5
29D
330
1F
100
AcDbEntity
  8
LC-001-100-D00-0
 62
     7
370
    50
100
AcDbLine
 10
128.560395
 20
375.04426
 30
0.0
 11
128.560395
 21
375.144261
 31
0.0
  0
LINE
  5
29E
330
1F
100
AcDbEntity
  8
LC-001-100-D00-0
 62
     7
370
    50
100
AcDbLine
 10
128.482383
 20
375.144261
 30
0.0
 11
128.560395
 21
375.144261
 31
0.0
  0
ARC
  5
29F
330
1F
100
AcDbEntity
  8
LC-001-100-D00-0
 62
     7
370
    50
100
AcDbCircle
 10
172.159995
 20
372.644262
 30
0.0
 40
1.000000000000227
100
AcDbArc
 50
90.0
 51
180.0
  0
ARC
  5
2A0
330
1F
100
AcDbEntity
  8
LC-001-100-D00-0
 62
     7
370
    50
100
AcDbCircle
 10
173.159995
 20
372.644262
 30
0.0
 40
1.000000000000114
100
AcDbArc
 50
0.0
 51
90.0
  0
LINE
  5
2A1
330
1F
100
AcDbEntity
  8
LC-001-100-D00-0
 62
     7
370
    50
100
AcDbLine
 10
174.159997
 20
372.644264
 30
0.0
 11
174.159997
 21
371.144261
 31
0.0
  0
LINE
  5
2A2
330
1F
100
AcDbEntity
  8
LC-001-100-D00-0
 62
     7
370
    50
100
AcDbLine
 10
175.659992
 20
371.144261
 30
0.0
 11
174.159997
 21
371.144261
 31
0.0
  0
LINE
  5
2A3
330
1F
100
AcDbEntity
  8
LC-001-100-D00-0
 62
     7
370
    50
100
AcDbLine
 10
175.659992
 20
372.644264
 30
0.0
 11
175.659992
 21
371.144261
 31
0.0
  0
ARC
  5
2A4
330
1F
100
AcDbEntity
  8
LC-001-100-D00-0
 62
     7
370
    50
100
AcDbCircle
 10
173.159995
 20
372.644262
 30
0.0
 40
2.499999999999886
100
AcDbArc
 50
0.0
 51
90.0
  0
LINE
  5
2A5
330
1F
100
AcDbEntity
  8
LC-001-100-D00-0
 62
     7
370
    50
100
AcDbLine
 10
171.159998
 20
371.144261
 30
0.0
 11
171.159998
 21
372.644264
 31
0.0
  0
LINE
  5
2A6
330
1F
100
AcDbEntity
  8
LC-001-100-D00-0
 62
     7
370
    50
100
AcDbLine
 10
169.659995
 20
371.144261
 30
0.0
 11
169.659995
 21
372.644264
 31
0.0
  0
ARC
  5
2A7
330
1F
100
AcDbEntity
  8
LC-001-100-D00-0
 62
     7
370
    50
100
AcDbCircle
 10
172.159995
 20
372.644262
 30
0.0
 40
2.500000000000114
100
AcDbArc
 50
90.0
 51
180.0
  0
LINE
  5
2A8
330
1F
100
AcDbEntity
  8
LC-001-100-D00-0
 62
     7
370
    50
100
AcDbLine
 10
171.159998
 20
371.144261
 30
0.0
 11
169.659995
 21
371.144261
 31
0.0
  0
LINE
  5
2A9
330
1F
100
AcDbEntity
  8
LC-001-100-D00-0
 62
     7
370
    50
100
AcDbLine
 10
172.159993
 20
375.144261
 30
0.0
 11
173.159995
 21
375.144261
 31
0.0
  0
LINE
  5
2AA
330
1F
100
AcDbEntity
  8
LC-001-100-D00-0
 62
     7
370
    50
100
AcDbLine
 10
172.159993
 20
373.644266
 30
0.0
 11
173.159995
 21
373.644266
 31
0.0
  0
LINE
  5
2AB
330
1F
100
AcDbEntity
  8
LC-001-100-D00-0
 62
     7
370
    50
100
AcDbLine
 10
128.598188
 20
375.04426
 30
0.0
 11
128.598188
 21
375.144261
 31
0.0
  0
LINE
  5
2AC
330
1F
100
AcDbEntity
  8
LC-001-100-D00-0
 62
     7
370
    50
100
AcDbLine
 10
128.866088
 20
375.144261
 30
0.0
 11
128.598188
 21
375.144261
 31
0.0
  0
LINE
  5
2AD
330
1F
100
AcDbEntity
  8
LC-001-100-D00-0
 62
     7
370
    50
100
AcDbLine
 10
133.308229
 20
375.04426
 30
0.0
 11
133.308229
 21
375.144261
 31
0.0
  0
LINE
  5
2AE
330
1F
100
AcDbEntity
  8
LC-001-100-D00-0
 62
     7
370
    50
100
AcDbLine
 10
135.19225
 20
375.144261
 30
0.0
 11
133.308229
 21
375.144261
 31
0.0
  0
LINE
  5
2AF
330
1F
100
AcDbEntity
  8
LC-001-100-D00-0
 62
     7
370
    50
100
AcDbLine
 10
133.022521
 20
375.144261
 30
0.0
 11
133.308229
 21
375.144261
 31
0.0
  0
LINE
  5
2B0
330
1F
100
AcDbEntity
  8
LC-001-100-D00-0
 62
     7
370
    50
100
AcDbLine
 10
155.106925
 20
375.144261
 30
0.0
 11
155.392633
 21
375.144261
 31
0.0
  0
LINE
  5
2B1
330
1F
100
AcDbEntity
  8
LC-001-100-D00-0
 62
     7
370
    50
100
AcDbLine
 10
137.809165
 20
375.144261
 30
0.0
 11
138.094877
 21
375.144261
 31
0.0
  0
LINE
  5
2B2
330
1F
100
AcDbEntity
  8
LC-001-100-D00-0
 62
     7
370
    50
100
AcDbLine
 10
139.036883
 20
375.144261
 30
0.0
 11
139.322594
 21
375.144261
 31
0.0
  0
LINE
  5
2B3
330
1F
100
AcDbEntity
  8
LC-001-100-D00-0
 62
     7
370
    50
100
AcDbLine
 10
140.127958
 20
375.144261
 30
0.0
 11
140.413665
 21
375.144261
 31
0.0
  0
LINE
  5
2B4
330
1F
100
AcDbEntity
  8
LC-001-100-D00-0
 62
     7
370
    50
100
AcDbLine
 10
141.355672
 20
375.144261
 30
0.0
 11
141.641387
 21
375.144261
 31
0.0
  0
LINE
  5
2B5
330
1F
100
AcDbEntity
  8
LC-001-100-D00-0
 62
     7
370
    50
100
AcDbLine
 10
156.641059
 20
375.144261
 30
0.0
 11
156.355352
 21
375.144261
 31
0.0
  0
LINE
  5
2B6
330
1F
100
AcDbEntity
  8
LC-001-100-D00-0
 62
     7
370
    50
100
AcDbLine
 10
149.616369
 20
375.144261
 30
0.0
 11
149.902076
 21
375.144261
 31
0.0
  0
LINE
  5
2B7
330
1F
100
AcDbEntity
  8
LC-001-100-D00-0
 62
     7
370
    50
100
AcDbLine
 10
153.243617
 20
375.144261
 30
0.0
 11
153.529324
 21
375.144261
 31
0.0
  0
LINE
  5
2B8
330
1F
100
AcDbEntity
  8
LC-001-100-D00-0
 62
     7
370
    50
100
AcDbLine
 10
136.790556
 20
375.144261
 30
0.0
 11
137.076263
 21
375.144261
 31
0.0
  0
LINE
  5
2B9
330
1F
100
AcDbEntity
  8
LC-001-100-D00-0
 62
     7
370
    50
100
AcDbLine
 10
128.560395
 20
375.144261
 30
0.0
 11
128.598188
 21
375.144261
 31
0.0
  0
LINE
  5
2BA
330
1F
100
AcDbEntity
  8
LC-001-100-D00-0
 62
     7
370
    50
100
AcDbLine
 10
154.160776
 20
375.144261
 30
0.0
 11
154.446483
 21
375.144261
 31
0.0
  0
LINE
  5
2BB
330
1F
100
AcDbEntity
  8
LC-001-100-D00-0
 62
     7
370
    50
100
AcDbLine
 10
142.374285
 20
375.144261
 30
0.0
 11
142.659993
 21
375.144261
 31
0.0
  0
LINE
  5
2BC
330
1F
100
AcDbEntity
  8
LC-001-100-D00-0
 62
     7
370
    50
100
AcDbLine
 10
132.225436
 20
375.144261
 30
0.0
 11
131.939728
 21
375.144261
 31
0.0
  0
LINE
  5
2BD
330
1F
100
AcDbEntity
  8
LC-001-100-D00-0
 62
     7
370
    50
100
AcDbLine
 10
157.73213
 20
375.144261
 30
0.0
 11
157.446422
 21
375.144261
 31
0.0
  0
LINE
  5
2BE
330
1F
100
AcDbEntity
  8
LC-001-100-D00-0
 62
     7
370
    50
100
AcDbLine
 10
136.210859
 20
375.144261
 30
0.0
 11
135.925148
 21
375.144261
 31
0.0
  0
LINE
  5
2BF
330
1F
100
AcDbEntity
  8
LC-001-100-D00-0
 62
     7
370
    50
100
AcDbLine
 10
148.891748
 20
375.144261
 30
0.0
 11
148.606033
 21
375.144261
 31
0.0
  0
LINE
  5
2C0
330
1F
100
AcDbEntity
  8
LC-001-100-D00-0
 62
     7
370
    50
100
AcDbLine
 10
147.873134
 20
375.144261
 30
0.0
 11
147.587427
 21
375.144261
 31
0.0
  0
LINE
  5
2C1
330
1F
100
AcDbEntity
  8
LC-001-100-D00-0
 62
     7
370
    50
100
AcDbLine
 10
145.77587
 20
375.144261
 30
0.0
 11
145.490163
 21
375.144261
 31
0.0
  0
LINE
  5
2C2
330
1F
100
AcDbEntity
  8
LC-001-100-D00-0
 62
     7
370
    50
100
AcDbLine
 10
144.757257
 20
375.144261
 30
0.0
 11
144.471549
 21
375.144261
 31
0.0
  0
LINE
  5
2C3
330
1F
100
AcDbEntity
  8
LC-001-100-D00-0
 62
     7
370
    50
100
AcDbLine
 10
134.659995
 20
371.144261
 30
0.0
 11
139.159993
 21
371.144261
 31
0.0
  0
LINE
  5
2C4
330
1F
100
AcDbEntity
  8
LC-001-100-D00-0
 62
     7
370
    50
100
AcDbLine
 10
139.159993
 20
371.144261
 30
0.0
 11
146.159992
 21
371.144261
 31
0.0
  0
LINE
  5
2C5
330
1F
100
AcDbEntity
  8
LC-001-100-D00-0
 62
     7
370
    50
100
AcDbLine
 10
146.159992
 20
371.144261
 30
0.0
 11
150.659994
 21
371.144261
 31
0.0
  0
LINE
  5
2C6
330
1F
100
AcDbEntity
  8
LC-001-100-D00-0
 62
     7
370
    50
100
AcDbLine
 10
121.659995
 20
371.144261
 30
0.0
 11
115.659994
 21
371.144261
 31
0.0
  0
LINE
  5
2C7
330
1F
100
AcDbEntity
  8
LC-001-100-D00-0
 62
     7
370
    50
100
AcDbLine
 10
169.659995
 20
371.144261
 30
0.0
 11
163.659998
 21
371.144261
 31
0.0
  0
LINE
  5
2C8
330
1F
100
AcDbEntity
  8
LC-001-100-D00-0
 62
     7
370
    50
100
AcDbLine
 10
172.159993
 20
375.144261
 30
0.0
 11
161.159993
 21
375.144261
 31
0.0
  0
LINE
  5
2C9
330
1F
100
AcDbEntity
  8
LC-001-100-D00-0
 62
     7
370
    50
100
AcDbLine
 10
124.159996
 20
375.144261
 30
0.0
 11
113.159996
 21
375.144261
 31
0.0
  0
LINE
  5
2CA
330
1F
100
AcDbEntity
  8
LC-001-100-D00-0
 62
     7
370
    50
100
AcDbLine
 10
127.659996
 20
371.144261
 30
0.0
 11
134.659995
 21
371.144261
 31
0.0
  0
LINE
  5
2CB
330
1F
100
AcDbEntity
  8
LC-001-100-D00-0
 62
     7
370
    50
100
AcDbLine
 10
150.659994
 20
371.144261
 30
0.0
 11
157.659993
 21
371.144261
 31
0.0
  0
LINE
  5
2CC
330
1F
100
AcDbEntity
  8
LC-001-100-D00-0
 62
     7
370
    50
100
AcDbLine
 10
157.659993
 20
371.144261
 30
0.0
 11
162.159995
 21
371.144261
 31
0.0
  0
LINE
  5
2CD
330
1F
100
AcDbEntity
  8
LC-001-100-D00-0
 62
     7
370
    50
100
AcDbLine
 10
123.159994
 20
371.144261
 30
0.0
 11
127.659996
 21
371.144261
 31
0.0
  0
LINE
  5
2CE
330
1F
100
AcDbEntity
  8
LC-001-100-D00-0
 62
     7
370
    50
100
AcDbLine
 10
181.659997
 20
371.144261
 30
0.0
 11
175.659992
 21
371.144261
 31
0.0
  0
LINE
  5
2CF
330
1F
100
AcDbEntity
  8
LC-001-100-D00-0
 62
     7
370
    50
100
AcDbLine
 10
112.159994
 20
375.144261
 30
0.0
 11
101.159994
 21
375.144261
 31
0.0
  0
LINE
  5
2D0
330
1F
100
AcDbEntity
  8
LC-001-100-D00-0
 62
     7
370
    50
100
AcDbLine
 10
109.659997
 20
371.144261
 30
0.0
 11
103.659996
 21
371.144261
 31
0.0
  0
LINE
  5
2D1
330
1F
100
AcDbEntity
  8
LC-001-100-D00-0
 62
     7
370
    50
100
AcDbLine
 10
184.159995
 20
375.144261
 30
0.0
 11
173.159995
 21
375.144261
 31
0.0
  0
LINE
  5
2D2
330
1F
100
AcDbEntity
  8
LC-001-100-D00-0
 62
     7
370
    50
100
AcDbLine
 10
128.904634
 20
370.144259
 30
0.0
 11
156.415359
 21
370.144259
 31
0.0
  0
LINE
  5
2D3
330
1F
100
AcDbEntity
  8
LC-001-100-D00-0
 62
     7
370
    50
100
AcDbLine
 10
266.322971
 20
324.524249
 30
0.0
 11
266.322971
 21
323.16428
 31
0.0
  0
ARC
  5
2D4
330
1F
100
AcDbEntity
  8
LC-001-100-D00-0
 62
     7
370
    50
100
AcDbCircle
 10
267.659995
 20
323.844262
 30
0.0
 40
1.499999999999914
100
AcDbArc
 50
206.957121
 51
153.042879
  0
CIRCLE
  5
2D5
330
1F
100
AcDbEntity
  8
LC-001-100-D00-0
 62
     7
370
    50
100
AcDbCircle
 10
17.659995
 20
323.844262
 30
0.0
 40
1.500000000000057
  0
CIRCLE
  5
2D6
330
1F
100
AcDbEntity
  8
LC-001-100-D00-0
 62
     7
370
    50
100
AcDbCircle
 10
367.659995
 20
323.844262
 30
0.0
 40
1.5
  0
CIRCLE
  5
2D7
330
1F
100
AcDbEntity
  8
LC-001-100-D00-0
 62
     7
370
    15
100
AcDbCircle
 10
-32.340005
 20
323.844262
 30
0.0
 40
1.499999999999943
  0
CIRCLE
  5
2D8
330
1F
100
AcDbEntity
  8
LC-001-100-D00-0
 62
     7
370
    50
100
AcDbCircle
 10
317.659995
 20
323.844262
 30
0.0
 40
1.500000000000057
  0
CIRCLE
  5
2D9
330
1F
100
AcDbEntity
  8
LC-001-100-D00-0
 62
     7
370
    50
100
AcDbCircle
 10
-82.340005
 20
323.844262
 30
0.0
 40
1.5
  0
LINE
  5
2DA
330
1F
100
AcDbEntity
  8
LC-001-100-D00-0
 62
     7
370
    50
100
AcDbLine
 10
-83.840012
 20
328.244265
 30
0.0
 11
-83.840012
 21
325.244259
 31
0.0
  0
LINE
  5
2DB
330
1F
100
AcDbEntity
  8
LC-001-100-D00-0
 62
     7
370
    50
100
AcDbLine
 10
369.159997
 20
328.244265
 30
0.0
 11
369.159997
 21
325.244259
 31
0.0
  0
LINE
  5
2DC
330
1F
100
AcDbEntity
  8
LC-001-100-D00-0
 62
     7
370
    50
100
AcDbLine
 10
87.409994
 20
316.344261
 30
0.0
 11
87.409994
 21
325.34426
 31
0.0
  0
LINE
  5
2DD
330
1F
100
AcDbEntity
  8
LC-001-100-D00-0
 62
     7
370
    50
100
AcDbLine
 10
197.909997
 20
325.34426
 30
0.0
 11
197.909997
 21
316.344261
 31
0.0
  0
LINE
  5
2DE
330
1F
100
AcDbEntity
  8
LC-001-100-D00-0
 62
     7
370
    50
100
AcDbLine
 10
84.159995
 20
333.344262
 30
0.0
 11
84.159995
 21
325.34426
 31
0.0
  0
LINE
  5
2DF
330
1F
100
AcDbEntity
  8
LC-001-100-D00-0
 62
     7
370
    50
100
AcDbLine
 10
201.159992
 20
325.34426
 30
0.0
 11
201.159992
 21
333.344262
 31
0.0
  0
LINE
  5
2E0
330
1F
100
AcDbEntity
  8
LC-001-100-D00-0
 62
     7
370
    50
100
AcDbLine
 10
99.659995
 20
335.344266
 30
0.0
 11
99.659995
 21
335.644263
 31
0.0
  0
LINE
  5
2E1
330
1F
100
AcDbEntity
  8
LC-001-100-D00-0
 62
     7
370
    50
100
AcDbLine
 10
81.159995
 20
335.644263
 30
0.0
 11
99.659995
 21
335.644263
 31
0.0
  0
LINE
  5
2E2
330
1F
100
AcDbEntity
  8
LC-001-100-D00-0
 62
     7
370
    50
100
AcDbLine
 10
81.159995
 20
333.844263
 30
0.0
 11
81.159995
 21
335.644263
 31
0.0
  0
ARC
  5
2E3
330
1F
100
AcDbEntity
  8
LC-001-100-D00-0
 62
     7
370
    50
100
AcDbCircle
 10
81.659995
 20
333.844262
 30
0.0
 40
0.5
100
AcDbArc
 50
180.0
 51
270.0
  0
ARC
  5
2E4
330
1F
100
AcDbEntity
  8
LC-001-100-D00-0
 62
     7
370
    50
100
AcDbCircle
 10
87.909995
 20
316.344262
 30
0.0
 40
0.5
100
AcDbArc
 50
180.0
 51
270.0
  0
LINE
  5
2E5
330
1F
100
AcDbEntity
  8
LC-001-100-D00-0
 62
     7
370
    50
100
AcDbLine
 10
89.409995
 20
315.844263
 30
0.0
 11
87.909994
 21
315.844263
 31
0.0
  0
LINE
  5
2E6
330
1F
100
AcDbEntity
  8
LC-001-100-D00-0
 62
     7
370
    50
100
AcDbLine
 10
89.409995
 20
333.344262
 30
0.0
 11
89.409995
 21
315.844263
 31
0.0
  0
LINE
  5
2E7
330
1F
100
AcDbEntity
  8
LC-001-100-D00-0
 62
     7
370
    50
100
AcDbLine
 10
98.159996
 20
326.780754
 30
0.0
 11
98.159996
 21
333.344262
 31
0.0
  0
ARC
  5
2E8
330
1F
100
AcDbEntity
  8
LC-001-100-D00-0
 62
     7
370
    50
100
AcDbCircle
 10
100.159995
 20
326.780754
 30
0.0
 40
2.0
100
AcDbArc
 50
180.0
 51
255.522488
  0
LINE
  5
2E9
330
1F
100
AcDbEntity
  8
LC-001-100-D00-0
 62
     7
370
    50
100
AcDbLine
 10
99.659995
 20
306.344263
 30
0.0
 11
99.659995
 21
324.844259
 31
0.0
  0
ARC
  5
2EA
330
1F
100
AcDbEntity
  8
LC-001-100-D00-0
 62
     7
370
    50
100
AcDbCircle
 10
100.159995
 20
306.344262
 30
0.0
 40
0.5
100
AcDbArc
 50
180.0
 51
270.0
  0
LINE
  5
2EB
330
1F
100
AcDbEntity
  8
LC-001-100-D00-0
 62
     7
370
    50
100
AcDbLine
 10
101.659995
 20
305.844262
 30
0.0
 11
100.159994
 21
305.844262
 31
0.0
  0
LINE
  5
2EC
330
1F
100
AcDbEntity
  8
LC-001-100-D00-0
 62
     7
370
    50
100
AcDbLine
 10
101.659995
 20
326.844263
 30
0.0
 11
101.659995
 21
305.844262
 31
0.0
  0
LINE
  5
2ED
330
1F
100
AcDbEntity
  8
LC-001-100-D00-0
 62
     7
370
    50
100
AcDbLine
 10
100.159994
 20
326.844263
 30
0.0
 11
101.659995
 21
326.844263
 31
0.0
  0
LINE
  5
2EE
330
1F
100
AcDbEntity
  8
LC-001-100-D00-0
 62
     7
370
    50
100
AcDbLine
 10
100.159994
 20
334.844265
 30
0.0
 11
100.159994
 21
326.844263
 31
0.0
  0
ARC
  5
2EF
330
1F
100
AcDbEntity
  8
LC-001-100-D00-0
 62
     7
370
    50
100
AcDbCircle
 10
99.659995
 20
334.844262
 30
0.0
 40
0.5
100
AcDbArc
 50
0.0
 51
90.0
  0
LINE
  5
2F0
330
1F
100
AcDbEntity
  8
LC-001-100-D00-0
 62
     7
370
    50
100
AcDbLine
 10
87.409994
 20
325.34426
 30
0.0
 11
84.159995
 21
325.34426
 31
0.0
  0
LINE
  5
2F1
330
1F
100
AcDbEntity
  8
LC-001-100-D00-0
 62
     7
370
    50
100
AcDbLine
 10
84.159995
 20
333.344262
 30
0.0
 11
81.659995
 21
333.344262
 31
0.0
  0
LINE
  5
2F2
330
1F
100
AcDbEntity
  8
LC-001-100-D00-0
 62
     7
370
    50
100
AcDbLine
 10
98.159996
 20
333.344262
 30
0.0
 11
89.409995
 21
333.344262
 31
0.0
  0
LINE
  5
2F3
330
1F
100
AcDbEntity
  8
LC-001-100-D00-0
 62
     7
370
    50
100
AcDbLine
 10
195.909993
 20
315.844263
 30
0.0
 11
195.909993
 21
333.344262
 31
0.0
  0
LINE
  5
2F4
330
1F
100
AcDbEntity
  8
LC-001-100-D00-0
 62
     7
370
    50
100
AcDbLine
 10
89.409995
 20
315.844263
 30
0.0
 11
99.659995
 21
315.844263
 31
0.0
  0
LINE
  5
2F5
330
1F
100
AcDbEntity
  8
LC-001-100-D00-0
 62
     7
370
    50
100
AcDbLine
 10
185.659998
 20
315.844263
 30
0.0
 11
195.909993
 21
315.844263
 31
0.0
  0
LINE
  5
2F6
330
1F
100
AcDbEntity
  8
LC-001-100-D00-0
 62
     7
370
    50
100
AcDbLine
 10
187.159993
 20
333.344262
 30
0.0
 11
187.159993
 21
326.780754
 31
0.0
  0
LINE
  5
2F7
330
1F
100
AcDbEntity
  8
LC-001-100-D00-0
 62
     7
370
    50
100
AcDbLine
 10
99.671623
 20
335.644263
 30
0.0
 11
99.671623
 21
335.344266
 31
0.0
  0
LINE
  5
2F8
330
1F
100
AcDbEntity
  8
LC-001-100-D00-0
 62
     7
370
    50
100
AcDbLine
 10
204.159991
 20
335.644263
 30
0.0
 11
204.159991
 21
333.844263
 31
0.0
  0
LINE
  5
2F9
330
1F
100
AcDbEntity
  8
LC-001-100-D00-0
 62
     7
370
    50
100
AcDbLine
 10
183.659994
 20
305.844262
 30
0.0
 11
183.659994
 21
326.844263
 31
0.0
  0
LINE
  5
2FA
330
1F
100
AcDbEntity
  8
LC-001-100-D00-0
 62
     7
370
    50
100
AcDbLine
 10
185.159997
 20
305.844262
 30
0.0
 11
183.659994
 21
305.844262
 31
0.0
  0
ARC
  5
2FB
330
1F
100
AcDbEntity
  8
LC-001-100-D00-0
 62
     7
370
    50
100
AcDbCircle
 10
185.159995
 20
306.344262
 30
0.0
 40
0.5
100
AcDbArc
 50
270.0
 51
0.0
  0
LINE
  5
2FC
330
1F
100
AcDbEntity
  8
LC-001-100-D00-0
 62
     7
370
    50
100
AcDbLine
 10
185.659998
 20
324.844259
 30
0.0
 11
185.659998
 21
306.344263
 31
0.0
  0
ARC
  5
2FD
330
1F
100
AcDbEntity
  8
LC-001-100-D00-0
 62
     7
370
    50
100
AcDbCircle
 10
185.159995
 20
326.780754
 30
0.0
 40
2.000000000000028
100
AcDbArc
 50
284.477512
 51
0.0
  0
ARC
  5
2FE
330
1F
100
AcDbEntity
  8
LC-001-100-D00-0
 62
     7
370
    50
100
AcDbCircle
 10
197.409995
 20
316.344262
 30
0.0
 40
0.5000000000001137
100
AcDbArc
 50
270.0
 51
0.0
  0
ARC
  5
2FF
330
1F
100
AcDbEntity
  8
LC-001-100-D00-0
 62
     7
370
    50
100
AcDbCircle
 10
203.659995
 20
333.844262
 30
0.0
 40
0.5
100
AcDbArc
 50
270.0
 51
0.0
  0
LINE
  5
300
330
1F
100
AcDbEntity
  8
LC-001-100-D00-0
 62
     7
370
    50
100
AcDbLine
 10
185.659998
 20
335.644263
 30
0.0
 11
185.659998
 21
335.344266
 31
0.0
  0
ARC
  5
301
330
1F
100
AcDbEntity
  8
LC-001-100-D00-0
 62
     7
370
    50
100
AcDbCircle
 10
185.659995
 20
334.844262
 30
0.0
 40
0.5
100
AcDbArc
 50
90.0
 51
180.0
  0
LINE
  5
302
330
1F
100
AcDbEntity
  8
LC-001-100-D00-0
 62
     7
370
    50
100
AcDbLine
 10
185.159997
 20
326.844263
 30
0.0
 11
185.159997
 21
334.844265
 31
0.0
  0
LINE
  5
303
330
1F
100
AcDbEntity
  8
LC-001-100-D00-0
 62
     7
370
    50
100
AcDbLine
 10
183.659994
 20
326.844263
 30
0.0
 11
185.159997
 21
326.844263
 31
0.0
  0
LINE
  5
304
330
1F
100
AcDbEntity
  8
LC-001-100-D00-0
 62
     7
370
    50
100
AcDbLine
 10
185.659998
 20
335.644263
 30
0.0
 11
204.159991
 21
335.644263
 31
0.0
  0
LINE
  5
305
330
1F
100
AcDbEntity
  8
LC-001-100-D00-0
 62
     7
370
    50
100
AcDbLine
 10
197.409996
 20
315.844263
 30
0.0
 11
195.909993
 21
315.844263
 31
0.0
  0
LINE
  5
306
330
1F
100
AcDbEntity
  8
LC-001-100-D00-0
 62
     7
370
    50
100
AcDbLine
 10
201.159992
 20
325.34426
 30
0.0
 11
197.909997
 21
325.34426
 31
0.0
  0
LINE
  5
307
330
1F
100
AcDbEntity
  8
LC-001-100-D00-0
 62
     7
370
    50
100
AcDbLine
 10
203.659997
 20
333.344262
 30
0.0
 11
201.159992
 21
333.344262
 31
0.0
  0
LINE
  5
308
330
1F
100
AcDbEntity
  8
LC-001-100-D00-0
 62
     7
370
    50
100
AcDbLine
 10
195.909993
 20
333.344262
 30
0.0
 11
187.159993
 21
333.344262
 31
0.0
  0
LINE
  5
309
330
1F
100
AcDbEntity
  8
LC-001-100-D00-0
 62
     7
370
    50
100
AcDbLine
 10
101.659995
 20
326.844263
 30
0.0
 11
103.432216
 21
326.844263
 31
0.0
  0
LINE
  5
30A
330
1F
100
AcDbEntity
  8
LC-001-100-D00-0
 62
     7
370
    50
100
AcDbLine
 10
181.887769
 20
326.844263
 30
0.0
 11
183.659994
 21
326.844263
 31
0.0
  0
LINE
  5
30B
330
1F
100
AcDbEntity
  8
LC-001-100-D00-0
 62
     7
370
    50
100
AcDbLine
 10
101.659995
 20
305.844262
 30
0.0
 11
109.659997
 21
305.844262
 31
0.0
  0
LINE
  5
30C
330
1F
100
AcDbEntity
  8
LC-001-100-D00-0
 62
     7
370
    50
100
AcDbLine
 10
175.659992
 20
305.844262
 30
0.0
 11
183.659994
 21
305.844262
 31
0.0
  0
LINE
  5
30D
330
1F
100
AcDbEntity
  8
LC-001-100-D00-0
 62
     7
370
    50
100
AcDbLine
 10
185.648367
 20
335.344266
 30
0.0
 11
173.764468
 21
335.344266
 31
0.0
  0
LINE
  5
30E
330
1F
100
AcDbEntity
  8
LC-001-100-D00-0
 62
     7
370
    50
100
AcDbLine
 10
173.764468
 20
335.344266
 30
0.0
 11
172.350258
 21
335.344266
 31
0.0
  0
LINE
  5
30F
330
1F
100
AcDbEntity
  8
LC-001-100-D00-0
 62
     7
370
    50
100
AcDbLine
 10
172.350258
 20
335.344266
 30
0.0
 11
143.659995
 21
335.344266
 31
0.0
  0
LINE
  5
310
330
1F
100
AcDbEntity
  8
LC-001-100-D00-0
 62
     7
370
    50
100
AcDbLine
 10
143.659995
 20
335.344266
 30
0.0
 11
141.659998
 21
335.344266
 31
0.0
  0
LINE
  5
311
330
1F
100
AcDbEntity
  8
LC-001-100-D00-0
 62
     7
370
    50
100
AcDbLine
 10
141.659998
 20
335.344266
 30
0.0
 11
112.969734
 21
335.344266
 31
0.0
  0
LINE
  5
312
330
1F
100
AcDbEntity
  8
LC-001-100-D00-0
 62
     7
370
    50
100
AcDbLine
 10
112.969734
 20
335.344266
 30
0.0
 11
111.555521
 21
335.344266
 31
0.0
  0
LINE
  5
313
330
1F
100
AcDbEntity
  8
LC-001-100-D00-0
 62
     7
370
    50
100
AcDbLine
 10
111.555521
 20
335.344266
 30
0.0
 11
99.671623
 21
335.344266
 31
0.0
  0
LINE
  5
314
330
1F
100
AcDbEntity
  8
LC-001-100-D00-0
 62
     7
370
    50
100
AcDbLine
 10
185.648367
 20
335.644263
 30
0.0
 11
185.648367
 21
335.344266
 31
0.0
  0
LINE
  5
315
330
1F
100
AcDbEntity
  8
LC-001-100-D00-0
 62
     7
370
    50
100
AcDbLine
 10
173.764468
 20
335.644263
 30
0.0
 11
173.764468
 21
335.344266
 31
0.0
  0
LINE
  5
316
330
1F
100
AcDbEntity
  8
LC-001-100-D00-0
 62
     7
370
    50
100
AcDbLine
 10
173.764468
 20
335.644263
 30
0.0
 11
172.350258
 21
335.644263
 31
0.0
  0
LINE
  5
317
330
1F
100
AcDbEntity
  8
LC-001-100-D00-0
 62
     7
370
    50
100
AcDbLine
 10
172.350258
 20
335.644263
 30
0.0
 11
172.350258
 21
335.344266
 31
0.0
  0
LINE
  5
318
330
1F
100
AcDbEntity
  8
LC-001-100-D00-0
 62
     7
370
    50
100
AcDbLine
 10
185.648367
 20
335.644263
 30
0.0
 11
173.764468
 21
335.644263
 31
0.0
  0
LINE
  5
319
330
1F
100
AcDbEntity
  8
LC-001-100-D00-0
 62
     7
370
    50
100
AcDbLine
 10
111.555521
 20
335.644263
 30
0.0
 11
111.555521
 21
335.344266
 31
0.0
  0
LINE
  5
31A
330
1F
100
AcDbEntity
  8
LC-001-100-D00-0
 62
     7
370
    50
100
AcDbLine
 10
111.555521
 20
335.644263
 30
0.0
 11
99.671623
 21
335.644263
 31
0.0
  0
LINE
  5
31B
330
1F
100
AcDbEntity
  8
LC-001-100-D00-0
 62
     7
370
    50
100
AcDbLine
 10
112.969734
 20
335.644263
 30
0.0
 11
112.969734
 21
335.344266
 31
0.0
  0
LINE
  5
31C
330
1F
100
AcDbEntity
  8
LC-001-100-D00-0
 62
     7
370
    50
100
AcDbLine
 10
112.969734
 20
335.644263
 30
0.0
 11
111.555521
 21
335.644263
 31
0.0
  0
LINE
  5
31D
330
1F
100
AcDbEntity
  8
LC-001-100-D00-0
 62
     7
370
    50
100
AcDbLine
 10
143.659995
 20
335.644263
 30
0.0
 11
143.659995
 21
335.344266
 31
0.0
  0
LINE
  5
31E
330
1F
100
AcDbEntity
  8
LC-001-100-D00-0
 62
     7
370
    50
100
AcDbLine
 10
143.659995
 20
335.644263
 30
0.0
 11
141.659998
 21
335.644263
 31
0.0
  0
LINE
  5
31F
330
1F
100
AcDbEntity
  8
LC-001-100-D00-0
 62
     7
370
    50
100
AcDbLine
 10
141.659998
 20
335.644263
 30
0.0
 11
141.659998
 21
335.344266
 31
0.0
  0
LINE
  5
320
330
1F
100
AcDbEntity
  8
LC-001-100-D00-0
 62
     7
370
    50
100
AcDbLine
 10
200.509996
 20
313.344262
 30
0.0
 11
200.509996
 21
322.30873
 31
0.0
  0
LINE
  5
321
330
1F
100
AcDbEntity
  8
LC-001-100-D00-0
 62
     7
370
    50
100
AcDbLine
 10
84.809995
 20
322.30873
 30
0.0
 11
84.809995
 21
279.844261
 31
0.0
  0
LINE
  5
322
330
1F
100
AcDbEntity
  8
LC-001-100-D00-0
 62
     7
370
    50
100
AcDbLine
 10
191.009992
 20
270.344262
 30
0.0
 11
226.659999
 21
270.344262
 31
0.0
  0
LINE
  5
323
330
1F
100
AcDbEntity
  8
LC-001-100-D00-0
 62
     7
370
    50
100
AcDbLine
 10
226.659999
 20
313.344262
 30
0.0
 11
200.509996
 21
313.344262
 31
0.0
  0
INSERT
  5
347
330
1F
100
AcDbEntity
  8
LC-001-100-D00-0
 62
     7
370
    50
100
AcDbBlockReference
  2
POLY10
 10
0.0
 20
0.0
 30
0.0
  0
LINE
  5
348
330
1F
100
AcDbEntity
  8
LC-001-100-D00-0
 62
     7
370
    50
100
AcDbLine
 10
198.009998
 20
323.344264
 30
0.0
 11
198.009998
 21
310.844261
 31
0.0
  0
LINE
  5
349
330
1F
100
AcDbEntity
  8
LC-001-100-D00-0
 62
     7
370
    50
100
AcDbLine
 10
198.009998
 20
323.344264
 30
0.0
 11
197.909997
 21
323.344264
 31
0.0
  0
LINE
  5
34A
330
1F
100
AcDbEntity
  8
LC-001-100-D00-0
 62
     7
370
    50
100
AcDbLine
 10
87.409994
 20
323.344264
 30
0.0
 11
87.309994
 21
323.344264
 31
0.0
  0
LINE
  5
34B
330
1F
100
AcDbEntity
  8
LC-001-100-D00-0
 62
     7
370
    50
100
AcDbLine
 10
87.309994
 20
306.844264
 30
0.0
 11
87.309994
 21
323.344264
 31
0.0
  0
LINE
  5
34C
330
1F
100
AcDbEntity
  8
LC-001-100-D00-0
 62
     7
370
    50
100
AcDbLine
 10
198.009998
 20
310.844261
 30
0.0
 11
249.459997
 21
310.844261
 31
0.0
  0
INSERT
  5
364
330
1F
100
AcDbEntity
  8
LC-001-100-D00-0
 62
     7
370
    50
100
AcDbBlockReference
  2
POLY11
 10
0.0
 20
0.0
 30
0.0
  0
LINE
  5
365
330
1F
100
AcDbEntity
  8
LC-001-100-D00-0
 62
     7
370
    50
100
AcDbLine
 10
249.459997
 20
272.844262
 30
0.0
 11
191.009992
 21
272.844262
 31
0.0
  0
LINE
  5
366
330
1F
100
AcDbEntity
  8
LC-001-100-D00-0
 62
     7
370
    50
100
AcDbLine
 10
249.459997
 20
310.844261
 30
0.0
 11
249.459997
 21
272.844262
 31
0.0
  0
LINE
  5
367
330
1F
100
AcDbEntity
  8
LC-001-100-D00-0
 62
     7
370
    50
100
AcDbLine
 10
91.319733
 20
273.519706
 30
0.0
 11
91.319733
 21
306.844264
 31
0.0
  0
LINE
  5
368
330
1F
100
AcDbEntity
  8
LC-001-100-D00-0
 62
     7
370
    50
100
AcDbLine
 10
91.319733
 20
306.844264
 30
0.0
 11
91.309995
 21
306.844264
 31
0.0
  0
LINE
  5
369
330
1F
100
AcDbEntity
  8
LC-001-100-D00-0
 62
     7
370
    50
100
AcDbLine
 10
91.309995
 20
273.519706
 30
0.0
 11
91.309995
 21
306.844264
 31
0.0
  0
LINE
  5
36A
330
1F
100
AcDbEntity
  8
LC-001-100-D00-0
 62
     7
370
    50
100
AcDbLine
 10
91.309995
 20
273.519706
 30
0.0
 11
91.319733
 21
273.519706
 31
0.0
  0
ARC
  5
36B
330
1F
100
AcDbEntity
  8
LC-001-100-D00-0
 62
     7
370
    50
100
AcDbCircle
 10
94.309995
 20
279.844262
 30
0.0
 40
7.00000000000003
100
AcDbArc
 50
244.623066
 51
270.0
  0
LINE
  5
36C
330
1F
100
AcDbEntity
  8
LC-001-100-D00-0
 62
     7
370
    50
100
AcDbLine
 10
207.65999
 20
322.844263
 30
0.0
 11
207.65999
 21
325.34426
 31
0.0
  0
LINE
  5
36D
330
1F
100
AcDbEntity
  8
LC-001-100-D00-0
 62
     7
370
    50
100
AcDbLine
 10
77.659995
 20
325.34426
 30
0.0
 11
77.659995
 21
322.844263
 31
0.0
  0
ARC
  5
36E
330
1F
100
AcDbEntity
  8
LC-001-100-D00-0
 62
     7
370
    50
100
AcDbCircle
 10
94.309995
 20
279.844262
 30
0.0
 40
9.5
100
AcDbArc
 50
180.0
 51
270.0
  0
ARC
  5
36F
330
1F
100
AcDbEntity
  8
LC-001-100-D00-0
 62
     7
370
    50
100
AcDbCircle
 10
115.834995
 20
276.844262
 30
0.0
 40
10.00000000000001
100
AcDbArc
 50
203.578178
 51
270.0
  0
ARC
  5
370
330
1F
100
AcDbEntity
  8
LC-001-100-D00-0
 62
     7
370
    50
100
AcDbCircle
 10
169.484995
 20
276.844262
 30
0.0
 40
10.0
100
AcDbArc
 50
270.0
 51
336.421822
  0
LINE
  5
371
330
1F
100
AcDbEntity
  8
LC-001-100-D00-0
 62
     7
370
    50
100
AcDbLine
 10
106.669844
 20
272.844262
 30
0.0
 11
109.931578
 21
272.844262
 31
0.0
  0
LINE
  5
372
330
1F
100
AcDbEntity
  8
LC-001-100-D00-0
 62
     7
370
    50
100
AcDbLine
 10
175.388411
 20
272.844262
 30
0.0
 11
178.650149
 21
272.844262
 31
0.0
  0
LINE
  5
373
330
1F
100
AcDbEntity
  8
LC-001-100-D00-0
 62
     7
370
    50
100
AcDbLine
 10
84.274461
 20
322.844263
 30
0.0
 11
84.809995
 21
322.30873
 31
0.0
  0
LINE
  5
374
330
1F
100
AcDbEntity
  8
LC-001-100-D00-0
 62
     7
370
    50
100
AcDbLine
 10
200.509996
 20
322.30873
 30
0.0
 11
201.045529
 21
322.844263
 31
0.0
  0
ARC
  5
375
330
1F
100
AcDbEntity
  8
LC-001-100-D00-0
 62
     7
370
    50
100
AcDbCircle
 10
241.959995
 20
291.844262
 30
0.0
 40
25.0
100
AcDbArc
 50
290.300191
 51
300.0
  0
ARC
  5
376
330
1F
100
AcDbEntity
  8
LC-001-100-D00-0
 62
     7
370
    50
100
AcDbCircle
 10
241.959995
 20
291.844262
 30
0.0
 40
25.00000000000011
100
AcDbArc
 50
60.0
 51
69.699809
  0
ARC
  5
377
330
1F
100
AcDbEntity
  8
LC-001-100-D00-0
 62
     7
370
    50
100
AcDbCircle
 10
250.459995
 20
314.822513
 30
0.0
 40
0.4999999999999568
100
AcDbArc
 50
69.699809
 51
180.0
  0
ARC
  5
378
330
1F
100
AcDbEntity
  8
LC-001-100-D00-0
 62
     7
370
    50
100
AcDbCircle
 10
250.459995
 20
268.866011
 30
0.0
 40
0.4999999999999432
100
AcDbArc
 50
180.0
 51
290.300191
  0
LINE
  5
379
330
1F
100
AcDbEntity
  8
LC-001-100-D00-0
 62
     7
370
    50
100
AcDbLine
 10
229.65999
 20
267.844262
 30
0.0
 11
229.65999
 21
270.079382
 31
0.0
  0
ARC
  5
37A
330
1F
100
AcDbEntity
  8
LC-001-100-D00-0
 62
     7
370
    50
100
AcDbCircle
 10
241.959995
 20
291.844262
 30
0.0
 40
24.99999999999996
100
AcDbArc
 50
240.527879
 51
277.740919
  0
ARC
  5
37B
330
1F
100
AcDbEntity
  8
LC-001-100-D00-0
 62
     7
370
    50
100
AcDbCircle
 10
245.259995
 20
267.567524
 30
0.0
 40
0.5000000000000089
100
AcDbArc
 50
277.740919
 51
0.0
  0
LINE
  5
37C
330
1F
100
AcDbEntity
  8
LC-001-100-D00-0
 62
     7
370
    50
100
AcDbLine
 10
245.759994
 20
267.567524
 30
0.0
 11
245.759994
 21
270.594262
 31
0.0
  0
ARC
  5
37D
330
1F
100
AcDbEntity
  8
LC-001-100-D00-0
 62
     7
370
    50
100
AcDbCircle
 10
246.259995
 20
270.594262
 30
0.0
 40
0.5
100
AcDbArc
 50
90.0
 51
180.0
  0
LINE
  5
37E
330
1F
100
AcDbEntity
  8
LC-001-100-D00-0
 62
     7
370
    50
100
AcDbLine
 10
246.259988
 20
271.094262
 30
0.0
 11
249.459997
 21
271.094262
 31
0.0
  0
ARC
  5
37F
330
1F
100
AcDbEntity
  8
LC-001-100-D00-0
 62
     7
370
    50
100
AcDbCircle
 10
249.459995
 20
270.594262
 30
0.0
 40
0.5
100
AcDbArc
 50
0.0
 51
90.0
  0
LINE
  5
380
330
1F
100
AcDbEntity
  8
LC-001-100-D00-0
 62
     7
370
    50
100
AcDbLine
 10
249.959991
 20
270.594262
 30
0.0
 11
249.959991
 21
268.866011
 31
0.0
  0
LINE
  5
381
330
1F
100
AcDbEntity
  8
LC-001-100-D00-0
 62
     7
370
    50
100
AcDbLine
 10
249.459997
 20
272.844262
 30
0.0
 11
254.459993
 21
271.504516
 31
0.0
  0
LINE
  5
382
330
1F
100
AcDbEntity
  8
LC-001-100-D00-0
 62
     7
370
    50
100
AcDbLine
 10
87.309994
 20
323.344264
 30
0.0
 11
85.309995
 21
325.34426
 31
0.0
  0
LINE
  5
383
330
1F
100
AcDbEntity
  8
LC-001-100-D00-0
 62
     7
370
    50
100
AcDbLine
 10
94.309996
 20
270.344262
 30
0.0
 11
105.157916
 21
270.344262
 31
0.0
  0
ARC
  5
384
330
1F
100
AcDbEntity
  8
LC-001-100-D00-0
 62
     7
370
    50
100
AcDbCircle
 10
115.834995
 20
276.844262
 30
0.0
 40
12.50000000000002
100
AcDbArc
 50
211.332251
 51
270.0
  0
ARC
  5
385
330
1F
100
AcDbEntity
  8
LC-001-100-D00-0
 62
     7
370
    50
100
AcDbCircle
 10
169.484995
 20
276.844262
 30
0.0
 40
12.5
100
AcDbArc
 50
270.0
 51
328.667749
  0
LINE
  5
386
330
1F
100
AcDbEntity
  8
LC-001-100-D00-0
 62
     7
370
    50
100
AcDbLine
 10
180.162073
 20
270.344262
 30
0.0
 11
191.009992
 21
270.344262
 31
0.0
  0
LINE
  5
387
330
1F
100
AcDbEntity
  8
LC-001-100-D00-0
 62
     7
370
    50
100
AcDbLine
 10
226.659999
 20
267.844262
 30
0.0
 11
229.65999
 21
267.844262
 31
0.0
  0
LINE
  5
388
330
1F
100
AcDbEntity
  8
LC-001-100-D00-0
 62
     7
370
    50
100
AcDbLine
 10
254.459993
 20
270.193627
 30
0.0
 11
254.459993
 21
271.504516
 31
0.0
  0
LINE
  5
389
330
1F
100
AcDbEntity
  8
LC-001-100-D00-0
 62
     7
370
    50
100
AcDbLine
 10
169.484996
 20
264.344262
 30
0.0
 11
115.834993
 21
264.344262
 31
0.0
  0
LINE
  5
38A
330
1F
100
AcDbEntity
  8
LC-001-100-D00-0
 62
     7
370
    50
100
AcDbLine
 10
115.834993
 20
266.844262
 30
0.0
 11
169.484996
 21
266.844262
 31
0.0
  0
LINE
  5
38B
330
1F
100
AcDbEntity
  8
LC-001-100-D00-0
 62
     7
370
    50
100
AcDbLine
 10
77.659995
 20
322.844263
 30
0.0
 11
84.274461
 21
322.844263
 31
0.0
  0
LINE
  5
38C
330
1F
100
AcDbEntity
  8
LC-001-100-D00-0
 62
     7
370
    50
100
AcDbLine
 10
226.659999
 20
270.344262
 30
0.0
 11
226.659999
 21
267.844262
 31
0.0
  0
LINE
  5
38D
330
1F
100
AcDbEntity
  8
LC-001-100-D00-0
 62
     7
370
    50
100
AcDbLine
 10
106.669844
 20
272.844262
 30
0.0
 11
94.309996
 21
272.844262
 31
0.0
  0
LINE
  5
38E
330
1F
100
AcDbEntity
  8
LC-001-100-D00-0
 62
     7
370
    50
100
AcDbLine
 10
191.009992
 20
272.844262
 30
0.0
 11
178.650149
 21
272.844262
 31
0.0
  0
LINE
  5
38F
330
1F
100
AcDbEntity
  8
LC-001-100-D00-0
 62
     7
370
    50
100
AcDbLine
 10
85.309995
 20
325.34426
 30
0.0
 11
77.659995
 21
325.34426
 31
0.0
  0
LINE
  5
390
330
1F
100
AcDbEntity
  8
LC-001-100-D00-0
 62
     7
370
    50
100
AcDbLine
 10
87.309994
 20
306.844264
 30
0.0
 11
91.309995
 21
306.844264
 31
0.0
  0
ARC
  5
391
330
1F
100
AcDbEntity
  8
LC-001-100-D00-0
 62
     7
370
    50
100
AcDbCircle
 10
241.959995
 20
291.844262
 30
0.0
 40
25.00000000000017
100
AcDbArc
 50
82.259081
 51
104.122745
  0
LINE
  5
392
330
1F
100
AcDbEntity
  8
LC-001-100-D00-0
 62
     7
370
    25
100
AcDbLine
 10
200.009995
 20
325.34426
 30
0.0
 11
198.009998
 21
323.344264
 31
0.0
  0
LINE
  5
393
330
1F
100
AcDbEntity
  8
LC-001-100-D00-0
 62
     7
370
    50
100
AcDbLine
 10
254.459993
 20
312.184009
 30
0.0
 11
249.459997
 21
310.844261
 31
0.0
  0
LINE
  5
394
330
1F
100
AcDbEntity
  8
LC-001-100-D00-0
 62
     7
370
    50
100
AcDbLine
 10
254.459993
 20
271.504516
 30
0.0
 11
254.459993
 21
312.184009
 31
0.0
  0
ARC
  5
395
330
1F
100
AcDbEntity
  8
LC-001-100-D00-0
 62
     7
370
    50
100
AcDbCircle
 10
246.259995
 20
313.094262
 30
0.0
 40
0.5
100
AcDbArc
 50
180.0
 51
270.0
  0
LINE
  5
396
330
1F
100
AcDbEntity
  8
LC-001-100-D00-0
 62
     7
370
    50
100
AcDbLine
 10
245.759994
 20
313.094261
 30
0.0
 11
245.759994
 21
316.121
 31
0.0
  0
ARC
  5
397
330
1F
100
AcDbEntity
  8
LC-001-100-D00-0
 62
     7
370
    50
100
AcDbCircle
 10
245.259995
 20
316.121
 30
0.0
 40
0.5
100
AcDbArc
 50
0.0
 51
82.259081
  0
LINE
  5
398
330
1F
100
AcDbEntity
  8
LC-001-100-D00-0
 62
     7
370
    50
100
AcDbLine
 10
235.859991
 20
316.088642
 30
0.0
 11
235.859991
 21
319.427817
 31
0.0
  0
ARC
  5
399
330
1F
100
AcDbEntity
  8
LC-001-100-D00-0
 62
     7
370
    50
100
AcDbCircle
 10
241.959995
 20
291.844262
 30
0.0
 40
28.25000000000017
100
AcDbArc
 50
102.470047
 51
121.836424
  0
LINE
  5
39A
330
1F
100
AcDbEntity
  8
LC-001-100-D00-0
 62
     7
370
    50
100
AcDbLine
 10
227.058232
 20
315.844263
 30
0.0
 11
226.659999
 21
315.844263
 31
0.0
  0
ARC
  5
39B
330
1F
100
AcDbEntity
  8
LC-001-100-D00-0
 62
     7
370
    50
100
AcDbCircle
 10
249.459995
 20
313.094262
 30
0.0
 40
0.5
100
AcDbArc
 50
270.0
 51
0.0
  0
LINE
  5
39C
330
1F
100
AcDbEntity
  8
LC-001-100-D00-0
 62
     7
370
    50
100
AcDbLine
 10
249.459997
 20
312.59426
 30
0.0
 11
246.259988
 21
312.59426
 31
0.0
  0
LINE
  5
39D
330
1F
100
AcDbEntity
  8
LC-001-100-D00-0
 62
     7
370
    50
100
AcDbLine
 10
249.959991
 20
314.822513
 30
0.0
 11
249.959991
 21
313.094261
 31
0.0
  0
LINE
  5
39E
330
1F
100
AcDbEntity
  8
LC-001-100-D00-0
 62
     7
370
    50
100
AcDbLine
 10
254.459993
 20
312.184009
 30
0.0
 11
254.459993
 21
313.494898
 31
0.0
  0
LINE
  5
39F
330
1F
100
AcDbEntity
  8
LC-001-100-D00-0
 62
     7
370
    50
100
AcDbLine
 10
201.045529
 20
322.844263
 30
0.0
 11
207.65999
 21
322.844263
 31
0.0
  0
LINE
  5
3A0
330
1F
100
AcDbEntity
  8
LC-001-100-D00-0
 62
     7
370
    50
100
AcDbLine
 10
226.659999
 20
315.844263
 30
0.0
 11
226.659999
 21
313.344262
 31
0.0
  0
LINE
  5
3A1
330
1F
100
AcDbEntity
  8
LC-001-100-D00-0
 62
     7
370
    50
100
AcDbLine
 10
207.65999
 20
325.34426
 30
0.0
 11
200.009995
 21
325.34426
 31
0.0
  0
LINE
  5
3A2
330
1F
100
AcDbEntity
  8
LC-001-100-D00-0
 62
     7
370
    50
100
AcDbLine
 10
84.809995
 20
310.344263
 30
0.0
 11
84.809995
 21
322.844263
 31
0.0
  0
LINE
  5
3A3
330
1F
100
AcDbEntity
  8
LC-001-100-D00-0
 62
     7
370
    50
100
AcDbLine
 10
77.659995
 20
322.844263
 30
0.0
 11
84.809995
 21
322.844263
 31
0.0
  0
LINE
  5
3A4
330
1F
100
AcDbEntity
  8
LC-001-100-D00-0
 62
     7
370
    50
100
AcDbLine
 10
84.809995
 20
325.34426
 30
0.0
 11
77.659995
 21
325.34426
 31
0.0
  0
LINE
  5
3A5
330
1F
100
AcDbEntity
  8
LC-001-100-D00-0
 62
     7
370
    50
100
AcDbLine
 10
84.809995
 20
325.34426
 30
0.0
 11
84.809995
 21
333.344262
 31
0.0
  0
LINE
  5
3A6
330
1F
100
AcDbEntity
  8
LC-001-100-D00-0
 62
     7
370
    50
100
AcDbLine
 10
81.159995
 20
335.644263
 30
0.0
 11
81.159995
 21
333.344262
 31
0.0
  0
LINE
  5
3A7
330
1F
100
AcDbEntity
  8
LC-001-100-D00-0
 62
     7
370
    50
100
AcDbLine
 10
80.659995
 20
335.644263
 30
0.0
 11
81.159995
 21
335.644263
 31
0.0
  0
LINE
  5
3A8
330
1F
100
AcDbEntity
  8
LC-001-100-D00-0
 62
     7
370
    50
100
AcDbLine
 10
80.659995
 20
335.644263
 30
0.0
 11
80.659995
 21
340.344261
 31
0.0
  0
LINE
  5
3A9
330
1F
100
AcDbEntity
  8
LC-001-100-D00-0
 62
     7
370
    50
100
AcDbLine
 10
19.946561
 20
340.344261
 30
0.0
 11
80.659995
 21
340.344261
 31
0.0
  0
ARC
  5
3AA
330
1F
100
AcDbEntity
  8
LC-001-100-D00-0
 62
     7
370
    50
100
AcDbCircle
 10
19.94656
 20
339.344262
 30
0.0
 40
1.000000000000114
100
AcDbArc
 50
90.0
 51
165.0
  0
LINE
  5
3AB
330
1F
100
AcDbEntity
  8
LC-001-100-D00-0
 62
     7
370
    50
100
AcDbLine
 10
15.229345
 20
325.603078
 30
0.0
 11
18.980634
 21
339.603084
 31
0.0
  0
ARC
  5
3AC
330
1F
100
AcDbEntity
  8
LC-001-100-D00-0
 62
     7
370
    50
100
AcDbCircle
 10
16.195271
 20
325.344262
 30
0.0
 40
1.00000000000003
100
AcDbArc
 50
165.0
 51
195.0
  0
LINE
  5
3AD
330
1F
100
AcDbEntity
  8
LC-001-100-D00-0
 62
     7
370
    50
100
AcDbLine
 10
18.980634
 20
311.085443
 30
0.0
 11
15.229345
 21
325.085442
 31
0.0
  0
ARC
  5
3AE
330
1F
100
AcDbEntity
  8
LC-001-100-D00-0
 62
     7
370
    50
100
AcDbCircle
 10
19.94656
 20
311.344262
 30
0.0
 40
1.000000000000003
100
AcDbArc
 50
195.0
 51
270.0
  0
LINE
  5
3AF
330
1F
100
AcDbEntity
  8
LC-001-100-D00-0
 62
     7
370
    50
100
AcDbLine
 10
19.946561
 20
310.344263
 30
0.0
 11
84.809995
 21
310.344263
 31
0.0
  0
LINE
  5
3B0
330
1F
100
AcDbEntity
  8
LC-001-100-D00-0
 62
     7
370
    50
100
AcDbLine
 10
81.159995
 20
333.344262
 30
0.0
 11
84.809995
 21
333.344262
 31
0.0
  0
LINE
  5
3B1
330
1F
100
AcDbEntity
  8
LC-001-100-D00-0
 62
     7
370
    50
100
AcDbLine
 10
200.509996
 20
333.344262
 30
0.0
 11
200.509996
 21
325.34426
 31
0.0
  0
LINE
  5
3B2
330
1F
100
AcDbEntity
  8
LC-001-100-D00-0
 62
     7
370
    50
100
AcDbLine
 10
266.339362
 20
339.603084
 30
0.0
 11
270.09064
 21
325.603078
 31
0.0
  0
LINE
  5
3B3
330
1F
100
AcDbEntity
  8
LC-001-100-D00-0
 62
     7
370
    50
100
AcDbLine
 10
204.659999
 20
340.344261
 30
0.0
 11
265.373424
 21
340.344261
 31
0.0
  0
LINE
  5
3B4
330
1F
100
AcDbEntity
  8
LC-001-100-D00-0
 62
     7
370
    50
100
AcDbLine
 10
204.659999
 20
340.344261
 30
0.0
 11
204.659999
 21
335.644263
 31
0.0
  0
LINE
  5
3B5
330
1F
100
AcDbEntity
  8
LC-001-100-D00-0
 62
     7
370
    50
100
AcDbLine
 10
204.159991
 20
333.344262
 30
0.0
 11
204.159991
 21
335.644263
 31
0.0
  0
LINE
  5
3B6
330
1F
100
AcDbEntity
  8
LC-001-100-D00-0
 62
     7
370
    50
100
AcDbLine
 10
207.65999
 20
325.34426
 30
0.0
 11
200.509996
 21
325.34426
 31
0.0
  0
LINE
  5
3B7
330
1F
100
AcDbEntity
  8
LC-001-100-D00-0
 62
     7
370
    50
100
AcDbLine
 10
200.509996
 20
322.844263
 30
0.0
 11
207.65999
 21
322.844263
 31
0.0
  0
LINE
  5
3B8
330
1F
100
AcDbEntity
  8
LC-001-100-D00-0
 62
     7
370
    50
100
AcDbLine
 10
200.509996
 20
322.844263
 30
0.0
 11
200.509996
 21
313.344262
 31
0.0
  0
LINE
  5
3B9
330
1F
100
AcDbEntity
  8
LC-001-100-D00-0
 62
     7
370
    50
100
AcDbLine
 10
200.509996
 20
313.344262
 30
0.0
 11
222.659991
 21
313.344262
 31
0.0
  0
LINE
  5
3BA
330
1F
100
AcDbEntity
  8
LC-001-100-D00-0
 62
     7
370
    50
100
AcDbLine
 10
204.159991
 20
335.644263
 30
0.0
 11
204.659999
 21
335.644263
 31
0.0
  0
LINE
  5
3BB
330
1F
100
AcDbEntity
  8
LC-001-100-D00-0
 62
     7
370
    50
100
AcDbLine
 10
200.509996
 20
333.344262
 30
0.0
 11
204.159991
 21
333.344262
 31
0.0
  0
LINE
  5
3BC
330
1F
100
AcDbEntity
  8
LC-001-100-D00-0
 62
     7
370
    50
100
AcDbLine
 10
270.09064
 20
325.085442
 30
0.0
 11
269.088194
 21
321.344263
 31
0.0
  0
ARC
  5
3BD
330
1F
100
AcDbEntity
  8
LC-001-100-D00-0
 62
     7
370
    50
100
AcDbCircle
 10
269.124719
 20
325.344262
 30
0.0
 40
0.9999999999999756
100
AcDbArc
 50
345.0
 51
15.0
  0
LINE
  5
3BE
330
1F
100
AcDbEntity
  8
LC-001-100-D00-0
 62
     7
370
    50
100
AcDbLine
 10
222.659991
 20
321.344263
 30
0.0
 11
269.088194
 21
321.344263
 31
0.0
  0
ARC
  5
3BF
330
1F
100
AcDbEntity
  8
LC-001-100-D00-0
 62
     7
370
    50
100
AcDbCircle
 10
265.37343
 20
339.344262
 30
0.0
 40
0.9999999999999756
100
AcDbArc
 50
15.0
 51
90.0
  0
LINE
  5
3C0
330
1F
100
AcDbEntity
  8
LC-001-100-D00-0
 62
     7
370
    50
100
AcDbLine
 10
222.659991
 20
321.344263
 30
0.0
 11
222.659991
 21
313.344262
 31
0.0
  0
LINE
  5
3C1
330
1F
100
AcDbEntity
  8
LC-001-100-D00-0
 62
     7
370
    50
100
AcDbLine
 10
80.659995
 20
340.344261
 30
0.0
 11
96.359995
 21
340.344261
 31
0.0
  0
LINE
  5
3C2
330
1F
100
AcDbEntity
  8
LC-001-100-D00-0
 62
     7
370
    50
100
AcDbLine
 10
188.959994
 20
340.344261
 30
0.0
 11
204.659999
 21
340.344261
 31
0.0
  0
LINE
  5
3C3
330
1F
100
AcDbEntity
  8
LC-001-100-D00-0
 62
     7
370
    50
100
AcDbLine
 10
112.969734
 20
335.644263
 30
0.0
 11
141.659998
 21
335.644263
 31
0.0
  0
LINE
  5
3C4
330
1F
100
AcDbEntity
  8
LC-001-100-D00-0
 62
     7
370
    50
100
AcDbLine
 10
143.659995
 20
335.644263
 30
0.0
 11
172.350258
 21
335.644263
 31
0.0
  0
LINE
  5
3C5
330
1F
100
AcDbEntity
  8
LC-001-100-D00-0
 62
     7
370
    50
100
AcDbLine
 10
269.088194
 20
321.344263
 30
0.0
 11
266.542674
 21
311.844263
 31
0.0
  0
INSERT
  5
3E5
330
1F
100
AcDbEntity
  8
LC-001-100-D00-0
 62
     7
370
    50
100
AcDbBlockReference
  2
POLY12
 10
0.0
 20
0.0
 30
0.0
  0
LINE
  5
3E6
330
1F
100
AcDbEntity
  8
LC-001-100-D00-0
 62
     7
370
    50
100
AcDbLine
 10
233.15999
 20
217.770878
 30
0.0
 11
252.159998
 21
217.770878
 31
0.0
  0
INSERT
  5
406
330
1F
100
AcDbEntity
  8
LC-001-100-D00-0
 62
     7
370
    50
100
AcDbBlockReference
  2
POLY13
 10
0.0
 20
0.0
 30
0.0
  0
LINE
  5
407
330
1F
100
AcDbEntity
  8
LC-001-100-D00-0
 62
     7
370
    50
100
AcDbLine
 10
33.159994
 20
217.770878
 30
0.0
 11
52.159995
 21
217.770878
 31
0.0
  0
LINE
  5
408
330
1F
100
AcDbEntity
  8
LC-001-100-D00-0
 62
     7
370
    50
100
AcDbLine
 10
52.659995
 20
240.770876
 30
0.0
 11
32.659993
 21
240.770876
 31
0.0
  0
LINE
  5
409
330
1F
100
AcDbEntity
  8
LC-001-100-D00-0
 62
     7
370
    50
100
AcDbLine
 10
52.659995
 20
226.770877
 30
0.0
 11
32.659993
 21
226.770877
 31
0.0
  0
LINE
  5
40A
330
1F
100
AcDbEntity
  8
LC-001-100-D00-0
 62
     7
370
    50
100
AcDbLine
 10
33.659995
 20
225.770875
 30
0.0
 11
51.659994
 21
225.770875
 31
0.0
  0
LINE
  5
40B
330
1F
100
AcDbEntity
  8
LC-001-100-D00-0
 62
     7
370
    50
100
AcDbLine
 10
52.659995
 20
237.270876
 30
0.0
 11
32.659993
 21
237.270876
 31
0.0
  0
LINE
  5
40C
330
1F
100
AcDbEntity
  8
LC-001-100-D00-0
 62
     7
370
    50
100
AcDbLine
 10
252.659992
 20
226.770877
 30
0.0
 11
232.659996
 21
226.770877
 31
0.0
  0
LINE
  5
40D
330
1F
100
AcDbEntity
  8
LC-001-100-D00-0
 62
     7
370
    50
100
AcDbLine
 10
233.659998
 20
225.770875
 30
0.0
 11
251.65999
 21
225.770875
 31
0.0
  0
LINE
  5
40E
330
1F
100
AcDbEntity
  8
LC-001-100-D00-0
 62
     7
370
    50
100
AcDbLine
 10
252.659992
 20
240.770876
 30
0.0
 11
232.659996
 21
240.770876
 31
0.0
  0
LINE
  5
40F
330
1F
100
AcDbEntity
  8
LC-001-100-D00-0
 62
     7
370
    50
100
AcDbLine
 10
252.659992
 20
237.270876
 30
0.0
 11
232.659996
 21
237.270876
 31
0.0
  0
LINE
  5
410
330
1F
100
AcDbEntity
  8
LC-001-100-D00-0
 62
     7
370
    50
100
AcDbLine
 10
95.859994
 20
370.64426
 30
0.0
 11
95.935187
 21
370.64426
 31
0.0
  0
LINE
  5
411
330
1F
100
AcDbEntity
  8
LC-001-100-D00-0
 62
     7
370
    50
100
AcDbLine
 10
189.384804
 20
370.64426
 30
0.0
 11
189.459995
 21
370.64426
 31
0.0
  0
LINE
  5
412
330
1F
100
AcDbEntity
  8
LC-001-100-D00-0
 62
     7
370
    50
100
AcDbLine
 10
109.659997
 20
279.844261
 30
0.0
 11
91.319733
 21
279.844261
 31
0.0
  0
LINE
  5
413
330
1F
100
AcDbEntity
  8
LC-001-100-D00-0
 62
     7
370
    50
100
AcDbLine
 10
196.013742
 20
279.844261
 30
0.0
 11
175.659992
 21
279.844261
 31
0.0
  0
LINE
  5
414
330
1F
100
AcDbEntity
  8
LC-001-100-D00-0
 62
     7
370
    50
100
AcDbLine
 10
233.15999
 20
225.270878
 30
0.0
 11
252.159998
 21
225.270878
 31
0.0
  0
LINE
  5
415
330
1F
100
AcDbEntity
  8
LC-001-100-D00-0
 62
     7
370
    50
100
AcDbLine
 10
33.159994
 20
225.270878
 30
0.0
 11
52.159995
 21
225.270878
 31
0.0
  0
INSERT
  5
424
330
1F
100
AcDbEntity
  8
LC-001-100-D00-0
 62
     7
370
    25
100
AcDbBlockReference
  2
KLON1
 10
0.0
 20
0.0
 30
0.0
  0
INSERT
  5
433
330
1F
100
AcDbEntity
  8
LC-001-100-D00-0
 62
     7
370
    25
100
AcDbBlockReference
  2
KLON2
 10
0.0
 20
0.0
 30
0.0
  0
INSERT
  5
440
330
1F
100
AcDbEntity
  8
LC-001-100-D00-0
 62
     7
370
    25
100
AcDbBlockReference
  2
KLON3
 10
0.0
 20
0.0
 30
0.0
  0
INSERT
  5
45D
330
1F
100
AcDbEntity
  8
LC-001-100-D00-0
 62
     7
370
    25
100
AcDbBlockReference
  2
KLON4
 10
0.0
 20
0.0
 30
0.0
  0
INSERT
  5
469
330
1F
100
AcDbEntity
  8
LC-001-100-D00-0
 62
     7
370
    25
100
AcDbBlockReference
  2
KLON5
 10
0.0
 20
0.0
 30
0.0
  0
INSERT
  5
475
330
1F
100
AcDbEntity
  8
LC-001-100-D00-0
 62
     7
370
    25
100
AcDbBlockReference
  2
KLON6
 10
0.0
 20
0.0
 30
0.0
  0
LINE
  5
476
330
1F
100
AcDbEntity
  8
LC-001-100-D00-0
 62
     7
370
    50
100
AcDbLine
 10
267.262557
 20
322.397872
 30
0.0
 11
266.322976
 21
323.337453
 31
0.0
  0
LINE
  5
477
330
1F
100
AcDbEntity
  8
LC-001-100-D00-0
 62
     7
370
    -2
100
AcDbLine
 10
-83.153706
 20
322.584147
 30
0.0
 11
-83.600121
 21
323.030561
 31
0.0
  0
LINE
  5
478
330
1F
100
AcDbEntity
  8
LC-001-100-D00-0
 62
     7
370
    50
100
AcDbLine
 10
-30.881134
 20
324.193112
 30
0.0
 11
-31.991156
 21
325.303133
 31
0.0
  0
LINE
  5
479
330
1F
100
AcDbEntity
  8
LC-001-100-D00-0
 62
     7
370
    50
100
AcDbLine
 10
318.973697
 20
324.568268
 30
0.0
 11
318.384001
 21
325.157965
 31
0.0
  0
LINE
  5
47A
330
1F
100
AcDbEntity
  8
LC-001-100-D00-0
 62
     7
370
    25
100
AcDbLine
 10
99.329152
 20
373.587948
 30
0.0
 11
98.225409
 21
374.691691
 31
0.0
  0
LINE
  5
47B
330
1F
100
AcDbEntity
  8
LC-001-100-D00-0
 62
     7
370
    25
100
AcDbLine
 10
171.430694
 20
373.328455
 30
0.0
 11
170.369818
 21
374.389331
 31
0.0
  0
LINE
  5
47C
330
1F
100
AcDbEntity
  8
LC-001-100-D00-0
 62
     7
370
    25
100
AcDbLine
 10
182.595143
 20
371.144262
 30
0.0
 11
181.659995
 21
372.07941
 31
0.0
  0
LINE
  5
47D
330
1F
100
AcDbEntity
  8
LC-001-100-D00-0
 62
     7
370
    25
100
AcDbLine
 10
110.753094
 20
371.144262
 30
0.0
 11
109.659995
 21
372.237361
 31
0.0
  0
INSERT
  5
486
330
1F
100
AcDbEntity
  8
LC-001-100-D00-0
 62
     7
370
    25
100
AcDbBlockReference
  2
KLON7
 10
0.0
 20
0.0
 30
0.0
  0
INSERT
  5
493
330
1F
100
AcDbEntity
  8
LC-001-100-D00-0
 62
     7
370
    25
100
AcDbBlockReference
  2
KLON8
 10
0.0
 20
0.0
 30
0.0
  0
INSERT
  5
49F
330
1F
100
AcDbEntity
  8
LC-001-100-D00-0
 62
     7
370
    25
100
AcDbBlockReference
  2
KLON9
 10
0.0
 20
0.0
 30
0.0
  0
INSERT
  5
4B9
330
1F
100
AcDbEntity
  8
LC-001-100-D00-0
 62
     7
370
    25
100
AcDbBlockReference
  2
KLON10
 10
0.0
 20
0.0
 30
0.0
  0
INSERT
  5
4CC
330
1F
100
AcDbEntity
  8
LC-001-100-D00-0
 62
     7
370
    25
100
AcDbBlockReference
  2
KLON11
 10
0.0
 20
0.0
 30
0.0
  0
INSERT
  5
4DF
330
1F
100
AcDbEntity
  8
LC-001-100-D00-0
 62
     7
370
    25
100
AcDbBlockReference
  2
KLON12
 10
0.0
 20
0.0
 30
0.0
  0
LINE
  5
4E0
330
1F
100
AcDbEntity
  8
LC-001-100-D00-0
 62
     7
370
    25
100
AcDbLine
 10
93.358199
 20
370.578644
 30
0.0
 11
92.659995
 21
371.276849
 31
0.0
  0
INSERT
  5
4E6
330
1F
100
AcDbEntity
  8
LC-001-100-D00-0
 62
     7
370
    50
100
AcDbBlockReference
  2
KLON13
 10
0.0
 20
0.0
 30
0.0
  0
INSERT
  5
4F1
330
1F
100
AcDbEntity
  8
LC-001-100-D00-0
 62
     7
370
    25
100
AcDbBlockReference
  2
KLON14
 10
0.0
 20
0.0
 30
0.0
  0
INSERT
  5
4FC
330
1F
100
AcDbEntity
  8
LC-001-100-D00-0
 62
     7
370
    25
100
AcDbBlockReference
  2
KLON15
 10
0.0
 20
0.0
 30
0.0
  0
LINE
  5
4FD
330
1F
100
AcDbEntity
  8
LC-001-100-D00-0
 62
     7
370
    25
100
AcDbLine
 10
249.45449
 20
313.265171
 30
0.0
 11
246.630903
 21
316.088757
 31
0.0
  0
LINE
  5
4FE
330
1F
100
AcDbEntity
  8
LC-001-100-D00-0
 62
     7
370
    25
100
AcDbLine
 10
249.703684
 20
268.114696
 30
0.0
 11
246.980429
 21
270.837951
 31
0.0
  0
LINE
  5
4FF
330
1F
100
AcDbEntity
  8
LC-001-100-D00-0
 62
     7
370
    50
100
AcDbLine
 10
185.800395
 20
332.017985
 30
0.0
 11
184.479429
 21
333.338951
 31
0.0
  0
LINE
  5
501
330
1F
100
AcDbEntity
  8
LC-001-100-D00-0
  6
DASHDOT
 62
     7
370
    25
100
AcDbLine
 10
142.659995
 20
264.230525
 30
0.0
 11
142.659995
 21
377.822733
 31
0.0
  0
LINE
  5
502
330
1F
100
AcDbEntity
  8
LC-001-100-D00-0
  6
DASHDOT
 62
     7
370
    25
100
AcDbLine
 10
364.359995
 20
296.503121
 30
0.0
 11
310.677317
 21
296.503121
 31
0.0
  0
LINE
  5
503
330
1F
100
AcDbEntity
  8
LC-001-100-D00-0
  6
DASHDOT
 62
     7
370
    25
100
AcDbLine
 10
315.884767
 20
291.844262
 30
0.0
 11
194.046745
 21
291.844262
 31
0.0
  0
LINE
  5
504
330
1F
100
AcDbEntity
  8
LC-001-100-D00-0
  6
DASHDOT
 62
     7
370
    25
100
AcDbLine
 10
42.659995
 20
315.770875
 30
0.0
 11
42.659995
 21
217.770878
 31
0.0
  0
LINE
  5
505
330
1F
100
AcDbEntity
  8
LC-001-100-D00-0
  6
DASHDOT
 62
     7
370
    25
100
AcDbLine
 10
242.659996
 20
264.345898
 30
0.0
 11
242.659996
 21
217.770878
 31
0.0
  0
DIMENSION
  5
509
330
1F
100
AcDbEntity
  8
LC-002-106-D00-0
 62
     7
370
    25
100
AcDbDimension
  2
*D29
 10
-138.14884
 20
264.230525
 30
0.0
 11
-168.94884
 21
299.18518
 31
0.0
 70
   160
  1
76
 71
     5
 42
76.0
 53
90.0
  3
LC-DIM-L-0140-02-02
100
AcDbAlignedDimension
 13
19.946557
 23
340.230525
 33
0.0
 14
115.834992
 24
264.230525
 34
0.0
 50
90.0
100
AcDbRotatedDimension
  0
DIMENSION
  5
517
330
1F
100
AcDbEntity
  8
LC-002-106-D00-0
 62
     7
370
    25
100
AcDbDimension
  2
*D30
 10
-101.942952
 20
310.230525
 30
0.0
 11
-132.742952
 21
358.58518
 31
0.0
 70
   160
  1
30
 71
     5
 42
30.0
 53
90.0
  3
LC-DIM-L-0140-02-02
100
AcDbAlignedDimension
 13
19.946557
 23
340.230525
 33
0.0
 14
19.946557
 24
310.230525
 34
0.0
 50
90.0
100
AcDbRotatedDimension
  0
DIMENSION
  5
525
330
1F
100
AcDbEntity
  8
LC-002-106-D00-0
 62
     7
370
    25
100
AcDbDimension
  2
*D31
 10
-83.840008
 20
490.560262
 30
0.0
 11
153.635576
 21
521.360262
 31
0.0
 70
   160
  1
453
 71
     5
 42
453.0
  3
LC-DIM-L-0140-02-02
100
AcDbAlignedDimension
 13
369.159992
 23
328.244264
 33
0.0
 14
-83.840008
 24
328.244264
 34
0.0
100
AcDbRotatedDimension
  0
DIMENSION
  5
533
330
1F
100
AcDbEntity
  8
LC-002-106-D00-0
 62
     7
370
    25
100
AcDbDimension
  2
*D32
 10
15.195268
 20
438.288262
 30
0.0
 11
154.700455
 21
469.088262
 31
0.0
 70
   160
  1
255
 71
     5
 42
254.929448
  3
LC-DIM-L-0140-00-02
100
AcDbAlignedDimension
 13
270.124716
 23
325.230525
 33
0.0
 14
15.195268
 24
325.230525
 34
0.0
100
AcDbRotatedDimension
  0
DIMENSION
  5
541
330
1F
100
AcDbEntity
  8
LC-003-003-----0
 62
     7
370
    25
100
AcDbDimension
  2
*D33
 10
192.659995
 20
385.422262
 30
0.0
 11
157.895092
 21
416.222262
 31
0.0
 70
   160
 71
     5
 42
100.0
  3
LC-DIM-L-0140-02-02
100
AcDbAlignedDimension
 13
92.659995
 23
374.144259
 33
0.0
 14
192.659995
 24
374.144258
 34
0.0
100
AcDbRotatedDimension
  0
DIMENSION
  5
54E
330
1F
100
AcDbEntity
  8
LC-003-003-----0
 62
     7
370
    25
100
AcDbDimension
  2
*D34
 10
360.859991
 20
206.100262
 30
0.0
 11
287.749156
 21
236.900262
 31
0.0
 70
   160
  1
218
 71
     5
 42
218.199999
  3
LC-DIM-L-0140-02-02
100
AcDbAlignedDimension
 13
142.659992
 23
264.230525
 33
0.0
 14
360.859991
 24
274.504536
 34
0.0
100
AcDbRotatedDimension
  0
DIMENSION
  5
55B
330
1F
100
AcDbEntity
  8
LC-001-100-D00-0
 62
     7
370
    25
100
AcDbDimension
  2
*D35
 10
-6.103837
 20
318.230525
 30
0.0
 11
-36.903837
 21
251.66518
 31
0.0
 70
   160
  1
40
 71
     5
 42
40.000582
 53
90.0
  3
LC-DIM-L-0140-02-02
100
AcDbAlignedDimension
 13
121.660382
 23
278.229943
 33
0.0
 14
109.659992
 24
318.230525
 34
0.0
 50
90.0
100
AcDbRotatedDimension
  0
DIMENSION
  5
569
330
1F
100
AcDbEntity
  8
LC-002-106-D00-0
 62
     7
370
    25
100
AcDbDimension
  2
*D36
 10
480.492265
 20
271.730525
 30
0.0
 11
449.692265
 21
336.780262
 31
0.0
 70
   160
  1
DN40
 71
     5
 42
40.0
 53
90.0
  3
LC-DIM-L-0140-02-02
100
AcDbAlignedDimension
 13
307.118737
 23
311.730525
 33
0.0
 14
312.475059
 24
271.730525
 34
0.0
 50
90.0
100
AcDbRotatedDimension
  0
DIMENSION
  5
577
330
1F
100
AcDbEntity
  8
LC-002-106-D00-0
 62
     7
370
    25
100
AcDbDimension
  2
*D37
 10
530.54158
 20
271.455372
 30
0.0
 11
499.74158
 21
353.412262
 31
0.0
 70
   160
  1
DN50
 71
     5
 42
49.868025
 53
90.0
  3
LC-DIM-L-0140-00-02
100
AcDbAlignedDimension
 13
357.859992
 23
321.323396
 33
0.0
 14
357.859992
 24
271.455372
 34
0.0
 50
90.0
100
AcDbRotatedDimension
  0
ARC
  5
585
330
1F
100
AcDbEntity
  8
LC-001-100-D00-0
 62
     7
370
    50
100
AcDbCircle
 10
375.562691
 20
-50.316863
 30
0.0
 40
68.50108188833487
100
AcDbArc
 50
161.191539
 51
181.183516
  0
LINE
  5
586
330
1F
100
AcDbEntity
  8
LC-001-100-D00-0
 62
     7
370
    50
100
AcDbLine
 10
312.633497
 20
-24.916516
 30
0.0
 11
316.159995
 21
-24.916516
 31
0.0
  0
LINE
  5
587
330
1F
100
AcDbEntity
  8
LC-001-100-D00-0
 62
     7
370
    50
100
AcDbLine
 10
319.159995
 20
-24.916516
 30
0.0
 11
357.859995
 21
-24.916516
 31
0.0
  0
LINE
  5
588
330
1F
100
AcDbEntity
  8
LC-001-100-D00-0
 62
     7
370
    50
100
AcDbLine
 10
357.859995
 20
-24.916516
 30
0.0
 11
359.03642
 21
-25.231738
 31
0.0
  0
LINE
  5
589
330
1F
100
AcDbEntity
  8
LC-001-100-D00-0
 62
     7
370
    50
100
AcDbLine
 10
312.451504
 20
-25.231738
 30
0.0
 11
312.633497
 21
-24.916516
 31
0.0
  0
LINE
  5
58A
330
1F
100
AcDbEntity
  8
LC-001-100-D00-0
 62
     7
370
    50
100
AcDbLine
 10
270.124719
 20
-31.731738
 30
0.0
 11
309.630973
 21
-31.731738
 31
0.0
  0
LINE
  5
58B
330
1F
100
AcDbEntity
  8
LC-001-100-D00-0
 62
     7
370
    50
100
AcDbLine
 10
15.5656
 20
-28.231738
 30
0.0
 11
-83.840005
 21
-28.231738
 31
0.0
  0
LINE
  5
58C
330
1F
100
AcDbEntity
  8
LC-001-100-D00-0
 62
     7
370
    50
100
AcDbLine
 10
-83.840005
 20
-25.231738
 30
0.0
 11
15.5656
 21
-25.231738
 31
0.0
  0
LINE
  5
58D
330
1F
100
AcDbEntity
  8
LC-001-100-D00-0
 62
     7
370
    50
100
AcDbLine
 10
369.159995
 20
71.768262
 30
0.0
 11
269.75439
 21
71.768262
 31
0.0
  0
LINE
  5
58E
330
1F
100
AcDbEntity
  8
LC-001-100-D00-0
 62
     7
370
    50
100
AcDbLine
 10
15.5656
 20
71.768262
 30
0.0
 11
-83.840005
 21
71.768262
 31
0.0
  0
LINE
  5
58F
330
1F
100
AcDbEntity
  8
LC-001-100-D00-0
 62
     7
370
    50
100
AcDbLine
 10
-83.840005
 20
74.768262
 30
0.0
 11
15.636739
 21
74.768262
 31
0.0
  0
LINE
  5
590
330
1F
100
AcDbEntity
  8
LC-001-100-D00-0
 62
     7
370
    50
100
AcDbLine
 10
269.68325
 20
74.768262
 30
0.0
 11
369.159995
 21
74.768262
 31
0.0
  0
LINE
  5
591
330
1F
100
AcDbEntity
  8
LC-001-100-D00-0
 62
     7
370
    50
100
AcDbLine
 10
369.159995
 20
121.768262
 30
0.0
 11
-83.840005
 21
121.768262
 31
0.0
  0
LINE
  5
592
330
1F
100
AcDbEntity
  8
LC-001-100-D00-0
 62
     7
370
    50
100
AcDbLine
 10
-83.840005
 20
124.768262
 30
0.0
 11
369.159995
 21
124.768262
 31
0.0
  0
LINE
  5
593
330
1F
100
AcDbEntity
  8
LC-001-100-D00-0
 62
     7
370
    50
100
AcDbLine
 10
369.159995
 20
-28.231738
 30
0.0
 11
269.75439
 21
-28.231738
 31
0.0
  0
LINE
  5
594
330
1F
100
AcDbEntity
  8
LC-001-100-D00-0
 62
     7
370
    50
100
AcDbLine
 10
269.75439
 20
-25.231738
 30
0.0
 11
369.159995
 21
-25.231738
 31
0.0
  0
LINE
  5
595
330
1F
100
AcDbEntity
  8
LC-001-100-D00-0
 62
     7
370
    50
100
AcDbLine
 10
369.159995
 20
21.768262
 30
0.0
 11
269.75439
 21
21.768262
 31
0.0
  0
LINE
  5
596
330
1F
100
AcDbEntity
  8
LC-001-100-D00-0
 62
     7
370
    50
100
AcDbLine
 10
269.75439
 20
24.768262
 30
0.0
 11
369.159995
 21
24.768262
 31
0.0
  0
LINE
  5
597
330
1F
100
AcDbEntity
  8
LC-001-100-D00-0
 62
     7
370
    50
100
AcDbLine
 10
369.159995
 20
171.768262
 30
0.0
 11
-83.840005
 21
171.768262
 31
0.0
  0
LINE
  5
598
330
1F
100
AcDbEntity
  8
LC-001-100-D00-0
 62
     7
370
    50
100
AcDbLine
 10
-83.840005
 20
174.768262
 30
0.0
 11
369.159995
 21
174.768262
 31
0.0
  0
LINE
  5
599
330
1F
100
AcDbEntity
  8
LC-001-100-D00-0
 62
     7
370
    50
100
AcDbLine
 10
15.5656
 20
21.768262
 30
0.0
 11
-83.840005
 21
21.768262
 31
0.0
  0
LINE
  5
59A
330
1F
100
AcDbEntity
  8
LC-001-100-D00-0
 62
     7
370
    50
100
AcDbLine
 10
-83.840005
 20
24.768262
 30
0.0
 11
15.5656
 21
24.768262
 31
0.0
  0
LINE
  5
59B
330
1F
100
AcDbEntity
  8
LC-001-100-D00-0
 62
     7
370
    50
100
AcDbLine
 10
19.159995
 20
171.768262
 30
0.0
 11
19.159995
 21
124.768262
 31
0.0
  0
LINE
  5
59C
330
1F
100
AcDbEntity
  8
LC-001-100-D00-0
 62
     7
370
    50
100
AcDbLine
 10
19.159995
 20
121.768262
 30
0.0
 11
19.159995
 21
75.732986
 31
0.0
  0
LINE
  5
59D
330
1F
100
AcDbEntity
  8
LC-001-100-D00-0
 62
     7
370
    50
100
AcDbLine
 10
16.159995
 20
75.732363
 30
0.0
 11
16.159995
 21
121.768262
 31
0.0
  0
LINE
  5
59E
330
1F
100
AcDbEntity
  8
LC-001-100-D00-0
 62
     7
370
    50
100
AcDbLine
 10
16.159995
 20
124.768262
 30
0.0
 11
16.159995
 21
171.768262
 31
0.0
  0
LINE
  5
59F
330
1F
100
AcDbEntity
  8
LC-001-100-D00-0
 62
     7
370
    50
100
AcDbLine
 10
-80.840005
 20
171.768262
 30
0.0
 11
-80.840005
 21
124.768262
 31
0.0
  0
LINE
  5
5A0
330
1F
100
AcDbEntity
  8
LC-001-100-D00-0
 62
     7
370
    50
100
AcDbLine
 10
-80.840005
 20
121.768262
 30
0.0
 11
-80.840005
 21
74.768262
 31
0.0
  0
LINE
  5
5A1
330
1F
100
AcDbEntity
  8
LC-001-100-D00-0
 62
     7
370
    50
100
AcDbLine
 10
-80.840005
 20
71.768262
 30
0.0
 11
-80.840005
 21
24.768262
 31
0.0
  0
LINE
  5
5A2
330
1F
100
AcDbEntity
  8
LC-001-100-D00-0
 62
     7
370
    50
100
AcDbLine
 10
-80.840005
 20
21.768262
 30
0.0
 11
-80.840005
 21
-25.231738
 31
0.0
  0
LINE
  5
5A3
330
1F
100
AcDbEntity
  8
LC-001-100-D00-0
 62
     7
370
    50
100
AcDbLine
 10
-80.840005
 20
-28.231738
 30
0.0
 11
-80.840005
 21
-51.731738
 31
0.0
  0
LINE
  5
5A4
330
1F
100
AcDbEntity
  8
LC-001-100-D00-0
 62
     7
370
    50
100
AcDbLine
 10
-83.840005
 20
-51.731738
 30
0.0
 11
-83.840005
 21
-28.231738
 31
0.0
  0
LINE
  5
5A5
330
1F
100
AcDbEntity
  8
LC-001-100-D00-0
 62
     7
370
    50
100
AcDbLine
 10
-83.840005
 20
-25.231738
 30
0.0
 11
-83.840005
 21
21.768262
 31
0.0
  0
LINE
  5
5A6
330
1F
100
AcDbEntity
  8
LC-001-100-D00-0
 62
     7
370
    50
100
AcDbLine
 10
-83.840005
 20
24.768262
 30
0.0
 11
-83.840005
 21
71.768262
 31
0.0
  0
LINE
  5
5A7
330
1F
100
AcDbEntity
  8
LC-001-100-D00-0
 62
     7
370
    50
100
AcDbLine
 10
-83.840005
 20
74.768262
 30
0.0
 11
-83.840005
 21
121.768262
 31
0.0
  0
LINE
  5
5A8
330
1F
100
AcDbEntity
  8
LC-001-100-D00-0
 62
     7
370
    50
100
AcDbLine
 10
-83.840005
 20
124.768262
 30
0.0
 11
-83.840005
 21
171.768262
 31
0.0
  0
LINE
  5
5A9
330
1F
100
AcDbEntity
  8
LC-001-100-D00-0
 62
     7
370
    50
100
AcDbLine
 10
119.159995
 20
171.768262
 30
0.0
 11
119.159995
 21
124.768262
 31
0.0
  0
LINE
  5
5AA
330
1F
100
AcDbEntity
  8
LC-001-100-D00-0
 62
     7
370
    50
100
AcDbLine
 10
119.159995
 20
121.768262
 30
0.0
 11
119.159995
 21
75.732986
 31
0.0
  0
LINE
  5
5AB
330
1F
100
AcDbEntity
  8
LC-001-100-D00-0
 62
     7
370
    50
100
AcDbLine
 10
116.159995
 20
75.732986
 30
0.0
 11
116.159995
 21
121.768262
 31
0.0
  0
LINE
  5
5AC
330
1F
100
AcDbEntity
  8
LC-001-100-D00-0
 62
     7
370
    50
100
AcDbLine
 10
116.159995
 20
124.768262
 30
0.0
 11
116.159995
 21
171.768262
 31
0.0
  0
LINE
  5
5AD
330
1F
100
AcDbEntity
  8
LC-001-100-D00-0
 62
     7
370
    50
100
AcDbLine
 10
-30.840005
 20
171.768262
 30
0.0
 11
-30.840005
 21
124.768262
 31
0.0
  0
LINE
  5
5AE
330
1F
100
AcDbEntity
  8
LC-001-100-D00-0
 62
     7
370
    50
100
AcDbLine
 10
-30.840005
 20
121.768262
 30
0.0
 11
-30.840005
 21
74.768262
 31
0.0
  0
LINE
  5
5AF
330
1F
100
AcDbEntity
  8
LC-001-100-D00-0
 62
     7
370
    50
100
AcDbLine
 10
-30.840005
 20
71.768262
 30
0.0
 11
-30.840005
 21
24.768262
 31
0.0
  0
LINE
  5
5B0
330
1F
100
AcDbEntity
  8
LC-001-100-D00-0
 62
     7
370
    50
100
AcDbLine
 10
-30.840005
 20
21.768262
 30
0.0
 11
-30.840005
 21
-25.231738
 31
0.0
  0
LINE
  5
5B1
330
1F
100
AcDbEntity
  8
LC-001-100-D00-0
 62
     7
370
    50
100
AcDbLine
 10
-30.840005
 20
-28.231738
 30
0.0
 11
-30.840005
 21
-51.731738
 31
0.0
  0
LINE
  5
5B2
330
1F
100
AcDbEntity
  8
LC-001-100-D00-0
 62
     7
370
    50
100
AcDbLine
 10
-33.840005
 20
-51.731738
 30
0.0
 11
-33.840005
 21
-28.231738
 31
0.0
  0
LINE
  5
5B3
330
1F
100
AcDbEntity
  8
LC-001-100-D00-0
 62
     7
370
    50
100
AcDbLine
 10
-33.840005
 20
-25.231738
 30
0.0
 11
-33.840005
 21
21.768262
 31
0.0
  0
LINE
  5
5B4
330
1F
100
AcDbEntity
  8
LC-001-100-D00-0
 62
     7
370
    50
100
AcDbLine
 10
-33.840005
 20
24.768262
 30
0.0
 11
-33.840005
 21
71.768262
 31
0.0
  0
LINE
  5
5B5
330
1F
100
AcDbEntity
  8
LC-001-100-D00-0
 62
     7
370
    50
100
AcDbLine
 10
-33.840005
 20
74.768262
 30
0.0
 11
-33.840005
 21
121.768262
 31
0.0
  0
LINE
  5
5B6
330
1F
100
AcDbEntity
  8
LC-001-100-D00-0
 62
     7
370
    50
100
AcDbLine
 10
-33.840005
 20
124.768262
 30
0.0
 11
-33.840005
 21
171.768262
 31
0.0
  0
LINE
  5
5B7
330
1F
100
AcDbEntity
  8
LC-001-100-D00-0
 62
     7
370
    50
100
AcDbLine
 10
219.159995
 20
171.768262
 30
0.0
 11
219.159995
 21
124.768262
 31
0.0
  0
LINE
  5
5B8
330
1F
100
AcDbEntity
  8
LC-001-100-D00-0
 62
     7
370
    50
100
AcDbLine
 10
219.159995
 20
121.768262
 30
0.0
 11
219.159995
 21
75.732986
 31
0.0
  0
LINE
  5
5B9
330
1F
100
AcDbEntity
  8
LC-001-100-D00-0
 62
     7
370
    50
100
AcDbLine
 10
216.159995
 20
75.732986
 30
0.0
 11
216.159995
 21
121.768262
 31
0.0
  0
LINE
  5
5BA
330
1F
100
AcDbEntity
  8
LC-001-100-D00-0
 62
     7
370
    50
100
AcDbLine
 10
216.159995
 20
124.768262
 30
0.0
 11
216.159995
 21
171.768262
 31
0.0
  0
LINE
  5
5BB
330
1F
100
AcDbEntity
  8
LC-001-100-D00-0
 62
     7
370
    50
100
AcDbLine
 10
369.159995
 20
171.768262
 30
0.0
 11
369.159995
 21
124.768262
 31
0.0
  0
LINE
  5
5BC
330
1F
100
AcDbEntity
  8
LC-001-100-D00-0
 62
     7
370
    50
100
AcDbLine
 10
369.159995
 20
121.768262
 30
0.0
 11
369.159995
 21
74.768262
 31
0.0
  0
LINE
  5
5BD
330
1F
100
AcDbEntity
  8
LC-001-100-D00-0
 62
     7
370
    50
100
AcDbLine
 10
369.159995
 20
71.768262
 30
0.0
 11
369.159995
 21
24.768262
 31
0.0
  0
LINE
  5
5BE
330
1F
100
AcDbEntity
  8
LC-001-100-D00-0
 62
     7
370
    50
100
AcDbLine
 10
369.159995
 20
21.768262
 30
0.0
 11
369.159995
 21
-25.231738
 31
0.0
  0
LINE
  5
5BF
330
1F
100
AcDbEntity
  8
LC-001-100-D00-0
 62
     7
370
    50
100
AcDbLine
 10
369.159995
 20
-28.231738
 30
0.0
 11
369.159995
 21
-51.731738
 31
0.0
  0
LINE
  5
5C0
330
1F
100
AcDbEntity
  8
LC-001-100-D00-0
 62
     7
370
    50
100
AcDbLine
 10
366.159995
 20
-51.731738
 30
0.0
 11
366.159995
 21
-28.231738
 31
0.0
  0
LINE
  5
5C1
330
1F
100
AcDbEntity
  8
LC-001-100-D00-0
 62
     7
370
    50
100
AcDbLine
 10
366.159995
 20
-25.231738
 30
0.0
 11
366.159995
 21
21.768262
 31
0.0
  0
LINE
  5
5C2
330
1F
100
AcDbEntity
  8
LC-001-100-D00-0
 62
     7
370
    50
100
AcDbLine
 10
366.159995
 20
24.768262
 30
0.0
 11
366.159995
 21
71.768262
 31
0.0
  0
LINE
  5
5C3
330
1F
100
AcDbEntity
  8
LC-001-100-D00-0
 62
     7
370
    50
100
AcDbLine
 10
366.159995
 20
74.768262
 30
0.0
 11
366.159995
 21
121.768262
 31
0.0
  0
LINE
  5
5C4
330
1F
100
AcDbEntity
  8
LC-001-100-D00-0
 62
     7
370
    50
100
AcDbLine
 10
366.159995
 20
124.768262
 30
0.0
 11
366.159995
 21
171.768262
 31
0.0
  0
LINE
  5
5C5
330
1F
100
AcDbEntity
  8
LC-001-100-D00-0
 62
     7
370
    50
100
AcDbLine
 10
319.159995
 20
171.768262
 30
0.0
 11
319.159995
 21
124.768262
 31
0.0
  0
LINE
  5
5C6
330
1F
100
AcDbEntity
  8
LC-001-100-D00-0
 62
     7
370
    50
100
AcDbLine
 10
319.159995
 20
121.768262
 30
0.0
 11
319.159995
 21
74.768262
 31
0.0
  0
LINE
  5
5C7
330
1F
100
AcDbEntity
  8
LC-001-100-D00-0
 62
     7
370
    50
100
AcDbLine
 10
319.159995
 20
71.768262
 30
0.0
 11
319.159995
 21
24.768262
 31
0.0
  0
LINE
  5
5C8
330
1F
100
AcDbEntity
  8
LC-001-100-D00-0
 62
     7
370
    50
100
AcDbLine
 10
319.159995
 20
21.768262
 30
0.0
 11
319.159995
 21
-25.231738
 31
0.0
  0
LINE
  5
5C9
330
1F
100
AcDbEntity
  8
LC-001-100-D00-0
 62
     7
370
    50
100
AcDbLine
 10
319.159995
 20
-28.231738
 30
0.0
 11
319.159995
 21
-51.731738
 31
0.0
  0
LINE
  5
5CA
330
1F
100
AcDbEntity
  8
LC-001-100-D00-0
 62
     7
370
    50
100
AcDbLine
 10
316.159995
 20
-51.731738
 30
0.0
 11
316.159995
 21
-28.231738
 31
0.0
  0
LINE
  5
5CB
330
1F
100
AcDbEntity
  8
LC-001-100-D00-0
 62
     7
370
    50
100
AcDbLine
 10
316.159995
 20
-25.231738
 30
0.0
 11
316.159995
 21
21.768262
 31
0.0
  0
LINE
  5
5CC
330
1F
100
AcDbEntity
  8
LC-001-100-D00-0
 62
     7
370
    50
100
AcDbLine
 10
316.159995
 20
24.768262
 30
0.0
 11
316.159995
 21
71.768262
 31
0.0
  0
LINE
  5
5CD
330
1F
100
AcDbEntity
  8
LC-001-100-D00-0
 62
     7
370
    50
100
AcDbLine
 10
316.159995
 20
74.768262
 30
0.0
 11
316.159995
 21
121.768262
 31
0.0
  0
LINE
  5
5CE
330
1F
100
AcDbEntity
  8
LC-001-100-D00-0
 62
     7
370
    50
100
AcDbLine
 10
316.159995
 20
124.768262
 30
0.0
 11
316.159995
 21
171.768262
 31
0.0
  0
LINE
  5
5CF
330
1F
100
AcDbEntity
  8
LC-001-100-D00-0
 62
     7
370
    50
100
AcDbLine
 10
269.159995
 20
171.768262
 30
0.0
 11
269.159995
 21
124.768262
 31
0.0
  0
LINE
  5
5D0
330
1F
100
AcDbEntity
  8
LC-001-100-D00-0
 62
     7
370
    50
100
AcDbLine
 10
269.159995
 20
121.768262
 30
0.0
 11
269.159995
 21
75.732363
 31
0.0
  0
LINE
  5
5D1
330
1F
100
AcDbEntity
  8
LC-001-100-D00-0
 62
     7
370
    50
100
AcDbLine
 10
266.159995
 20
75.732986
 30
0.0
 11
266.159995
 21
121.768262
 31
0.0
  0
LINE
  5
5D2
330
1F
100
AcDbEntity
  8
LC-001-100-D00-0
 62
     7
370
    50
100
AcDbLine
 10
266.159995
 20
124.768262
 30
0.0
 11
266.159995
 21
171.768262
 31
0.0
  0
LINE
  5
5D3
330
1F
100
AcDbEntity
  8
LC-001-100-D00-0
 62
     7
370
    50
100
AcDbLine
 10
69.159995
 20
171.768262
 30
0.0
 11
69.159995
 21
124.768262
 31
0.0
  0
LINE
  5
5D4
330
1F
100
AcDbEntity
  8
LC-001-100-D00-0
 62
     7
370
    50
100
AcDbLine
 10
69.159995
 20
121.768262
 30
0.0
 11
69.159995
 21
75.732986
 31
0.0
  0
LINE
  5
5D5
330
1F
100
AcDbEntity
  8
LC-001-100-D00-0
 62
     7
370
    50
100
AcDbLine
 10
66.159995
 20
75.732986
 30
0.0
 11
66.159995
 21
121.768262
 31
0.0
  0
LINE
  5
5D6
330
1F
100
AcDbEntity
  8
LC-001-100-D00-0
 62
     7
370
    50
100
AcDbLine
 10
66.159995
 20
124.768262
 30
0.0
 11
66.159995
 21
171.768262
 31
0.0
  0
LINE
  5
5D7
330
1F
100
AcDbEntity
  8
LC-001-100-D00-0
 62
     7
370
    50
100
AcDbLine
 10
169.159995
 20
171.768262
 30
0.0
 11
169.159995
 21
124.768262
 31
0.0
  0
LINE
  5
5D8
330
1F
100
AcDbEntity
  8
LC-001-100-D00-0
 62
     7
370
    50
100
AcDbLine
 10
169.159995
 20
121.768262
 30
0.0
 11
169.159995
 21
75.732986
 31
0.0
  0
LINE
  5
5D9
330
1F
100
AcDbEntity
  8
LC-001-100-D00-0
 62
     7
370
    50
100
AcDbLine
 10
166.159995
 20
75.732986
 30
0.0
 11
166.159995
 21
121.768262
 31
0.0
  0
LINE
  5
5DA
330
1F
100
AcDbEntity
  8
LC-001-100-D00-0
 62
     7
370
    50
100
AcDbLine
 10
166.159995
 20
124.768262
 30
0.0
 11
166.159995
 21
171.768262
 31
0.0
  0
ARC
  5
5DB
330
1F
100
AcDbEntity
  8
LC-001-100-D00-0
 62
     7
370
    50
100
AcDbCircle
 10
269.124719
 20
74.732986
 30
0.0
 40
0.9999999999999789
100
AcDbArc
 50
2.021596
 51
90.0
  0
ARC
  5
5DC
330
1F
100
AcDbEntity
  8
LC-001-100-D00-0
 62
     7
370
    50
100
AcDbCircle
 10
16.195271
 20
74.732986
 30
0.0
 40
1.0
100
AcDbArc
 50
90.0
 51
177.978404
  0
LINE
  5
5DD
330
1F
100
AcDbEntity
  8
LC-001-100-D00-0
 62
     7
370
    50
100
AcDbLine
 10
15.195271
 20
-51.731738
 30
0.0
 11
15.195271
 21
-28.231738
 31
0.0
  0
LINE
  5
5DE
330
1F
100
AcDbEntity
  8
LC-001-100-D00-0
 62
     7
370
    50
100
AcDbLine
 10
15.195271
 20
-25.231738
 30
0.0
 11
15.195271
 21
21.768262
 31
0.0
  0
LINE
  5
5DF
330
1F
100
AcDbEntity
  8
LC-001-100-D00-0
 62
     7
370
    50
100
AcDbLine
 10
15.195271
 20
24.768262
 30
0.0
 11
15.195271
 21
71.768262
 31
0.0
  0
LINE
  5
5E0
330
1F
100
AcDbEntity
  8
LC-001-100-D00-0
 62
     7
370
    50
100
AcDbLine
 10
16.195271
 20
75.732986
 30
0.0
 11
17.087038
 21
75.732986
 31
0.0
  0
LINE
  5
5E1
330
1F
100
AcDbEntity
  8
LC-001-100-D00-0
 62
     7
370
    50
100
AcDbLine
 10
18.232952
 20
75.732986
 30
0.0
 11
67.087038
 21
75.732986
 31
0.0
  0
LINE
  5
5E2
330
1F
100
AcDbEntity
  8
LC-001-100-D00-0
 62
     7
370
    50
100
AcDbLine
 10
68.232952
 20
75.732986
 30
0.0
 11
117.087038
 21
75.732986
 31
0.0
  0
LINE
  5
5E3
330
1F
100
AcDbEntity
  8
LC-001-100-D00-0
 62
     7
370
    50
100
AcDbLine
 10
118.232952
 20
75.732986
 30
0.0
 11
167.087038
 21
75.732986
 31
0.0
  0
LINE
  5
5E4
330
1F
100
AcDbEntity
  8
LC-001-100-D00-0
 62
     7
370
    50
100
AcDbLine
 10
168.232952
 20
75.732986
 30
0.0
 11
217.087038
 21
75.732986
 31
0.0
  0
LINE
  5
5E5
330
1F
100
AcDbEntity
  8
LC-001-100-D00-0
 62
     7
370
    50
100
AcDbLine
 10
218.232952
 20
75.732986
 30
0.0
 11
267.087038
 21
75.732986
 31
0.0
  0
LINE
  5
5E6
330
1F
100
AcDbEntity
  8
LC-001-100-D00-0
 62
     7
370
    50
100
AcDbLine
 10
268.232952
 20
75.732986
 30
0.0
 11
269.124719
 21
75.732986
 31
0.0
  0
LINE
  5
5E7
330
1F
100
AcDbEntity
  8
LC-001-100-D00-0
 62
     7
370
    50
100
AcDbLine
 10
270.124719
 20
71.768262
 30
0.0
 11
270.124719
 21
24.768262
 31
0.0
  0
LINE
  5
5E8
330
1F
100
AcDbEntity
  8
LC-001-100-D00-0
 62
     7
370
    50
100
AcDbLine
 10
270.124719
 20
21.768262
 30
0.0
 11
270.124719
 21
-25.231738
 31
0.0
  0
LINE
  5
5E9
330
1F
100
AcDbEntity
  8
LC-001-100-D00-0
 62
     7
370
    50
100
AcDbLine
 10
270.124719
 20
-28.231738
 30
0.0
 11
270.124719
 21
-51.731738
 31
0.0
  0
LINE
  5
5EA
330
1F
100
AcDbEntity
  8
LC-001-100-D00-0
 62
     7
370
    50
100
AcDbLine
 10
247.659995
 20
47.268262
 30
0.0
 11
247.659995
 21
49.268262
 31
0.0
  0
LINE
  5
5EB
330
1F
100
AcDbEntity
  8
LC-001-100-D00-0
 62
     7
370
    50
100
AcDbLine
 10
237.659995
 20
47.268262
 30
0.0
 11
247.659995
 21
47.268262
 31
0.0
  0
LINE
  5
5EC
330
1F
100
AcDbEntity
  8
LC-001-100-D00-0
 62
     7
370
    50
100
AcDbLine
 10
237.659995
 20
49.268262
 30
0.0
 11
237.659995
 21
47.268262
 31
0.0
  0
LINE
  5
5ED
330
1F
100
AcDbEntity
  8
LC-001-100-D00-0
 62
     7
370
    50
100
AcDbLine
 10
247.659995
 20
49.268262
 30
0.0
 11
237.659995
 21
49.268262
 31
0.0
  0
CIRCLE
  5
5EE
330
1F
100
AcDbEntity
  8
LC-001-100-D00-0
 62
     7
370
    50
100
AcDbCircle
 10
242.659995
 20
48.268262
 30
0.0
 40
14.0
  0
LINE
  5
5EF
330
1F
100
AcDbEntity
  8
LC-001-100-D00-0
 62
     7
370
    50
100
AcDbLine
 10
47.659995
 20
49.268262
 30
0.0
 11
37.659995
 21
49.268262
 31
0.0
  0
LINE
  5
5F0
330
1F
100
AcDbEntity
  8
LC-001-100-D00-0
 62
     7
370
    50
100
AcDbLine
 10
37.659995
 20
49.268262
 30
0.0
 11
37.659995
 21
47.268262
 31
0.0
  0
LINE
  5
5F1
330
1F
100
AcDbEntity
  8
LC-001-100-D00-0
 62
     7
370
    50
100
AcDbLine
 10
47.659995
 20
47.268262
 30
0.0
 11
47.659995
 21
49.268262
 31
0.0
  0
CIRCLE
  5
5F2
330
1F
100
AcDbEntity
  8
LC-001-100-D00-0
 62
     7
370
    50
100
AcDbCircle
 10
42.659995
 20
48.268262
 30
0.0
 40
14.0
  0
LINE
  5
5F3
330
1F
100
AcDbEntity
  8
LC-001-100-D00-0
 62
     7
370
    50
100
AcDbLine
 10
37.659995
 20
47.268262
 30
0.0
 11
47.659995
 21
47.268262
 31
0.0
  0
INSERT
  5
601
330
1F
100
AcDbEntity
  8
LC-001-100-D00-0
 62
     7
370
    50
100
AcDbBlockReference
  2
POLY14
 10
0.0
 20
0.0
 30
0.0
  0
LINE
  5
602
330
1F
100
AcDbEntity
  8
LC-001-100-D00-0
 62
     7
370
    50
100
AcDbLine
 10
148.713093
 20
-6.131738
 30
0.0
 11
149.423869
 21
-6.231738
 31
0.0
  0
INSERT
  5
608
330
1F
100
AcDbEntity
  8
LC-001-100-D00-0
 62
     7
370
    50
100
AcDbBlockReference
  2
KLON16
 10
0.0
 20
0.0
 30
0.0
  0
INSERT
  5
60E
330
1F
100
AcDbEntity
  8
LC-001-100-D00-0
 62
     7
370
    50
100
AcDbBlockReference
  2
KLON17
 10
0.0
 20
0.0
 30
0.0
  0
LINE
  5
60F
330
1F
100
AcDbEntity
  8
LC-001-100-D00-0
 62
     7
370
    50
100
AcDbLine
 10
188.159995
 20
-44.967863
 30
0.0
 11
188.259995
 21
-45.67864
 31
0.0
  0
LINE
  5
610
330
1F
100
AcDbEntity
  8
LC-001-100-D00-0
 62
     7
370
    50
100
AcDbLine
 10
97.059995
 20
-45.67864
 30
0.0
 11
97.159995
 21
-44.967863
 31
0.0
  0
INSERT
  5
616
330
1F
100
AcDbEntity
  8
LC-001-100-D00-0
 62
     7
370
    50
100
AcDbBlockReference
  2
KLON18
 10
0.0
 20
0.0
 30
0.0
  0
INSERT
  5
61C
330
1F
100
AcDbEntity
  8
LC-001-100-D00-0
 62
     7
370
    50
100
AcDbBlockReference
  2
KLON19
 10
0.0
 20
0.0
 30
0.0
  0
LINE
  5
61D
330
1F
100
AcDbEntity
  8
LC-001-100-D00-0
 62
     7
370
    50
100
AcDbLine
 10
135.89612
 20
-6.231738
 30
0.0
 11
136.606896
 21
-6.131738
 31
0.0
  0
ARC
  5
61E
330
1F
100
AcDbEntity
  8
LC-001-100-D00-0
 62
     7
370
    50
100
AcDbCircle
 10
98.159995
 20
-7.231738
 30
0.0
 40
5.5
100
AcDbArc
 50
90.0
 51
180.0
  0
LINE
  5
61F
330
1F
100
AcDbEntity
  8
LC-001-100-D00-0
 62
     7
370
    50
100
AcDbLine
 10
187.159995
 20
-1.731738
 30
0.0
 11
98.159995
 21
-1.731738
 31
0.0
  0
LINE
  5
620
330
1F
100
AcDbEntity
  8
LC-001-100-D00-0
 62
     7
370
    50
100
AcDbLine
 10
192.659995
 20
-51.731738
 30
0.0
 11
192.659995
 21
-7.231738
 31
0.0
  0
ARC
  5
621
330
1F
100
AcDbEntity
  8
LC-001-100-D00-0
 62
     7
370
    50
100
AcDbCircle
 10
187.159995
 20
-7.231738
 30
0.0
 40
5.500000000000057
100
AcDbArc
 50
0.0
 51
90.0
  0
LINE
  5
622
330
1F
100
AcDbEntity
  8
LC-001-100-D00-0
 62
     7
370
    50
100
AcDbLine
 10
96.559995
 20
-51.731738
 30
0.0
 11
96.559995
 21
-8.431738
 31
0.0
  0
ARC
  5
623
330
1F
100
AcDbEntity
  8
LC-001-100-D00-0
 62
     7
370
    50
100
AcDbCircle
 10
99.359995
 20
-8.431738
 30
0.0
 40
2.800000000000068
100
AcDbArc
 50
90.0
 51
180.0
  0
LINE
  5
624
330
1F
100
AcDbEntity
  8
LC-001-100-D00-0
 62
     7
370
    50
100
AcDbLine
 10
99.359995
 20
-5.631738
 30
0.0
 11
185.959995
 21
-5.631738
 31
0.0
  0
LINE
  5
625
330
1F
100
AcDbEntity
  8
LC-001-100-D00-0
 62
     7
370
    50
100
AcDbLine
 10
188.759995
 20
-8.431738
 30
0.0
 11
188.759995
 21
-51.731738
 31
0.0
  0
ARC
  5
626
330
1F
100
AcDbEntity
  8
LC-001-100-D00-0
 62
     7
370
    50
100
AcDbCircle
 10
185.959995
 20
-8.431738
 30
0.0
 40
2.800000000000011
100
AcDbArc
 50
0.0
 51
90.0
  0
LINE
  5
627
330
1F
100
AcDbEntity
  8
LC-001-100-D00-0
 62
     7
370
    50
100
AcDbLine
 10
92.659995
 20
-7.231738
 30
0.0
 11
92.659995
 21
-51.731738
 31
0.0
  0
ARC
  5
628
330
1F
100
AcDbEntity
  8
LC-001-100-D00-0
 62
     7
370
    50
100
AcDbCircle
 10
142.659995
 20
-51.731738
 30
0.0
 40
46.10000000000004
100
AcDbArc
 50
170.745884
 51
180.0
  0
ARC
  5
629
330
1F
100
AcDbEntity
  8
LC-001-100-D00-0
 62
     7
370
    50
100
AcDbCircle
 10
142.659995
 20
-51.731738
 30
0.0
 40
46.10000000000002
100
AcDbArc
 50
0.0
 51
9.254116
  0
ARC
  5
62A
330
1F
100
AcDbEntity
  8
LC-001-100-D00-0
 62
     7
370
    50
100
AcDbCircle
 10
142.659995
 20
-51.731738
 30
0.0
 40
46.10000000000003
100
AcDbArc
 50
80.745884
 51
90.0
  0
ARC
  5
62B
330
1F
100
AcDbEntity
  8
LC-001-100-D00-0
 62
     7
370
    50
100
AcDbCircle
 10
142.659995
 20
-51.731738
 30
0.0
 40
46.10000000000002
100
AcDbArc
 50
90.0
 51
99.254116
  0
LINE
  5
62C
330
1F
100
AcDbEntity
  8
LC-001-100-D00-0
 62
     7
370
    50
100
AcDbLine
 10
193.159995
 20
-7.231738
 30
0.0
 11
193.159995
 21
-51.731738
 31
0.0
  0
ARC
  5
62D
330
1F
100
AcDbEntity
  8
LC-001-100-D00-0
 62
     7
370
    50
100
AcDbCircle
 10
187.159995
 20
-7.231738
 30
0.0
 40
6.000000000000057
100
AcDbArc
 50
0.0
 51
90.0
  0
LINE
  5
62E
330
1F
100
AcDbEntity
  8
LC-001-100-D00-0
 62
     7
370
    50
100
AcDbLine
 10
98.159995
 20
-1.231738
 30
0.0
 11
187.159995
 21
-1.231738
 31
0.0
  0
ARC
  5
62F
330
1F
100
AcDbEntity
  8
LC-001-100-D00-0
 62
     7
370
    50
100
AcDbCircle
 10
98.159995
 20
-7.231738
 30
0.0
 40
6.0
100
AcDbArc
 50
90.0
 51
180.0
  0
ARC
  5
630
330
1F
100
AcDbEntity
  8
LC-001-100-D00-0
 62
     7
370
    50
100
AcDbCircle
 10
142.659995
 20
-51.731738
 30
0.0
 40
46.09999999999998
100
AcDbArc
 50
141.025542
 51
147.777838
  0
ARC
  5
631
330
1F
100
AcDbEntity
  8
LC-001-100-D00-0
 62
     7
370
    50
100
AcDbCircle
 10
142.659995
 20
-51.731738
 30
0.0
 40
46.10000000000004
100
AcDbArc
 50
122.222162
 51
128.974458
  0
ARC
  5
632
330
1F
100
AcDbEntity
  8
LC-001-100-D00-0
 62
     7
370
    50
100
AcDbCircle
 10
142.659995
 20
-51.731738
 30
0.0
 40
46.10000000000003
100
AcDbArc
 50
51.025542
 51
57.777838
  0
ARC
  5
633
330
1F
100
AcDbEntity
  8
LC-001-100-D00-0
 62
     7
370
    50
100
AcDbCircle
 10
142.659995
 20
-51.731738
 30
0.0
 40
46.10000000000004
100
AcDbArc
 50
32.222162
 51
38.974458
  0
LINE
  5
634
330
1F
100
AcDbEntity
  8
LC-001-100-D00-0
 62
     7
370
    50
100
AcDbLine
 10
312.633497
 20
-51.731738
 30
0.0
 11
312.633497
 21
-28.231738
 31
0.0
  0
LINE
  5
635
330
1F
100
AcDbEntity
  8
LC-001-100-D00-0
 62
     7
370
    50
100
AcDbLine
 10
312.633497
 20
-25.231738
 30
0.0
 11
312.633497
 21
-24.916516
 31
0.0
  0
LINE
  5
636
330
1F
100
AcDbEntity
  8
LC-001-100-D00-0
 62
     7
370
    50
100
AcDbLine
 10
357.859995
 20
-24.916516
 30
0.0
 11
357.859995
 21
-25.231738
 31
0.0
  0
LINE
  5
637
330
1F
100
AcDbEntity
  8
LC-001-100-D00-0
 62
     7
370
    50
100
AcDbLine
 10
357.859995
 20
-28.231738
 30
0.0
 11
357.859995
 21
-51.731738
 31
0.0
  0
LINE
  5
638
330
1F
100
AcDbEntity
  8
LC-001-100-D00-0
 62
     7
370
    50
100
AcDbLine
 10
360.859995
 20
-51.731738
 30
0.0
 11
360.859995
 21
-28.231738
 31
0.0
  0
ARC
  5
639
330
1F
100
AcDbEntity
  8
LC-001-100-D00-0
 62
     7
370
    50
100
AcDbCircle
 10
142.659995
 20
-51.731738
 30
0.0
 40
38.00006076000005
100
AcDbArc
 50
90.0
 51
119.72449
  0
ARC
  5
63A
330
1F
100
AcDbEntity
  8
LC-001-100-D00-0
 62
     7
370
    50
100
AcDbCircle
 10
142.659995
 20
-51.731738
 30
0.0
 40
38.00006075999992
100
AcDbArc
 50
150.27551
 51
180.0
  0
ARC
  5
63B
330
1F
100
AcDbEntity
  8
LC-001-100-D00-0
 62
     7
370
    50
100
AcDbCircle
 10
142.659995
 20
-51.731738
 30
0.0
 40
38.00006076000005
100
AcDbArc
 50
0.0
 51
29.72449
  0
ARC
  5
63C
330
1F
100
AcDbEntity
  8
LC-001-100-D00-0
 62
     7
370
    50
100
AcDbCircle
 10
142.659995
 20
-51.731738
 30
0.0
 40
38.00006076000004
100
AcDbArc
 50
60.27551
 51
90.0
  0
ARC
  5
63D
330
1F
100
AcDbEntity
  8
LC-001-100-D00-0
 62
     7
370
    50
100
AcDbCircle
 10
146.159995
 20
-39.731738
 30
0.0
 40
3.000000000000227
100
AcDbArc
 50
270.0
 51
90.0
  0
LINE
  5
63E
330
1F
100
AcDbEntity
  8
LC-001-100-D00-0
 62
     7
370
    50
100
AcDbLine
 10
146.159995
 20
-42.731738
 30
0.0
 11
139.159995
 21
-42.731738
 31
0.0
  0
LINE
  5
63F
330
1F
100
AcDbEntity
  8
LC-001-100-D00-0
 62
     7
370
    50
100
AcDbLine
 10
103.659995
 20
-51.731738
 30
0.0
 11
103.659995
 21
-25.731738
 31
0.0
  0
ARC
  5
640
330
1F
100
AcDbEntity
  8
LC-001-100-D00-0
 62
     7
370
    50
100
AcDbCircle
 10
178.659995
 20
-25.731738
 30
0.0
 40
3.000000000000114
100
AcDbArc
 50
0.0
 51
180.0
  0
LINE
  5
641
330
1F
100
AcDbEntity
  8
LC-001-100-D00-0
 62
     7
370
    50
100
AcDbLine
 10
181.659995
 20
-25.731738
 30
0.0
 11
181.659995
 21
-51.731738
 31
0.0
  0
LINE
  5
642
330
1F
100
AcDbEntity
  8
LC-001-100-D00-0
 62
     7
370
    50
100
AcDbLine
 10
185.659995
 20
-6.231738
 30
0.0
 11
99.659995
 21
-6.231738
 31
0.0
  0
LINE
  5
643
330
1F
100
AcDbEntity
  8
LC-001-100-D00-0
 62
     7
370
    50
100
AcDbLine
 10
97.159995
 20
-8.731738
 30
0.0
 11
97.159995
 21
-51.731738
 31
0.0
  0
LINE
  5
644
330
1F
100
AcDbEntity
  8
LC-001-100-D00-0
 62
     7
370
    50
100
AcDbLine
 10
115.659995
 20
-51.731738
 30
0.0
 11
115.659995
 21
-36.731738
 31
0.0
  0
ARC
  5
645
330
1F
100
AcDbEntity
  8
LC-001-100-D00-0
 62
     7
370
    50
100
AcDbCircle
 10
116.659995
 20
-15.731738
 30
0.0
 40
3.000000000000057
100
AcDbArc
 50
90.0
 51
270.0
  0
LINE
  5
646
330
1F
100
AcDbEntity
  8
LC-001-100-D00-0
 62
     7
370
    50
100
AcDbLine
 10
168.659995
 20
-18.731738
 30
0.0
 11
116.659995
 21
-18.731738
 31
0.0
  0
LINE
  5
647
330
1F
100
AcDbEntity
  8
LC-001-100-D00-0
 62
     7
370
    50
100
AcDbLine
 10
157.659995
 20
-30.731738
 30
0.0
 11
127.659995
 21
-30.731738
 31
0.0
  0
ARC
  5
648
330
1F
100
AcDbEntity
  8
LC-001-100-D00-0
 62
     7
370
    50
100
AcDbCircle
 10
139.159995
 20
-39.731738
 30
0.0
 40
3.000000000000057
100
AcDbArc
 50
90.0
 51
270.0
  0
ARC
  5
649
330
1F
100
AcDbEntity
  8
LC-001-100-D00-0
 62
     7
370
    50
100
AcDbCircle
 10
157.659995
 20
-27.731738
 30
0.0
 40
3.000000000000171
100
AcDbArc
 50
270.0
 51
90.0
  0
LINE
  5
64A
330
1F
100
AcDbEntity
  8
LC-001-100-D00-0
 62
     7
370
    50
100
AcDbLine
 10
139.159995
 20
-36.731738
 30
0.0
 11
146.159995
 21
-36.731738
 31
0.0
  0
LINE
  5
64B
330
1F
100
AcDbEntity
  8
LC-001-100-D00-0
 62
     7
370
    50
100
AcDbLine
 10
121.659995
 20
-36.731738
 30
0.0
 11
121.659995
 21
-51.731738
 31
0.0
  0
ARC
  5
64C
330
1F
100
AcDbEntity
  8
LC-001-100-D00-0
 62
     7
370
    50
100
AcDbCircle
 10
106.659995
 20
-25.731738
 30
0.0
 40
3.0
100
AcDbArc
 50
0.0
 51
180.0
  0
LINE
  5
64D
330
1F
100
AcDbEntity
  8
LC-001-100-D00-0
 62
     7
370
    50
100
AcDbLine
 10
109.659995
 20
-25.731738
 30
0.0
 11
109.659995
 21
-51.731738
 31
0.0
  0
LINE
  5
64E
330
1F
100
AcDbEntity
  8
LC-001-100-D00-0
 62
     7
370
    50
100
AcDbLine
 10
175.659995
 20
-51.731738
 30
0.0
 11
175.659995
 21
-25.731738
 31
0.0
  0
LINE
  5
64F
330
1F
100
AcDbEntity
  8
LC-001-100-D00-0
 62
     7
370
    50
100
AcDbLine
 10
116.659995
 20
-12.731738
 30
0.0
 11
168.659995
 21
-12.731738
 31
0.0
  0
ARC
  5
650
330
1F
100
AcDbEntity
  8
LC-001-100-D00-0
 62
     7
370
    50
100
AcDbCircle
 10
168.659995
 20
-15.731738
 30
0.0
 40
3.000000000000057
100
AcDbArc
 50
270.0
 51
90.0
  0
LINE
  5
651
330
1F
100
AcDbEntity
  8
LC-001-100-D00-0
 62
     7
370
    50
100
AcDbLine
 10
188.159995
 20
-51.731738
 30
0.0
 11
188.159995
 21
-8.731738
 31
0.0
  0
LINE
  5
652
330
1F
100
AcDbEntity
  8
LC-001-100-D00-0
 62
     7
370
    50
100
AcDbLine
 10
163.659995
 20
-51.731738
 30
0.0
 11
163.659995
 21
-36.731738
 31
0.0
  0
ARC
  5
653
330
1F
100
AcDbEntity
  8
LC-001-100-D00-0
 62
     7
370
    50
100
AcDbCircle
 10
166.659995
 20
-36.731738
 30
0.0
 40
3.0
100
AcDbArc
 50
0.0
 51
180.0
  0
LINE
  5
654
330
1F
100
AcDbEntity
  8
LC-001-100-D00-0
 62
     7
370
    50
100
AcDbLine
 10
169.659995
 20
-36.731738
 30
0.0
 11
169.659995
 21
-51.731738
 31
0.0
  0
ARC
  5
655
330
1F
100
AcDbEntity
  8
LC-001-100-D00-0
 62
     7
370
    50
100
AcDbCircle
 10
127.659995
 20
-27.731738
 30
0.0
 40
3.000000000000114
100
AcDbArc
 50
90.0
 51
270.0
  0
ARC
  5
656
330
1F
100
AcDbEntity
  8
LC-001-100-D00-0
 62
     7
370
    50
100
AcDbCircle
 10
99.659995
 20
-8.731738
 30
0.0
 40
2.500000000000057
100
AcDbArc
 50
90.0
 51
180.0
  0
ARC
  5
657
330
1F
100
AcDbEntity
  8
LC-001-100-D00-0
 62
     7
370
    50
100
AcDbCircle
 10
185.659995
 20
-8.731738
 30
0.0
 40
2.500000000000227
100
AcDbArc
 50
0.0
 51
90.0
  0
ARC
  5
658
330
1F
100
AcDbEntity
  8
LC-001-100-D00-0
 62
     7
370
    50
100
AcDbCircle
 10
118.659995
 20
-36.731738
 30
0.0
 40
3.0
100
AcDbArc
 50
0.0
 51
180.0
  0
LINE
  5
659
330
1F
100
AcDbEntity
  8
LC-001-100-D00-0
 62
     7
370
    50
100
AcDbLine
 10
127.659995
 20
-24.731738
 30
0.0
 11
157.659995
 21
-24.731738
 31
0.0
  0
LINE
  5
65A
330
1F
100
AcDbEntity
  8
LC-001-100-D00-0
 62
     7
370
    50
100
AcDbLine
 10
143.659995
 20
11.760387
 30
0.0
 11
143.659995
 21
-1.231738
 31
0.0
  0
LINE
  5
65B
330
1F
100
AcDbEntity
  8
LC-001-100-D00-0
 62
     7
370
    50
100
AcDbLine
 10
143.659995
 20
-5.981738
 30
0.0
 11
143.659995
 21
-6.231738
 31
0.0
  0
LINE
  5
65C
330
1F
100
AcDbEntity
  8
LC-001-100-D00-0
 62
     7
370
    50
100
AcDbLine
 10
141.659995
 20
-6.231738
 30
0.0
 11
141.659995
 21
-5.981738
 31
0.0
  0
LINE
  5
65D
330
1F
100
AcDbEntity
  8
LC-001-100-D00-0
 62
     7
370
    50
100
AcDbLine
 10
141.659995
 20
-1.231738
 30
0.0
 11
141.659995
 21
11.760387
 31
0.0
  0
LINE
  5
65E
330
1F
100
AcDbEntity
  8
LC-001-100-D00-0
 62
     7
370
    50
100
AcDbLine
 10
79.167869
 20
-50.731738
 30
0.0
 11
92.159995
 21
-50.731738
 31
0.0
  0
LINE
  5
65F
330
1F
100
AcDbEntity
  8
LC-001-100-D00-0
 62
     7
370
    50
100
AcDbLine
 10
96.909995
 20
-50.731738
 30
0.0
 11
97.159995
 21
-50.731738
 31
0.0
  0
LINE
  5
660
330
1F
100
AcDbEntity
  8
LC-001-100-D00-0
 62
     7
370
    50
100
AcDbLine
 10
188.159995
 20
-50.731738
 30
0.0
 11
188.409995
 21
-50.731738
 31
0.0
  0
LINE
  5
661
330
1F
100
AcDbEntity
  8
LC-001-100-D00-0
 62
     7
370
    50
100
AcDbLine
 10
193.159995
 20
-50.731738
 30
0.0
 11
206.15212
 21
-50.731738
 31
0.0
  0
ARC
  5
662
330
1F
100
AcDbEntity
  8
LC-001-100-D00-0
 62
     7
370
    50
100
AcDbCircle
 10
142.659995
 20
-51.731738
 30
0.0
 40
42.50000000000006
100
AcDbArc
 50
23.415514
 51
38.892145
  0
ARC
  5
663
330
1F
100
AcDbEntity
  8
LC-001-100-D00-0
 62
     7
370
    50
100
AcDbCircle
 10
142.659995
 20
-51.731738
 30
0.0
 40
42.50000000000004
100
AcDbArc
 50
51.107855
 51
66.584486
  0
ARC
  5
664
330
1F
100
AcDbEntity
  8
LC-001-100-D00-0
 62
     7
370
    50
100
AcDbCircle
 10
142.659995
 20
-51.731738
 30
0.0
 40
42.50000000000006
100
AcDbArc
 50
113.415514
 51
128.892145
  0
ARC
  5
665
330
1F
100
AcDbEntity
  8
LC-001-100-D00-0
 62
     7
370
    50
100
AcDbCircle
 10
142.659995
 20
-51.731738
 30
0.0
 40
42.50000000000004
100
AcDbArc
 50
141.107855
 51
156.584486
  0
LINE
  5
666
330
1F
100
AcDbEntity
  8
LC-001-100-D00-0
 62
     7
370
    50
100
AcDbLine
 10
-83.840005
 20
-25.231738
 30
0.0
 11
-83.840005
 21
-28.231738
 31
0.0
  0
LINE
  5
667
330
1F
100
AcDbEntity
  8
LC-001-100-D00-0
 62
     7
370
    50
100
AcDbLine
 10
-83.840005
 20
74.768262
 30
0.0
 11
-83.840005
 21
71.768262
 31
0.0
  0
LINE
  5
668
330
1F
100
AcDbEntity
  8
LC-001-100-D00-0
 62
     7
370
    50
100
AcDbLine
 10
369.159995
 20
74.768262
 30
0.0
 11
369.159995
 21
71.768262
 31
0.0
  0
LINE
  5
669
330
1F
100
AcDbEntity
  8
LC-001-100-D00-0
 62
     7
370
    50
100
AcDbLine
 10
369.159995
 20
124.768262
 30
0.0
 11
369.159995
 21
121.768262
 31
0.0
  0
LINE
  5
66A
330
1F
100
AcDbEntity
  8
LC-001-100-D00-0
 62
     7
370
    50
100
AcDbLine
 10
-83.840005
 20
124.768262
 30
0.0
 11
-83.840005
 21
121.768262
 31
0.0
  0
LINE
  5
66B
330
1F
100
AcDbEntity
  8
LC-001-100-D00-0
 62
     7
370
    50
100
AcDbLine
 10
369.159995
 20
-25.231738
 30
0.0
 11
369.159995
 21
-28.231738
 31
0.0
  0
LINE
  5
66C
330
1F
100
AcDbEntity
  8
LC-001-100-D00-0
 62
     7
370
    50
100
AcDbLine
 10
369.159995
 20
24.768262
 30
0.0
 11
369.159995
 21
21.768262
 31
0.0
  0
LINE
  5
66D
330
1F
100
AcDbEntity
  8
LC-001-100-D00-0
 62
     7
370
    50
100
AcDbLine
 10
369.159995
 20
174.768262
 30
0.0
 11
369.159995
 21
171.768262
 31
0.0
  0
LINE
  5
66E
330
1F
100
AcDbEntity
  8
LC-001-100-D00-0
 62
     7
370
    50
100
AcDbLine
 10
-83.840005
 20
174.768262
 30
0.0
 11
-83.840005
 21
171.768262
 31
0.0
  0
LINE
  5
66F
330
1F
100
AcDbEntity
  8
LC-001-100-D00-0
 62
     7
370
    50
100
AcDbLine
 10
-83.840005
 20
24.768262
 30
0.0
 11
-83.840005
 21
21.768262
 31
0.0
  0
CIRCLE
  5
670
330
1F
100
AcDbEntity
  8
LC-001-100-D00-0
 62
     7
370
    50
100
AcDbCircle
 10
242.659995
 20
48.268262
 30
0.0
 40
15.00000000000011
  0
CIRCLE
  5
671
330
1F
100
AcDbEntity
  8
LC-001-100-D00-0
 62
     7
370
    50
100
AcDbCircle
 10
42.659995
 20
48.268262
 30
0.0
 40
15.00000000000006
  0
ARC
  5
672
330
1F
100
AcDbEntity
  8
LC-001-100-D00-0
 62
     7
370
    50
100
AcDbCircle
 10
142.659995
 20
-51.731738
 30
0.0
 40
63.49999999999989
100
AcDbArc
 50
142.681294
 51
180.0
  0
ARC
  5
673
330
1F
100
AcDbEntity
  8
LC-001-100-D00-0
 62
     7
370
    50
100
AcDbCircle
 10
142.659995
 20
-51.731738
 30
0.0
 40
63.49999999999995
100
AcDbArc
 50
52.681294
 51
127.318706
  0
ARC
  5
674
330
1F
100
AcDbEntity
  8
LC-001-100-D00-0
 62
     7
370
    50
100
AcDbCircle
 10
142.659995
 20
-51.731738
 30
0.0
 40
63.50000000000006
100
AcDbArc
 50
0.0
 51
37.318706
  0
LINE
  5
675
330
1F
100
AcDbEntity
  8
LC-001-100-D00-0
  6
DASHDOT
 62
     7
370
    25
100
AcDbLine
 10
398.581844
 20
-51.731738
 30
0.0
 11
-105.522982
 21
-51.731738
 31
0.0
  0
LINE
  5
676
330
1F
100
AcDbEntity
  8
LC-001-100-D00-0
  6
DASHDOT
 62
     7
370
    25
100
AcDbLine
 10
142.659995
 20
-51.731738
 30
0.0
 11
142.659995
 21
174.768262
 31
0.0
  0
LINE
  5
677
330
1F
100
AcDbEntity
  8
LC-001-100-D00-0
 62
     7
370
    50
100
AcDbLine
 10
92.159995
 20
-51.731738
 30
0.0
 11
92.159995
 21
-7.231738
 31
0.0
  0
DIMENSION
  5
678
330
1F
100
AcDbEntity
  8
LC-003-003-----0
 62
     7
370
    25
100
AcDbDimension
  2
*D43
 10
416.599521
 20
340.344261
 30
0.0
 11
385.799521
 21
375.390262
 31
0.0
 70
   160
  1
6,5-35
 71
     5
 42
35.500005
 53
90.0
  3
LC-DIM-L-0140-02-02
100
AcDbAlignedDimension
 13
190.959998
 23
375.844266
 33
0.0
 14
265.373424
 24
340.344261
 34
0.0
 50
90.0
100
AcDbRotatedDimension
  0
ENDSEC
  0
SECTION
  2
OBJECTS
  0
DICTIONARY
  5
C
330
0
100
AcDbDictionary
281
     1
  3
ACAD_GROUP
350
D
  3
ACAD_LAYOUT
350
1A
  3
ACAD_MLINESTYLE
350
17
  3
ACAD_PLOTSETTINGS
350
19
  3
ACAD_PLOTSTYLENAME
350
E
  0
DICTIONARY
  5
D
102
{ACAD_REACTORS
330
C
102
}
330
C
100
AcDbDictionary
281
     1
  0
DICTIONARY
  5
1A
102
{ACAD_REACTORS
330
C
102
}
330
C
100
AcDbDictionary
281
     1
  3
Layout1
350
1E
  3
Layout2
350
26
  3
Model
350
22
  0
DICTIONARY
  5
17
102
{ACAD_REACTORS
330
C
102
}
330
C
100
AcDbDictionary
281
     1
  3
Standard
350
18
  0
DICTIONARY
  5
19
102
{ACAD_REACTORS
330
C
102
}
330
C
100
AcDbDictionary
281
     1
  0
ACDBDICTIONARYWDFLT
  5
E
102
{ACAD_REACTORS
330
C
102
}
330
C
100
AcDbDictionary
281
     1
  3
Normal
350
F
100
AcDbDictionaryWithDefault
340
F
  0
LAYOUT
  5
1E
102
{ACAD_REACTORS
330
1A
102
}
330
1A
100
AcDbPlotSettings
  1

  2

  4

  6

 40
0.0
 41
0.0
 42
0.0
 43
0.0
 44
0.0
 45
0.0
 46
0.0
 47
0.0
 48
0.0
 49
0.0
140
0.0
141
0.0
142
1.0
143
1.0
 70
   688
 72
     0
 73
     0
 74
     5
  7

 75
    16
147
1.0
148
0.0
149
0.0
100
AcDbLayout
  1
Layout1
 70
     1
 71
     1
 10
-187.563374
 20
-58.295738
 11
652.436626
 21
535.704262
 12
0.0
 22
0.0
 32
0.0
 14
-187.563374
 24
-58.295738
 34
0.0
 15
652.436626
 25
535.704262
 35
0.0
146
0.0
 13
0.0
 23
0.0
 33
0.0
 16
1.0
 26
0.0
 36
0.0
 17
0.0
 27
1.0
 37
0.0
 76
     0
330
1B
  0
LAYOUT
  5
26
102
{ACAD_REACTORS
330
1A
102
}
330
1A
100
AcDbPlotSettings
  1

  2

  4

  6

 40
0.0
 41
0.0
 42
0.0
 43
0.0
 44
0.0
 45
0.0
 46
0.0
 47
0.0
 48
0.0
 49
0.0
140
0.0
141
0.0
142
1.0
143
1.0
 70
   688
 72
     0
 73
     0
 74
     5
  7

 75
    16
147
1.0
148
0.0
149
0.0
100
AcDbLayout
  1
Layout2
 70
     1
 71
     2
 10
0.0
 20
0.0
 11
0.0
 21
0.0
 12
0.0
 22
0.0
 32
0.0
 14
0.0
 24
0.0
 34
0.0
 15
0.0
 25
0.0
 35
0.0
146
0.0
 13
0.0
 23
0.0
 33
0.0
 16
1.0
 26
0.0
 36
0.0
 17
0.0
 27
1.0
 37
0.0
 76
     0
330
23
  0
LAYOUT
  5
22
102
{ACAD_REACTORS
330
1A
102
}
330
1A
100
AcDbPlotSettings
  1

  2

  4

  6

 40
0.0
 41
0.0
 42
0.0
 43
0.0
 44
0.0
 45
0.0
 46
0.0
 47
0.0
 48
0.0
 49
0.0
140
0.0
141
0.0
142
1.0
143
1.0
 70
  1776
 72
     0
 73
     0
 74
     0
  7

 75
     0
147
1.0
148
0.0
149
0.0
100
AcDbLayout
  1
Model
 70
     1
 71
     0
 10
-187.563374
 20
-58.295738
 11
652.436626
 21
535.704262
 12
0.0
 22
0.0
 32
0.0
 14
-187.563374
 24
-58.295738
 34
0.0
 15
652.436626
 25
535.704262
 35
0.0
146
0.0
 13
0.0
 23
0.0
 33
0.0
 16
1.0
 26
0.0
 36
0.0
 17
0.0
 27
1.0
 37
0.0
 76
     0
330
1F
  0
MLINESTYLE
  5
18
102
{ACAD_REACTORS
330
17
102
}
330
17
100
AcDbMlineStyle
  2
Standard
 70
     0
  3

 62
   256
 51
90.0
 52
90.0
 71
     2
 49
0.5
 62
   256
  6
BYLAYER
 49
-0.5
 62
   256
  6
BYLAYER
  0
ACDBPLACEHOLDER
  5
F
102
{ACAD_REACTORS
330
E
102
}
330
E
  0
ENDSEC
  0
EOF
