  0
SECTION
  2
HEADER
  9
$ACADVER
  1
AC1009
  9
$INSBASE
 10
0.0
 20
0.0
 30
0.0
  9
$EXTMIN
 10
-143.364436
 20
-178.758
 30
0.0
  9
$EXTMAX
 10
696.635564
 20
415.242
 30
0.0
  9
$LIMMIN
 10
-143.364436
 20
-178.758
  9
$LIMMAX
 10
696.635564
 20
415.242
  9
$ORTHOMODE
 70
     0
  9
$REGENMODE
 70
     1
  9
$FILLMODE
 70
     1
  9
$QTEXTMODE
 70
     0
  9
$MIRRTEXT
 70
     1
  9
$DRAGMODE
 70
     2
  9
$LTSCALE
 40
2.0
  9
$OSMODE
 70
     0
  9
$ATTMODE
 70
     1
  9
$TEXTSIZE
 40
0.2
  9
$TRACEWID
 40
0.05
  9
$TEXTSTYLE
  7
STANDARD
  9
$CLAYER
  8
0
  9
$CELTYPE
  6
BYLAYER
  9
$CECOLOR
 62
     7
  9
$DIMSCALE
 40
2.0
  9
$DIMASZ
 40
3.5
  9
$DIMEXO
 40
0.0625
  9
$DIMDLI
 40
0.38
  9
$DIMRND
 40
0.0
  9
$DIMDLE
 40
0.0
  9
$DIMEXE
 40
0.18
  9
$DIMTP
 40
0.0
  9
$DIMTM
 40
0.0
  9
$DIMTXT
 40
3.5
  9
$DIMCEN
 40
0.09
  9
$DIMTSZ
 40
0.0
  9
$DIMTOL
 70
     0
  9
$DIMLIM
 70
     0
  9
$DIMTIH
 70
     1
  9
$DIMTOH
 70
     1
  9
$DIMSE1
 70
     0
  9
$DIMSE2
 70
     0
  9
$DIMTAD
 70
     1
  9
$DIMZIN
 70
     0
  9
$DIMBLK
  1

  9
$DIMASO
 70
     1
  9
$DIMSHO
 70
     1
  9
$DIMPOST
  1

  9
$DIMAPOST
  1

  9
$DIMALT
 70
     0
  9
$DIMALTD
 70
     2
  9
$DIMALTF
 40
25.4
  9
$DIMLFAC
 40
1.0
  9
$DIMTOFL
 70
     0
  9
$DIMTVP
 40
0.0
  9
$DIMTIX
 70
     0
  9
$DIMSOXD
 70
     0
  9
$DIMSAH
 70
     0
  9
$DIMBLK1
  1

  9
$DIMBLK2
  1

  9
$DIMSTYLE
  2
STANDARD
  9
$DIMCLRD
 70
     0
  9
$DIMCLRE
 70
     0
  9
$DIMCLRT
 70
     0
  9
$DIMTFAC
 40
1.0
  9
$DIMGAP
 40
0.09
  9
$LUNITS
 70
     2
  9
$LUPREC
 70
     2
  9
$AXISMODE
 70
     0
  9
$AXISUNIT
 10
0.0
 20
0.0
  9
$SKETCHINC
 40
0.1
  9
$FILLETRAD
 40
0.0
  9
$AUNITS
 70
     0
  9
$AUPREC
 70
     0
  9
$MENU
  1
acad
  9
$ELEVATION
 40
0.0
  9
$PELEVATION
 40
0.0
  9
$THICKNESS
 40
0.0
  9
$LIMCHECK
 70
     0
  9
$BLIPMODE
 70
     1
  9
$CHAMFERA
 40
0.0
  9
$CHAMFERB
 40
0.0
  9
$SKPOLY
 70
     0
  9
$TDCREATE
 40
0.000000000
  9
$TDUPDATE
 40
0.000000000
  9
$TDINDWG
 40
0.0000000000
  9
$TDUSRTIMER
 40
0.0000000000
  9
$USRTIMER
 70
     1
  9
$ANGBASE
 50
0.0
  9
$ANGDIR
 70
     0
  9
$PDMODE
 70
     0
  9
$PDSIZE
 40
0.0
  9
$PLINEWID
 40
0.0
  9
$COORDS
 70
     0
  9
$SPLFRAME
 70
     0
  9
$SPLINETYPE
 70
     6
  9
$SPLINESEGS
 70
     8
  9
$ATTDIA
 70
     0
  9
$ATTREQ
 70
     1
  9
$HANDLING
 70
     1
  9
$HANDSEED
  5
223
  9
$SURFTAB1
 70
     6
  9
$SURFTAB2
 70
     6
  9
$SURFTYPE
 70
     6
  9
$SURFU
 70
     6
  9
$SURFV
 70
     6
  9
$UCSNAME
  2

  9
$UCSORG
 10
0.0
 20
0.0
 30
0.0
  9
$UCSXDIR
 10
1.0
 20
0.0
 30
0.0
  9
$UCSYDIR
 10
0.0
 20
1.0
 30
0.0
  9
$PUCSNAME
  2

  9
$PUCSORG
 10
0.0
 20
0.0
 30
0.0
  9
$PUCSXDIR
 10
1.0
 20
0.0
 30
0.0
  9
$PUCSYDIR
 10
0.0
 20
1.0
 30
0.0
  9
$USERI1
 70
     0
  9
$USERI2
 70
     0
  9
$USERI3
 70
     0
  9
$USERI4
 70
     0
  9
$USERI5
 70
     0
  9
$USERR1
 40
0.0
  9
$USERR2
 40
0.0
  9
$USERR3
 40
0.0
  9
$USERR4
 40
0.0
  9
$USERR5
 40
0.0
  9
$WORLDVIEW
 70
     1
  9
$SHADEDGE
 70
     3
  9
$SHADEDIF
 70
    70
  9
$TILEMODE
 70
     1
  9
$MAXACTVP
 70
    16
  9
$PINSBASE
 10
0.0
 20
0.0
 30
0.0
  9
$PLIMCHECK
 70
     0
  9
$PEXTMIN
 10
1.000000E+20
 20
1.000000E+20
 30
1.000000E+20
  9
$PEXTMAX
 10
-1.000000E+20
 20
-1.000000E+20
 30
-1.000000E+20
  9
$PLIMMIN
 10
-143.364436
 20
-178.758
  9
$PLIMMAX
 10
696.635564
 20
415.242
  9
$UNITMODE
 70
     0
  9
$VISRETAIN
 70
     0
  9
$PLINEGEN
 70
     1
  9
$PSLTSCALE
 70
     0
  9
$TREEDEPTH
 70
  3020
  9
$DWGCODEPAGE
  3
dos850
  0
ENDSEC
  0
SECTION
  2
TABLES
  0
TABLE
  2
VPORT
 70
     1
  0
VPORT
  2
*ACTIVE
 70
     0
 10
0.0
 20
0.0
 11
1.0
 21
1.0
 12
420.0
 22
297.0
 13
0.0
 23
0.0
 14
1.0
 24
1.0
 15
0.0
 25
0.0
 16
0.0
 26
0.0
 36
1.0
 17
-143.364436
 27
-178.758
 37
0.0
 40
594.0
 41
1.604229
 42
50.0
 43
0.0
 44
0.0
 50
0.0
 51
0.0
 71
     0
 72
   100
 73
     1
 74
     1
 75
     0
 76
     0
 77
     0
 78
     0
  0
ENDTAB
  0
TABLE
  2
LTYPE
 70
     2
  0
LTYPE
  2
CONTINUOUS
 70
    64
  3
Solid line
 72
    65
 73
     0
 40
0.0
  0
LTYPE
  2
DASHDOT
 70
    64
  3
__ . __ . __ . __ . __
 72
    65
 73
     4
 40
7.5
 49
5.0
 49
-1.25
 49
0.0
 49
-1.25
  0
ENDTAB
  0
TABLE
  2
LAYER
 70
    10
  0
LAYER
  2
0
 70
     0
 62
     7
  6
CONTINUOUS
  0
LAYER
  2
LC-INFO-1-2-MM-A3-0
 70
     1
 62
    -1
  6
CONTINUOUS
  0
LAYER
  2
LC-003-005-----0
 70
     0
 62
     2
  6
CONTINUOUS
  0
LAYER
  2
LC-006-003-MTH-0
 70
     0
 62
     2
  6
CONTINUOUS
  0
LAYER
  2
LC-007-003-MTG-0
 70
     0
 62
     2
  6
CONTINUOUS
  0
LAYER
  2
LC-005-003-----0
 70
     0
 62
     2
  6
CONTINUOUS
  0
LAYER
  2
LC-004-000-----0
 70
     0
 62
     7
  6
CONTINUOUS
  0
LAYER
  2
LC-001-002-----0
 70
     0
 62
     1
  6
CONTINUOUS
  0
LAYER
  2
LC-002-002-RND-0
 70
     0
 62
     1
  6
CONTINUOUS
  0
LAYER
  2
LC-000
 70
     0
 62
     7
  6
CONTINUOUS
  0
ENDTAB
  0
TABLE
  2
STYLE
 70
     4
  0
STYLE
  2
STANDARD
 70
     0
 40
0.0
 41
1.0
 50
0.0
 71
     0
 42
0.0
  3
txt
  4

  0
STYLE
  2
LC-STANDARD
 70
    64
 40
0.0
 41
1.0
 50
0.0
 71
     0
 42
3.5
  3
MONOTXT
  4

  0
STYLE
  2
LC-TXTSTYLE-150-400-0-0-A2
 70
    64
 40
0.0
 41
1.0
 50
15.0
 71
     0
 42
3.5
  3
MONOTXT
  4

  0
STYLE
  2
LC-TXTSTYLE-150-400-0-0-D3
 70
    64
 40
0.0
 41
1.0
 50
15.0
 71
     0
 42
3.5
  3
LC-STANDARD
  4

  0
ENDTAB
  0
TABLE
  2
VIEW
 70
     0
  0
ENDTAB
  0
TABLE
  2
UCS
 70
     0
  0
ENDTAB
  0
TABLE
  2
APPID
 70
     1
  0
APPID
  2
ACAD
 70
     0
  0
ENDTAB
  0
TABLE
  2
DIMSTYLE
 70
     3
  0
DIMSTYLE
  2
STANDARD
 70
     0
  3

  4

  5

  6

  7

 40
1.0
 41
0.18
 42
0.0625
 43
0.38
 44
0.18
 45
0.0
 46
0.0
 47
0.0
 48
0.0
 71
     0
 72
     0
 73
     1
 74
     1
 75
     0
 76
     0
 77
     0
 78
     0
140
0.18
141
0.09
142
0.0
143
25.4
144
1.0
145
0.0
146
1.0
147
0.09
170
     0
171
     2
172
     0
173
     0
174
     0
175
     0
176
     0
177
     0
178
     0
  0
DIMSTYLE
  2
LC-STANDARD
 70
     0
  3

  4

  5

  6

  7

 40
1.0
 41
3.5
 42
0.0
 43
7.5
 44
1.8
 45
0.0
 46
0.0
 47
0.0
 48
0.0
 71
     0
 72
     0
 73
     0
 74
     0
 75
     0
 76
     0
 77
     1
 78
     8
140
3.5
141
0.0
142
0.0
143
25.4
144
1.0
145
0.0
146
0.71
147
1.5
170
     0
171
     2
172
     1
173
     0
174
     0
175
     0
176
     0
177
     0
178
     3
  0
DIMSTYLE
  2
LC-DIM-L-0140-02-02
 70
     0
  3

  4

  5

  6

  7

 40
2.0
 41
3.5
 42
0.0
 43
7.5
 44
1.8
 45
0.0
 46
0.0
 47
0.0
 48
0.0
 71
     0
 72
     0
 73
     0
 74
     0
 75
     0
 76
     0
 77
     1
 78
     8
140
14.0
141
0.0
142
0.0
143
25.4
144
1.0
145
0.0
146
0.71
147
1.5
170
     0
171
     2
172
     0
173
     0
174
     0
175
     0
176
     2
177
     2
178
     8
  0
ENDTAB
  0
ENDSEC
  0
SECTION
  2
BLOCKS
  0
BLOCK
  8
0
  5
23
  2
*X0
 70
    65
 10
60.310104
 20
46.046962
 30
0.0
  3
*X0
  0
LINE
  8
LC-003-005-----0
  6
CONTINUOUS
  5
25
 10
93.788104
 20
163.598765
 30
0.0
 11
91.339906
 21
166.046962
 31
0.0
  0
LINE
  8
LC-003-005-----0
  6
CONTINUOUS
  5
26
 10
98.288104
 20
156.270338
 30
0.0
 11
96.511479
 21
158.046962
 31
0.0
  0
LINE
  8
LC-003-005-----0
  6
CONTINUOUS
  5
27
 10
93.788104
 20
160.770338
 30
0.0
 11
90.288104
 21
164.270338
 31
0.0
  0
LINE
  8
LC-003-005-----0
  6
CONTINUOUS
  5
28
 10
98.288104
 20
153.441911
 30
0.0
 11
87.683052
 21
164.046962
 31
0.0
  0
LINE
  8
LC-003-005-----0
  6
CONTINUOUS
  5
29
 10
98.288104
 20
150.613483
 30
0.0
 11
95.488104
 21
153.413483
 31
0.0
  0
LINE
  8
LC-003-005-----0
  6
CONTINUOUS
  5
2A
 10
93.854625
 20
155.046962
 30
0.0
 11
84.854625
 21
164.046962
 31
0.0
  0
LINE
  8
LC-003-005-----0
  6
CONTINUOUS
  5
2B
 10
98.026198
 20
148.046962
 30
0.0
 11
95.488104
 21
150.585056
 31
0.0
  0
LINE
  8
LC-003-005-----0
  6
CONTINUOUS
  5
2C
 10
88.526198
 20
157.546962
 30
0.0
 11
85.288104
 21
160.785056
 31
0.0
  0
LINE
  8
LC-003-005-----0
  6
CONTINUOUS
  5
2D
 10
85.026198
 20
161.046962
 30
0.0
 11
82.026198
 21
164.046962
 31
0.0
  0
LINE
  8
LC-003-005-----0
  6
CONTINUOUS
  5
2E
 10
88.288104
 20
154.956629
 30
0.0
 11
85.288104
 21
157.956629
 31
0.0
  0
LINE
  8
LC-003-005-----0
  6
CONTINUOUS
  5
2F
 10
82.197771
 20
161.046962
 30
0.0
 11
79.197771
 21
164.046962
 31
0.0
  0
LINE
  8
LC-003-005-----0
  6
CONTINUOUS
  5
30
 10
88.288104
 20
152.128202
 30
0.0
 11
85.288104
 21
155.128202
 31
0.0
  0
LINE
  8
LC-003-005-----0
  6
CONTINUOUS
  5
31
 10
79.369344
 20
161.046962
 30
0.0
 11
76.369344
 21
164.046962
 31
0.0
  0
LINE
  8
LC-003-005-----0
  6
CONTINUOUS
  5
32
 10
88.288104
 20
149.299775
 30
0.0
 11
85.288104
 21
152.299775
 31
0.0
  0
LINE
  8
LC-003-005-----0
  6
CONTINUOUS
  5
33
 10
76.540916
 20
161.046962
 30
0.0
 11
73.540916
 21
164.046962
 31
0.0
  0
LINE
  8
LC-003-005-----0
  6
CONTINUOUS
  5
34
 10
88.288104
 20
146.471348
 30
0.0
 11
85.288104
 21
149.471348
 31
0.0
  0
LINE
  8
LC-003-005-----0
  6
CONTINUOUS
  5
35
 10
73.712489
 20
161.046962
 30
0.0
 11
70.712489
 21
164.046962
 31
0.0
  0
LINE
  8
LC-003-005-----0
  6
CONTINUOUS
  5
36
 10
88.288104
 20
143.642921
 30
0.0
 11
85.288104
 21
146.642921
 31
0.0
  0
LINE
  8
LC-003-005-----0
  6
CONTINUOUS
  5
37
 10
70.884062
 20
161.046962
 30
0.0
 11
67.884062
 21
164.046962
 31
0.0
  0
LINE
  8
LC-003-005-----0
  6
CONTINUOUS
  5
38
 10
88.288104
 20
140.814494
 30
0.0
 11
85.288104
 21
143.814494
 31
0.0
  0
LINE
  8
LC-003-005-----0
  6
CONTINUOUS
  5
39
 10
68.055635
 20
161.046962
 30
0.0
 11
65.055635
 21
164.046962
 31
0.0
  0
LINE
  8
LC-003-005-----0
  6
CONTINUOUS
  5
3A
 10
88.288104
 20
137.986066
 30
0.0
 11
85.288104
 21
140.986066
 31
0.0
  0
LINE
  8
LC-003-005-----0
  6
CONTINUOUS
  5
3B
 10
65.227208
 20
161.046962
 30
0.0
 11
62.227208
 21
164.046962
 31
0.0
  0
LINE
  8
LC-003-005-----0
  6
CONTINUOUS
  5
3C
 10
88.288104
 20
135.157639
 30
0.0
 11
85.288104
 21
138.157639
 31
0.0
  0
LINE
  8
LC-003-005-----0
  6
CONTINUOUS
  5
3D
 10
62.398781
 20
161.046962
 30
0.0
 11
60.310104
 21
163.135639
 31
0.0
  0
LINE
  8
LC-003-005-----0
  6
CONTINUOUS
  5
3E
 10
88.288104
 20
132.329212
 30
0.0
 11
85.288104
 21
135.329212
 31
0.0
  0
LINE
  8
LC-003-005-----0
  6
CONTINUOUS
  5
3F
 10
88.288104
 20
129.500785
 30
0.0
 11
85.288104
 21
132.500785
 31
0.0
  0
LINE
  8
LC-003-005-----0
  6
CONTINUOUS
  5
40
 10
88.288104
 20
126.672358
 30
0.0
 11
85.288104
 21
129.672358
 31
0.0
  0
LINE
  8
LC-003-005-----0
  6
CONTINUOUS
  5
41
 10
88.288104
 20
123.843931
 30
0.0
 11
85.288104
 21
126.843931
 31
0.0
  0
LINE
  8
LC-003-005-----0
  6
CONTINUOUS
  5
42
 10
88.288104
 20
121.015504
 30
0.0
 11
85.288104
 21
124.015504
 31
0.0
  0
LINE
  8
LC-003-005-----0
  6
CONTINUOUS
  5
43
 10
88.288104
 20
118.187077
 30
0.0
 11
85.288104
 21
121.187077
 31
0.0
  0
LINE
  8
LC-003-005-----0
  6
CONTINUOUS
  5
44
 10
88.288104
 20
115.358649
 30
0.0
 11
85.288104
 21
118.358649
 31
0.0
  0
LINE
  8
LC-003-005-----0
  6
CONTINUOUS
  5
45
 10
88.288104
 20
112.530222
 30
0.0
 11
85.288104
 21
115.530222
 31
0.0
  0
LINE
  8
LC-003-005-----0
  6
CONTINUOUS
  5
46
 10
88.288104
 20
109.701795
 30
0.0
 11
85.288104
 21
112.701795
 31
0.0
  0
LINE
  8
LC-003-005-----0
  6
CONTINUOUS
  5
47
 10
88.288104
 20
106.873368
 30
0.0
 11
85.288104
 21
109.873368
 31
0.0
  0
LINE
  8
LC-003-005-----0
  6
CONTINUOUS
  5
48
 10
88.288104
 20
104.044941
 30
0.0
 11
85.288104
 21
107.044941
 31
0.0
  0
LINE
  8
LC-003-005-----0
  6
CONTINUOUS
  5
49
 10
88.288104
 20
101.216514
 30
0.0
 11
85.288104
 21
104.216514
 31
0.0
  0
LINE
  8
LC-003-005-----0
  6
CONTINUOUS
  5
4A
 10
88.288104
 20
98.388087
 30
0.0
 11
85.288104
 21
101.388087
 31
0.0
  0
LINE
  8
LC-003-005-----0
  6
CONTINUOUS
  5
4B
 10
88.288104
 20
95.55966
 30
0.0
 11
85.288104
 21
98.55966
 31
0.0
  0
LINE
  8
LC-003-005-----0
  6
CONTINUOUS
  5
4C
 10
88.288104
 20
92.731232
 30
0.0
 11
85.288104
 21
95.731232
 31
0.0
  0
LINE
  8
LC-003-005-----0
  6
CONTINUOUS
  5
4D
 10
88.288104
 20
89.902805
 30
0.0
 11
85.288104
 21
92.902805
 31
0.0
  0
LINE
  8
LC-003-005-----0
  6
CONTINUOUS
  5
4E
 10
88.288104
 20
87.074378
 30
0.0
 11
85.288104
 21
90.074378
 31
0.0
  0
LINE
  8
LC-003-005-----0
  6
CONTINUOUS
  5
4F
 10
88.288104
 20
84.245951
 30
0.0
 11
85.288104
 21
87.245951
 31
0.0
  0
LINE
  8
LC-003-005-----0
  6
CONTINUOUS
  5
50
 10
88.288104
 20
81.417524
 30
0.0
 11
85.288104
 21
84.417524
 31
0.0
  0
LINE
  8
LC-003-005-----0
  6
CONTINUOUS
  5
51
 10
88.288104
 20
78.589097
 30
0.0
 11
85.288104
 21
81.589097
 31
0.0
  0
LINE
  8
LC-003-005-----0
  6
CONTINUOUS
  5
52
 10
88.288104
 20
75.76067
 30
0.0
 11
85.288104
 21
78.76067
 31
0.0
  0
LINE
  8
LC-003-005-----0
  6
CONTINUOUS
  5
53
 10
88.288104
 20
72.932243
 30
0.0
 11
85.288104
 21
75.932243
 31
0.0
  0
LINE
  8
LC-003-005-----0
  6
CONTINUOUS
  5
54
 10
88.288104
 20
70.103815
 30
0.0
 11
85.288104
 21
73.103815
 31
0.0
  0
LINE
  8
LC-003-005-----0
  6
CONTINUOUS
  5
55
 10
88.288104
 20
67.275388
 30
0.0
 11
85.288104
 21
70.275388
 31
0.0
  0
LINE
  8
LC-003-005-----0
  6
CONTINUOUS
  5
56
 10
88.288104
 20
64.446961
 30
0.0
 11
85.288104
 21
67.446961
 31
0.0
  0
LINE
  8
LC-003-005-----0
  6
CONTINUOUS
  5
57
 10
88.288104
 20
61.618534
 30
0.0
 11
85.288104
 21
64.618534
 31
0.0
  0
LINE
  8
LC-003-005-----0
  6
CONTINUOUS
  5
58
 10
88.288104
 20
58.790107
 30
0.0
 11
85.288104
 21
61.790107
 31
0.0
  0
LINE
  8
LC-003-005-----0
  6
CONTINUOUS
  5
59
 10
88.288104
 20
55.96168
 30
0.0
 11
85.288104
 21
58.96168
 31
0.0
  0
LINE
  8
LC-003-005-----0
  6
CONTINUOUS
  5
5A
 10
88.288104
 20
53.133253
 30
0.0
 11
85.288104
 21
56.133253
 31
0.0
  0
LINE
  8
LC-003-005-----0
  6
CONTINUOUS
  5
5B
 10
88.288104
 20
50.304826
 30
0.0
 11
85.288104
 21
53.304826
 31
0.0
  0
LINE
  8
LC-003-005-----0
  6
CONTINUOUS
  5
5C
 10
88.288104
 20
47.476398
 30
0.0
 11
85.288104
 21
50.476398
 31
0.0
  0
LINE
  8
LC-003-005-----0
  6
CONTINUOUS
  5
5D
 10
86.889113
 20
46.046962
 30
0.0
 11
85.288104
 21
47.647971
 31
0.0
  0
ENDBLK
  8
0
  5
5E
  0
BLOCK
  8
0
  5
60
  2
BLK1
 70
    64
 10
0.0
 20
0.0
 30
0.0
  3
BLK1
  0
ENDBLK
  8
0
  5
61
  0
BLOCK
  8
0
  5
63
  2
*X2
 70
    65
 10
80.288497
 20
43.046987
 30
0.0
  3
*X2
  0
LINE
  8
LC-003-005-----0
  6
CONTINUOUS
  5
64
 10
85.473394
 20
43.046987
 30
0.0
 11
88.288541
 21
45.862135
 31
0.0
  0
LINE
  8
LC-003-005-----0
  6
CONTINUOUS
  5
65
 10
82.644967
 20
43.046987
 30
0.0
 11
85.644942
 21
46.046962
 31
0.0
  0
LINE
  8
LC-003-005-----0
  6
CONTINUOUS
  5
66
 10
80.288497
 20
43.518944
 30
0.0
 11
85.288574
 21
48.519022
 31
0.0
  0
LINE
  8
LC-003-005-----0
  6
CONTINUOUS
  5
67
 10
80.288497
 20
46.347371
 30
0.0
 11
85.288583
 21
51.347457
 31
0.0
  0
LINE
  8
LC-003-005-----0
  6
CONTINUOUS
  5
68
 10
80.288497
 20
49.175798
 30
0.0
 11
85.288592
 21
54.175893
 31
0.0
  0
LINE
  8
LC-003-005-----0
  6
CONTINUOUS
  5
69
 10
80.288497
 20
52.004225
 30
0.0
 11
81.331174
 21
53.046903
 31
0.0
  0
LINE
  8
LC-003-005-----0
  6
CONTINUOUS
  5
6A
 10
83.28859
 20
55.004319
 30
0.0
 11
85.2886
 21
57.004329
 31
0.0
  0
LINE
  8
LC-003-005-----0
  6
CONTINUOUS
  5
6B
 10
83.28859
 20
57.832746
 30
0.0
 11
85.288609
 21
59.832765
 31
0.0
  0
LINE
  8
LC-003-005-----0
  6
CONTINUOUS
  5
6C
 10
83.28859
 20
60.661173
 30
0.0
 11
84.481413
 21
61.853996
 31
0.0
  0
ENDBLK
  8
0
  5
6D
  0
BLOCK
  8
0
  5
6F
  2
BLK2
 70
    64
 10
0.0
 20
0.0
 30
0.0
  3
BLK2
  0
ENDBLK
  8
0
  5
70
  0
BLOCK
  8
0
  5
72
  2
*X4
 70
    65
 10
192.287666
 20
43.046987
 30
0.0
  3
*X4
  0
LINE
  8
LC-003-005-----0
  6
CONTINUOUS
  5
73
 10
198.610479
 20
43.046987
 30
0.0
 11
200.287711
 21
44.724219
 31
0.0
  0
LINE
  8
LC-003-005-----0
  6
CONTINUOUS
  5
74
 10
195.782052
 20
43.046987
 30
0.0
 11
200.287711
 21
47.552646
 31
0.0
  0
LINE
  8
LC-003-005-----0
  6
CONTINUOUS
  5
75
 10
192.953625
 20
43.046987
 30
0.0
 11
200.287711
 21
50.381073
 31
0.0
  0
LINE
  8
LC-003-005-----0
  6
CONTINUOUS
  5
76
 10
192.287666
 20
45.209455
 30
0.0
 11
193.125173
 21
46.046962
 31
0.0
  0
LINE
  8
LC-003-005-----0
  6
CONTINUOUS
  5
77
 10
195.287634
 20
48.209423
 30
0.0
 11
200.125114
 21
53.046903
 31
0.0
  0
LINE
  8
LC-003-005-----0
  6
CONTINUOUS
  5
78
 10
195.287625
 20
51.037842
 30
0.0
 11
197.296686
 21
53.046903
 31
0.0
  0
LINE
  8
LC-003-005-----0
  6
CONTINUOUS
  5
79
 10
195.287617
 20
53.86626
 30
0.0
 11
197.287617
 21
55.86626
 31
0.0
  0
LINE
  8
LC-003-005-----0
  6
CONTINUOUS
  5
7A
 10
195.287608
 20
56.694679
 30
0.0
 11
197.287617
 21
58.694688
 31
0.0
  0
LINE
  8
LC-003-005-----0
  6
CONTINUOUS
  5
7B
 10
195.287599
 20
59.523097
 30
0.0
 11
197.287617
 21
61.523115
 31
0.0
  0
ENDBLK
  8
0
  5
7C
  0
BLOCK
  8
0
  5
7E
  2
BLK3
 70
    64
 10
0.0
 20
0.0
 30
0.0
  3
BLK3
  0
ENDBLK
  8
0
  5
7F
  0
BLOCK
  8
0
  5
81
  2
*D6
 70
    65
 10
0.0
 20
0.0
 30
0.0
  3
*D6
  0
LINE
  8
LC-006-003-MTH-0
  6
CONTINUOUS
  5
83
 10
90.288104
 20
165.546962
 30
0.0
 11
90.288104
 21
198.8
 31
0.0
  0
LINE
  8
LC-006-003-MTH-0
  6
CONTINUOUS
  5
84
 10
189.788104
 20
166.046962
 30
0.0
 11
189.788104
 21
198.8
 31
0.0
  0
LINE
  8
LC-007-003-MTG-0
  6
CONTINUOUS
  5
86
 10
90.288104
 20
182.0
 30
0.0
 11
189.788104
 21
182.0
 31
0.0
  0
LINE
  8
LC-005-003-----0
  6
CONTINUOUS
  5
88
 10
118.04856
 20
185.654733
 30
0.0
 11
90.288104
 21
182.0
 31
0.0
  0
LINE
  8
LC-005-003-----0
  6
CONTINUOUS
  5
89
 10
90.288104
 20
182.0
 30
0.0
 11
118.04856
 21
178.345267
 31
0.0
  0
LINE
  8
LC-005-003-----0
  6
CONTINUOUS
  5
8A
 10
118.04856
 20
178.345267
 30
0.0
 11
118.04856
 21
185.654733
 31
0.0
  0
LINE
  8
LC-005-003-----0
  6
CONTINUOUS
  5
8B
 10
118.110841
 20
184.704503
 30
0.0
 11
97.568104
 21
182.0
 31
0.0
  0
LINE
  8
LC-005-003-----0
  6
CONTINUOUS
  5
8C
 10
97.568104
 20
182.0
 30
0.0
 11
118.110841
 21
179.295497
 31
0.0
  0
LINE
  8
LC-005-003-----0
  6
CONTINUOUS
  5
8D
 10
118.173122
 20
183.754272
 30
0.0
 11
104.848104
 21
182.0
 31
0.0
  0
LINE
  8
LC-005-003-----0
  6
CONTINUOUS
  5
8E
 10
104.848104
 20
182.0
 30
0.0
 11
118.173122
 21
180.245728
 31
0.0
  0
LINE
  8
LC-005-003-----0
  6
CONTINUOUS
  5
8F
 10
118.235404
 20
182.804041
 30
0.0
 11
112.128104
 21
182.0
 31
0.0
  0
LINE
  8
LC-005-003-----0
  6
CONTINUOUS
  5
90
 10
112.128104
 20
182.0
 30
0.0
 11
118.235404
 21
181.195959
 31
0.0
  0
LINE
  8
LC-005-003-----0
  6
CONTINUOUS
  5
91
 10
162.027647
 20
178.345267
 30
0.0
 11
189.788104
 21
182.0
 31
0.0
  0
LINE
  8
LC-005-003-----0
  6
CONTINUOUS
  5
92
 10
189.788104
 20
182.0
 30
0.0
 11
162.027647
 21
185.654733
 31
0.0
  0
LINE
  8
LC-005-003-----0
  6
CONTINUOUS
  5
93
 10
162.027647
 20
185.654733
 30
0.0
 11
162.027647
 21
178.345267
 31
0.0
  0
LINE
  8
LC-005-003-----0
  6
CONTINUOUS
  5
94
 10
161.965366
 20
179.295497
 30
0.0
 11
182.508104
 21
182.0
 31
0.0
  0
LINE
  8
LC-005-003-----0
  6
CONTINUOUS
  5
95
 10
182.508104
 20
182.0
 30
0.0
 11
161.965366
 21
184.704503
 31
0.0
  0
LINE
  8
LC-005-003-----0
  6
CONTINUOUS
  5
96
 10
161.903085
 20
180.245728
 30
0.0
 11
175.228104
 21
182.0
 31
0.0
  0
LINE
  8
LC-005-003-----0
  6
CONTINUOUS
  5
97
 10
175.228104
 20
182.0
 30
0.0
 11
161.903085
 21
183.754272
 31
0.0
  0
LINE
  8
LC-005-003-----0
  6
CONTINUOUS
  5
98
 10
161.840803
 20
181.195959
 30
0.0
 11
167.948104
 21
182.0
 31
0.0
  0
LINE
  8
LC-005-003-----0
  6
CONTINUOUS
  5
99
 10
167.948104
 20
182.0
 30
0.0
 11
161.840803
 21
182.804041
 31
0.0
  0
TEXT
  8
LC-005-003-----0
  6
CONTINUOUS
 62
     8
  5
9B
 10
114.622484
 20
189.827554
 30
0.0
 40
28.0
  1
100
 41
0.9
 51
15.0
  7
LC-TXTSTYLE-150-400-0-0-D0
 72
     1
 11
144.386264
 21
189.827554
 31
0.0
  0
ENDBLK
  8
0
  5
9C
  0
BLOCK
  8
0
  5
9E
  2
*D7
 70
    65
 10
0.0
 20
0.0
 30
0.0
  3
*D7
  0
LINE
  8
LC-006-003-MTH-0
  6
CONTINUOUS
  5
9F
 10
60.310104
 20
164.046962
 30
0.0
 11
60.310104
 21
232.8
 31
0.0
  0
LINE
  8
LC-006-003-MTH-0
  6
CONTINUOUS
  5
A0
 10
220.266104
 20
164.046962
 30
0.0
 11
220.266104
 21
232.8
 31
0.0
  0
LINE
  8
LC-007-003-MTG-0
  6
CONTINUOUS
  5
A1
 10
60.310104
 20
216.0
 30
0.0
 11
220.266104
 21
216.0
 31
0.0
  0
LINE
  8
LC-005-003-----0
  6
CONTINUOUS
  5
A2
 10
88.07056
 20
219.654733
 30
0.0
 11
60.310104
 21
216.0
 31
0.0
  0
LINE
  8
LC-005-003-----0
  6
CONTINUOUS
  5
A3
 10
60.310104
 20
216.0
 30
0.0
 11
88.07056
 21
212.345267
 31
0.0
  0
LINE
  8
LC-005-003-----0
  6
CONTINUOUS
  5
A4
 10
88.07056
 20
212.345267
 30
0.0
 11
88.07056
 21
219.654733
 31
0.0
  0
LINE
  8
LC-005-003-----0
  6
CONTINUOUS
  5
A5
 10
88.132841
 20
218.704503
 30
0.0
 11
67.590104
 21
216.0
 31
0.0
  0
LINE
  8
LC-005-003-----0
  6
CONTINUOUS
  5
A6
 10
67.590104
 20
216.0
 30
0.0
 11
88.132841
 21
213.295497
 31
0.0
  0
LINE
  8
LC-005-003-----0
  6
CONTINUOUS
  5
A7
 10
88.195122
 20
217.754272
 30
0.0
 11
74.870104
 21
216.0
 31
0.0
  0
LINE
  8
LC-005-003-----0
  6
CONTINUOUS
  5
A8
 10
74.870104
 20
216.0
 30
0.0
 11
88.195122
 21
214.245728
 31
0.0
  0
LINE
  8
LC-005-003-----0
  6
CONTINUOUS
  5
A9
 10
88.257404
 20
216.804041
 30
0.0
 11
82.150104
 21
216.0
 31
0.0
  0
LINE
  8
LC-005-003-----0
  6
CONTINUOUS
  5
AA
 10
82.150104
 20
216.0
 30
0.0
 11
88.257404
 21
215.195959
 31
0.0
  0
LINE
  8
LC-005-003-----0
  6
CONTINUOUS
  5
AB
 10
192.505647
 20
212.345267
 30
0.0
 11
220.266104
 21
216.0
 31
0.0
  0
LINE
  8
LC-005-003-----0
  6
CONTINUOUS
  5
AC
 10
220.266104
 20
216.0
 30
0.0
 11
192.505647
 21
219.654733
 31
0.0
  0
LINE
  8
LC-005-003-----0
  6
CONTINUOUS
  5
AD
 10
192.505647
 20
219.654733
 30
0.0
 11
192.505647
 21
212.345267
 31
0.0
  0
LINE
  8
LC-005-003-----0
  6
CONTINUOUS
  5
AE
 10
192.443366
 20
213.295497
 30
0.0
 11
212.986104
 21
216.0
 31
0.0
  0
LINE
  8
LC-005-003-----0
  6
CONTINUOUS
  5
AF
 10
212.986104
 20
216.0
 30
0.0
 11
192.443366
 21
218.704503
 31
0.0
  0
LINE
  8
LC-005-003-----0
  6
CONTINUOUS
  5
B0
 10
192.381085
 20
214.245728
 30
0.0
 11
205.706104
 21
216.0
 31
0.0
  0
LINE
  8
LC-005-003-----0
  6
CONTINUOUS
  5
B1
 10
205.706104
 20
216.0
 30
0.0
 11
192.381085
 21
217.754272
 31
0.0
  0
LINE
  8
LC-005-003-----0
  6
CONTINUOUS
  5
B2
 10
192.318803
 20
215.195959
 30
0.0
 11
198.426104
 21
216.0
 31
0.0
  0
LINE
  8
LC-005-003-----0
  6
CONTINUOUS
  5
B3
 10
198.426104
 20
216.0
 30
0.0
 11
192.318803
 21
216.804041
 31
0.0
  0
TEXT
  8
LC-005-003-----0
  6
CONTINUOUS
 62
     8
  5
B4
 10
113.263674
 20
223.827554
 30
0.0
 40
28.0
  1
160
 51
15.0
  7
LC-TXTSTYLE-150-400-0-0-D0
 72
     1
 11
143.027453
 21
223.827554
 31
0.0
  0
ENDBLK
  8
0
  5
B5
  0
BLOCK
  8
0
  5
B7
  2
*D8
 70
    65
 10
0.0
 20
0.0
 30
0.0
  3
*D8
  0
LINE
  8
LC-006-003-MTH-0
  6
CONTINUOUS
  5
B8
 10
85.28858
 20
50.545182
 30
0.0
 11
85.28858
 21
-16.8
 31
0.0
  0
LINE
  8
LC-006-003-MTH-0
  6
CONTINUOUS
  5
B9
 10
195.287627
 20
50.545182
 30
0.0
 11
195.287627
 21
-16.8
 31
0.0
  0
LINE
  8
LC-007-003-MTG-0
  6
CONTINUOUS
  5
BA
 10
85.28858
 20
0.0
 30
0.0
 11
195.287627
 21
0.0
 31
0.0
  0
LINE
  8
LC-005-003-----0
  6
CONTINUOUS
  5
BB
 10
113.049037
 20
3.654733
 30
0.0
 11
85.28858
 21
0.0
 31
0.0
  0
LINE
  8
LC-005-003-----0
  6
CONTINUOUS
  5
BC
 10
85.28858
 20
0.0
 30
0.0
 11
113.049037
 21
-3.654733
 31
0.0
  0
LINE
  8
LC-005-003-----0
  6
CONTINUOUS
  5
BD
 10
113.049037
 20
-3.654733
 30
0.0
 11
113.049037
 21
3.654733
 31
0.0
  0
LINE
  8
LC-005-003-----0
  6
CONTINUOUS
  5
BE
 10
113.111318
 20
2.704503
 30
0.0
 11
92.56858
 21
0.0
 31
0.0
  0
LINE
  8
LC-005-003-----0
  6
CONTINUOUS
  5
BF
 10
92.56858
 20
0.0
 30
0.0
 11
113.111318
 21
-2.704503
 31
0.0
  0
LINE
  8
LC-005-003-----0
  6
CONTINUOUS
  5
C0
 10
113.173599
 20
1.754272
 30
0.0
 11
99.84858
 21
0.0
 31
0.0
  0
LINE
  8
LC-005-003-----0
  6
CONTINUOUS
  5
C1
 10
99.84858
 20
0.0
 30
0.0
 11
113.173599
 21
-1.754272
 31
0.0
  0
LINE
  8
LC-005-003-----0
  6
CONTINUOUS
  5
C2
 10
113.235881
 20
0.804041
 30
0.0
 11
107.12858
 21
0.0
 31
0.0
  0
LINE
  8
LC-005-003-----0
  6
CONTINUOUS
  5
C3
 10
107.12858
 20
0.0
 30
0.0
 11
113.235881
 21
-0.804041
 31
0.0
  0
LINE
  8
LC-005-003-----0
  6
CONTINUOUS
  5
C4
 10
167.527171
 20
-3.654733
 30
0.0
 11
195.287627
 21
0.0
 31
0.0
  0
LINE
  8
LC-005-003-----0
  6
CONTINUOUS
  5
C5
 10
195.287627
 20
0.0
 30
0.0
 11
167.527171
 21
3.654733
 31
0.0
  0
LINE
  8
LC-005-003-----0
  6
CONTINUOUS
  5
C6
 10
167.527171
 20
3.654733
 30
0.0
 11
167.527171
 21
-3.654733
 31
0.0
  0
LINE
  8
LC-005-003-----0
  6
CONTINUOUS
  5
C7
 10
167.464889
 20
-2.704503
 30
0.0
 11
188.007627
 21
0.0
 31
0.0
  0
LINE
  8
LC-005-003-----0
  6
CONTINUOUS
  5
C8
 10
188.007627
 20
0.0
 30
0.0
 11
167.464889
 21
2.704503
 31
0.0
  0
LINE
  8
LC-005-003-----0
  6
CONTINUOUS
  5
C9
 10
167.402608
 20
-1.754272
 30
0.0
 11
180.727627
 21
0.0
 31
0.0
  0
LINE
  8
LC-005-003-----0
  6
CONTINUOUS
  5
CA
 10
180.727627
 20
0.0
 30
0.0
 11
167.402608
 21
1.754272
 31
0.0
  0
LINE
  8
LC-005-003-----0
  6
CONTINUOUS
  5
CB
 10
167.340326
 20
-0.804041
 30
0.0
 11
173.447627
 21
0.0
 31
0.0
  0
LINE
  8
LC-005-003-----0
  6
CONTINUOUS
  5
CC
 10
173.447627
 20
0.0
 30
0.0
 11
167.340326
 21
0.804041
 31
0.0
  0
TEXT
  8
LC-005-003-----0
  6
CONTINUOUS
 62
     8
  5
CD
 10
106.538626
 20
7.827554
 30
0.0
 40
28.0
  1
Ø110
 51
15.0
  7
LC-TXTSTYLE-150-400-0-0-D0
 72
     1
 11
144.636264
 21
7.827554
 31
0.0
  0
ENDBLK
  8
0
  5
CE
  0
BLOCK
  8
0
  5
D0
  2
BLK4
 70
    64
 10
0.0
 20
0.0
 30
0.0
  3
BLK4
  0
ENDBLK
  8
0
  5
D1
  0
BLOCK
  8
0
  5
D3
  2
*X10
 70
    65
 10
182.288104
 20
46.046962
 30
0.0
  3
*X10
  0
LINE
  8
LC-003-005-----0
  6
CONTINUOUS
  5
D4
 10
220.266104
 20
161.571558
 30
0.0
 11
217.7907
 21
164.046962
 31
0.0
  0
LINE
  8
LC-003-005-----0
  6
CONTINUOUS
  5
D5
 10
217.962273
 20
161.046962
 30
0.0
 11
214.962273
 21
164.046962
 31
0.0
  0
LINE
  8
LC-003-005-----0
  6
CONTINUOUS
  5
D6
 10
215.133846
 20
161.046962
 30
0.0
 11
212.133846
 21
164.046962
 31
0.0
  0
LINE
  8
LC-003-005-----0
  6
CONTINUOUS
  5
D7
 10
212.305418
 20
161.046962
 30
0.0
 11
209.305418
 21
164.046962
 31
0.0
  0
LINE
  8
LC-003-005-----0
  6
CONTINUOUS
  5
D8
 10
209.476991
 20
161.046962
 30
0.0
 11
206.476991
 21
164.046962
 31
0.0
  0
LINE
  8
LC-003-005-----0
  6
CONTINUOUS
  5
D9
 10
206.648564
 20
161.046962
 30
0.0
 11
203.648564
 21
164.046962
 31
0.0
  0
LINE
  8
LC-003-005-----0
  6
CONTINUOUS
  5
DA
 10
203.820137
 20
161.046962
 30
0.0
 11
200.820137
 21
164.046962
 31
0.0
  0
LINE
  8
LC-003-005-----0
  6
CONTINUOUS
  5
DB
 10
200.99171
 20
161.046962
 30
0.0
 11
197.99171
 21
164.046962
 31
0.0
  0
LINE
  8
LC-003-005-----0
  6
CONTINUOUS
  5
DC
 10
198.163283
 20
161.046962
 30
0.0
 11
195.163283
 21
164.046962
 31
0.0
  0
LINE
  8
LC-003-005-----0
  6
CONTINUOUS
  5
DD
 10
195.334856
 20
161.046962
 30
0.0
 11
192.334856
 21
164.046962
 31
0.0
  0
LINE
  8
LC-003-005-----0
  6
CONTINUOUS
  5
DE
 10
195.288104
 20
158.265287
 30
0.0
 11
187.506429
 21
166.046962
 31
0.0
  0
LINE
  8
LC-003-005-----0
  6
CONTINUOUS
  5
DF
 10
195.288104
 20
155.43686
 30
0.0
 11
186.788104
 21
163.93686
 31
0.0
  0
LINE
  8
LC-003-005-----0
  6
CONTINUOUS
  5
E0
 10
195.288104
 20
152.608433
 30
0.0
 11
192.288104
 21
155.608433
 31
0.0
  0
LINE
  8
LC-003-005-----0
  6
CONTINUOUS
  5
E1
 10
190.349574
 20
157.546962
 30
0.0
 11
186.788104
 21
161.108433
 31
0.0
  0
LINE
  8
LC-003-005-----0
  6
CONTINUOUS
  5
E2
 10
195.288104
 20
149.780006
 30
0.0
 11
192.288104
 21
152.780006
 31
0.0
  0
LINE
  8
LC-003-005-----0
  6
CONTINUOUS
  5
E3
 10
189.288104
 20
155.780006
 30
0.0
 11
186.788104
 21
158.280006
 31
0.0
  0
LINE
  8
LC-003-005-----0
  6
CONTINUOUS
  5
E4
 10
195.288104
 20
146.951579
 30
0.0
 11
192.288104
 21
149.951579
 31
0.0
  0
LINE
  8
LC-003-005-----0
  6
CONTINUOUS
  5
E5
 10
187.19272
 20
155.046962
 30
0.0
 11
184.19272
 21
158.046962
 31
0.0
  0
LINE
  8
LC-003-005-----0
  6
CONTINUOUS
  5
E6
 10
195.288104
 20
144.123151
 30
0.0
 11
192.288104
 21
147.123151
 31
0.0
  0
LINE
  8
LC-003-005-----0
  6
CONTINUOUS
  5
E7
 10
185.088104
 20
154.323151
 30
0.0
 11
182.288104
 21
157.123151
 31
0.0
  0
LINE
  8
LC-003-005-----0
  6
CONTINUOUS
  5
E8
 10
195.288104
 20
141.294724
 30
0.0
 11
192.288104
 21
144.294724
 31
0.0
  0
LINE
  8
LC-003-005-----0
  6
CONTINUOUS
  5
E9
 10
185.088104
 20
151.494724
 30
0.0
 11
182.288104
 21
154.294724
 31
0.0
  0
LINE
  8
LC-003-005-----0
  6
CONTINUOUS
  5
EA
 10
195.288104
 20
138.466297
 30
0.0
 11
192.288104
 21
141.466297
 31
0.0
  0
LINE
  8
LC-003-005-----0
  6
CONTINUOUS
  5
EB
 10
185.088104
 20
148.666297
 30
0.0
 11
182.288104
 21
151.466297
 31
0.0
  0
LINE
  8
LC-003-005-----0
  6
CONTINUOUS
  5
EC
 10
195.288104
 20
135.63787
 30
0.0
 11
192.288104
 21
138.63787
 31
0.0
  0
LINE
  8
LC-003-005-----0
  6
CONTINUOUS
  5
ED
 10
182.879012
 20
148.046962
 30
0.0
 11
182.288104
 21
148.63787
 31
0.0
  0
LINE
  8
LC-003-005-----0
  6
CONTINUOUS
  5
EE
 10
195.288104
 20
132.809443
 30
0.0
 11
192.288104
 21
135.809443
 31
0.0
  0
LINE
  8
LC-003-005-----0
  6
CONTINUOUS
  5
EF
 10
195.288104
 20
129.981016
 30
0.0
 11
192.288104
 21
132.981016
 31
0.0
  0
LINE
  8
LC-003-005-----0
  6
CONTINUOUS
  5
F0
 10
195.288104
 20
127.152589
 30
0.0
 11
192.288104
 21
130.152589
 31
0.0
  0
LINE
  8
LC-003-005-----0
  6
CONTINUOUS
  5
F1
 10
195.288104
 20
124.324162
 30
0.0
 11
192.288104
 21
127.324162
 31
0.0
  0
LINE
  8
LC-003-005-----0
  6
CONTINUOUS
  5
F2
 10
195.288104
 20
121.495734
 30
0.0
 11
192.288104
 21
124.495734
 31
0.0
  0
LINE
  8
LC-003-005-----0
  6
CONTINUOUS
  5
F3
 10
195.288104
 20
118.667307
 30
0.0
 11
192.288104
 21
121.667307
 31
0.0
  0
LINE
  8
LC-003-005-----0
  6
CONTINUOUS
  5
F4
 10
195.288104
 20
115.83888
 30
0.0
 11
192.288104
 21
118.83888
 31
0.0
  0
LINE
  8
LC-003-005-----0
  6
CONTINUOUS
  5
F5
 10
195.288104
 20
113.010453
 30
0.0
 11
192.288104
 21
116.010453
 31
0.0
  0
LINE
  8
LC-003-005-----0
  6
CONTINUOUS
  5
F6
 10
195.288104
 20
110.182026
 30
0.0
 11
192.288104
 21
113.182026
 31
0.0
  0
LINE
  8
LC-003-005-----0
  6
CONTINUOUS
  5
F7
 10
195.288104
 20
107.353599
 30
0.0
 11
192.288104
 21
110.353599
 31
0.0
  0
LINE
  8
LC-003-005-----0
  6
CONTINUOUS
  5
F8
 10
195.288104
 20
104.525172
 30
0.0
 11
192.288104
 21
107.525172
 31
0.0
  0
LINE
  8
LC-003-005-----0
  6
CONTINUOUS
  5
F9
 10
195.288104
 20
101.696745
 30
0.0
 11
192.288104
 21
104.696745
 31
0.0
  0
LINE
  8
LC-003-005-----0
  6
CONTINUOUS
  5
FA
 10
195.288104
 20
98.868317
 30
0.0
 11
192.288104
 21
101.868317
 31
0.0
  0
LINE
  8
LC-003-005-----0
  6
CONTINUOUS
  5
FB
 10
195.288104
 20
96.03989
 30
0.0
 11
192.288104
 21
99.03989
 31
0.0
  0
LINE
  8
LC-003-005-----0
  6
CONTINUOUS
  5
FC
 10
195.288104
 20
93.211463
 30
0.0
 11
192.288104
 21
96.211463
 31
0.0
  0
LINE
  8
LC-003-005-----0
  6
CONTINUOUS
  5
FD
 10
195.288104
 20
90.383036
 30
0.0
 11
192.288104
 21
93.383036
 31
0.0
  0
LINE
  8
LC-003-005-----0
  6
CONTINUOUS
  5
FE
 10
195.288104
 20
87.554609
 30
0.0
 11
192.288104
 21
90.554609
 31
0.0
  0
LINE
  8
LC-003-005-----0
  6
CONTINUOUS
  5
FF
 10
195.288104
 20
84.726182
 30
0.0
 11
192.288104
 21
87.726182
 31
0.0
  0
LINE
  8
LC-003-005-----0
  6
CONTINUOUS
  5
100
 10
195.288104
 20
81.897755
 30
0.0
 11
192.288104
 21
84.897755
 31
0.0
  0
LINE
  8
LC-003-005-----0
  6
CONTINUOUS
  5
101
 10
195.288104
 20
79.069328
 30
0.0
 11
192.288104
 21
82.069328
 31
0.0
  0
LINE
  8
LC-003-005-----0
  6
CONTINUOUS
  5
102
 10
195.288104
 20
76.2409
 30
0.0
 11
192.288104
 21
79.2409
 31
0.0
  0
LINE
  8
LC-003-005-----0
  6
CONTINUOUS
  5
103
 10
195.288104
 20
73.412473
 30
0.0
 11
192.288104
 21
76.412473
 31
0.0
  0
LINE
  8
LC-003-005-----0
  6
CONTINUOUS
  5
104
 10
195.288104
 20
70.584046
 30
0.0
 11
192.288104
 21
73.584046
 31
0.0
  0
LINE
  8
LC-003-005-----0
  6
CONTINUOUS
  5
105
 10
195.288104
 20
67.755619
 30
0.0
 11
192.288104
 21
70.755619
 31
0.0
  0
LINE
  8
LC-003-005-----0
  6
CONTINUOUS
  5
106
 10
195.288104
 20
64.927192
 30
0.0
 11
192.288104
 21
67.927192
 31
0.0
  0
LINE
  8
LC-003-005-----0
  6
CONTINUOUS
  5
107
 10
195.288104
 20
62.098765
 30
0.0
 11
192.288104
 21
65.098765
 31
0.0
  0
LINE
  8
LC-003-005-----0
  6
CONTINUOUS
  5
108
 10
195.288104
 20
59.270338
 30
0.0
 11
192.288104
 21
62.270338
 31
0.0
  0
LINE
  8
LC-003-005-----0
  6
CONTINUOUS
  5
109
 10
195.288104
 20
56.441911
 30
0.0
 11
192.288104
 21
59.441911
 31
0.0
  0
LINE
  8
LC-003-005-----0
  6
CONTINUOUS
  5
10A
 10
195.288104
 20
53.613483
 30
0.0
 11
192.288104
 21
56.613483
 31
0.0
  0
LINE
  8
LC-003-005-----0
  6
CONTINUOUS
  5
10B
 10
195.288104
 20
50.785056
 30
0.0
 11
192.288104
 21
53.785056
 31
0.0
  0
LINE
  8
LC-003-005-----0
  6
CONTINUOUS
  5
10C
 10
195.288104
 20
47.956629
 30
0.0
 11
192.288104
 21
50.956629
 31
0.0
  0
LINE
  8
LC-003-005-----0
  6
CONTINUOUS
  5
10D
 10
194.328724
 20
46.087582
 30
0.0
 11
192.288104
 21
48.128202
 31
0.0
  0
ENDBLK
  8
0
  5
10E
  0
BLOCK
  8
0
  5
110
  2
*D11
 70
    65
 10
0.0
 20
0.0
 30
0.0
  3
*D11
  0
LINE
  8
LC-006-003-MTH-0
  6
CONTINUOUS
  5
111
 10
192.288104
 20
46.046962
 30
0.0
 11
252.0
 21
46.046962
 31
0.0
  0
LINE
  8
LC-006-003-MTH-0
  6
CONTINUOUS
  5
112
 10
192.288104
 20
60.046962
 30
0.0
 11
252.0
 21
60.046962
 31
0.0
  0
LINE
  8
LC-005-003-----0
  6
CONTINUOUS
  5
113
 10
238.854733
 20
18.286506
 30
0.0
 11
235.2
 21
46.046962
 31
0.0
  0
LINE
  8
LC-005-003-----0
  6
CONTINUOUS
  5
114
 10
235.2
 20
46.046962
 30
0.0
 11
231.545267
 21
18.286506
 31
0.0
  0
LINE
  8
LC-005-003-----0
  6
CONTINUOUS
  5
115
 10
231.545267
 20
18.286506
 30
0.0
 11
238.854733
 21
18.286506
 31
0.0
  0
LINE
  8
LC-005-003-----0
  6
CONTINUOUS
  5
116
 10
237.904503
 20
18.224225
 30
0.0
 11
235.2
 21
38.766962
 31
0.0
  0
LINE
  8
LC-005-003-----0
  6
CONTINUOUS
  5
117
 10
235.2
 20
38.766962
 30
0.0
 11
232.495497
 21
18.224225
 31
0.0
  0
LINE
  8
LC-005-003-----0
  6
CONTINUOUS
  5
118
 10
236.954272
 20
18.161943
 30
0.0
 11
235.2
 21
31.486962
 31
0.0
  0
LINE
  8
LC-005-003-----0
  6
CONTINUOUS
  5
119
 10
235.2
 20
31.486962
 30
0.0
 11
233.445728
 21
18.161943
 31
0.0
  0
LINE
  8
LC-005-003-----0
  6
CONTINUOUS
  5
11A
 10
236.004041
 20
18.099662
 30
0.0
 11
235.2
 21
24.206962
 31
0.0
  0
LINE
  8
LC-005-003-----0
  6
CONTINUOUS
  5
11B
 10
235.2
 20
24.206962
 30
0.0
 11
234.395959
 21
18.099662
 31
0.0
  0
LINE
  8
LC-005-003-----0
  6
CONTINUOUS
  5
11C
 10
231.545267
 20
87.807418
 30
0.0
 11
235.2
 21
60.046962
 31
0.0
  0
LINE
  8
LC-005-003-----0
  6
CONTINUOUS
  5
11D
 10
235.2
 20
60.046962
 30
0.0
 11
238.854733
 21
87.807418
 31
0.0
  0
LINE
  8
LC-005-003-----0
  6
CONTINUOUS
  5
11E
 10
238.854733
 20
87.807418
 30
0.0
 11
231.545267
 21
87.807418
 31
0.0
  0
LINE
  8
LC-005-003-----0
  6
CONTINUOUS
  5
11F
 10
232.495497
 20
87.8697
 30
0.0
 11
235.2
 21
67.326962
 31
0.0
  0
LINE
  8
LC-005-003-----0
  6
CONTINUOUS
  5
120
 10
235.2
 20
67.326962
 30
0.0
 11
237.904503
 21
87.8697
 31
0.0
  0
LINE
  8
LC-005-003-----0
  6
CONTINUOUS
  5
121
 10
233.445728
 20
87.931981
 30
0.0
 11
235.2
 21
74.606962
 31
0.0
  0
LINE
  8
LC-005-003-----0
  6
CONTINUOUS
  5
122
 10
235.2
 20
74.606962
 30
0.0
 11
236.954272
 21
87.931981
 31
0.0
  0
LINE
  8
LC-005-003-----0
  6
CONTINUOUS
  5
123
 10
234.395959
 20
87.994262
 30
0.0
 11
235.2
 21
81.886962
 31
0.0
  0
LINE
  8
LC-005-003-----0
  6
CONTINUOUS
  5
124
 10
235.2
 20
81.886962
 30
0.0
 11
236.004041
 21
87.994262
 31
0.0
  0
LINE
  8
LC-007-003-MTG-0
  6
CONTINUOUS
  5
125
 10
235.2
 20
6.846962
 30
0.0
 11
235.2
 21
143.411362
 31
0.0
  0
TEXT
  8
LC-005-003-----0
  6
CONTINUOUS
 62
     8
  5
126
 10
227.372446
 20
102.475122
 30
0.0
 40
28.0
  1
14
 50
90.0
 51
15.0
  7
LC-TXTSTYLE-150-400-0-0-D0
  0
ENDBLK
  8
0
  5
127
  0
BLOCK
  8
0
  5
129
  2
*D12
 70
    65
 10
0.0
 20
0.0
 30
0.0
  3
*D12
  0
LINE
  8
LC-006-003-MTH-0
  6
CONTINUOUS
  5
12A
 10
192.288104
 20
60.046962
 30
0.0
 11
291.2
 21
60.046962
 31
0.0
  0
LINE
  8
LC-006-003-MTH-0
  6
CONTINUOUS
  5
12B
 10
220.266104
 20
164.046962
 30
0.0
 11
291.2
 21
164.046962
 31
0.0
  0
LINE
  8
LC-007-003-MTG-0
  6
CONTINUOUS
  5
12C
 10
274.4
 20
60.046962
 30
0.0
 11
274.4
 21
164.046962
 31
0.0
  0
LINE
  8
LC-005-003-----0
  6
CONTINUOUS
  5
12D
 10
270.745267
 20
87.807418
 30
0.0
 11
274.4
 21
60.046962
 31
0.0
  0
LINE
  8
LC-005-003-----0
  6
CONTINUOUS
  5
12E
 10
274.4
 20
60.046962
 30
0.0
 11
278.054733
 21
87.807418
 31
0.0
  0
LINE
  8
LC-005-003-----0
  6
CONTINUOUS
  5
12F
 10
278.054733
 20
87.807418
 30
0.0
 11
270.745267
 21
87.807418
 31
0.0
  0
LINE
  8
LC-005-003-----0
  6
CONTINUOUS
  5
130
 10
271.695497
 20
87.8697
 30
0.0
 11
274.4
 21
67.326962
 31
0.0
  0
LINE
  8
LC-005-003-----0
  6
CONTINUOUS
  5
131
 10
274.4
 20
67.326962
 30
0.0
 11
277.104503
 21
87.8697
 31
0.0
  0
LINE
  8
LC-005-003-----0
  6
CONTINUOUS
  5
132
 10
272.645728
 20
87.931981
 30
0.0
 11
274.4
 21
74.606962
 31
0.0
  0
LINE
  8
LC-005-003-----0
  6
CONTINUOUS
  5
133
 10
274.4
 20
74.606962
 30
0.0
 11
276.154272
 21
87.931981
 31
0.0
  0
LINE
  8
LC-005-003-----0
  6
CONTINUOUS
  5
134
 10
273.595959
 20
87.994262
 30
0.0
 11
274.4
 21
81.886962
 31
0.0
  0
LINE
  8
LC-005-003-----0
  6
CONTINUOUS
  5
135
 10
274.4
 20
81.886962
 30
0.0
 11
275.204041
 21
87.994262
 31
0.0
  0
LINE
  8
LC-005-003-----0
  6
CONTINUOUS
  5
136
 10
278.054733
 20
136.286506
 30
0.0
 11
274.4
 21
164.046962
 31
0.0
  0
LINE
  8
LC-005-003-----0
  6
CONTINUOUS
  5
137
 10
274.4
 20
164.046962
 30
0.0
 11
270.745267
 21
136.286506
 31
0.0
  0
LINE
  8
LC-005-003-----0
  6
CONTINUOUS
  5
138
 10
270.745267
 20
136.286506
 30
0.0
 11
278.054733
 21
136.286506
 31
0.0
  0
LINE
  8
LC-005-003-----0
  6
CONTINUOUS
  5
139
 10
277.104503
 20
136.224225
 30
0.0
 11
274.4
 21
156.766962
 31
0.0
  0
LINE
  8
LC-005-003-----0
  6
CONTINUOUS
  5
13A
 10
274.4
 20
156.766962
 30
0.0
 11
271.695497
 21
136.224225
 31
0.0
  0
LINE
  8
LC-005-003-----0
  6
CONTINUOUS
  5
13B
 10
276.154272
 20
136.161943
 30
0.0
 11
274.4
 21
149.486962
 31
0.0
  0
LINE
  8
LC-005-003-----0
  6
CONTINUOUS
  5
13C
 10
274.4
 20
149.486962
 30
0.0
 11
272.645728
 21
136.161943
 31
0.0
  0
LINE
  8
LC-005-003-----0
  6
CONTINUOUS
  5
13D
 10
275.204041
 20
136.099662
 30
0.0
 11
274.4
 21
142.206962
 31
0.0
  0
LINE
  8
LC-005-003-----0
  6
CONTINUOUS
  5
13E
 10
274.4
 20
142.206962
 30
0.0
 11
273.595959
 21
136.099662
 31
0.0
  0
TEXT
  8
LC-005-003-----0
  6
CONTINUOUS
 62
     8
  5
13F
 10
266.572446
 20
62.721106
 30
0.0
 40
28.0
  1
6-104
 50
90.0
 51
15.0
  7
LC-TXTSTYLE-150-400-0-0-D0
 72
     1
 11
266.572446
 21
116.395122
 31
0.0
  0
ENDBLK
  8
0
  5
140
  0
BLOCK
  8
0
  5
142
  2
*X13
 70
    65
 10
88.288104
 20
46.046962
 30
0.0
  3
*X13
  0
LINE
  8
LC-003-005-----0
  6
CONTINUOUS
  5
143
 10
136.55663
 20
46.046962
 30
0.0
 11
140.288104
 21
49.778436
 31
0.0
  0
LINE
  8
LC-003-005-----0
  6
CONTINUOUS
  5
144
 10
130.899776
 20
46.046962
 30
0.0
 11
140.288104
 21
55.43529
 31
0.0
  0
LINE
  8
LC-003-005-----0
  6
CONTINUOUS
  5
145
 10
125.242922
 20
46.046962
 30
0.0
 11
139.242922
 21
60.046962
 31
0.0
  0
LINE
  8
LC-003-005-----0
  6
CONTINUOUS
  5
146
 10
119.586067
 20
46.046962
 30
0.0
 11
133.586067
 21
60.046962
 31
0.0
  0
LINE
  8
LC-003-005-----0
  6
CONTINUOUS
  5
147
 10
113.929213
 20
46.046962
 30
0.0
 11
127.929213
 21
60.046962
 31
0.0
  0
LINE
  8
LC-003-005-----0
  6
CONTINUOUS
  5
148
 10
108.272359
 20
46.046962
 30
0.0
 11
122.272359
 21
60.046962
 31
0.0
  0
LINE
  8
LC-003-005-----0
  6
CONTINUOUS
  5
149
 10
102.615505
 20
46.046962
 30
0.0
 11
116.615505
 21
60.046962
 31
0.0
  0
LINE
  8
LC-003-005-----0
  6
CONTINUOUS
  5
14A
 10
96.95865
 20
46.046962
 30
0.0
 11
110.95865
 21
60.046962
 31
0.0
  0
LINE
  8
LC-003-005-----0
  6
CONTINUOUS
  5
14B
 10
91.301796
 20
46.046962
 30
0.0
 11
105.301796
 21
60.046962
 31
0.0
  0
LINE
  8
LC-003-005-----0
  6
CONTINUOUS
  5
14C
 10
88.288104
 20
48.690124
 30
0.0
 11
99.644942
 21
60.046962
 31
0.0
  0
LINE
  8
LC-003-005-----0
  6
CONTINUOUS
  5
14D
 10
88.288104
 20
54.346978
 30
0.0
 11
93.988088
 21
60.046962
 31
0.0
  0
LINE
  8
LC-003-005-----0
  6
CONTINUOUS
  5
14E
 10
88.288104
 20
60.003832
 30
0.0
 11
88.331233
 21
60.046962
 31
0.0
  0
LINE
  8
LC-003-005-----0
  6
CONTINUOUS
  5
14F
 10
140.288104
 20
57.701795
 30
0.0
 11
137.942937
 21
60.046962
 31
0.0
  0
LINE
  8
LC-003-005-----0
  6
CONTINUOUS
  5
150
 10
140.288104
 20
52.044941
 30
0.0
 11
132.286082
 21
60.046962
 31
0.0
  0
LINE
  8
LC-003-005-----0
  6
CONTINUOUS
  5
151
 10
140.288104
 20
46.388087
 30
0.0
 11
126.629228
 21
60.046962
 31
0.0
  0
LINE
  8
LC-003-005-----0
  6
CONTINUOUS
  5
152
 10
134.972374
 20
46.046962
 30
0.0
 11
120.972374
 21
60.046962
 31
0.0
  0
LINE
  8
LC-003-005-----0
  6
CONTINUOUS
  5
153
 10
129.31552
 20
46.046962
 30
0.0
 11
115.31552
 21
60.046962
 31
0.0
  0
LINE
  8
LC-003-005-----0
  6
CONTINUOUS
  5
154
 10
123.658665
 20
46.046962
 30
0.0
 11
109.658665
 21
60.046962
 31
0.0
  0
LINE
  8
LC-003-005-----0
  6
CONTINUOUS
  5
155
 10
118.001811
 20
46.046962
 30
0.0
 11
104.001811
 21
60.046962
 31
0.0
  0
LINE
  8
LC-003-005-----0
  6
CONTINUOUS
  5
156
 10
112.344957
 20
46.046962
 30
0.0
 11
98.344957
 21
60.046962
 31
0.0
  0
LINE
  8
LC-003-005-----0
  6
CONTINUOUS
  5
157
 10
106.688103
 20
46.046962
 30
0.0
 11
92.688103
 21
60.046962
 31
0.0
  0
LINE
  8
LC-003-005-----0
  6
CONTINUOUS
  5
158
 10
101.031248
 20
46.046962
 30
0.0
 11
88.288104
 21
58.790107
 31
0.0
  0
LINE
  8
LC-003-005-----0
  6
CONTINUOUS
  5
159
 10
95.374394
 20
46.046962
 30
0.0
 11
88.288104
 21
53.133253
 31
0.0
  0
LINE
  8
LC-003-005-----0
  6
CONTINUOUS
  5
15A
 10
89.71754
 20
46.046962
 30
0.0
 11
88.288104
 21
47.476398
 31
0.0
  0
ENDBLK
  8
0
  5
15B
  0
BLOCK
  8
0
  5
15D
  2
*X14
 70
    65
 10
140.288104
 20
46.046962
 30
0.0
  3
*X14
  0
LINE
  8
LC-003-005-----0
  6
CONTINUOUS
  5
15E
 10
187.468318
 20
46.046962
 30
0.0
 11
192.288104
 21
50.866747
 31
0.0
  0
LINE
  8
LC-003-005-----0
  6
CONTINUOUS
  5
15F
 10
181.811464
 20
46.046962
 30
0.0
 11
192.288104
 21
56.523602
 31
0.0
  0
LINE
  8
LC-003-005-----0
  6
CONTINUOUS
  5
160
 10
176.15461
 20
46.046962
 30
0.0
 11
190.15461
 21
60.046962
 31
0.0
  0
LINE
  8
LC-003-005-----0
  6
CONTINUOUS
  5
161
 10
170.497756
 20
46.046962
 30
0.0
 11
184.497756
 21
60.046962
 31
0.0
  0
LINE
  8
LC-003-005-----0
  6
CONTINUOUS
  5
162
 10
164.840901
 20
46.046962
 30
0.0
 11
178.840901
 21
60.046962
 31
0.0
  0
LINE
  8
LC-003-005-----0
  6
CONTINUOUS
  5
163
 10
159.184047
 20
46.046962
 30
0.0
 11
173.184047
 21
60.046962
 31
0.0
  0
LINE
  8
LC-003-005-----0
  6
CONTINUOUS
  5
164
 10
153.527193
 20
46.046962
 30
0.0
 11
167.527193
 21
60.046962
 31
0.0
  0
LINE
  8
LC-003-005-----0
  6
CONTINUOUS
  5
165
 10
147.870339
 20
46.046962
 30
0.0
 11
161.870339
 21
60.046962
 31
0.0
  0
LINE
  8
LC-003-005-----0
  6
CONTINUOUS
  5
166
 10
142.213484
 20
46.046962
 30
0.0
 11
156.213484
 21
60.046962
 31
0.0
  0
LINE
  8
LC-003-005-----0
  6
CONTINUOUS
  5
167
 10
140.288104
 20
49.778436
 30
0.0
 11
150.55663
 21
60.046962
 31
0.0
  0
LINE
  8
LC-003-005-----0
  6
CONTINUOUS
  5
168
 10
140.288104
 20
55.43529
 30
0.0
 11
144.899776
 21
60.046962
 31
0.0
  0
LINE
  8
LC-003-005-----0
  6
CONTINUOUS
  5
169
 10
192.288104
 20
56.613483
 30
0.0
 11
188.854625
 21
60.046962
 31
0.0
  0
LINE
  8
LC-003-005-----0
  6
CONTINUOUS
  5
16A
 10
192.288104
 20
50.956629
 30
0.0
 11
183.197771
 21
60.046962
 31
0.0
  0
LINE
  8
LC-003-005-----0
  6
CONTINUOUS
  5
16B
 10
191.540916
 20
46.046962
 30
0.0
 11
177.540916
 21
60.046962
 31
0.0
  0
LINE
  8
LC-003-005-----0
  6
CONTINUOUS
  5
16C
 10
185.884062
 20
46.046962
 30
0.0
 11
171.884062
 21
60.046962
 31
0.0
  0
LINE
  8
LC-003-005-----0
  6
CONTINUOUS
  5
16D
 10
180.227208
 20
46.046962
 30
0.0
 11
166.227208
 21
60.046962
 31
0.0
  0
LINE
  8
LC-003-005-----0
  6
CONTINUOUS
  5
16E
 10
174.570354
 20
46.046962
 30
0.0
 11
160.570354
 21
60.046962
 31
0.0
  0
LINE
  8
LC-003-005-----0
  6
CONTINUOUS
  5
16F
 10
168.913499
 20
46.046962
 30
0.0
 11
154.913499
 21
60.046962
 31
0.0
  0
LINE
  8
LC-003-005-----0
  6
CONTINUOUS
  5
170
 10
163.256645
 20
46.046962
 30
0.0
 11
149.256645
 21
60.046962
 31
0.0
  0
LINE
  8
LC-003-005-----0
  6
CONTINUOUS
  5
171
 10
157.599791
 20
46.046962
 30
0.0
 11
143.599791
 21
60.046962
 31
0.0
  0
LINE
  8
LC-003-005-----0
  6
CONTINUOUS
  5
172
 10
151.942937
 20
46.046962
 30
0.0
 11
140.288104
 21
57.701795
 31
0.0
  0
LINE
  8
LC-003-005-----0
  6
CONTINUOUS
  5
173
 10
146.286082
 20
46.046962
 30
0.0
 11
140.288104
 21
52.044941
 31
0.0
  0
LINE
  8
LC-003-005-----0
  6
CONTINUOUS
  5
174
 10
140.629228
 20
46.046962
 30
0.0
 11
140.288104
 21
46.388087
 31
0.0
  0
ENDBLK
  8
0
  5
175
  0
ENDSEC
  0
SECTION
  2
ENTITIES
  0
VIEWPORT
  8
LC-000
  5
21B
 67
     1
 68
     1
 10
420.0
 20
297.0
 30
0.0
 40
840.0
 41
594.0
 69
     1
1001
ACAD
1000
MVIEW
1002
{
1070
    16
1010
0.0
1020
0.0
1030
0.0
1010
0.0
1020
0.0
1030
1.0
1040
0.0
1040
594.0
1040
420.0
1040
297.0
1040
50.0
1040
0.0
1040
0.0
1070
     0
1070
   100
1070
     1
1070
     1
1070
     0
1070
     0
1070
     0
1070
     0
1040
0.0
1040
0.0
1040
0.0
1040
1.0
1040
1.0
1040
0.0
1040
0.0
1070
     0
1002
{
1002
}
1002
}
  0
VIEWPORT
  8
0
  5
21C
 67
     1
 68
     1
 10
0.0
 20
0.0
 30
0.0
 40
0.0
 41
0.0
 69
     1
1001
ACAD
1000
MVIEW
1002
{
1070
    16
1010
0.0
1020
0.0
1030
0.0
1010
0.0
1020
0.0
1030
1.0
1040
0.0
1040
594.0
1040
0.0
1040
0.0
1040
50.0
1040
0.0
1040
0.0
1070
     0
1070
   100
1070
     0
1070
     1
1070
     0
1070
     0
1070
     0
1070
     0
1040
0.0
1040
0.0
1040
0.0
1040
0.5
1040
0.5
1040
0.5
1040
0.5
1070
     0
1002
{
1002
}
1002
}
  0
INSERT
  8
0
  5
176
  2
*X0
 10
60.310104
 20
46.046962
 30
0.0
  0
INSERT
  8
0
  5
178
  2
BLK1
 10
0.0
 20
0.0
 30
0.0
  0
INSERT
  8
0
  5
179
  2
*X2
 10
80.288497
 20
43.046987
 30
0.0
  0
INSERT
  8
0
  5
17A
  2
BLK2
 10
0.0
 20
0.0
 30
0.0
  0
INSERT
  8
0
  5
17B
  2
*X4
 10
192.287666
 20
43.046987
 30
0.0
  0
INSERT
  8
0
  5
17C
  2
BLK3
 10
0.0
 20
0.0
 30
0.0
  0
DIMENSION
  8
0
  5
17D
  2
*D6
 10
140.038104
 20
182.0
 30
0.0
 11
140.038104
 21
182.0
 31
0.0
  1
100
 13
90.288104
 23
165.546962
 33
0.0
 14
189.788104
 24
166.046962
 34
0.0
  3
LC-DIM-L-0140-02-02
  0
DIMENSION
  8
0
  5
17E
  2
*D7
 10
138.679293
 20
216.0
 30
0.0
 11
138.679293
 21
216.0
 31
0.0
  1
160
 13
60.310104
 23
164.046962
 33
0.0
 14
220.266104
 24
164.046962
 34
0.0
  3
LC-DIM-L-0140-02-02
  0
DIMENSION
  8
0
  5
17F
  2
*D8
 10
140.288104
 20
0.0
 30
0.0
 11
140.288104
 21
0.0
 31
0.0
  1
%%c110
 13
85.28858
 23
50.545182
 33
0.0
 14
195.287627
 24
50.545182
 34
0.0
  3
LC-DIM-L-0140-02-02
  0
INSERT
  8
0
  5
180
  2
BLK4
 10
0.0
 20
0.0
 30
0.0
  0
INSERT
  8
0
  5
181
  2
*X10
 10
182.288104
 20
46.046962
 30
0.0
  0
DIMENSION
  8
0
  5
182
  2
*D11
 10
235.2
 20
53.046962
 30
0.0
 11
235.2
 21
53.046962
 31
0.0
 13
192.288104
 23
46.046962
 33
0.0
 14
192.288104
 24
60.046962
 34
0.0
 50
90.0
  3
LC-DIM-L-0140-02-02
  0
DIMENSION
  8
0
  5
183
  2
*D12
 10
274.4
 20
112.046962
 30
0.0
 11
274.4
 21
112.046962
 31
0.0
  1
6-104
 13
192.288104
 23
60.046962
 33
0.0
 14
220.266104
 24
164.046962
 34
0.0
 50
90.0
  3
LC-DIM-L-0140-02-02
  0
INSERT
  8
0
  5
184
  2
*X13
 10
88.288104
 20
46.046962
 30
0.0
  0
INSERT
  8
0
  5
185
  2
*X14
 10
140.288104
 20
46.046962
 30
0.0
  0
LINE
  8
LC-001-002-----0
  6
CONTINUOUS
  5
187
 10
85.288104
 20
157.046962
 30
0.0
 11
85.288104
 21
157.046962
 31
0.0
  0
LINE
  8
LC-001-002-----0
  6
CONTINUOUS
  5
188
 10
195.288104
 20
157.046962
 30
0.0
 11
195.288104
 21
157.046962
 31
0.0
  0
LINE
  8
LC-001-002-----0
  6
CONTINUOUS
  5
189
 10
85.288104
 20
159.546962
 30
0.0
 11
85.288104
 21
158.546962
 31
0.0
  0
LINE
  8
LC-001-002-----0
  6
CONTINUOUS
  5
18A
 10
90.288104
 20
164.046962
 30
0.0
 11
90.288104
 21
165.546962
 31
0.0
  0
LINE
  8
LC-001-002-----0
  6
CONTINUOUS
  5
18B
 10
90.288104
 20
164.046962
 30
0.0
 11
60.310104
 21
164.046962
 31
0.0
  0
LINE
  8
LC-001-002-----0
  6
CONTINUOUS
  5
18C
 10
60.310104
 20
161.046962
 30
0.0
 11
85.288104
 21
161.046962
 31
0.0
  0
ARC
  8
LC-002-002-RND-0
  6
CONTINUOUS
  5
18E
 10
330.766104
 20
61.546962
 30
0.0
 40
2.0
 50
180.0
 51
270.0
  0
ARC
  8
LC-002-002-RND-0
  6
CONTINUOUS
  5
18F
 10
419.766104
 20
61.546962
 30
0.0
 40
2.0
 50
270.0
 51
0.0
  0
LINE
  8
LC-001-002-----0
  6
CONTINUOUS
  5
190
 10
325.266104
 20
57.046962
 30
0.0
 11
325.266104
 21
155.046962
 31
0.0
  0
LINE
  8
LC-001-002-----0
  6
CONTINUOUS
  5
191
 10
195.288104
 20
159.546962
 30
0.0
 11
195.288104
 21
158.546962
 31
0.0
  0
LINE
  8
LC-001-002-----0
  6
CONTINUOUS
  5
192
 10
424.266104
 20
56.046962
 30
0.0
 11
326.266104
 21
56.046962
 31
0.0
  0
LINE
  8
LC-001-002-----0
  6
CONTINUOUS
  5
193
 10
425.266104
 20
155.046962
 30
0.0
 11
425.266104
 21
57.046962
 31
0.0
  0
ARC
  8
LC-002-002-RND-0
  6
CONTINUOUS
  5
194
 10
326.266104
 20
155.046962
 30
0.0
 40
1.0
 50
90.0
 51
180.0
  0
LINE
  8
LC-001-002-----0
  6
CONTINUOUS
  5
195
 10
195.287595
 20
61.046797
 30
0.0
 11
195.287619
 21
53.046903
 31
0.0
  0
ARC
  8
LC-002-002-RND-0
  6
CONTINUOUS
  5
196
 10
419.766104
 20
150.546962
 30
0.0
 40
2.0
 50
0.0
 51
90.0
  0
LINE
  8
LC-001-002-----0
  6
CONTINUOUS
  5
197
 10
190.288104
 20
164.046962
 30
0.0
 11
190.288104
 21
165.546962
 31
0.0
  0
ARC
  8
LC-002-002-RND-0
  6
CONTINUOUS
  5
198
 10
330.766104
 20
150.546962
 30
0.0
 40
2.0
 50
90.0
 51
180.0
  0
LINE
  8
LC-001-002-----0
  6
CONTINUOUS
  5
199
 10
93.788104
 20
160.546962
 30
0.0
 11
93.788104
 21
158.046962
 31
0.0
  0
LINE
  8
LC-001-002-----0
  6
CONTINUOUS
  5
19A
 10
190.288104
 20
164.046962
 30
0.0
 11
220.266104
 21
164.046962
 31
0.0
  0
LINE
  8
LC-001-002-----0
  6
CONTINUOUS
  5
19B
 10
326.266104
 20
156.046962
 30
0.0
 11
424.266104
 21
156.046962
 31
0.0
  0
LINE
  8
LC-001-002-----0
  6
CONTINUOUS
  5
19C
 10
140.288104
 20
166.046962
 30
0.0
 11
93.288104
 21
166.046962
 31
0.0
  0
LINE
  8
LC-001-002-----0
  6
CONTINUOUS
  5
19D
 10
93.788104
 20
158.046962
 30
0.0
 11
98.288104
 21
158.046962
 31
0.0
  0
LINE
  8
LC-001-002-----0
  6
CONTINUOUS
  5
19E
 10
91.288104
 20
155.046962
 30
0.0
 11
91.288104
 21
157.546962
 31
0.0
  0
LINE
  8
LC-001-002-----0
  6
CONTINUOUS
  5
19F
 10
91.288104
 20
155.046962
 30
0.0
 11
94.988104
 21
155.046962
 31
0.0
  0
LINE
  8
LC-001-002-----0
  6
CONTINUOUS
  5
1A0
 10
88.288104
 20
157.546962
 30
0.0
 11
91.288104
 21
157.546962
 31
0.0
  0
LINE
  8
LC-001-002-----0
  6
CONTINUOUS
  5
1A1
 10
220.266104
 20
161.046962
 30
0.0
 11
195.288104
 21
161.046962
 31
0.0
  0
ARC
  8
LC-002-002-RND-0
  6
CONTINUOUS
  5
1A2
 10
90.788104
 20
165.546962
 30
0.0
 40
0.5
 50
90.0
 51
180.0
  0
LINE
  8
LC-001-002-----0
  6
CONTINUOUS
  5
1A3
 10
192.287666
 20
43.046987
 30
0.0
 11
200.287711
 21
43.046987
 31
0.0
  0
ARC
  8
LC-002-002-RND-0
  6
CONTINUOUS
  5
1A4
 10
93.288104
 20
165.546962
 30
0.0
 40
0.5
 50
360.0
 51
90.0
  0
LINE
  8
LC-001-002-----0
  6
CONTINUOUS
  5
1A5
 10
175.981394
 20
43.046987
 30
0.0
 11
175.981394
 21
46.046962
 31
0.0
  0
LINE
  8
LC-001-002-----0
  6
CONTINUOUS
  5
1A6
 10
186.788104
 20
160.546962
 30
0.0
 11
186.788104
 21
158.046962
 31
0.0
  0
LINE
  8
LC-001-002-----0
  6
CONTINUOUS
  5
1A7
 10
140.288104
 20
166.046962
 30
0.0
 11
187.288104
 21
166.046962
 31
0.0
  0
LINE
  8
LC-001-002-----0
  6
CONTINUOUS
  5
1A8
 10
85.288104
 20
157.046962
 30
0.0
 11
85.288104
 21
50.546962
 31
0.0
  0
LINE
  8
LC-001-002-----0
  6
CONTINUOUS
  5
1A9
 10
88.288104
 20
157.546962
 30
0.0
 11
88.288104
 21
46.046962
 31
0.0
  0
LINE
  8
LC-001-002-----0
  6
CONTINUOUS
  5
1AA
 10
86.493875
 20
46.046962
 30
0.0
 11
88.288104
 21
46.046962
 31
0.0
  0
LINE
  8
LC-001-002-----0
  6
CONTINUOUS
  5
1AB
 10
295.288104
 20
31.068962
 30
0.0
 11
295.288104
 21
181.024962
 31
0.0
  0
LINE
  8
LC-001-002-----0
  6
CONTINUOUS
  5
1AC
 10
300.288104
 20
186.024962
 30
0.0
 11
450.244104
 21
186.024962
 31
0.0
  0
LINE
  8
LC-001-002-----0
  6
CONTINUOUS
  5
1AD
 10
455.244104
 20
181.024962
 30
0.0
 11
455.244104
 21
31.068962
 31
0.0
  0
LINE
  8
LC-001-002-----0
  6
CONTINUOUS
  5
1AE
 10
450.244104
 20
26.068962
 30
0.0
 11
300.288104
 21
26.068962
 31
0.0
  0
ARC
  8
LC-002-002-RND-0
  6
CONTINUOUS
  5
1AF
 10
300.288104
 20
31.068962
 30
0.0
 40
5.0
 50
180.0
 51
270.0
  0
ARC
  8
LC-002-002-RND-0
  6
CONTINUOUS
  5
1B0
 10
300.288104
 20
181.024962
 30
0.0
 40
5.0
 50
90.0
 51
180.0
  0
ARC
  8
LC-002-002-RND-0
  6
CONTINUOUS
  5
1B1
 10
450.244104
 20
181.024962
 30
0.0
 40
5.0
 50
0.0
 51
90.0
  0
ARC
  8
LC-002-002-RND-0
  6
CONTINUOUS
  5
1B2
 10
450.244104
 20
31.068962
 30
0.0
 40
5.0
 50
270.0
 51
0.0
  0
LINE
  8
LC-001-002-----0
  6
CONTINUOUS
  5
1B3
 10
85.288104
 20
50.546962
 30
0.0
 11
86.493875
 21
46.046962
 31
0.0
  0
LINE
  8
LC-001-002-----0
  6
CONTINUOUS
  5
1B4
 10
95.488104
 20
146.546962
 30
0.0
 11
98.288104
 21
146.546962
 31
0.0
  0
ARC
  8
LC-002-002-RND-0
  6
CONTINUOUS
  5
1B5
 10
424.266104
 20
57.046962
 30
0.0
 40
1.0
 50
270.0
 51
0.0
  0
LINE
  8
LC-001-002-----0
  6
CONTINUOUS
  5
1B6
 10
95.488104
 20
154.546962
 30
0.0
 11
95.488104
 21
146.546962
 31
0.0
  0
ARC
  8
LC-002-002-RND-0
  6
CONTINUOUS
  5
1B7
 10
424.266104
 20
155.046962
 30
0.0
 40
1.0
 50
0.0
 51
90.0
  0
ARC
  8
LC-001-002-----0
  6
CONTINUOUS
  5
1B8
 10
94.988104
 20
154.546962
 30
0.0
 40
0.5
 50
360.0
 51
90.0
  0
LINE
  8
LC-001-002-----0
  6
CONTINUOUS
  5
1B9
 10
98.288104
 20
158.046962
 30
0.0
 11
98.288104
 21
146.546962
 31
0.0
  0
LINE
  8
LC-001-002-----0
  6
CONTINUOUS
  5
1BA
 10
186.788104
 20
158.046962
 30
0.0
 11
182.288104
 21
158.046962
 31
0.0
  0
LINE
  8
LC-001-002-----0
  6
CONTINUOUS
  5
1BB
 10
189.288104
 20
155.046962
 30
0.0
 11
189.288104
 21
157.546962
 31
0.0
  0
LINE
  8
LC-001-002-----0
  6
CONTINUOUS
  5
1BC
 10
91.288104
 20
157.546962
 30
0.0
 11
88.288104
 21
157.546962
 31
0.0
  0
LINE
  8
LC-001-002-----0
  6
CONTINUOUS
  5
1BD
 10
93.788104
 20
160.546962
 30
0.0
 11
93.788104
 21
160.546962
 31
0.0
  0
CIRCLE
  8
LC-001-002-----0
  6
CONTINUOUS
  5
1BE
 10
336.766104
 20
67.546962
 30
0.0
 40
2.0
  0
LINE
  8
LC-001-002-----0
  6
CONTINUOUS
  5
1BF
 10
93.788104
 20
160.546962
 30
0.0
 11
93.788104
 21
165.546962
 31
0.0
  0
CIRCLE
  8
LC-001-002-----0
  6
CONTINUOUS
  5
1C0
 10
413.766104
 20
144.546962
 30
0.0
 40
2.0
  0
LINE
  8
LC-001-002-----0
  6
CONTINUOUS
  5
1C1
 10
189.288104
 20
155.046962
 30
0.0
 11
185.588104
 21
155.046962
 31
0.0
  0
LINE
  8
LC-001-002-----0
  6
CONTINUOUS
  5
1C2
 10
85.288104
 20
157.046962
 30
0.0
 11
85.288104
 21
161.046962
 31
0.0
  0
LINE
  8
LC-001-002-----0
  6
CONTINUOUS
  5
1C3
 10
192.288104
 20
157.546962
 30
0.0
 11
189.288104
 21
157.546962
 31
0.0
  0
LINE
  8
LC-001-002-----0
  6
CONTINUOUS
  5
1C4
 10
140.288104
 20
158.046962
 30
0.0
 11
98.304614
 21
158.046962
 31
0.0
  0
LINE
  8
LC-001-002-----0
  6
CONTINUOUS
  5
1C5
 10
140.288104
 20
46.046962
 30
0.0
 11
88.288104
 21
46.046962
 31
0.0
  0
LINE
  8
LC-001-002-----0
  6
CONTINUOUS
  5
1C6
 10
60.310104
 20
164.046962
 30
0.0
 11
60.310104
 21
161.046962
 31
0.0
  0
LINE
  8
LC-001-002-----0
  6
CONTINUOUS
  5
1C7
 10
93.288104
 20
166.046962
 30
0.0
 11
90.788104
 21
166.046962
 31
0.0
  0
ARC
  8
LC-002-002-RND-0
  6
CONTINUOUS
  5
1C8
 10
189.788104
 20
165.546962
 30
0.0
 40
0.5
 50
0.0
 51
90.0
  0
LINE
  8
LC-001-002-----0
  6
CONTINUOUS
  5
1C9
 10
140.288104
 20
146.546962
 30
0.0
 11
98.051487
 21
146.546962
 31
0.0
  0
ARC
  8
LC-002-002-RND-0
  6
CONTINUOUS
  5
1CA
 10
326.266104
 20
57.046962
 30
0.0
 40
1.0
 50
180.0
 51
270.0
  0
LINE
  8
LC-001-002-----0
  6
CONTINUOUS
  5
1CB
 10
93.788104
 20
160.546962
 30
0.0
 11
140.288104
 21
160.546962
 31
0.0
  0
LINE
  8
LC-001-002-----0
  6
DASHDOT
 62
     2
  5
1CD
 10
140.288104
 20
166.046962
 30
0.0
 11
140.288104
 21
46.046962
 31
0.0
  0
LINE
  8
LC-001-002-----0
  6
CONTINUOUS
  5
1CE
 10
104.594813
 20
43.046987
 30
0.0
 11
104.594813
 21
46.046962
 31
0.0
  0
LINE
  8
LC-001-002-----0
  6
CONTINUOUS
  5
1CF
 10
102.47351
 20
43.046987
 30
0.0
 11
102.47351
 21
46.046962
 31
0.0
  0
LINE
  8
LC-001-002-----0
  6
CONTINUOUS
  5
1D0
 10
200.287711
 20
43.046987
 30
0.0
 11
200.287711
 21
53.046213
 31
0.0
  0
ARC
  8
LC-002-002-RND-0
  6
CONTINUOUS
  5
1D1
 10
187.288104
 20
165.546962
 30
0.0
 40
0.5
 50
90.0
 51
180.0
  0
LINE
  8
LC-001-002-----0
  6
CONTINUOUS
  5
1D2
 10
197.287617
 20
63.046819
 30
0.0
 11
197.287617
 21
53.046903
 31
0.0
  0
LINE
  8
LC-001-002-----0
  6
CONTINUOUS
  5
1D3
 10
198.787723
 20
53.046903
 30
0.0
 11
200.287711
 21
53.046903
 31
0.0
  0
LINE
  8
LC-001-002-----0
  6
CONTINUOUS
  5
1D4
 10
197.287617
 20
63.046819
 30
0.0
 11
195.287595
 21
61.046797
 31
0.0
  0
LINE
  8
LC-001-002-----0
  6
CONTINUOUS
  5
1D5
 10
198.787723
 20
53.046903
 30
0.0
 11
197.287617
 21
53.046903
 31
0.0
  0
LINE
  8
LC-001-002-----0
  6
CONTINUOUS
  5
1D6
 10
138.788116
 20
46.046962
 30
0.0
 11
141.788091
 21
46.046962
 31
0.0
  0
LINE
  8
LC-001-002-----0
  6
CONTINUOUS
  5
1D7
 10
141.788091
 20
43.046987
 30
0.0
 11
141.788091
 21
46.046962
 31
0.0
  0
ARC
  8
LC-001-002-----0
  6
CONTINUOUS
  5
1D8
 10
324.766104
 20
69.546962
 30
0.0
 40
4.5
 50
332.733956
 51
27.266044
  0
LINE
  8
LC-001-002-----0
  6
CONTINUOUS
  5
1D9
 10
97.873641
 20
43.046987
 30
0.0
 11
97.873641
 21
46.046962
 31
0.0
  0
LINE
  8
LC-001-002-----0
  6
CONTINUOUS
  5
1DA
 10
97.873641
 20
46.046962
 30
0.0
 11
104.594813
 21
46.046962
 31
0.0
  0
LINE
  8
LC-001-002-----0
  6
CONTINUOUS
  5
1DB
 10
88.288541
 20
43.046987
 30
0.0
 11
141.788091
 21
43.046987
 31
0.0
  0
LINE
  8
LC-001-002-----0
  6
CONTINUOUS
  5
1DC
 10
141.788091
 20
43.046987
 30
0.0
 11
175.981394
 21
43.046987
 31
0.0
  0
LINE
  8
LC-001-002-----0
  6
CONTINUOUS
  5
1DD
 10
175.981394
 20
43.046987
 30
0.0
 11
192.266027
 21
43.046987
 31
0.0
  0
LINE
  8
LC-001-002-----0
  6
CONTINUOUS
  5
1DE
 10
195.288104
 20
157.046962
 30
0.0
 11
195.288104
 21
50.546962
 31
0.0
  0
ARC
  8
LC-001-002-----0
  6
CONTINUOUS
  5
1DF
 10
411.766104
 20
55.546962
 30
0.0
 40
4.5
 50
62.733956
 51
117.266044
  0
LINE
  8
LC-001-002-----0
  6
CONTINUOUS
  5
1E0
 10
138.788116
 20
43.046987
 30
0.0
 11
138.788116
 21
46.046962
 31
0.0
  0
LINE
  8
LC-001-002-----0
  6
CONTINUOUS
  5
1E1
 10
192.288104
 20
157.546962
 30
0.0
 11
192.288104
 21
46.046962
 31
0.0
  0
LINE
  8
LC-001-002-----0
  6
CONTINUOUS
  5
1E2
 10
85.288613
 20
61.046797
 30
0.0
 11
85.288567
 21
46.046962
 31
0.0
  0
LINE
  8
LC-001-002-----0
  6
CONTINUOUS
  5
1E3
 10
88.288541
 20
43.046987
 30
0.0
 11
80.288497
 21
43.046987
 31
0.0
  0
LINE
  8
LC-001-002-----0
  6
CONTINUOUS
  5
1E4
 10
80.288497
 20
43.046987
 30
0.0
 11
80.288497
 21
53.046213
 31
0.0
  0
LINE
  8
LC-001-002-----0
  6
CONTINUOUS
  5
1E5
 10
83.28859
 20
63.046819
 30
0.0
 11
83.28859
 21
53.046903
 31
0.0
  0
LINE
  8
LC-001-002-----0
  6
CONTINUOUS
  5
1E6
 10
194.082332
 20
46.046962
 30
0.0
 11
192.288104
 21
46.046962
 31
0.0
  0
LINE
  8
LC-001-002-----0
  6
CONTINUOUS
  5
1E7
 10
195.288104
 20
50.546962
 30
0.0
 11
194.082332
 21
46.046962
 31
0.0
  0
LINE
  8
LC-001-002-----0
  6
CONTINUOUS
  5
1E8
 10
81.788484
 20
53.046903
 30
0.0
 11
80.288497
 21
53.046903
 31
0.0
  0
LINE
  8
LC-001-002-----0
  6
CONTINUOUS
  5
1E9
 10
185.088104
 20
146.546962
 30
0.0
 11
182.288104
 21
146.546962
 31
0.0
  0
LINE
  8
LC-001-002-----0
  6
CONTINUOUS
  5
1EA
 10
83.28859
 20
63.046819
 30
0.0
 11
85.288613
 21
61.046797
 31
0.0
  0
LINE
  8
LC-001-002-----0
  6
CONTINUOUS
  5
1EB
 10
85.288567
 20
46.046962
 30
0.0
 11
88.288541
 21
46.046962
 31
0.0
  0
LINE
  8
LC-001-002-----0
  6
CONTINUOUS
  5
1EC
 10
185.088104
 20
154.546962
 30
0.0
 11
185.088104
 21
146.546962
 31
0.0
  0
ARC
  8
LC-001-002-----0
  6
CONTINUOUS
  5
1ED
 10
185.588104
 20
154.546962
 30
0.0
 40
0.5
 50
90.0
 51
180.0
  0
LINE
  8
LC-001-002-----0
  6
CONTINUOUS
  5
1EE
 10
182.288104
 20
158.046962
 30
0.0
 11
182.288104
 21
146.546962
 31
0.0
  0
LINE
  8
LC-001-002-----0
  6
CONTINUOUS
  5
1EF
 10
88.288541
 20
46.046962
 30
0.0
 11
88.288541
 21
43.046987
 31
0.0
  0
LINE
  8
LC-001-002-----0
  6
CONTINUOUS
  5
1F0
 10
189.288104
 20
157.546962
 30
0.0
 11
192.288104
 21
157.546962
 31
0.0
  0
LINE
  8
LC-001-002-----0
  6
CONTINUOUS
  5
1F1
 10
81.788484
 20
53.046903
 30
0.0
 11
83.28859
 21
53.046903
 31
0.0
  0
LINE
  8
LC-001-002-----0
  6
CONTINUOUS
  5
1F2
 10
186.788104
 20
160.546962
 30
0.0
 11
186.788104
 21
160.546962
 31
0.0
  0
LINE
  8
LC-001-002-----0
  6
CONTINUOUS
  5
1F3
 10
186.788104
 20
160.546962
 30
0.0
 11
186.788104
 21
165.546962
 31
0.0
  0
LINE
  8
LC-001-002-----0
  6
CONTINUOUS
  5
1F4
 10
195.288104
 20
157.046962
 30
0.0
 11
195.288104
 21
161.046962
 31
0.0
  0
LINE
  8
LC-001-002-----0
  6
CONTINUOUS
  5
1F5
 10
140.288104
 20
158.046962
 30
0.0
 11
182.271593
 21
158.046962
 31
0.0
  0
LINE
  8
LC-001-002-----0
  6
CONTINUOUS
  5
1F6
 10
195.28764
 20
46.046962
 30
0.0
 11
192.287666
 21
46.046962
 31
0.0
  0
LINE
  8
LC-001-002-----0
  6
CONTINUOUS
  5
1F7
 10
192.287666
 20
46.046962
 30
0.0
 11
192.287666
 21
43.046987
 31
0.0
  0
LINE
  8
LC-001-002-----0
  6
CONTINUOUS
  5
1F8
 10
195.287595
 20
61.046797
 30
0.0
 11
195.28764
 21
46.046962
 31
0.0
  0
LINE
  8
LC-001-002-----0
  6
CONTINUOUS
  5
1F9
 10
328.766104
 20
61.546962
 30
0.0
 11
328.766104
 21
150.546962
 31
0.0
  0
LINE
  8
LC-001-002-----0
  6
CONTINUOUS
  5
1FA
 10
197.287617
 20
63.046819
 30
0.0
 11
195.287595
 21
61.046797
 31
0.0
  0
ARC
  8
LC-001-002-----0
  6
CONTINUOUS
  5
1FB
 10
324.766104
 20
142.546962
 30
0.0
 40
4.5
 50
332.733956
 51
27.266044
  0
LINE
  8
LC-001-002-----0
  6
CONTINUOUS
  5
1FC
 10
197.287617
 20
63.046819
 30
0.0
 11
197.287617
 21
53.046903
 31
0.0
  0
LINE
  8
LC-001-002-----0
  6
CONTINUOUS
  5
1FD
 10
200.287711
 20
43.046987
 30
0.0
 11
200.287711
 21
53.046213
 31
0.0
  0
ARC
  8
LC-001-002-----0
  6
CONTINUOUS
  5
1FE
 10
340.766104
 20
156.546962
 30
0.0
 40
4.5
 50
242.733956
 51
297.266044
  0
LINE
  8
LC-001-002-----0
  6
CONTINUOUS
  5
1FF
 10
192.287666
 20
43.046987
 30
0.0
 11
200.287711
 21
43.046987
 31
0.0
  0
LINE
  8
LC-001-002-----0
  6
CONTINUOUS
  5
200
 10
182.702566
 20
43.046987
 30
0.0
 11
182.702566
 21
46.046962
 31
0.0
  0
LINE
  8
LC-001-002-----0
  6
CONTINUOUS
  5
201
 10
182.702566
 20
46.046962
 30
0.0
 11
175.981394
 21
46.046962
 31
0.0
  0
LINE
  8
LC-001-002-----0
  6
CONTINUOUS
  5
202
 10
178.102697
 20
43.046987
 30
0.0
 11
178.102697
 21
46.046962
 31
0.0
  0
LINE
  8
LC-001-002-----0
  6
CONTINUOUS
  5
203
 10
419.766104
 20
59.546962
 30
0.0
 11
330.766104
 21
59.546962
 31
0.0
  0
LINE
  8
LC-001-002-----0
  6
CONTINUOUS
  5
204
 10
421.766104
 20
150.546962
 30
0.0
 11
421.766104
 21
61.546962
 31
0.0
  0
LINE
  8
LC-001-002-----0
  6
CONTINUOUS
  5
205
 10
330.766104
 20
152.546962
 30
0.0
 11
419.766104
 21
152.546962
 31
0.0
  0
LINE
  8
LC-001-002-----0
  6
CONTINUOUS
 62
     2
  5
206
 10
100.122266
 20
194.108992
 30
0.0
 11
115.122266
 21
194.108992
 31
0.0
  0
CIRCLE
  8
LC-001-002-----0
  6
CONTINUOUS
  5
207
 10
375.266104
 20
106.046962
 30
0.0
 40
42.0
  0
LINE
  8
LC-001-002-----0
  6
CONTINUOUS
 62
     2
  5
208
 10
101.048906
 20
228.108992
 30
0.0
 11
116.048906
 21
228.108992
 31
0.0
  0
LINE
  8
LC-001-002-----0
  6
CONTINUOUS
 62
     2
  5
209
 10
101.048906
 20
243.108992
 30
0.0
 11
101.048906
 21
228.108992
 31
0.0
  0
LINE
  8
LC-001-002-----0
  6
CONTINUOUS
 62
     2
  5
20A
 10
100.122266
 20
209.108992
 30
0.0
 11
100.122266
 21
194.108992
 31
0.0
  0
ARC
  8
LC-001-002-----0
  6
CONTINUOUS
  5
20B
 10
425.766104
 20
142.546962
 30
0.0
 40
4.5
 50
152.733956
 51
207.266044
  0
LINE
  8
LC-001-002-----0
  6
CONTINUOUS
 62
     2
  5
20C
 10
115.122266
 20
209.108992
 30
0.0
 11
115.122266
 21
194.108992
 31
0.0
  0
ARC
  8
LC-001-002-----0
  6
CONTINUOUS
  5
20D
 10
338.766104
 20
55.546962
 30
0.0
 40
4.5
 50
62.733956
 51
117.266044
  0
LINE
  8
LC-001-002-----0
  6
CONTINUOUS
 62
     2
  5
20E
 10
100.122266
 20
209.108992
 30
0.0
 11
115.122266
 21
209.108992
 31
0.0
  0
CIRCLE
  8
LC-001-002-----0
  6
CONTINUOUS
  5
20F
 10
375.266104
 20
106.046962
 30
0.0
 40
46.5
  0
ARC
  8
LC-001-002-----0
  6
CONTINUOUS
  5
210
 10
425.766104
 20
69.546962
 30
0.0
 40
4.5
 50
152.733956
 51
207.266044
  0
ARC
  8
LC-001-002-----0
  6
CONTINUOUS
  5
211
 10
411.766104
 20
156.546962
 30
0.0
 40
4.5
 50
242.733956
 51
297.266044
  0
LINE
  8
LC-001-002-----0
  6
CONTINUOUS
 62
     2
  5
212
 10
101.048906
 20
243.108992
 30
0.0
 11
116.048906
 21
243.108992
 31
0.0
  0
LINE
  8
LC-001-002-----0
  6
CONTINUOUS
 62
     2
  5
213
 10
116.048906
 20
243.108992
 30
0.0
 11
116.048906
 21
228.108992
 31
0.0
  0
LINE
  8
LC-001-002-----0
  6
CONTINUOUS
  5
214
 10
140.288104
 20
46.046962
 30
0.0
 11
192.288104
 21
46.046962
 31
0.0
  0
LINE
  8
LC-001-002-----0
  6
CONTINUOUS
  5
215
 10
220.266104
 20
164.046962
 30
0.0
 11
220.266104
 21
161.046962
 31
0.0
  0
LINE
  8
LC-001-002-----0
  6
CONTINUOUS
  5
216
 10
187.288104
 20
166.046962
 30
0.0
 11
189.788104
 21
166.046962
 31
0.0
  0
LINE
  8
LC-001-002-----0
  6
CONTINUOUS
  5
217
 10
140.288104
 20
146.546962
 30
0.0
 11
182.52472
 21
146.546962
 31
0.0
  0
LINE
  8
LC-001-002-----0
  6
CONTINUOUS
  5
218
 10
186.788104
 20
160.546962
 30
0.0
 11
140.288104
 21
160.546962
 31
0.0
  0
LINE
  8
LC-001-002-----0
  6
CONTINUOUS
 62
     2
  5
219
 10
192.288104
 20
60.046962
 30
0.0
 11
88.288104
 21
60.046962
 31
0.0
  0
ENDSEC
  0
EOF
