  0
SECTION
  2
HEADER
  9
$ACADVER
  1
AC1015
  9
$ACADMAINTVER
 70
     6
  9
$DWGCODEPAGE
  3
DOS850
  9
$INSBASE
 10
0.0
 20
0.0
 30
0.0
  9
$EXTMIN
 10
-210.0
 20
-148.5
 30
0.0
  9
$EXTMAX
 10
630.0
 20
445.5
 30
0.0
  9
$LIMMIN
 10
-210.0
 20
-148.5
  9
$LIMMAX
 10
630.0
 20
445.5
  9
$ORTHOMODE
 70
     0
  9
$REGENMODE
 70
     1
  9
$FILLMODE
 70
     1
  9
$QTEXTMODE
 70
     0
  9
$MIRRTEXT
 70
     1
  9
$LTSCALE
 40
2.0
  9
$ATTMODE
 70
     1
  9
$TEXTSIZE
 40
2.5
  9
$TRACEWID
 40
1.0
  9
$TEXTSTYLE
  7
Standard
  9
$CLAYER
  8
0
  9
$CELTYPE
  6
ByLayer
  9
$CECOLOR
 62
     7
  9
$CELTSCALE
 40
1.0
  9
$DISPSILH
 70
     0
  9
$DIMSCALE
 40
2.0
  9
$DIMASZ
 40
3.5
  9
$DIMEXO
 40
0.625
  9
$DIMDLI
 40
3.75
  9
$DIMRND
 40
0.0
  9
$DIMDLE
 40
0.0
  9
$DIMEXE
 40
1.25
  9
$DIMTP
 40
0.0
  9
$DIMTM
 40
0.0
  9
$DIMTXT
 40
3.5
  9
$DIMCEN
 40
2.5
  9
$DIMTSZ
 40
0.0
  9
$DIMTOL
 70
     0
  9
$DIMLIM
 70
     0
  9
$DIMTIH
 70
     0
  9
$DIMTOH
 70
     0
  9
$DIMSE1
 70
     0
  9
$DIMSE2
 70
     0
  9
$DIMTAD
 70
     1
  9
$DIMZIN
 70
     8
  9
$DIMBLK
  1

  9
$DIMASO
 70
     1
  9
$DIMSHO
 70
     1
  9
$DIMPOST
  1

  9
$DIMAPOST
  1

  9
$DIMALT
 70
     0
  9
$DIMALTD
 70
     3
  9
$DIMALTF
 40
0.03937
  9
$DIMLFAC
 40
1.0
  9
$DIMTOFL
 70
     1
  9
$DIMTVP
 40
0.0
  9
$DIMTIX
 70
     0
  9
$DIMSOXD
 70
     0
  9
$DIMSAH
 70
     0
  9
$DIMBLK1
  1

  9
$DIMBLK2
  1

  9
$DIMSTYLE
  2
ISO-25
  9
$DIMCLRD
 70
     0
  9
$DIMCLRE
 70
     0
  9
$DIMCLRT
 70
     0
  9
$DIMTFAC
 40
1.0
  9
$DIMGAP
 40
0.625
  9
$DIMJUST
 70
     0
  9
$DIMSD1
 70
     0
  9
$DIMSD2
 70
     0
  9
$DIMTOLJ
 70
     0
  9
$DIMTZIN
 70
     8
  9
$DIMALTZ
 70
     0
  9
$DIMALTTZ
 70
     0
  9
$DIMUPT
 70
     0
  9
$DIMDEC
 70
     2
  9
$DIMTDEC
 70
     2
  9
$DIMALTU
 70
     2
  9
$DIMALTTD
 70
     3
  9
$DIMTXSTY
  7
Standard
  9
$DIMAUNIT
 70
     0
  9
$DIMADEC
 70
     0
  9
$DIMALTRND
 40
0.0
  9
$DIMAZIN
 70
     0
  9
$DIMDSEP
 70
    44
  9
$DIMATFIT
 70
     3
  9
$DIMFRAC
 70
     0
  9
$DIMLDRBLK
  1

  9
$DIMLUNIT
 70
     2
  9
$DIMLWD
 70
    -2
  9
$DIMLWE
 70
    -2
  9
$DIMTMOVE
 70
     0
  9
$LUNITS
 70
     2
  9
$LUPREC
 70
     4
  9
$SKETCHINC
 40
1.0
  9
$FILLETRAD
 40
10.0
  9
$AUNITS
 70
     0
  9
$AUPREC
 70
     0
  9
$MENU
  1
.
  9
$ELEVATION
 40
0.0
  9
$PELEVATION
 40
0.0
  9
$THICKNESS
 40
0.0
  9
$LIMCHECK
 70
     0
  9
$CHAMFERA
 40
10.0
  9
$CHAMFERB
 40
10.0
  9
$CHAMFERC
 40
20.0
  9
$CHAMFERD
 40
0.0
  9
$SKPOLY
 70
     0
  9
$TDCREATE
 40
2453643.409864849
  9
$TDUCREATE
 40
2453643.326531516
  9
$TDUPDATE
 40
2453643.409864861
  9
$TDUUPDATE
 40
2453643.326531528
  9
$TDINDWG
 40
0.0000000116
  9
$TDUSRTIMER
 40
0.0000000116
  9
$USRTIMER
 70
     1
  9
$ANGBASE
 50
0.0
  9
$ANGDIR
 70
     0
  9
$PDMODE
 70
     0
  9
$PDSIZE
 40
0.0
  9
$PLINEWID
 40
0.0
  9
$SPLFRAME
 70
     0
  9
$SPLINETYPE
 70
     6
  9
$SPLINESEGS
 70
     8
  9
$HANDSEED
  5
236
  9
$SURFTAB1
 70
     6
  9
$SURFTAB2
 70
     6
  9
$SURFTYPE
 70
     6
  9
$SURFU
 70
     6
  9
$SURFV
 70
     6
  9
$UCSBASE
  2

  9
$UCSNAME
  2

  9
$UCSORG
 10
0.0
 20
0.0
 30
0.0
  9
$UCSXDIR
 10
1.0
 20
0.0
 30
0.0
  9
$UCSYDIR
 10
0.0
 20
1.0
 30
0.0
  9
$UCSORTHOREF
  2

  9
$UCSORTHOVIEW
 70
     0
  9
$UCSORGTOP
 10
0.0
 20
0.0
 30
0.0
  9
$UCSORGBOTTOM
 10
0.0
 20
0.0
 30
0.0
  9
$UCSORGLEFT
 10
0.0
 20
0.0
 30
0.0
  9
$UCSORGRIGHT
 10
0.0
 20
0.0
 30
0.0
  9
$UCSORGFRONT
 10
0.0
 20
0.0
 30
0.0
  9
$UCSORGBACK
 10
0.0
 20
0.0
 30
0.0
  9
$PUCSBASE
  2

  9
$PUCSNAME
  2

  9
$PUCSORG
 10
0.0
 20
0.0
 30
0.0
  9
$PUCSXDIR
 10
1.0
 20
0.0
 30
0.0
  9
$PUCSYDIR
 10
0.0
 20
1.0
 30
0.0
  9
$PUCSORTHOREF
  2

  9
$PUCSORTHOVIEW
 70
     0
  9
$PUCSORGTOP
 10
0.0
 20
0.0
 30
0.0
  9
$PUCSORGBOTTOM
 10
0.0
 20
0.0
 30
0.0
  9
$PUCSORGLEFT
 10
0.0
 20
0.0
 30
0.0
  9
$PUCSORGRIGHT
 10
0.0
 20
0.0
 30
0.0
  9
$PUCSORGFRONT
 10
0.0
 20
0.0
 30
0.0
  9
$PUCSORGBACK
 10
0.0
 20
0.0
 30
0.0
  9
$USERI1
 70
     0
  9
$USERI2
 70
     0
  9
$USERI3
 70
     0
  9
$USERI4
 70
     0
  9
$USERI5
 70
     0
  9
$USERR1
 40
0.0
  9
$USERR2
 40
0.0
  9
$USERR3
 40
0.0
  9
$USERR4
 40
0.0
  9
$USERR5
 40
0.0
  9
$WORLDVIEW
 70
     1
  9
$SHADEDGE
 70
     3
  9
$SHADEDIF
 70
    70
  9
$TILEMODE
 70
     1
  9
$MAXACTVP
 70
    64
  9
$PINSBASE
 10
0.0
 20
0.0
 30
0.0
  9
$PLIMCHECK
 70
     0
  9
$PEXTMIN
 10
-210.0
 20
-148.5
 30
0.0
  9
$PEXTMAX
 10
630.0
 20
445.5
 30
0.0
  9
$PLIMMIN
 10
-210.0
 20
-148.5
  9
$PLIMMAX
 10
630.0
 20
445.5
  9
$UNITMODE
 70
     0
  9
$VISRETAIN
 70
     1
  9
$PLINEGEN
 70
     0
  9
$PSLTSCALE
 70
     1
  9
$TREEDEPTH
 70
  3020
  9
$CMLSTYLE
  2
Standard
  9
$CMLJUST
 70
     0
  9
$CMLSCALE
 40
20.0
  9
$PROXYGRAPHICS
 70
     1
  9
$MEASUREMENT
 70
     1
  9
$CELWEIGHT
370
    -1
  9
$ENDCAPS
280
     0
  9
$JOINSTYLE
280
     0
  9
$LWDISPLAY
290
     0
  9
$INSUNITS
 70
     4
  9
$HYPERLINKBASE
  1

  9
$STYLESHEET
  1

  9
$XEDIT
290
     1
  9
$CEPSNTYPE
380
     0
  9
$PSTYLEMODE
290
     1
  9
$FINGERPRINTGUID
  2
{FAEB1C30-E019-11D5-929B-00C0DF256EC4}
  9
$VERSIONGUID
  2
{FAEB1C32-E019-11D5-929B-00C0DF256EC4}
  9
$EXTNAMES
290
     1
  9
$PSVPSCALE
 40
0.0
  9
$OLESTARTUP
290
     0
  0
ENDSEC
  0
SECTION
  2
CLASSES
  0
CLASS
  1
ACDBDICTIONARYWDFLT
  2
AcDbDictionaryWithDefault
  3
ObjectDBX Classes
 90
        0
280
     0
281
     0
  0
CLASS
  1
ACDBPLACEHOLDER
  2
AcDbPlaceHolder
  3
ObjectDBX Classes
 90
        0
280
     0
281
     0
  0
CLASS
  1
LAYOUT
  2
AcDbLayout
  3
ObjectDBX Classes
 90
        0
280
     0
281
     0
  0
ENDSEC
  0
SECTION
  2
TABLES
  0
TABLE
  2
VPORT
  5
8
330
0
100
AcDbSymbolTable
 70
     2
  0
VPORT
  5
29
330
8
100
AcDbSymbolTableRecord
100
AcDbViewportTableRecord
  2
*ACTIVE
 70
     0
 10
0.0
 20
0.0
 11
1.0
 21
1.0
 12
210.0
 22
148.5
 13
0.0
 23
0.0
 14
1.0
 24
1.0
 15
0.0
 25
0.0
 16
0.0
 26
0.0
 36
1.0
 17
0.0
 27
0.0
 37
0.0
 40
594.0
 41
1.414141
 42
50.0
 43
0.0
 44
0.0
 50
0.0
 51
0.0
 71
    16
 72
   100
 73
     1
 74
     0
 75
     0
 76
     0
 77
     0
 78
     0
281
     0
 65
     0
110
0.0
120
0.0
130
0.0
111
1.0
121
0.0
131
0.0
112
0.0
122
1.0
132
0.0
 79
     0
146
0.0
  0
ENDTAB
  0
TABLE
  2
LTYPE
  5
5
330
0
100
AcDbSymbolTable
 70
     3
  0
LTYPE
  5
14
330
5
100
AcDbSymbolTableRecord
100
AcDbLinetypeTableRecord
  2
ByBlock
 70
     0
  3

 72
    65
 73
     0
 40
0.0
  0
LTYPE
  5
15
330
5
100
AcDbSymbolTableRecord
100
AcDbLinetypeTableRecord
  2
ByLayer
 70
     0
  3

 72
    65
 73
     0
 40
0.0
  0
LTYPE
  5
16
330
5
100
AcDbSymbolTableRecord
100
AcDbLinetypeTableRecord
  2
Continuous
 70
     0
  3
Solid line
 72
    65
 73
     0
 40
0.0
  0
LTYPE
  5
2A
330
5
100
AcDbSymbolTableRecord
100
AcDbLinetypeTableRecord
  2
DASHED
 70
     0
  3
__ __ __ __ __
 72
    65
 73
     2
 40
6.25
 49
5.0
 74
     4
 75
     0
340
0
 46
1.0
 50
0.0
 44
0.0
 45
0.0
 49
-1.25
 74
     4
 75
     0
340
0
 46
1.0
 50
0.0
 44
0.0
 45
0.0
  0
LTYPE
  5
153
330
5
100
AcDbSymbolTableRecord
100
AcDbLinetypeTableRecord
  2
DASHDOT
 70
     0
  3
__ . __ . __ . __ . __
 72
    65
 73
     4
 40
7.5
 49
5.0
 74
     4
 75
     0
340
0
 46
1.0
 50
0.0
 44
0.0
 45
0.0
 49
-1.25
 74
     4
 75
     0
340
0
 46
1.0
 50
0.0
 44
0.0
 45
0.0
 49
0.0
 74
     4
 75
     0
340
0
 46
1.0
 50
0.0
 44
0.0
 45
0.0
 49
-1.25
 74
     4
 75
     0
340
0
 46
1.0
 50
0.0
 44
0.0
 45
0.0
  0
ENDTAB
  0
TABLE
  2
LAYER
  5
2
330
0
100
AcDbSymbolTable
 70
    12
  0
LAYER
  5
10
330
2
100
AcDbSymbolTableRecord
100
AcDbLayerTableRecord
  2
0
 70
     0
 62
     7
  6
Continuous
370
    -3
390
F
  0
LAYER
  5
2B
330
2
100
AcDbSymbolTableRecord
100
AcDbLayerTableRecord
  2
LC-INFO-1-2-mm-A3-0
 70
     1
 62
     7
  6
ByBlock
370
    -3
390
F
  0
LAYER
  5
2C
330
2
100
AcDbSymbolTableRecord
100
AcDbLayerTableRecord
  2
LC-CUT-HIDDEN
 70
     0
 62
     7
  6
DASHED
370
    -3
390
F
  0
LAYER
  5
2D
330
2
100
AcDbSymbolTableRecord
100
AcDbLayerTableRecord
  2
LC-VIEWPORT
 70
     0
 62
     7
  6
ByBlock
370
    -3
390
F
  0
LAYER
  5
2E
330
2
100
AcDbSymbolTableRecord
100
AcDbLayerTableRecord
  2
LC-3D-HIDDEN
 70
     0
 62
     9
  6
DASHED
370
    -3
390
F
  0
LAYER
  5
34
330
2
100
AcDbSymbolTableRecord
100
AcDbLayerTableRecord
  2
LC-001-003-----0
 70
     0
 62
     2
  6
ByBlock
370
    -3
390
F
  0
LAYER
  5
36
330
2
100
AcDbSymbolTableRecord
100
AcDbLayerTableRecord
  2
Defpoints
 70
     0
 62
     7
  6
Continuous
290
     0
370
    -3
390
F
  0
LAYER
  5
44
330
2
100
AcDbSymbolTableRecord
100
AcDbLayerTableRecord
  2
LC-002-002-----0
 70
     0
 62
     2
  6
ByBlock
370
    -3
390
F
  0
LAYER
  5
46
330
2
100
AcDbSymbolTableRecord
100
AcDbLayerTableRecord
  2
LC-003-002-RND-0
 70
     0
 62
     1
  6
ByBlock
370
    -3
390
F
  0
LAYER
  5
50
330
2
100
AcDbSymbolTableRecord
100
AcDbLayerTableRecord
  2
LC-004-005-----0
 70
     0
 62
     2
  6
ByBlock
370
    -3
390
F
  0
LAYER
  5
E7
330
2
100
AcDbSymbolTableRecord
100
AcDbLayerTableRecord
  2
LC-005-001-----0
 70
     0
 62
     1
  6
ByBlock
370
    -3
390
F
  0
LAYER
  5
EC
330
2
100
AcDbSymbolTableRecord
100
AcDbLayerTableRecord
  2
LC-006-001-RND-0
 70
     0
 62
     1
  6
ByBlock
370
    -3
390
F
  0
ENDTAB
  0
TABLE
  2
STYLE
  5
3
330
0
100
AcDbSymbolTable
 70
     5
  0
STYLE
  5
11
330
3
100
AcDbSymbolTableRecord
100
AcDbTextStyleTableRecord
  2
Standard
 70
     0
 40
0.0
 41
1.0
 50
0.0
 71
     0
 42
2.5
  3
txt
  4

  0
STYLE
  5
2F
330
3
100
AcDbSymbolTableRecord
100
AcDbTextStyleTableRecord
  2
LCTX15-0-0-0-Arial
 70
     0
 40
0.0
 41
0.9
 50
0.0
 71
     0
 42
3.5
  3

  4

1001
ACAD
1000
Arial
1071
 16777218
  0
STYLE
  5
30
330
3
100
AcDbSymbolTableRecord
100
AcDbTextStyleTableRecord
  2
LCTX0-400-0-0-DIN-Schrift
 70
     0
 40
0.0
 41
0.8
 50
0.0
 71
     0
 42
3.5
  3
MONOTXT
  4

  0
STYLE
  5
31
330
3
100
AcDbSymbolTableRecord
100
AcDbTextStyleTableRecord
  2
LCTX15-285-0-0-Arial
 70
     0
 40
0.0
 41
0.75
 50
0.0
 71
     0
 42
3.5
  3

  4

1001
ACAD
1000
Arial
1071
 16777218
  0
STYLE
  5
32
330
3
100
AcDbSymbolTableRecord
100
AcDbTextStyleTableRecord
  2
LCTX15-400-0-0pDIN-Schrift
 70
     0
 40
2.5
 41
0.8
 50
15.0
 71
     0
 42
3.5
  3
STANDARD
  4

  0
ENDTAB
  0
TABLE
  2
VIEW
  5
6
330
0
100
AcDbSymbolTable
 70
     0
  0
ENDTAB
  0
TABLE
  2
UCS
  5
7
330
0
100
AcDbSymbolTable
 70
     0
  0
ENDTAB
  0
TABLE
  2
APPID
  5
9
330
0
100
AcDbSymbolTable
 70
     1
  0
APPID
  5
12
330
9
100
AcDbSymbolTableRecord
100
AcDbRegAppTableRecord
  2
ACAD
 70
     0
  0
ENDTAB
  0
TABLE
  2
DIMSTYLE
  5
A
330
0
100
AcDbSymbolTable
 70
     2
100
AcDbDimStyleTable
  0
DIMSTYLE
105
27
330
A
100
AcDbSymbolTableRecord
100
AcDbDimStyleTableRecord
  2
ISO-25
 70
     0
 41
2.5
 42
0.625
 43
3.75
 44
1.25
 73
     0
 74
     0
 77
     1
 78
     8
140
2.5
141
2.5
143
0.03937
147
0.625
171
     3
172
     1
271
     2
272
     2
274
     3
278
    44
283
     0
284
     8
340
11
  0
DIMSTYLE
105
33
102
{ACAD_REACTORS
330
35
330
1B5
330
1C5
330
221
102
}
330
A
100
AcDbSymbolTableRecord
100
AcDbDimStyleTableRecord
  2
LC-DIM-L-0140-02-02
 70
     0
 40
2.0
 41
14.0
 42
0.0
 43
7.5
 44
1.8
 73
     0
 74
     0
 77
     1
 78
     8
 79
     2
140
14.0
141
0.0
146
0.71
147
1.5
176
     2
177
     2
178
     2
179
     2
271
     2
278
    44
289
     1
340
32
  0
ENDTAB
  0
TABLE
  2
BLOCK_RECORD
  5
1
330
0
100
AcDbSymbolTable
 70
    15
  0
BLOCK_RECORD
  5
1F
330
1
100
AcDbSymbolTableRecord
100
AcDbBlockTableRecord
  2
*Model_Space
340
22
  0
BLOCK_RECORD
  5
1B
330
1
100
AcDbSymbolTableRecord
100
AcDbBlockTableRecord
  2
*Paper_Space
340
1E
  0
BLOCK_RECORD
  5
23
330
1
100
AcDbSymbolTableRecord
100
AcDbBlockTableRecord
  2
*Paper_Space0
340
26
  0
BLOCK_RECORD
  5
37
330
1
100
AcDbSymbolTableRecord
100
AcDbBlockTableRecord
  2
*D1
340
0
  0
BLOCK_RECORD
  5
A4
330
1
100
AcDbSymbolTableRecord
100
AcDbBlockTableRecord
  2
*X12
340
0
102
{BLKREFS
331
B0
102
}
  0
BLOCK_RECORD
  5
B1
330
1
100
AcDbSymbolTableRecord
100
AcDbBlockTableRecord
  2
*X23
340
0
102
{BLKREFS
331
BD
102
}
  0
BLOCK_RECORD
  5
BE
330
1
100
AcDbSymbolTableRecord
100
AcDbBlockTableRecord
  2
*X34
340
0
102
{BLKREFS
331
CB
102
}
  0
BLOCK_RECORD
  5
128
330
1
100
AcDbSymbolTableRecord
100
AcDbBlockTableRecord
  2
*X45
340
0
102
{BLKREFS
331
134
102
}
  0
BLOCK_RECORD
  5
135
330
1
100
AcDbSymbolTableRecord
100
AcDbBlockTableRecord
  2
*X56
340
0
102
{BLKREFS
331
141
102
}
  0
BLOCK_RECORD
  5
142
330
1
100
AcDbSymbolTableRecord
100
AcDbBlockTableRecord
  2
*X67
340
0
102
{BLKREFS
331
14E
102
}
  0
BLOCK_RECORD
  5
16A
330
1
100
AcDbSymbolTableRecord
100
AcDbBlockTableRecord
  2
*X78
340
0
102
{BLKREFS
331
18D
102
}
  0
BLOCK_RECORD
  5
18E
330
1
100
AcDbSymbolTableRecord
100
AcDbBlockTableRecord
  2
*X89
340
0
102
{BLKREFS
331
1B1
102
}
  0
BLOCK_RECORD
  5
1B6
330
1
100
AcDbSymbolTableRecord
100
AcDbBlockTableRecord
  2
*D10
340
0
  0
BLOCK_RECORD
  5
1C6
330
1
100
AcDbSymbolTableRecord
100
AcDbBlockTableRecord
  2
*D11
340
0
  0
BLOCK_RECORD
  5
1D5
330
1
100
AcDbSymbolTableRecord
100
AcDbBlockTableRecord
  2
*X912
340
0
102
{BLKREFS
331
1E2
102
}
  0
BLOCK_RECORD
  5
1FC
330
1
100
AcDbSymbolTableRecord
100
AcDbBlockTableRecord
  2
*X1013
340
0
102
{BLKREFS
331
20A
102
}
  0
BLOCK_RECORD
  5
222
330
1
100
AcDbSymbolTableRecord
100
AcDbBlockTableRecord
  2
*D14
340
0
  0
ENDTAB
  0
ENDSEC
  0
SECTION
  2
BLOCKS
  0
BLOCK
  5
20
330
1F
100
AcDbEntity
  8
0
100
AcDbBlockBegin
  2
*Model_Space
 70
     0
 71
     0
 10
0.0
 20
0.0
 30
0.0
  3
*Model_Space
  1

  0
ENDBLK
  5
21
330
1F
100
AcDbEntity
  8
0
100
AcDbBlockEnd
  0
BLOCK
  5
1C
330
1B
100
AcDbEntity
 67
     1
  8
0
100
AcDbBlockBegin
  2
*Paper_Space
 70
     0
 71
     0
 10
0.0
 20
0.0
 30
0.0
  3
*Paper_Space
  1

  0
ENDBLK
  5
1D
330
1B
100
AcDbEntity
 67
     1
  8
0
100
AcDbBlockEnd
  0
BLOCK
  5
24
330
23
100
AcDbEntity
  8
0
100
AcDbBlockBegin
  2
*Paper_Space0
 70
     0
 71
     0
 10
0.0
 20
0.0
 30
0.0
  3
*Paper_Space0
  1

  0
ENDBLK
  5
25
330
23
100
AcDbEntity
  8
0
100
AcDbBlockEnd
  0
BLOCK
  5
42
330
37
100
AcDbEntity
  8
0
100
AcDbBlockBegin
  2
*D1
 70
     1
 71
     0
 10
0.0
 20
0.0
 30
0.0
  3
*D1
  1

  0
LINE
  5
38
330
37
100
AcDbEntity
  8
LC-001-003-----0
 62
     2
370
    -2
100
AcDbLine
 10
65.968563
 20
171.337205
 30
0.0
 11
35.6
 21
171.337205
 31
0.0
  0
LINE
  5
39
330
37
100
AcDbEntity
  8
LC-001-003-----0
 62
     2
370
    -2
100
AcDbLine
 10
63.768563
 20
164.137205
 30
0.0
 11
35.6
 21
164.137205
 31
0.0
  0
LINE
  5
3A
330
37
100
AcDbEntity
  8
LC-001-003-----0
 62
     2
370
    -2
100
AcDbLine
 10
39.2
 20
199.337205
 30
0.0
 11
39.2
 21
227.337205
 31
0.0
  0
LINE
  5
3B
330
37
100
AcDbEntity
  8
LC-001-003-----0
 62
     2
370
    -2
100
AcDbLine
 10
39.2
 20
136.137205
 30
0.0
 11
39.2
 21
118.001378
 31
0.0
  0
SOLID
  5
3C
330
37
100
AcDbEntity
  8
LC-001-003-----0
 62
     2
100
AcDbTrace
 10
34.533333
 20
199.337205
 30
0.0
 11
43.866667
 21
199.337205
 31
0.0
 12
39.2
 22
171.337205
 32
0.0
 13
39.2
 23
171.337205
 33
0.0
  0
SOLID
  5
3D
330
37
100
AcDbEntity
  8
LC-001-003-----0
 62
     2
100
AcDbTrace
 10
43.866667
 20
136.137205
 30
0.0
 11
34.533333
 21
136.137205
 31
0.0
 12
39.2
 22
164.137205
 32
0.0
 13
39.2
 23
164.137205
 33
0.0
  0
MTEXT
  5
3E
330
37
100
AcDbEntity
  8
LC-001-003-----0
 62
     2
100
AcDbMText
 10
8.4
 20
130.086
 30
0.0
 40
28.0
 41
0.0
 71
     5
 72
     1
  1
\A1;7
  7
LCTX15-400-0-0pDIN-Schrift
 11
6.123031769111886E-17
 21
1.0
 31
0.0
 73
     1
 44
1.0
  0
POINT
  5
3F
330
37
100
AcDbEntity
  8
Defpoints
 62
     0
100
AcDbPoint
 10
65.968563
 20
171.337205
 30
0.0
  0
POINT
  5
40
330
37
100
AcDbEntity
  8
Defpoints
 62
     0
100
AcDbPoint
 10
63.768563
 20
164.137205
 30
0.0
  0
POINT
  5
41
330
37
100
AcDbEntity
  8
Defpoints
 62
     0
100
AcDbPoint
 10
39.2
 20
164.137205
 30
0.0
  0
ENDBLK
  5
43
330
37
100
AcDbEntity
  8
0
100
AcDbBlockEnd
  0
BLOCK
  5
A5
330
A4
100
AcDbEntity
  8
0
100
AcDbBlockBegin
  2
*X12
 70
     1
 71
     0
 10
0.0
 20
0.0
 30
0.0
  3
*X12
  1

  4
*X1
  0
LINE
  5
A7
330
A4
100
AcDbEntity
  8
LC-004-005-----0
 62
     7
370
    25
100
AcDbLine
 10
81.268324
 20
166.218993
 30
0.0
 11
81.350217
 21
166.1371
 31
0.0
  0
LINE
  5
A8
330
A4
100
AcDbEntity
  8
LC-004-005-----0
 62
     7
370
    25
100
AcDbLine
 10
81.268324
 20
167.633205
 30
0.0
 11
82.764431
 21
166.1371
 31
0.0
  0
LINE
  5
A9
330
A4
100
AcDbEntity
  8
LC-004-005-----0
 62
     7
370
    25
100
AcDbLine
 10
81.268324
 20
169.047418
 30
0.0
 11
82.768324
 21
167.54742
 31
0.0
  0
LINE
  5
AA
330
A4
100
AcDbEntity
  8
LC-004-005-----0
 62
     7
370
    25
100
AcDbLine
 10
81.623564
 20
170.106391
 30
0.0
 11
82.768324
 21
168.961633
 31
0.0
  0
LINE
  5
AB
330
A4
100
AcDbEntity
  8
LC-004-005-----0
 62
     7
370
    25
100
AcDbLine
 10
82.526663
 20
170.617506
 30
0.0
 11
84.007071
 21
169.1371
 31
0.0
  0
LINE
  5
AC
330
A4
100
AcDbEntity
  8
LC-004-005-----0
 62
     7
370
    25
100
AcDbLine
 10
85.768324
 20
167.375849
 30
0.0
 11
87.007075
 21
166.1371
 31
0.0
  0
LINE
  5
AD
330
A4
100
AcDbEntity
  8
LC-004-005-----0
 62
     7
370
    25
100
AcDbLine
 10
83.921283
 20
170.6371
 30
0.0
 11
85.421285
 21
169.1371
 31
0.0
  0
LINE
  5
AE
330
A4
100
AcDbEntity
  8
LC-004-005-----0
 62
     7
370
    25
100
AcDbLine
 10
85.768324
 20
168.790062
 30
0.0
 11
87.268324
 21
167.290064
 31
0.0
  0
LINE
  5
AF
330
A4
100
AcDbEntity
  8
LC-004-005-----0
 62
     7
370
    25
100
AcDbLine
 10
85.335498
 20
170.6371
 30
0.0
 11
87.268324
 21
168.704277
 31
0.0
  0
ENDBLK
  5
A6
330
A4
100
AcDbEntity
  8
0
100
AcDbBlockEnd
  0
BLOCK
  5
B2
330
B1
100
AcDbEntity
  8
0
100
AcDbBlockBegin
  2
*X23
 70
     1
 71
     0
 10
0.0
 20
0.0
 30
0.0
  3
*X23
  1

  4
*X2
  0
LINE
  5
B4
330
B1
100
AcDbEntity
  8
LC-004-005-----0
 62
     7
370
    25
100
AcDbLine
 10
93.268324
 20
166.946922
 30
0.0
 11
94.078147
 21
166.1371
 31
0.0
  0
LINE
  5
B5
330
B1
100
AcDbEntity
  8
LC-004-005-----0
 62
     7
370
    25
100
AcDbLine
 10
93.268324
 20
168.361135
 30
0.0
 11
94.768324
 21
166.861137
 31
0.0
  0
LINE
  5
B6
330
B1
100
AcDbEntity
  8
LC-004-005-----0
 62
     7
370
    25
100
AcDbLine
 10
93.368249
 20
169.675423
 30
0.0
 11
94.768324
 21
168.27535
 31
0.0
  0
LINE
  5
B7
330
B1
100
AcDbEntity
  8
LC-004-005-----0
 62
     7
370
    25
100
AcDbLine
 10
94.020496
 20
170.43739
 30
0.0
 11
95.320787
 21
169.1371
 31
0.0
  0
LINE
  5
B8
330
B1
100
AcDbEntity
  8
LC-004-005-----0
 62
     7
370
    25
100
AcDbLine
 10
97.768324
 20
166.689566
 30
0.0
 11
98.320791
 21
166.1371
 31
0.0
  0
LINE
  5
B9
330
B1
100
AcDbEntity
  8
LC-004-005-----0
 62
     7
370
    25
100
AcDbLine
 10
95.234999
 20
170.6371
 30
0.0
 11
96.735001
 21
169.1371
 31
0.0
  0
LINE
  5
BA
330
B1
100
AcDbEntity
  8
LC-004-005-----0
 62
     7
370
    25
100
AcDbLine
 10
97.768324
 20
168.103779
 30
0.0
 11
99.268324
 21
166.603781
 31
0.0
  0
LINE
  5
BB
330
B1
100
AcDbEntity
  8
LC-004-005-----0
 62
     7
370
    25
100
AcDbLine
 10
96.649214
 20
170.6371
 30
0.0
 11
99.268324
 21
168.017993
 31
0.0
  0
LINE
  5
BC
330
B1
100
AcDbEntity
  8
LC-004-005-----0
 62
     7
370
    25
100
AcDbLine
 10
98.100721
 20
170.599808
 30
0.0
 11
99.231031
 21
169.469499
 31
0.0
  0
ENDBLK
  5
B3
330
B1
100
AcDbEntity
  8
0
100
AcDbBlockEnd
  0
BLOCK
  5
BF
330
BE
100
AcDbEntity
  8
0
100
AcDbBlockBegin
  2
*X34
 70
     1
 71
     0
 10
0.0
 20
0.0
 30
0.0
  3
*X34
  1

  4
*X3
  0
LINE
  5
C1
330
BE
100
AcDbEntity
  8
LC-004-005-----0
 62
     7
370
    25
100
AcDbLine
 10
105.268324
 20
166.260639
 30
0.0
 11
105.391863
 21
166.1371
 31
0.0
  0
LINE
  5
C2
330
BE
100
AcDbEntity
  8
LC-004-005-----0
 62
     7
370
    25
100
AcDbLine
 10
105.268324
 20
167.674852
 30
0.0
 11
106.768324
 21
166.174854
 31
0.0
  0
LINE
  5
C3
330
BE
100
AcDbEntity
  8
LC-004-005-----0
 62
     7
370
    25
100
AcDbLine
 10
105.268324
 20
169.089065
 30
0.0
 11
106.768324
 21
167.589067
 31
0.0
  0
LINE
  5
C4
330
BE
100
AcDbEntity
  8
LC-004-005-----0
 62
     7
370
    25
100
AcDbLine
 10
105.642865
 20
170.128737
 30
0.0
 11
106.768324
 21
169.003279
 31
0.0
  0
LINE
  5
C5
330
BE
100
AcDbEntity
  8
LC-004-005-----0
 62
     7
370
    25
100
AcDbLine
 10
106.562855
 20
170.622961
 30
0.0
 11
108.048717
 21
169.1371
 31
0.0
  0
LINE
  5
C6
330
BE
100
AcDbEntity
  8
LC-004-005-----0
 62
     7
370
    25
100
AcDbLine
 10
107.96293
 20
170.6371
 30
0.0
 11
109.462932
 21
169.1371
 31
0.0
  0
LINE
  5
C7
330
BE
100
AcDbEntity
  8
LC-004-005-----0
 62
     7
370
    25
100
AcDbLine
 10
109.377144
 20
170.6371
 30
0.0
 11
110.877146
 21
169.1371
 31
0.0
  0
LINE
  5
C8
330
BE
100
AcDbEntity
  8
LC-004-005-----0
 62
     7
370
    25
100
AcDbLine
 10
110.791359
 20
170.6371
 30
0.0
 11
112.291361
 21
169.1371
 31
0.0
  0
LINE
  5
C9
330
BE
100
AcDbEntity
  8
LC-004-005-----0
 62
     7
370
    25
100
AcDbLine
 10
112.205573
 20
170.6371
 30
0.0
 11
113.705575
 21
169.1371
 31
0.0
  0
LINE
  5
CA
330
BE
100
AcDbEntity
  8
LC-004-005-----0
 62
     7
370
    25
100
AcDbLine
 10
113.619788
 20
170.6371
 30
0.0
 11
114.268324
 21
169.988565
 31
0.0
  0
ENDBLK
  5
C0
330
BE
100
AcDbEntity
  8
0
100
AcDbBlockEnd
  0
BLOCK
  5
129
330
128
100
AcDbEntity
  8
0
100
AcDbBlockBegin
  2
*X45
 70
     1
 71
     0
 10
0.0
 20
0.0
 30
0.0
  3
*X45
  1

  4
*X4
  0
LINE
  5
12B
330
128
100
AcDbEntity
  8
LC-004-005-----0
 62
     7
370
    25
100
AcDbLine
 10
141.268561
 20
167.029978
 30
0.0
 11
142.161354
 21
166.137187
 31
0.0
  0
LINE
  5
12C
330
128
100
AcDbEntity
  8
LC-004-005-----0
 62
     7
370
    25
100
AcDbLine
 10
141.268562
 20
168.44419
 30
0.0
 11
142.768561
 21
166.944193
 31
0.0
  0
LINE
  5
12D
330
128
100
AcDbEntity
  8
LC-004-005-----0
 62
     7
370
    25
100
AcDbLine
 10
141.392573
 20
169.734392
 30
0.0
 11
142.768562
 21
168.358405
 31
0.0
  0
LINE
  5
12E
330
128
100
AcDbEntity
  8
LC-004-005-----0
 62
     7
370
    25
100
AcDbLine
 10
142.07432
 20
170.466858
 30
0.0
 11
143.403994
 21
169.137186
 31
0.0
  0
LINE
  5
12F
330
128
100
AcDbEntity
  8
LC-004-005-----0
 62
     7
370
    25
100
AcDbLine
 10
145.768561
 20
166.772622
 30
0.0
 11
146.404
 21
166.137184
 31
0.0
  0
LINE
  5
130
330
128
100
AcDbEntity
  8
LC-004-005-----0
 62
     7
370
    25
100
AcDbLine
 10
143.318207
 20
170.637186
 30
0.0
 11
144.818209
 21
169.137185
 31
0.0
  0
LINE
  5
131
330
128
100
AcDbEntity
  8
LC-004-005-----0
 62
     7
370
    25
100
AcDbLine
 10
145.768562
 20
168.186834
 30
0.0
 11
147.268561
 21
166.686837
 31
0.0
  0
LINE
  5
132
330
128
100
AcDbEntity
  8
LC-004-005-----0
 62
     7
370
    25
100
AcDbLine
 10
144.732422
 20
170.637185
 30
0.0
 11
147.268562
 21
168.101049
 31
0.0
  0
LINE
  5
133
330
128
100
AcDbEntity
  8
LC-004-005-----0
 62
     7
370
    25
100
AcDbLine
 10
146.214438
 20
170.569384
 30
0.0
 11
147.200761
 21
169.583062
 31
0.0
  0
ENDBLK
  5
12A
330
128
100
AcDbEntity
  8
0
100
AcDbBlockEnd
  0
BLOCK
  5
136
330
135
100
AcDbEntity
  8
0
100
AcDbBlockBegin
  2
*X56
 70
     1
 71
     0
 10
0.0
 20
0.0
 30
0.0
  3
*X56
  1

  4
*X5
  0
LINE
  5
138
330
135
100
AcDbEntity
  8
LC-004-005-----0
 62
     7
370
    25
100
AcDbLine
 10
129.268561
 20
166.302049
 30
0.0
 11
129.433415
 21
166.137195
 31
0.0
  0
LINE
  5
139
330
135
100
AcDbEntity
  8
LC-004-005-----0
 62
     7
370
    25
100
AcDbLine
 10
129.268561
 20
167.716261
 30
0.0
 11
130.768561
 21
166.216264
 31
0.0
  0
LINE
  5
13A
330
135
100
AcDbEntity
  8
LC-004-005-----0
 62
     7
370
    25
100
AcDbLine
 10
129.268562
 20
169.130473
 30
0.0
 11
130.768561
 21
167.630476
 31
0.0
  0
LINE
  5
13B
330
135
100
AcDbEntity
  8
LC-004-005-----0
 62
     7
370
    25
100
AcDbLine
 10
129.662657
 20
170.150591
 30
0.0
 11
130.768562
 21
169.044687
 31
0.0
  0
LINE
  5
13C
330
135
100
AcDbEntity
  8
LC-004-005-----0
 62
     7
370
    25
100
AcDbLine
 10
130.599792
 20
170.62767
 30
0.0
 11
132.090271
 21
169.137194
 31
0.0
  0
LINE
  5
13D
330
135
100
AcDbEntity
  8
LC-004-005-----0
 62
     7
370
    25
100
AcDbLine
 10
133.768561
 20
167.458905
 30
0.0
 11
135.090277
 21
166.137192
 31
0.0
  0
LINE
  5
13E
330
135
100
AcDbEntity
  8
LC-004-005-----0
 62
     7
370
    25
100
AcDbLine
 10
132.004483
 20
170.637194
 30
0.0
 11
133.504486
 21
169.137193
 31
0.0
  0
LINE
  5
13F
330
135
100
AcDbEntity
  8
LC-004-005-----0
 62
     7
370
    25
100
AcDbLine
 10
133.768562
 20
168.873117
 30
0.0
 11
135.268561
 21
167.37312
 31
0.0
  0
LINE
  5
140
330
135
100
AcDbEntity
  8
LC-004-005-----0
 62
     7
370
    25
100
AcDbLine
 10
133.418699
 20
170.637193
 30
0.0
 11
135.268562
 21
168.787331
 31
0.0
  0
ENDBLK
  5
137
330
135
100
AcDbEntity
  8
0
100
AcDbBlockEnd
  0
BLOCK
  5
143
330
142
100
AcDbEntity
  8
0
100
AcDbBlockBegin
  2
*X67
 70
     1
 71
     0
 10
0.0
 20
0.0
 30
0.0
  3
*X67
  1

  4
*X6
  0
LINE
  5
145
330
142
100
AcDbEntity
  8
LC-004-005-----0
 62
     7
370
    25
100
AcDbLine
 10
114.268563
 20
169.988326
 30
0.0
 11
115.119686
 21
169.137205
 31
0.0
  0
LINE
  5
146
330
142
100
AcDbEntity
  8
LC-004-005-----0
 62
     7
370
    25
100
AcDbLine
 10
115.033898
 20
170.637205
 30
0.0
 11
116.533901
 21
169.137204
 31
0.0
  0
LINE
  5
147
330
142
100
AcDbEntity
  8
LC-004-005-----0
 62
     7
370
    25
100
AcDbLine
 10
116.448113
 20
170.637204
 30
0.0
 11
117.948116
 21
169.137203
 31
0.0
  0
LINE
  5
148
330
142
100
AcDbEntity
  8
LC-004-005-----0
 62
     7
370
    25
100
AcDbLine
 10
117.862329
 20
170.637203
 30
0.0
 11
119.362332
 21
169.137202
 31
0.0
  0
LINE
  5
149
330
142
100
AcDbEntity
  8
LC-004-005-----0
 62
     7
370
    25
100
AcDbLine
 10
121.768561
 20
166.730976
 30
0.0
 11
122.362338
 21
166.1372
 31
0.0
  0
LINE
  5
14A
330
142
100
AcDbEntity
  8
LC-004-005-----0
 62
     7
370
    25
100
AcDbLine
 10
119.276544
 20
170.637202
 30
0.0
 11
120.776547
 21
169.137201
 31
0.0
  0
LINE
  5
14B
330
142
100
AcDbEntity
  8
LC-004-005-----0
 62
     7
370
    25
100
AcDbLine
 10
121.768562
 20
168.145188
 30
0.0
 11
123.268561
 21
166.645191
 31
0.0
  0
LINE
  5
14C
330
142
100
AcDbEntity
  8
LC-004-005-----0
 62
     7
370
    25
100
AcDbLine
 10
120.69076
 20
170.637201
 30
0.0
 11
123.268562
 21
168.059402
 31
0.0
  0
LINE
  5
14D
330
142
100
AcDbEntity
  8
LC-004-005-----0
 62
     7
370
    25
100
AcDbLine
 10
122.155829
 20
170.586347
 30
0.0
 11
123.217708
 21
169.524469
 31
0.0
  0
ENDBLK
  5
144
330
142
100
AcDbEntity
  8
0
100
AcDbBlockEnd
  0
BLOCK
  5
16B
330
16A
100
AcDbEntity
  8
0
100
AcDbBlockBegin
  2
*X78
 70
     1
 71
     0
 10
0.0
 20
0.0
 30
0.0
  3
*X78
  1

  4
*X7
  0
LINE
  5
16D
330
16A
100
AcDbEntity
  8
LC-004-005-----0
 62
     7
370
    25
100
AcDbLine
 10
158.263612
 20
115.837205
 30
0.0
 11
159.928869
 21
117.502462
 31
0.0
  0
LINE
  5
16E
330
16A
100
AcDbEntity
  8
LC-004-005-----0
 62
     7
370
    25
100
AcDbLine
 10
157.268563
 20
116.25637
 30
0.0
 11
160.018563
 21
119.00637
 31
0.0
  0
LINE
  5
16F
330
16A
100
AcDbEntity
  8
LC-004-005-----0
 62
     7
370
    25
100
AcDbLine
 10
157.268563
 20
117.670584
 30
0.0
 11
160.018563
 21
120.420584
 31
0.0
  0
LINE
  5
170
330
16A
100
AcDbEntity
  8
LC-004-005-----0
 62
     7
370
    25
100
AcDbLine
 10
157.268563
 20
119.084797
 30
0.0
 11
160.018563
 21
121.834797
 31
0.0
  0
LINE
  5
171
330
16A
100
AcDbEntity
  8
LC-004-005-----0
 62
     7
370
    25
100
AcDbLine
 10
157.268563
 20
120.499011
 30
0.0
 11
160.018563
 21
123.249011
 31
0.0
  0
LINE
  5
172
330
16A
100
AcDbEntity
  8
LC-004-005-----0
 62
     7
370
    25
100
AcDbLine
 10
157.268563
 20
121.913224
 30
0.0
 11
160.018563
 21
124.663224
 31
0.0
  0
LINE
  5
173
330
16A
100
AcDbEntity
  8
LC-004-005-----0
 62
     7
370
    25
100
AcDbLine
 10
157.268563
 20
123.327438
 30
0.0
 11
160.018563
 21
126.077438
 31
0.0
  0
LINE
  5
174
330
16A
100
AcDbEntity
  8
LC-004-005-----0
 62
     7
370
    25
100
AcDbLine
 10
157.268563
 20
124.741651
 30
0.0
 11
160.018563
 21
127.491651
 31
0.0
  0
LINE
  5
175
330
16A
100
AcDbEntity
  8
LC-004-005-----0
 62
     7
370
    25
100
AcDbLine
 10
157.268563
 20
126.155865
 30
0.0
 11
160.018563
 21
128.905865
 31
0.0
  0
LINE
  5
176
330
16A
100
AcDbEntity
  8
LC-004-005-----0
 62
     7
370
    25
100
AcDbLine
 10
157.268563
 20
127.570079
 30
0.0
 11
160.018563
 21
130.320079
 31
0.0
  0
LINE
  5
177
330
16A
100
AcDbEntity
  8
LC-004-005-----0
 62
     7
370
    25
100
AcDbLine
 10
157.268563
 20
128.984292
 30
0.0
 11
160.018563
 21
131.734292
 31
0.0
  0
LINE
  5
178
330
16A
100
AcDbEntity
  8
LC-004-005-----0
 62
     7
370
    25
100
AcDbLine
 10
157.268563
 20
130.398506
 30
0.0
 11
160.018563
 21
133.148506
 31
0.0
  0
LINE
  5
179
330
16A
100
AcDbEntity
  8
LC-004-005-----0
 62
     7
370
    25
100
AcDbLine
 10
157.268563
 20
131.812719
 30
0.0
 11
160.018563
 21
134.562719
 31
0.0
  0
LINE
  5
17A
330
16A
100
AcDbEntity
  8
LC-004-005-----0
 62
     7
370
    25
100
AcDbLine
 10
157.268563
 20
133.226933
 30
0.0
 11
160.018563
 21
135.976933
 31
0.0
  0
LINE
  5
17B
330
16A
100
AcDbEntity
  8
LC-004-005-----0
 62
     7
370
    25
100
AcDbLine
 10
157.268563
 20
134.641146
 30
0.0
 11
160.018563
 21
137.391146
 31
0.0
  0
LINE
  5
17C
330
16A
100
AcDbEntity
  8
LC-004-005-----0
 62
     7
370
    25
100
AcDbLine
 10
157.268563
 20
136.05536
 30
0.0
 11
160.018563
 21
138.80536
 31
0.0
  0
LINE
  5
17D
330
16A
100
AcDbEntity
  8
LC-004-005-----0
 62
     7
370
    25
100
AcDbLine
 10
157.268563
 20
137.469574
 30
0.0
 11
160.018563
 21
140.219574
 31
0.0
  0
LINE
  5
17E
330
16A
100
AcDbEntity
  8
LC-004-005-----0
 62
     7
370
    25
100
AcDbLine
 10
157.268563
 20
138.883787
 30
0.0
 11
160.018563
 21
141.633787
 31
0.0
  0
LINE
  5
17F
330
16A
100
AcDbEntity
  8
LC-004-005-----0
 62
     7
370
    25
100
AcDbLine
 10
157.268563
 20
140.298001
 30
0.0
 11
160.018563
 21
143.048001
 31
0.0
  0
LINE
  5
180
330
16A
100
AcDbEntity
  8
LC-004-005-----0
 62
     7
370
    25
100
AcDbLine
 10
157.268563
 20
141.712214
 30
0.0
 11
160.018563
 21
144.462214
 31
0.0
  0
LINE
  5
181
330
16A
100
AcDbEntity
  8
LC-004-005-----0
 62
     7
370
    25
100
AcDbLine
 10
157.268563
 20
143.126428
 30
0.0
 11
160.018563
 21
145.876428
 31
0.0
  0
LINE
  5
182
330
16A
100
AcDbEntity
  8
LC-004-005-----0
 62
     7
370
    25
100
AcDbLine
 10
157.268563
 20
144.540641
 30
0.0
 11
160.018563
 21
147.290641
 31
0.0
  0
LINE
  5
183
330
16A
100
AcDbEntity
  8
LC-004-005-----0
 62
     7
370
    25
100
AcDbLine
 10
157.268563
 20
145.954855
 30
0.0
 11
160.018563
 21
148.704855
 31
0.0
  0
LINE
  5
184
330
16A
100
AcDbEntity
  8
LC-004-005-----0
 62
     7
370
    25
100
AcDbLine
 10
158.268563
 20
148.369068
 30
0.0
 11
160.018563
 21
150.119068
 31
0.0
  0
LINE
  5
185
330
16A
100
AcDbEntity
  8
LC-004-005-----0
 62
     7
370
    25
100
AcDbLine
 10
158.268563
 20
149.783282
 30
0.0
 11
160.018563
 21
151.533282
 31
0.0
  0
LINE
  5
186
330
16A
100
AcDbEntity
  8
LC-004-005-----0
 62
     7
370
    25
100
AcDbLine
 10
158.268563
 20
151.197496
 30
0.0
 11
160.018563
 21
152.947496
 31
0.0
  0
LINE
  5
187
330
16A
100
AcDbEntity
  8
LC-004-005-----0
 62
     7
370
    25
100
AcDbLine
 10
158.268563
 20
152.611709
 30
0.0
 11
160.018563
 21
154.361709
 31
0.0
  0
LINE
  5
188
330
16A
100
AcDbEntity
  8
LC-004-005-----0
 62
     7
370
    25
100
AcDbLine
 10
158.268563
 20
154.025923
 30
0.0
 11
160.018563
 21
155.775923
 31
0.0
  0
LINE
  5
189
330
16A
100
AcDbEntity
  8
LC-004-005-----0
 62
     7
370
    25
100
AcDbLine
 10
157.717098
 20
154.888671
 30
0.0
 11
160.018563
 21
157.190136
 31
0.0
  0
LINE
  5
18A
330
16A
100
AcDbEntity
  8
LC-004-005-----0
 62
     7
370
    25
100
AcDbLine
 10
157.518563
 20
156.10435
 30
0.0
 11
160.018563
 21
158.60435
 31
0.0
  0
LINE
  5
18B
330
16A
100
AcDbEntity
  8
LC-004-005-----0
 62
     7
370
    25
100
AcDbLine
 10
157.518563
 20
157.518563
 30
0.0
 11
159.837205
 21
159.837205
 31
0.0
  0
LINE
  5
18C
330
16A
100
AcDbEntity
  8
LC-004-005-----0
 62
     7
370
    25
100
AcDbLine
 10
157.859381
 20
159.273595
 30
0.0
 11
158.422992
 21
159.837205
 31
0.0
  0
ENDBLK
  5
16C
330
16A
100
AcDbEntity
  8
0
100
AcDbBlockEnd
  0
BLOCK
  5
18F
330
18E
100
AcDbEntity
  8
0
100
AcDbBlockBegin
  2
*X89
 70
     1
 71
     0
 10
0.0
 20
0.0
 30
0.0
  3
*X89
  1

  4
*X8
  0
LINE
  5
191
330
18E
100
AcDbEntity
  8
LC-004-005-----0
 62
     7
370
    25
100
AcDbLine
 10
70.582371
 20
115.837205
 30
0.0
 11
71.268563
 21
116.523397
 31
0.0
  0
LINE
  5
192
330
18E
100
AcDbEntity
  8
LC-004-005-----0
 62
     7
370
    25
100
AcDbLine
 10
68.77963
 20
116.862891
 30
0.0
 11
71.268563
 21
119.351825
 31
0.0
  0
LINE
  5
193
330
18E
100
AcDbEntity
  8
LC-004-005-----0
 62
     7
370
    25
100
AcDbLine
 10
68.518563
 20
118.016038
 30
0.0
 11
71.268563
 21
120.766038
 31
0.0
  0
LINE
  5
194
330
18E
100
AcDbEntity
  8
LC-004-005-----0
 62
     7
370
    25
100
AcDbLine
 10
68.518563
 20
119.430252
 30
0.0
 11
71.268563
 21
122.180252
 31
0.0
  0
LINE
  5
195
330
18E
100
AcDbEntity
  8
LC-004-005-----0
 62
     7
370
    25
100
AcDbLine
 10
68.518563
 20
120.844465
 30
0.0
 11
71.268563
 21
123.594465
 31
0.0
  0
LINE
  5
196
330
18E
100
AcDbEntity
  8
LC-004-005-----0
 62
     7
370
    25
100
AcDbLine
 10
68.518563
 20
122.258679
 30
0.0
 11
71.268563
 21
125.008679
 31
0.0
  0
LINE
  5
197
330
18E
100
AcDbEntity
  8
LC-004-005-----0
 62
     7
370
    25
100
AcDbLine
 10
68.518563
 20
123.672892
 30
0.0
 11
71.268563
 21
126.422892
 31
0.0
  0
LINE
  5
198
330
18E
100
AcDbEntity
  8
LC-004-005-----0
 62
     7
370
    25
100
AcDbLine
 10
68.518563
 20
125.087106
 30
0.0
 11
71.268563
 21
127.837106
 31
0.0
  0
LINE
  5
199
330
18E
100
AcDbEntity
  8
LC-004-005-----0
 62
     7
370
    25
100
AcDbLine
 10
68.518563
 20
126.501319
 30
0.0
 11
71.268563
 21
129.251319
 31
0.0
  0
LINE
  5
19A
330
18E
100
AcDbEntity
  8
LC-004-005-----0
 62
     7
370
    25
100
AcDbLine
 10
68.518563
 20
127.915533
 30
0.0
 11
71.268563
 21
130.665533
 31
0.0
  0
LINE
  5
19B
330
18E
100
AcDbEntity
  8
LC-004-005-----0
 62
     7
370
    25
100
AcDbLine
 10
68.518563
 20
129.329747
 30
0.0
 11
71.268563
 21
132.079747
 31
0.0
  0
LINE
  5
19C
330
18E
100
AcDbEntity
  8
LC-004-005-----0
 62
     7
370
    25
100
AcDbLine
 10
68.518563
 20
130.74396
 30
0.0
 11
71.268563
 21
133.49396
 31
0.0
  0
LINE
  5
19D
330
18E
100
AcDbEntity
  8
LC-004-005-----0
 62
     7
370
    25
100
AcDbLine
 10
68.518563
 20
132.158174
 30
0.0
 11
71.268563
 21
134.908174
 31
0.0
  0
LINE
  5
19E
330
18E
100
AcDbEntity
  8
LC-004-005-----0
 62
     7
370
    25
100
AcDbLine
 10
68.518563
 20
133.572387
 30
0.0
 11
71.268563
 21
136.322387
 31
0.0
  0
LINE
  5
19F
330
18E
100
AcDbEntity
  8
LC-004-005-----0
 62
     7
370
    25
100
AcDbLine
 10
68.518563
 20
134.986601
 30
0.0
 11
71.268563
 21
137.736601
 31
0.0
  0
LINE
  5
1A0
330
18E
100
AcDbEntity
  8
LC-004-005-----0
 62
     7
370
    25
100
AcDbLine
 10
68.518563
 20
136.400814
 30
0.0
 11
71.268563
 21
139.150814
 31
0.0
  0
LINE
  5
1A1
330
18E
100
AcDbEntity
  8
LC-004-005-----0
 62
     7
370
    25
100
AcDbLine
 10
68.518563
 20
137.815028
 30
0.0
 11
71.268563
 21
140.565028
 31
0.0
  0
LINE
  5
1A2
330
18E
100
AcDbEntity
  8
LC-004-005-----0
 62
     7
370
    25
100
AcDbLine
 10
68.518563
 20
139.229242
 30
0.0
 11
71.268563
 21
141.979242
 31
0.0
  0
LINE
  5
1A3
330
18E
100
AcDbEntity
  8
LC-004-005-----0
 62
     7
370
    25
100
AcDbLine
 10
68.518563
 20
140.643455
 30
0.0
 11
71.268563
 21
143.393455
 31
0.0
  0
LINE
  5
1A4
330
18E
100
AcDbEntity
  8
LC-004-005-----0
 62
     7
370
    25
100
AcDbLine
 10
68.518563
 20
142.057669
 30
0.0
 11
71.268563
 21
144.807669
 31
0.0
  0
LINE
  5
1A5
330
18E
100
AcDbEntity
  8
LC-004-005-----0
 62
     7
370
    25
100
AcDbLine
 10
68.518563
 20
143.471882
 30
0.0
 11
71.268563
 21
146.221882
 31
0.0
  0
LINE
  5
1A6
330
18E
100
AcDbEntity
  8
LC-004-005-----0
 62
     7
370
    25
100
AcDbLine
 10
68.518563
 20
144.886096
 30
0.0
 11
70.869118
 21
147.23665
 31
0.0
  0
LINE
  5
1A7
330
18E
100
AcDbEntity
  8
LC-004-005-----0
 62
     7
370
    25
100
AcDbLine
 10
68.518563
 20
146.300309
 30
0.0
 11
70.268563
 21
148.050309
 31
0.0
  0
LINE
  5
1A8
330
18E
100
AcDbEntity
  8
LC-004-005-----0
 62
     7
370
    25
100
AcDbLine
 10
68.518563
 20
147.714523
 30
0.0
 11
70.268563
 21
149.464523
 31
0.0
  0
LINE
  5
1A9
330
18E
100
AcDbEntity
  8
LC-004-005-----0
 62
     7
370
    25
100
AcDbLine
 10
68.518563
 20
149.128736
 30
0.0
 11
70.268563
 21
150.878736
 31
0.0
  0
LINE
  5
1AA
330
18E
100
AcDbEntity
  8
LC-004-005-----0
 62
     7
370
    25
100
AcDbLine
 10
68.518563
 20
150.54295
 30
0.0
 11
70.268563
 21
152.29295
 31
0.0
  0
LINE
  5
1AB
330
18E
100
AcDbEntity
  8
LC-004-005-----0
 62
     7
370
    25
100
AcDbLine
 10
68.518563
 20
151.957164
 30
0.0
 11
70.268563
 21
153.707164
 31
0.0
  0
LINE
  5
1AC
330
18E
100
AcDbEntity
  8
LC-004-005-----0
 62
     7
370
    25
100
AcDbLine
 10
68.518563
 20
153.371377
 30
0.0
 11
71.018563
 21
155.871377
 31
0.0
  0
LINE
  5
1AD
330
18E
100
AcDbEntity
  8
LC-004-005-----0
 62
     7
370
    25
100
AcDbLine
 10
68.518563
 20
154.785591
 30
0.0
 11
71.018563
 21
157.285591
 31
0.0
  0
LINE
  5
1AE
330
18E
100
AcDbEntity
  8
LC-004-005-----0
 62
     7
370
    25
100
AcDbLine
 10
68.518563
 20
156.199804
 30
0.0
 11
70.921805
 21
158.603046
 31
0.0
  0
LINE
  5
1AF
330
18E
100
AcDbEntity
  8
LC-004-005-----0
 62
     7
370
    25
100
AcDbLine
 10
68.518563
 20
157.614018
 30
0.0
 11
70.544428
 21
159.639882
 31
0.0
  0
LINE
  5
1B0
330
18E
100
AcDbEntity
  8
LC-004-005-----0
 62
     7
370
    25
100
AcDbLine
 10
68.518563
 20
159.028231
 30
0.0
 11
69.327537
 21
159.837205
 31
0.0
  0
ENDBLK
  5
190
330
18E
100
AcDbEntity
  8
0
100
AcDbBlockEnd
  0
BLOCK
  5
1C2
330
1B6
100
AcDbEntity
  8
0
100
AcDbBlockBegin
  2
*D10
 70
     1
 71
     0
 10
0.0
 20
0.0
 30
0.0
  3
*D10
  1

  0
LINE
  5
1B7
330
1B6
100
AcDbEntity
  8
LC-001-003-----0
 62
     2
370
    -2
100
AcDbLine
 10
162.068563
 20
171.337205
 30
0.0
 11
238.8
 21
171.337205
 31
0.0
  0
LINE
  5
1B8
330
1B6
100
AcDbEntity
  8
LC-001-003-----0
 62
     2
370
    -2
100
AcDbLine
 10
159.482665
 20
115.837205
 30
0.0
 11
238.8
 21
115.837205
 31
0.0
  0
LINE
  5
1B9
330
1B6
100
AcDbEntity
  8
LC-001-003-----0
 62
     2
370
    -2
100
AcDbLine
 10
235.2
 20
199.337205
 30
0.0
 11
235.2
 21
227.337205
 31
0.0
  0
LINE
  5
1BA
330
1B6
100
AcDbEntity
  8
LC-001-003-----0
 62
     2
370
    -2
100
AcDbLine
 10
235.2
 20
87.837205
 30
0.0
 11
235.2
 21
59.837205
 31
0.0
  0
LINE
  5
1BB
330
1B6
100
AcDbEntity
  8
LC-001-003-----0
 62
     2
370
    -2
100
AcDbLine
 10
235.2
 20
171.337205
 30
0.0
 11
235.2
 21
115.837205
 31
0.0
  0
SOLID
  5
1BC
330
1B6
100
AcDbEntity
  8
LC-001-003-----0
 62
     2
100
AcDbTrace
 10
230.533333
 20
199.337205
 30
0.0
 11
239.866667
 21
199.337205
 31
0.0
 12
235.2
 22
171.337205
 32
0.0
 13
235.2
 23
171.337205
 33
0.0
  0
SOLID
  5
1BD
330
1B6
100
AcDbEntity
  8
LC-001-003-----0
 62
     2
100
AcDbTrace
 10
239.866667
 20
87.837205
 30
0.0
 11
230.533333
 21
87.837205
 31
0.0
 12
235.2
 22
115.837205
 32
0.0
 13
235.2
 23
115.837205
 33
0.0
  0
MTEXT
  5
1BE
330
1B6
100
AcDbEntity
  8
LC-001-003-----0
 62
     2
100
AcDbMText
 10
204.4
 20
143.587205
 30
0.0
 40
28.0
 41
0.0
 71
     5
 72
     1
  1
\A1;55
  7
LCTX15-400-0-0pDIN-Schrift
 11
6.123031769111886E-17
 21
1.0
 31
0.0
 73
     1
 44
1.0
  0
POINT
  5
1BF
330
1B6
100
AcDbEntity
  8
Defpoints
 62
     0
100
AcDbPoint
 10
162.068563
 20
171.337205
 30
0.0
  0
POINT
  5
1C0
330
1B6
100
AcDbEntity
  8
Defpoints
 62
     0
100
AcDbPoint
 10
159.482665
 20
115.837205
 30
0.0
  0
POINT
  5
1C1
330
1B6
100
AcDbEntity
  8
Defpoints
 62
     0
100
AcDbPoint
 10
235.2
 20
115.837205
 30
0.0
  0
ENDBLK
  5
1C3
330
1B6
100
AcDbEntity
  8
0
100
AcDbBlockEnd
  0
BLOCK
  5
1D0
330
1C6
100
AcDbEntity
  8
0
100
AcDbBlockBegin
  2
*D11
 70
     1
 71
     0
 10
0.0
 20
0.0
 30
0.0
  3
*D11
  1

  0
LINE
  5
1C7
330
1C6
100
AcDbEntity
  8
LC-001-003-----0
 62
     2
370
    -2
100
AcDbLine
 10
68.518563
 20
117.837205
 30
0.0
 11
68.518563
 21
25.648405
 31
0.0
  0
LINE
  5
1C8
330
1C6
100
AcDbEntity
  8
LC-001-003-----0
 62
     2
370
    -2
100
AcDbLine
 10
160.018563
 20
117.837205
 30
0.0
 11
160.018563
 21
25.648405
 31
0.0
  0
LINE
  5
1C9
330
1C6
100
AcDbEntity
  8
LC-001-003-----0
 62
     2
370
    -2
100
AcDbLine
 10
96.518563
 20
29.248405
 30
0.0
 11
132.018563
 21
29.248405
 31
0.0
  0
SOLID
  5
1CA
330
1C6
100
AcDbEntity
  8
LC-001-003-----0
 62
     2
100
AcDbTrace
 10
96.518563
 20
33.915071
 30
0.0
 11
96.518563
 21
24.581738
 31
0.0
 12
68.518563
 22
29.248405
 32
0.0
 13
68.518563
 23
29.248405
 33
0.0
  0
SOLID
  5
1CB
330
1C6
100
AcDbEntity
  8
LC-001-003-----0
 62
     2
100
AcDbTrace
 10
132.018563
 20
24.581738
 30
0.0
 11
132.018563
 21
33.915071
 31
0.0
 12
160.018563
 22
29.248405
 32
0.0
 13
160.018563
 23
29.248405
 33
0.0
  0
MTEXT
  5
1CC
330
1C6
100
AcDbEntity
  8
LC-001-003-----0
 62
     2
100
AcDbMText
 10
114.268563
 20
60.048405
 30
0.0
 40
28.0
 41
0.0
 71
     5
 72
     1
  1
%%c\A1;91,5
  7
LCTX15-400-0-0pDIN-Schrift
 73
     1
 44
1.0
  0
POINT
  5
1CD
330
1C6
100
AcDbEntity
  8
Defpoints
 62
     0
100
AcDbPoint
 10
68.518563
 20
117.837205
 30
0.0
  0
POINT
  5
1CE
330
1C6
100
AcDbEntity
  8
Defpoints
 62
     0
100
AcDbPoint
 10
160.018563
 20
117.837205
 30
0.0
  0
POINT
  5
1CF
330
1C6
100
AcDbEntity
  8
Defpoints
 62
     0
100
AcDbPoint
 10
160.018563
 20
29.248405
 30
0.0
  0
ENDBLK
  5
1D1
330
1C6
100
AcDbEntity
  8
0
100
AcDbBlockEnd
  0
BLOCK
  5
1D6
330
1D5
100
AcDbEntity
  8
0
100
AcDbBlockBegin
  2
*X912
 70
     1
 71
     0
 10
0.0
 20
0.0
 30
0.0
  3
*X912
  1

  4
*X9
  0
LINE
  5
1D8
330
1D5
100
AcDbEntity
  8
LC-004-005-----0
 62
     7
370
    25
100
AcDbLine
 10
163.768563
 20
169.985837
 30
0.0
 11
162.417196
 21
171.337205
 31
0.0
  0
LINE
  5
1D9
330
1D5
100
AcDbEntity
  8
LC-004-005-----0
 62
     7
370
    25
100
AcDbLine
 10
163.768563
 20
167.15741
 30
0.0
 11
160.768563
 21
170.15741
 31
0.0
  0
LINE
  5
1DA
330
1D5
100
AcDbEntity
  8
LC-004-005-----0
 62
     7
370
    25
100
AcDbLine
 10
164.260341
 20
163.837205
 30
0.0
 11
160.768563
 21
167.328983
 31
0.0
  0
LINE
  5
1DB
330
1D5
100
AcDbEntity
  8
LC-004-005-----0
 62
     7
370
    25
100
AcDbLine
 10
162.268563
 20
163.000556
 30
0.0
 11
160.768563
 21
164.500556
 31
0.0
  0
LINE
  5
1DC
330
1D5
100
AcDbEntity
  8
LC-004-005-----0
 62
     7
370
    25
100
AcDbLine
 10
160.603487
 20
161.837205
 30
0.0
 11
158.603487
 21
163.837205
 31
0.0
  0
LINE
  5
1DD
330
1D5
100
AcDbEntity
  8
LC-004-005-----0
 62
     7
370
    25
100
AcDbLine
 10
157.77506
 20
161.837205
 30
0.0
 11
155.918273
 21
163.693992
 31
0.0
  0
LINE
  5
1DE
330
1D5
100
AcDbEntity
  8
LC-004-005-----0
 62
     7
370
    25
100
AcDbLine
 10
157.468563
 20
159.315275
 30
0.0
 11
156.268563
 21
160.515275
 31
0.0
  0
LINE
  5
1DF
330
1D5
100
AcDbEntity
  8
LC-004-005-----0
 62
     7
370
    25
100
AcDbLine
 10
157.468563
 20
156.486847
 30
0.0
 11
156.268563
 21
157.686847
 31
0.0
  0
LINE
  5
1E0
330
1D5
100
AcDbEntity
  8
LC-004-005-----0
 62
     7
370
    25
100
AcDbLine
 10
157.973322
 20
153.153662
 30
0.0
 11
156.268563
 21
154.85842
 31
0.0
  0
LINE
  5
1E1
330
1D5
100
AcDbEntity
  8
LC-004-005-----0
 62
     7
370
    25
100
AcDbLine
 10
157.218567
 20
151.079989
 30
0.0
 11
156.268563
 21
152.029993
 31
0.0
  0
ENDBLK
  5
1D7
330
1D5
100
AcDbEntity
  8
0
100
AcDbBlockEnd
  0
BLOCK
  5
1FD
330
1FC
100
AcDbEntity
  8
0
100
AcDbBlockBegin
  2
*X1013
 70
     1
 71
     0
 10
0.0
 20
0.0
 30
0.0
  3
*X1013
  1

  4
*X10
  0
LINE
  5
1FF
330
1FC
100
AcDbEntity
  8
LC-004-005-----0
 62
     7
370
    25
100
AcDbLine
 10
67.768563
 20
169.819315
 30
0.0
 11
66.250673
 21
171.337205
 31
0.0
  0
LINE
  5
200
330
1FC
100
AcDbEntity
  8
LC-004-005-----0
 62
     7
370
    25
100
AcDbLine
 10
72.268563
 20
162.490888
 30
0.0
 11
70.922246
 21
163.837205
 31
0.0
  0
LINE
  5
201
330
1FC
100
AcDbEntity
  8
LC-004-005-----0
 62
     7
370
    25
100
AcDbLine
 10
67.768563
 20
166.990888
 30
0.0
 11
64.768563
 21
169.990888
 31
0.0
  0
LINE
  5
202
330
1FC
100
AcDbEntity
  8
LC-004-005-----0
 62
     7
370
    25
100
AcDbLine
 10
72.268563
 20
159.662461
 30
0.0
 11
71.068563
 21
160.862461
 31
0.0
  0
LINE
  5
203
330
1FC
100
AcDbEntity
  8
LC-004-005-----0
 62
     7
370
    25
100
AcDbLine
 10
70.093819
 20
161.837205
 30
0.0
 11
68.093819
 21
163.837205
 31
0.0
  0
LINE
  5
204
330
1FC
100
AcDbEntity
  8
LC-004-005-----0
 62
     7
370
    25
100
AcDbLine
 10
67.768563
 20
164.162461
 30
0.0
 11
64.768563
 21
167.162461
 31
0.0
  0
LINE
  5
205
330
1FC
100
AcDbEntity
  8
LC-004-005-----0
 62
     7
370
    25
100
AcDbLine
 10
72.268563
 20
156.834034
 30
0.0
 11
71.068563
 21
158.034034
 31
0.0
  0
LINE
  5
206
330
1FC
100
AcDbEntity
  8
LC-004-005-----0
 62
     7
370
    25
100
AcDbLine
 10
67.265392
 20
161.837205
 30
0.0
 11
66.268563
 21
162.834034
 31
0.0
  0
LINE
  5
207
330
1FC
100
AcDbEntity
  8
LC-004-005-----0
 62
     7
370
    25
100
AcDbLine
 10
65.265392
 20
163.837205
 30
0.0
 11
64.265392
 21
164.837205
 31
0.0
  0
LINE
  5
208
330
1FC
100
AcDbEntity
  8
LC-004-005-----0
 62
     7
370
    25
100
AcDbLine
 10
72.268563
 20
154.005607
 30
0.0
 11
71.068563
 21
155.205607
 31
0.0
  0
LINE
  5
209
330
1FC
100
AcDbEntity
  8
LC-004-005-----0
 62
     7
370
    25
100
AcDbLine
 10
72.268563
 20
151.177179
 30
0.0
 11
70.719299
 21
152.726443
 31
0.0
  0
ENDBLK
  5
1FE
330
1FC
100
AcDbEntity
  8
0
100
AcDbBlockEnd
  0
BLOCK
  5
22C
330
222
100
AcDbEntity
  8
0
100
AcDbBlockBegin
  2
*D14
 70
     1
 71
     0
 10
0.0
 20
0.0
 30
0.0
  3
*D14
  1

  0
LINE
  5
223
330
222
100
AcDbEntity
  8
LC-001-003-----0
 62
     2
370
    -2
100
AcDbLine
 10
64.768563
 20
170.837205
 30
0.0
 11
64.768563
 21
203.6
 31
0.0
  0
LINE
  5
224
330
222
100
AcDbEntity
  8
LC-001-003-----0
 62
     2
370
    -2
100
AcDbLine
 10
163.768563
 20
170.837205
 30
0.0
 11
163.768563
 21
203.6
 31
0.0
  0
LINE
  5
225
330
222
100
AcDbEntity
  8
LC-001-003-----0
 62
     2
370
    -2
100
AcDbLine
 10
92.768563
 20
200.0
 30
0.0
 11
135.768563
 21
200.0
 31
0.0
  0
SOLID
  5
226
330
222
100
AcDbEntity
  8
LC-001-003-----0
 62
     2
100
AcDbTrace
 10
92.768563
 20
204.666667
 30
0.0
 11
92.768563
 21
195.333333
 31
0.0
 12
64.768563
 22
200.0
 32
0.0
 13
64.768563
 23
200.0
 33
0.0
  0
SOLID
  5
227
330
222
100
AcDbEntity
  8
LC-001-003-----0
 62
     2
100
AcDbTrace
 10
135.768563
 20
195.333333
 30
0.0
 11
135.768563
 21
204.666667
 31
0.0
 12
163.768563
 22
200.0
 32
0.0
 13
163.768563
 23
200.0
 33
0.0
  0
MTEXT
  5
228
330
222
100
AcDbEntity
  8
LC-001-003-----0
 62
     2
100
AcDbMText
 10
114.268563
 20
230.8
 30
0.0
 40
28.0
 41
0.0
 71
     5
 72
     1
  1
\A1;100
  7
LCTX15-400-0-0pDIN-Schrift
 73
     1
 44
1.0
  0
POINT
  5
229
330
222
100
AcDbEntity
  8
Defpoints
 62
     0
100
AcDbPoint
 10
64.768563
 20
170.837205
 30
0.0
  0
POINT
  5
22A
330
222
100
AcDbEntity
  8
Defpoints
 62
     0
100
AcDbPoint
 10
163.768563
 20
170.837205
 30
0.0
  0
POINT
  5
22B
330
222
100
AcDbEntity
  8
Defpoints
 62
     0
100
AcDbPoint
 10
163.768563
 20
200.0
 30
0.0
  0
ENDBLK
  5
22D
330
222
100
AcDbEntity
  8
0
100
AcDbBlockEnd
  0
ENDSEC
  0
SECTION
  2
ENTITIES
  0
DIMENSION
  5
35
330
1F
100
AcDbEntity
  8
LC-001-003-----0
 62
     7
370
    25
100
AcDbDimension
  2
*D1
 10
39.2
 20
164.137205
 30
0.0
 11
8.4
 21
130.086
 31
0.0
 70
   160
  1
7
 71
     5
 42
7.2
 53
90.0
  3
LC-DIM-L-0140-02-02
100
AcDbAlignedDimension
 13
65.968563
 23
171.337205
 33
0.0
 14
63.768563
 24
164.137205
 34
0.0
 50
90.0
100
AcDbRotatedDimension
  0
LINE
  5
45
330
1F
100
AcDbEntity
  8
LC-002-002-----0
 62
     7
370
    25
100
AcDbLine
 10
91.985984
 20
223.660672
 30
0.0
 11
91.985984
 21
208.660672
 31
0.0
  0
ARC
  5
47
102
{ACAD_REACTORS
330
232
102
}
330
1F
100
AcDbEntity
  8
LC-003-002-RND-0
 62
     7
370
    50
100
AcDbCircle
 10
353.518563
 20
100.237205
 30
0.0
 40
2.5
100
AcDbArc
 50
270.0
 51
0.0
  0
ARC
  5
48
102
{ACAD_REACTORS
330
232
102
}
330
1F
100
AcDbEntity
  8
LC-003-002-RND-0
 62
     7
370
    50
100
AcDbCircle
 10
353.518563
 20
186.237205
 30
0.0
 40
2.5
100
AcDbArc
 50
0.0
 51
90.0
  0
ARC
  5
49
102
{ACAD_REACTORS
330
232
102
}
330
1F
100
AcDbEntity
  8
LC-003-002-RND-0
 62
     7
370
    50
100
AcDbCircle
 10
267.518563
 20
186.237205
 30
0.0
 40
2.5
100
AcDbArc
 50
90.0
 51
180.0
  0
ARC
  5
4A
102
{ACAD_REACTORS
330
232
102
}
330
1F
100
AcDbEntity
  8
LC-003-002-RND-0
 62
     7
370
    50
100
AcDbCircle
 10
267.518563
 20
100.237205
 30
0.0
 40
2.5
100
AcDbArc
 50
180.0
 51
270.0
  0
ARC
  5
4B
102
{ACAD_REACTORS
330
232
102
}
330
1F
100
AcDbEntity
  8
LC-002-002-----0
 62
     7
370
    50
100
AcDbCircle
 10
298.518563
 20
139.737205
 30
0.0
 40
3.0
100
AcDbArc
 50
180.0
 51
0.0
  0
ARC
  5
4C
102
{ACAD_REACTORS
330
232
102
}
330
1F
100
AcDbEntity
  8
LC-002-002-----0
 62
     7
370
    50
100
AcDbCircle
 10
322.518563
 20
146.737205
 30
0.0
 40
3.0
100
AcDbArc
 50
0.0
 51
180.0
  0
LINE
  5
4D
330
1F
100
AcDbEntity
  8
LC-002-002-----0
 62
     7
370
    50
100
AcDbLine
 10
70.268324
 20
166.1371
 30
0.0
 11
68.768324
 21
166.1371
 31
0.0
  0
LINE
  5
4E
330
1F
100
AcDbEntity
  8
LC-002-002-----0
 62
     7
370
    50
100
AcDbLine
 10
158.26856
 20
166.137176
 30
0.0
 11
159.76856
 21
166.137175
 31
0.0
  0
LINE
  5
4F
102
{ACAD_REACTORS
330
230
102
}
330
1F
100
AcDbEntity
  8
LC-002-002-----0
 62
     7
370
    50
100
AcDbLine
 10
68.518563
 20
159.837205
 30
0.0
 11
68.518563
 21
117.837205
 31
0.0
  0
LINE
  5
51
102
{ACAD_REACTORS
330
22F
102
}
330
1F
100
AcDbEntity
  8
LC-004-005-----0
 62
     7
370
    25
100
AcDbLine
 10
68.768324
 20
167.405275
 30
0.0
 11
70.036501
 21
166.1371
 31
0.0
  0
LINE
  5
52
102
{ACAD_REACTORS
330
22F
102
}
330
1F
100
AcDbEntity
  8
LC-004-005-----0
 62
     7
370
    25
100
AcDbLine
 10
68.775972
 20
168.81184
 30
0.0
 11
70.268324
 21
167.31949
 31
0.0
  0
LINE
  5
53
102
{ACAD_REACTORS
330
22F
102
}
330
1F
100
AcDbEntity
  8
LC-004-005-----0
 62
     7
370
    25
100
AcDbLine
 10
69.166868
 20
169.835157
 30
0.0
 11
70.268324
 21
168.733703
 31
0.0
  0
LINE
  5
54
102
{ACAD_REACTORS
330
22F
102
}
330
1F
100
AcDbEntity
  8
LC-004-005-----0
 62
     7
370
    25
100
AcDbLine
 10
69.952912
 20
170.463327
 30
0.0
 11
71.27914
 21
169.1371
 31
0.0
  0
LINE
  5
55
330
1F
100
AcDbEntity
  8
LC-002-002-----0
 62
     7
370
    25
100
AcDbLine
 10
76.985984
 20
208.660672
 30
0.0
 11
91.985984
 21
208.660672
 31
0.0
  0
LINE
  5
56
102
{ACAD_REACTORS
330
22F
102
}
330
1F
100
AcDbEntity
  8
LC-004-005-----0
 62
     7
370
    25
100
AcDbLine
 10
73.768324
 20
166.64792
 30
0.0
 11
74.279144
 21
166.1371
 31
0.0
  0
LINE
  5
57
330
1F
100
AcDbEntity
  8
LC-002-002-----0
 62
     7
370
    50
100
AcDbLine
 10
70.268324
 20
166.1371
 30
0.0
 11
70.268324
 21
169.1371
 31
0.0
  0
LINE
  5
58
330
1F
100
AcDbEntity
  8
LC-002-002-----0
 62
     7
370
    50
100
AcDbLine
 10
81.268324
 20
166.1371
 30
0.0
 11
82.768324
 21
166.1371
 31
0.0
  0
LINE
  5
59
330
1F
100
AcDbEntity
  8
LC-002-002-----0
 62
     7
370
    50
100
AcDbLine
 10
82.768324
 20
166.1371
 30
0.0
 11
82.768324
 21
169.1371
 31
0.0
  0
LINE
  5
5A
330
1F
100
AcDbEntity
  8
LC-002-002-----0
 62
     7
370
    50
100
AcDbLine
 10
82.768324
 20
169.1371
 30
0.0
 11
85.768324
 21
169.1371
 31
0.0
  0
LINE
  5
5B
330
1F
100
AcDbEntity
  8
LC-002-002-----0
 62
     7
370
    50
100
AcDbLine
 10
85.768324
 20
169.1371
 30
0.0
 11
85.768324
 21
166.1371
 31
0.0
  0
LINE
  5
5C
330
1F
100
AcDbEntity
  8
LC-002-002-----0
 62
     7
370
    50
100
AcDbLine
 10
85.768324
 20
166.1371
 30
0.0
 11
87.268324
 21
166.1371
 31
0.0
  0
LINE
  5
5D
330
1F
100
AcDbEntity
  8
LC-002-002-----0
 62
     7
370
    50
100
AcDbLine
 10
75.268324
 20
166.1371
 30
0.0
 11
73.768324
 21
166.1371
 31
0.0
  0
LINE
  5
5E
330
1F
100
AcDbEntity
  8
LC-002-002-----0
 62
     7
370
    25
100
AcDbLine
 10
76.985984
 20
223.660672
 30
0.0
 11
76.985984
 21
208.660672
 31
0.0
  0
LINE
  5
5F
102
{ACAD_REACTORS
330
232
102
}
330
1F
100
AcDbEntity
  8
LC-002-002-----0
 62
     7
370
    50
100
AcDbLine
 10
295.518563
 20
146.737205
 30
0.0
 11
295.518563
 21
139.737205
 31
0.0
  0
LINE
  5
60
102
{ACAD_REACTORS
330
232
102
}
330
1F
100
AcDbEntity
  8
LC-002-002-----0
 62
     7
370
    50
100
AcDbLine
 10
325.518563
 20
139.737205
 30
0.0
 11
325.518563
 21
146.737205
 31
0.0
  0
LINE
  5
61
102
{ACAD_REACTORS
330
232
102
}
330
1F
100
AcDbEntity
  8
LC-002-002-----0
 62
     7
370
    50
100
AcDbLine
 10
301.518563
 20
146.737205
 30
0.0
 11
301.518563
 21
139.737205
 31
0.0
  0
LINE
  5
62
330
1F
100
AcDbEntity
  8
LC-002-002-----0
 62
     7
370
    50
100
AcDbLine
 10
73.768324
 20
166.1371
 30
0.0
 11
73.768324
 21
169.1371
 31
0.0
  0
LINE
  5
63
330
1F
100
AcDbEntity
  8
LC-002-002-----0
 62
     7
370
    50
100
AcDbLine
 10
73.768324
 20
169.1371
 30
0.0
 11
70.768324
 21
169.1371
 31
0.0
  0
LINE
  5
64
330
1F
100
AcDbEntity
  8
LC-002-002-----0
 62
     7
370
    50
100
AcDbLine
 10
70.768324
 20
169.1371
 30
0.0
 11
70.268324
 21
169.1371
 31
0.0
  0
LINE
  5
65
330
1F
100
AcDbEntity
  8
LC-002-002-----0
 62
     7
370
    50
100
AcDbLine
 10
93.268324
 20
166.1371
 30
0.0
 11
94.768324
 21
166.1371
 31
0.0
  0
LINE
  5
66
330
1F
100
AcDbEntity
  8
LC-002-002-----0
 62
     7
370
    50
100
AcDbLine
 10
94.768324
 20
166.1371
 30
0.0
 11
94.768324
 21
169.1371
 31
0.0
  0
LINE
  5
67
330
1F
100
AcDbEntity
  8
LC-002-002-----0
 62
     7
370
    50
100
AcDbLine
 10
94.768324
 20
169.1371
 30
0.0
 11
97.768324
 21
169.1371
 31
0.0
  0
LINE
  5
68
330
1F
100
AcDbEntity
  8
LC-002-002-----0
 62
     7
370
    50
100
AcDbLine
 10
97.768324
 20
169.1371
 30
0.0
 11
97.768324
 21
166.1371
 31
0.0
  0
LINE
  5
69
330
1F
100
AcDbEntity
  8
LC-002-002-----0
 62
     7
370
    50
100
AcDbLine
 10
97.768324
 20
166.1371
 30
0.0
 11
99.268324
 21
166.1371
 31
0.0
  0
LINE
  5
6A
330
1F
100
AcDbEntity
  8
LC-002-002-----0
 62
     7
370
    50
100
AcDbLine
 10
105.268324
 20
166.1371
 30
0.0
 11
106.768324
 21
166.1371
 31
0.0
  0
LINE
  5
6B
330
1F
100
AcDbEntity
  8
LC-002-002-----0
 62
     7
370
    50
100
AcDbLine
 10
106.768324
 20
166.1371
 30
0.0
 11
106.768324
 21
169.1371
 31
0.0
  0
LINE
  5
6C
330
1F
100
AcDbEntity
  8
LC-002-002-----0
 62
     7
370
    50
100
AcDbLine
 10
106.768324
 20
169.1371
 30
0.0
 11
114.453784
 21
169.1371
 31
0.0
  0
LINE
  5
6D
330
1F
100
AcDbEntity
  8
LC-002-002-----0
 62
     7
370
    50
100
AcDbLine
 10
75.268324
 20
166.1371
 30
0.0
 11
81.268324
 21
166.1371
 31
0.0
  0
LINE
  5
6E
330
1F
100
AcDbEntity
  8
LC-002-002-----0
 62
     7
370
    50
100
AcDbLine
 10
87.268324
 20
166.1371
 30
0.0
 11
93.268324
 21
166.1371
 31
0.0
  0
LINE
  5
6F
330
1F
100
AcDbEntity
  8
LC-002-002-----0
 62
     7
370
    50
100
AcDbLine
 10
99.268324
 20
166.1371
 30
0.0
 11
105.268324
 21
166.1371
 31
0.0
  0
LINE
  5
70
330
1F
100
AcDbEntity
  8
LC-002-002-----0
 62
     7
370
    50
100
AcDbLine
 10
82.768324
 20
166.1371
 30
0.0
 11
85.768324
 21
166.1371
 31
0.0
  0
LINE
  5
71
330
1F
100
AcDbEntity
  8
LC-002-002-----0
 62
     7
370
    50
100
AcDbLine
 10
94.768324
 20
166.1371
 30
0.0
 11
97.768324
 21
166.1371
 31
0.0
  0
LINE
  5
72
330
1F
100
AcDbEntity
  8
LC-002-002-----0
 62
     7
370
    50
100
AcDbLine
 10
106.768324
 20
166.1371
 30
0.0
 11
114.268324
 21
166.1371
 31
0.0
  0
LINE
  5
73
330
1F
100
AcDbEntity
  8
LC-002-002-----0
 62
     7
370
    50
100
AcDbLine
 10
68.768324
 20
166.1371
 30
0.0
 11
68.768324
 21
168.6371
 31
0.0
  0
ARC
  5
74
330
1F
100
AcDbEntity
  8
LC-002-002-----0
 62
     7
370
    50
100
AcDbCircle
 10
70.768324
 20
168.6371
 30
0.0
 40
2.00000000000005
100
AcDbArc
 50
89.999981
 51
180.0
  0
LINE
  5
75
330
1F
100
AcDbEntity
  8
LC-002-002-----0
 62
     7
370
    50
100
AcDbLine
 10
70.768324
 20
170.6371
 30
0.0
 11
73.768324
 21
170.6371
 31
0.0
  0
ARC
  5
76
330
1F
100
AcDbEntity
  8
LC-002-002-----0
 62
     7
370
    50
100
AcDbCircle
 10
73.768324
 20
169.1371
 30
0.0
 40
1.500000000000114
100
AcDbArc
 50
0.0
 51
90.0
  0
ARC
  5
77
102
{ACAD_REACTORS
330
232
102
}
330
1F
100
AcDbEntity
  8
LC-002-002-----0
 62
     7
370
    50
100
AcDbCircle
 10
336.518563
 20
179.237205
 30
0.0
 40
3.0
100
AcDbArc
 50
270.0
 51
90.0
  0
ARC
  5
78
102
{ACAD_REACTORS
330
232
102
}
330
1F
100
AcDbEntity
  8
LC-002-002-----0
 62
     7
370
    50
100
AcDbCircle
 10
284.518563
 20
179.237205
 30
0.0
 40
3.0
100
AcDbArc
 50
90.0
 51
270.0
  0
LINE
  5
79
102
{ACAD_REACTORS
330
232
102
}
330
1F
100
AcDbEntity
  8
LC-002-002-----0
 62
     7
370
    50
100
AcDbLine
 10
336.518563
 20
176.237205
 30
0.0
 11
284.518563
 21
176.237205
 31
0.0
  0
LINE
  5
7A
330
1F
100
AcDbEntity
  8
LC-002-002-----0
 62
     7
370
    50
100
AcDbLine
 10
75.268324
 20
169.1371
 30
0.0
 11
75.268324
 21
166.1371
 31
0.0
  0
LINE
  5
7B
102
{ACAD_REACTORS
330
232
102
}
330
1F
100
AcDbEntity
  8
LC-002-002-----0
 62
     7
370
    50
100
AcDbLine
 10
336.518563
 20
182.237205
 30
0.0
 11
284.518563
 21
182.237205
 31
0.0
  0
LINE
  5
7C
102
{ACAD_REACTORS
330
232
102
}
330
1F
100
AcDbEntity
  8
LC-002-002-----0
 62
     7
370
    50
100
AcDbLine
 10
319.518563
 20
139.737205
 30
0.0
 11
319.518563
 21
146.737205
 31
0.0
  0
ARC
  5
7D
102
{ACAD_REACTORS
330
232
102
}
330
1F
100
AcDbEntity
  8
LC-002-002-----0
 62
     7
370
    50
100
AcDbCircle
 10
295.518563
 20
167.237205
 30
0.0
 40
3.0
100
AcDbArc
 50
90.0
 51
270.0
  0
ARC
  5
7E
102
{ACAD_REACTORS
330
232
102
}
330
1F
100
AcDbEntity
  8
LC-002-002-----0
 62
     7
370
    50
100
AcDbCircle
 10
325.518563
 20
167.237205
 30
0.0
 40
3.0
100
AcDbArc
 50
270.0
 51
90.0
  0
LINE
  5
7F
102
{ACAD_REACTORS
330
232
102
}
330
1F
100
AcDbEntity
  8
LC-002-002-----0
 62
     7
370
    50
100
AcDbLine
 10
295.518563
 20
170.237205
 30
0.0
 11
325.518563
 21
170.237205
 31
0.0
  0
LINE
  5
80
102
{ACAD_REACTORS
330
232
102
}
330
1F
100
AcDbEntity
  8
LC-002-002-----0
 62
     7
370
    50
100
AcDbLine
 10
295.518563
 20
164.237205
 30
0.0
 11
325.518563
 21
164.237205
 31
0.0
  0
ARC
  5
81
102
{ACAD_REACTORS
330
232
102
}
330
1F
100
AcDbEntity
  8
LC-002-002-----0
 62
     7
370
    50
100
AcDbCircle
 10
298.518563
 20
146.737205
 30
0.0
 40
3.0
100
AcDbArc
 50
0.0
 51
180.0
  0
ARC
  5
82
102
{ACAD_REACTORS
330
232
102
}
330
1F
100
AcDbEntity
  8
LC-002-002-----0
 62
     7
370
    50
100
AcDbCircle
 10
322.518563
 20
139.737205
 30
0.0
 40
3.0
100
AcDbArc
 50
180.0
 51
0.0
  0
LINE
  5
83
102
{ACAD_REACTORS
330
232
102
}
330
1F
100
AcDbEntity
  8
LC-002-002-----0
 62
     7
370
    50
100
AcDbLine
 10
289.518563
 20
128.237205
 30
0.0
 11
289.518563
 21
158.237205
 31
0.0
  0
LINE
  5
84
102
{ACAD_REACTORS
330
232
102
}
330
1F
100
AcDbEntity
  8
LC-002-002-----0
 62
     7
370
    50
100
AcDbLine
 10
325.518563
 20
122.237205
 30
0.0
 11
295.518563
 21
122.237205
 31
0.0
  0
LINE
  5
85
102
{ACAD_REACTORS
330
232
102
}
330
1F
100
AcDbEntity
  8
LC-002-002-----0
 62
     7
370
    50
100
AcDbLine
 10
331.518563
 20
158.237205
 30
0.0
 11
331.518563
 21
128.237205
 31
0.0
  0
ARC
  5
86
102
{ACAD_REACTORS
330
232
102
}
330
1F
100
AcDbEntity
  8
LC-002-002-----0
 62
     7
370
    50
100
AcDbCircle
 10
286.518563
 20
158.237205
 30
0.0
 40
3.0
100
AcDbArc
 50
0.0
 51
180.0
  0
ARC
  5
87
102
{ACAD_REACTORS
330
232
102
}
330
1F
100
AcDbEntity
  8
LC-002-002-----0
 62
     7
370
    50
100
AcDbCircle
 10
295.518563
 20
119.237205
 30
0.0
 40
3.0
100
AcDbArc
 50
90.0
 51
270.0
  0
ARC
  5
88
102
{ACAD_REACTORS
330
232
102
}
330
1F
100
AcDbEntity
  8
LC-002-002-----0
 62
     7
370
    50
100
AcDbCircle
 10
334.518563
 20
128.237205
 30
0.0
 40
3.0
100
AcDbArc
 50
180.0
 51
0.0
  0
LINE
  5
89
102
{ACAD_REACTORS
330
232
102
}
330
1F
100
AcDbEntity
  8
LC-002-002-----0
 62
     7
370
    50
100
AcDbLine
 10
283.518563
 20
128.237205
 30
0.0
 11
283.518563
 21
158.237205
 31
0.0
  0
LINE
  5
8A
102
{ACAD_REACTORS
330
232
102
}
330
1F
100
AcDbEntity
  8
LC-002-002-----0
 62
     7
370
    50
100
AcDbLine
 10
325.518563
 20
116.237205
 30
0.0
 11
295.518563
 21
116.237205
 31
0.0
  0
LINE
  5
8B
330
1F
100
AcDbEntity
  8
LC-002-002-----0
 62
     7
370
    50
100
AcDbLine
 10
73.768324
 20
170.6371
 30
0.0
 11
82.768324
 21
170.6371
 31
0.0
  0
LINE
  5
8C
330
1F
100
AcDbEntity
  8
LC-002-002-----0
 62
     7
370
    50
100
AcDbLine
 10
81.268324
 20
169.1371
 30
0.0
 11
81.268324
 21
166.1371
 31
0.0
  0
LINE
  5
8D
102
{ACAD_REACTORS
330
232
102
}
330
1F
100
AcDbEntity
  8
LC-002-002-----0
 62
     7
370
    50
100
AcDbLine
 10
337.518563
 20
158.237205
 30
0.0
 11
337.518563
 21
128.237205
 31
0.0
  0
ARC
  5
8E
330
1F
100
AcDbEntity
  8
LC-002-002-----0
 62
     7
370
    50
100
AcDbCircle
 10
82.768324
 20
169.1371
 30
0.0
 40
1.500000000000023
100
AcDbArc
 50
89.999981
 51
180.0
  0
ARC
  5
8F
102
{ACAD_REACTORS
330
232
102
}
330
1F
100
AcDbEntity
  8
LC-002-002-----0
 62
     7
370
    50
100
AcDbCircle
 10
286.518563
 20
128.237205
 30
0.0
 40
3.0
100
AcDbArc
 50
180.0
 51
0.0
  0
ARC
  5
90
102
{ACAD_REACTORS
330
232
102
}
330
1F
100
AcDbEntity
  8
LC-002-002-----0
 62
     7
370
    50
100
AcDbCircle
 10
325.518563
 20
119.237205
 30
0.0
 40
3.0
100
AcDbArc
 50
270.0
 51
90.0
  0
ARC
  5
91
102
{ACAD_REACTORS
330
232
102
}
330
1F
100
AcDbEntity
  8
LC-002-002-----0
 62
     7
370
    50
100
AcDbCircle
 10
334.518563
 20
158.237205
 30
0.0
 40
3.0
100
AcDbArc
 50
0.0
 51
180.0
  0
LINE
  5
92
102
{ACAD_REACTORS
330
232
102
}
330
1F
100
AcDbEntity
  8
LC-002-002-----0
 62
     7
370
    50
100
AcDbLine
 10
277.518563
 20
169.237205
 30
0.0
 11
277.518563
 21
117.237205
 31
0.0
  0
LINE
  5
93
102
{ACAD_REACTORS
330
232
102
}
330
1F
100
AcDbEntity
  8
LC-002-002-----0
 62
     7
370
    50
100
AcDbLine
 10
284.518563
 20
110.237205
 30
0.0
 11
336.518563
 21
110.237205
 31
0.0
  0
LINE
  5
94
102
{ACAD_REACTORS
330
232
102
}
330
1F
100
AcDbEntity
  8
LC-002-002-----0
 62
     7
370
    50
100
AcDbLine
 10
343.518563
 20
117.237205
 30
0.0
 11
343.518563
 21
169.237205
 31
0.0
  0
ARC
  5
95
102
{ACAD_REACTORS
330
232
102
}
330
1F
100
AcDbEntity
  8
LC-002-002-----0
 62
     7
370
    50
100
AcDbCircle
 10
274.518563
 20
117.237205
 30
0.0
 40
2.999999999999886
100
AcDbArc
 50
180.0
 51
0.0
  0
LINE
  5
96
330
1F
100
AcDbEntity
  8
LC-002-002-----0
 62
     7
370
    50
100
AcDbLine
 10
87.268324
 20
166.1371
 30
0.0
 11
87.268324
 21
169.1371
 31
0.0
  0
ARC
  5
97
330
1F
100
AcDbEntity
  8
LC-002-002-----0
 62
     7
370
    50
100
AcDbCircle
 10
85.768324
 20
169.1371
 30
0.0
 40
1.5
100
AcDbArc
 50
0.0
 51
89.999981
  0
LINE
  5
98
330
1F
100
AcDbEntity
  8
LC-002-002-----0
 62
     7
370
    50
100
AcDbLine
 10
82.768324
 20
170.6371
 30
0.0
 11
85.768324
 21
170.6371
 31
0.0
  0
LINE
  5
99
330
1F
100
AcDbEntity
  8
LC-002-002-----0
 62
     7
370
    50
100
AcDbLine
 10
85.768325
 20
170.6371
 30
0.0
 11
94.768324
 21
170.6371
 31
0.0
  0
LINE
  5
9A
330
1F
100
AcDbEntity
  8
LC-002-002-----0
 62
     7
370
    50
100
AcDbLine
 10
93.268324
 20
169.1371
 30
0.0
 11
93.268324
 21
166.1371
 31
0.0
  0
ARC
  5
9B
330
1F
100
AcDbEntity
  8
LC-002-002-----0
 62
     7
370
    50
100
AcDbCircle
 10
94.768324
 20
169.1371
 30
0.0
 40
1.500000000000023
100
AcDbArc
 50
89.999981
 51
180.0
  0
LINE
  5
9C
330
1F
100
AcDbEntity
  8
LC-002-002-----0
 62
     7
370
    50
100
AcDbLine
 10
97.768324
 20
170.6371
 30
0.0
 11
106.768324
 21
170.6371
 31
0.0
  0
LINE
  5
9D
330
1F
100
AcDbEntity
  8
LC-002-002-----0
 62
     7
370
    50
100
AcDbLine
 10
105.268324
 20
169.1371
 30
0.0
 11
105.268324
 21
166.1371
 31
0.0
  0
ARC
  5
9E
330
1F
100
AcDbEntity
  8
LC-002-002-----0
 62
     7
370
    50
100
AcDbCircle
 10
106.768324
 20
169.1371
 30
0.0
 40
1.500000000000023
100
AcDbArc
 50
89.999981
 51
180.0
  0
LINE
  5
9F
330
1F
100
AcDbEntity
  8
LC-002-002-----0
 62
     7
370
    50
100
AcDbLine
 10
106.768324
 20
170.6371
 30
0.0
 11
114.268324
 21
170.6371
 31
0.0
  0
LINE
  5
A0
330
1F
100
AcDbEntity
  8
LC-002-002-----0
 62
     7
370
    50
100
AcDbLine
 10
94.768324
 20
170.6371
 30
0.0
 11
97.768324
 21
170.6371
 31
0.0
  0
ARC
  5
A1
330
1F
100
AcDbEntity
  8
LC-002-002-----0
 62
     7
370
    50
100
AcDbCircle
 10
97.768324
 20
169.1371
 30
0.0
 40
1.500000000000057
100
AcDbArc
 50
0.0
 51
90.0
  0
LINE
  5
A2
330
1F
100
AcDbEntity
  8
LC-002-002-----0
 62
     7
370
    50
100
AcDbLine
 10
99.268324
 20
166.1371
 30
0.0
 11
99.268324
 21
169.1371
 31
0.0
  0
LINE
  5
A3
102
{ACAD_REACTORS
330
22F
102
}
330
1F
100
AcDbEntity
  8
LC-004-005-----0
 62
     7
370
    25
100
AcDbLine
 10
71.193353
 20
170.6371
 30
0.0
 11
72.693355
 21
169.1371
 31
0.0
  0
INSERT
  5
B0
330
1F
100
AcDbEntity
  8
LC-004-005-----0
 62
     7
370
    25
100
AcDbBlockReference
  2
*X12
 10
0.0
 20
0.0
 30
0.0
  0
INSERT
  5
BD
330
1F
100
AcDbEntity
  8
LC-004-005-----0
 62
     7
370
    25
100
AcDbBlockReference
  2
*X23
 10
0.0
 20
0.0
 30
0.0
  0
INSERT
  5
CB
330
1F
100
AcDbEntity
  8
LC-004-005-----0
 62
     7
370
    25
100
AcDbBlockReference
  2
*X34
 10
0.0
 20
0.0
 30
0.0
  0
LINE
  5
CC
102
{ACAD_REACTORS
330
22F
102
}
330
1F
100
AcDbEntity
  8
LC-004-005-----0
 62
     7
370
    25
100
AcDbLine
 10
73.768324
 20
168.062132
 30
0.0
 11
75.268324
 21
166.562134
 31
0.0
  0
LINE
  5
CD
102
{ACAD_REACTORS
330
22F
102
}
330
1F
100
AcDbEntity
  8
LC-004-005-----0
 62
     7
370
    25
100
AcDbLine
 10
72.607567
 20
170.6371
 30
0.0
 11
75.268324
 21
167.976347
 31
0.0
  0
LINE
  5
CE
102
{ACAD_REACTORS
330
22F
102
}
330
1F
100
AcDbEntity
  8
LC-004-005-----0
 62
     7
370
    25
100
AcDbLine
 10
74.048105
 20
170.610777
 30
0.0
 11
75.242
 21
169.416883
 31
0.0
  0
LINE
  5
CF
102
{ACAD_REACTORS
330
233
102
}
330
1F
100
AcDbEntity
  8
LC-004-005-----0
 62
     7
370
    25
100
AcDbLine
 10
153.268561
 20
166.343696
 30
0.0
 11
153.475077
 21
166.13718
 31
0.0
  0
LINE
  5
D0
102
{ACAD_REACTORS
330
233
102
}
330
1F
100
AcDbEntity
  8
LC-004-005-----0
 62
     7
370
    25
100
AcDbLine
 10
153.268562
 20
167.757908
 30
0.0
 11
154.768561
 21
166.257911
 31
0.0
  0
LINE
  5
D1
102
{ACAD_REACTORS
330
233
102
}
330
1F
100
AcDbEntity
  8
LC-004-005-----0
 62
     7
370
    25
100
AcDbLine
 10
153.26896
 20
169.171721
 30
0.0
 11
154.768561
 21
167.672122
 31
0.0
  0
LINE
  5
D2
102
{ACAD_REACTORS
330
233
102
}
330
1F
100
AcDbEntity
  8
LC-004-005-----0
 62
     7
370
    25
100
AcDbLine
 10
153.682784
 20
170.172111
 30
0.0
 11
154.768562
 21
169.086334
 31
0.0
  0
LINE
  5
D3
102
{ACAD_REACTORS
330
22E
102
}
330
1F
100
AcDbEntity
  8
LC-002-002-----0
 62
     7
370
    50
100
AcDbLine
 10
158.26856
 20
166.137176
 30
0.0
 11
158.268562
 21
169.137176
 31
0.0
  0
LINE
  5
D4
102
{ACAD_REACTORS
330
22E
102
}
330
1F
100
AcDbEntity
  8
LC-002-002-----0
 62
     7
370
    50
100
AcDbLine
 10
147.26856
 20
166.137184
 30
0.0
 11
145.76856
 21
166.137185
 31
0.0
  0
LINE
  5
D5
102
{ACAD_REACTORS
330
22E
102
}
330
1F
100
AcDbEntity
  8
LC-002-002-----0
 62
     7
370
    50
100
AcDbLine
 10
145.76856
 20
166.137185
 30
0.0
 11
145.768562
 21
169.137185
 31
0.0
  0
ARC
  5
D6
102
{ACAD_REACTORS
330
232
102
}
330
1F
100
AcDbEntity
  8
LC-002-002-----0
 62
     7
370
    50
100
AcDbCircle
 10
336.518563
 20
107.237205
 30
0.0
 40
3.0
100
AcDbArc
 50
270.0
 51
90.0
  0
ARC
  5
D7
102
{ACAD_REACTORS
330
232
102
}
330
1F
100
AcDbEntity
  8
LC-002-002-----0
 62
     7
370
    50
100
AcDbCircle
 10
346.518563
 20
169.237205
 30
0.0
 40
3.0
100
AcDbArc
 50
0.0
 51
180.0
  0
LINE
  5
D8
102
{ACAD_REACTORS
330
22E
102
}
330
1F
100
AcDbEntity
  8
LC-002-002-----0
 62
     7
370
    50
100
AcDbLine
 10
145.768562
 20
169.137185
 30
0.0
 11
142.768562
 21
169.137187
 31
0.0
  0
LINE
  5
D9
102
{ACAD_REACTORS
330
22E
102
}
330
1F
100
AcDbEntity
  8
LC-002-002-----0
 62
     7
370
    50
100
AcDbLine
 10
142.768562
 20
169.137187
 30
0.0
 11
142.76856
 21
166.137187
 31
0.0
  0
LINE
  5
DA
102
{ACAD_REACTORS
330
232
102
}
330
1F
100
AcDbEntity
  8
LC-002-002-----0
 62
     7
370
    50
100
AcDbLine
 10
271.518563
 20
169.237205
 30
0.0
 11
271.518563
 21
117.237205
 31
0.0
  0
LINE
  5
DB
102
{ACAD_REACTORS
330
22E
102
}
330
1F
100
AcDbEntity
  8
LC-002-002-----0
 62
     7
370
    50
100
AcDbLine
 10
142.76856
 20
166.137187
 30
0.0
 11
141.26856
 21
166.137188
 31
0.0
  0
LINE
  5
DC
102
{ACAD_REACTORS
330
22E
102
}
330
1F
100
AcDbEntity
  8
LC-002-002-----0
 62
     7
370
    50
100
AcDbLine
 10
153.26856
 20
166.13718
 30
0.0
 11
154.76856
 21
166.137179
 31
0.0
  0
LINE
  5
DD
102
{ACAD_REACTORS
330
232
102
}
330
1F
100
AcDbEntity
  8
LC-002-002-----0
 62
     7
370
    50
100
AcDbLine
 10
284.518563
 20
104.237205
 30
0.0
 11
336.518563
 21
104.237205
 31
0.0
  0
LINE
  5
DE
102
{ACAD_REACTORS
330
232
102
}
330
1F
100
AcDbEntity
  8
LC-002-002-----0
 62
     7
370
    50
100
AcDbLine
 10
349.518563
 20
117.237205
 30
0.0
 11
349.518563
 21
169.237205
 31
0.0
  0
LINE
  5
DF
102
{ACAD_REACTORS
330
22E
102
}
330
1F
100
AcDbEntity
  8
LC-002-002-----0
 62
     7
370
    50
100
AcDbLine
 10
154.76856
 20
166.137179
 30
0.0
 11
154.768562
 21
169.137179
 31
0.0
  0
ARC
  5
E0
102
{ACAD_REACTORS
330
232
102
}
330
1F
100
AcDbEntity
  8
LC-002-002-----0
 62
     7
370
    50
100
AcDbCircle
 10
274.518563
 20
169.237205
 30
0.0
 40
3.0
100
AcDbArc
 50
0.0
 51
180.0
  0
ARC
  5
E1
102
{ACAD_REACTORS
330
232
102
}
330
1F
100
AcDbEntity
  8
LC-002-002-----0
 62
     7
370
    50
100
AcDbCircle
 10
284.518563
 20
107.237205
 30
0.0
 40
3.0
100
AcDbArc
 50
90.0
 51
270.0
  0
ARC
  5
E2
102
{ACAD_REACTORS
330
232
102
}
330
1F
100
AcDbEntity
  8
LC-002-002-----0
 62
     7
370
    50
100
AcDbCircle
 10
346.518563
 20
117.237205
 30
0.0
 40
3.0
100
AcDbArc
 50
180.0
 51
0.0
  0
LINE
  5
E3
102
{ACAD_REACTORS
330
232
102
}
330
1F
100
AcDbEntity
  8
LC-002-002-----0
 62
     7
370
    50
100
AcDbLine
 10
267.518563
 20
188.737205
 30
0.0
 11
353.518563
 21
188.737205
 31
0.0
  0
LINE
  5
E4
102
{ACAD_REACTORS
330
232
102
}
330
1F
100
AcDbEntity
  8
LC-002-002-----0
 62
     7
370
    50
100
AcDbLine
 10
356.018563
 20
186.237205
 30
0.0
 11
356.018563
 21
100.237205
 31
0.0
  0
LINE
  5
E5
102
{ACAD_REACTORS
330
232
102
}
330
1F
100
AcDbEntity
  8
LC-002-002-----0
 62
     7
370
    50
100
AcDbLine
 10
353.518563
 20
97.737205
 30
0.0
 11
267.518563
 21
97.737205
 31
0.0
  0
LINE
  5
E6
102
{ACAD_REACTORS
330
232
102
}
330
1F
100
AcDbEntity
  8
LC-002-002-----0
 62
     7
370
    50
100
AcDbLine
 10
265.018563
 20
100.237205
 30
0.0
 11
265.018563
 21
186.237205
 31
0.0
  0
LINE
  5
E8
102
{ACAD_REACTORS
330
231
102
}
330
1F
100
AcDbEntity
  8
LC-005-001-----0
 62
     7
370
    50
100
AcDbLine
 10
356.618563
 20
99.937205
 30
0.0
 11
356.618563
 21
186.537205
 31
0.0
  0
ARC
  5
E9
102
{ACAD_REACTORS
330
231
102
}
330
1F
100
AcDbEntity
  8
LC-002-002-----0
 62
     7
370
    50
100
AcDbCircle
 10
355.018563
 20
98.737205
 30
0.0
 40
5.5
100
AcDbArc
 50
270.0
 51
0.0
  0
ARC
  5
EA
102
{ACAD_REACTORS
330
231
102
}
330
1F
100
AcDbEntity
  8
LC-005-001-----0
 62
     7
370
    50
100
AcDbCircle
 10
353.818563
 20
186.537205
 30
0.0
 40
2.800000000000068
100
AcDbArc
 50
0.0
 51
90.0
  0
ARC
  5
EB
102
{ACAD_REACTORS
330
231
102
}
330
1F
100
AcDbEntity
  8
LC-005-001-----0
 62
     7
370
    50
100
AcDbCircle
 10
355.018563
 20
98.737205
 30
0.0
 40
6.0
100
AcDbArc
 50
270.0
 51
0.0
  0
ARC
  5
ED
102
{ACAD_REACTORS
330
231
102
}
330
1F
100
AcDbEntity
  8
LC-006-001-RND-0
 62
     7
370
    50
100
AcDbCircle
 10
353.818563
 20
99.937205
 30
0.0
 40
2.800000000000068
100
AcDbArc
 50
270.0
 51
0.0
  0
LINE
  5
EE
102
{ACAD_REACTORS
330
231
102
}
330
1F
100
AcDbEntity
  8
LC-002-002-----0
 62
     7
370
    50
100
AcDbLine
 10
266.018563
 20
93.237205
 30
0.0
 11
355.018563
 21
93.237205
 31
0.0
  0
LINE
  5
EF
102
{ACAD_REACTORS
330
231
102
}
330
1F
100
AcDbEntity
  8
LC-005-001-----0
 62
     7
370
    50
100
AcDbLine
 10
361.018563
 20
98.737205
 30
0.0
 11
361.018563
 21
187.737205
 31
0.0
  0
ARC
  5
F0
102
{ACAD_REACTORS
330
231
102
}
330
1F
100
AcDbEntity
  8
LC-005-001-----0
 62
     7
370
    50
100
AcDbCircle
 10
355.018563
 20
187.737205
 30
0.0
 40
6.0
100
AcDbArc
 50
0.0
 51
90.0
  0
LINE
  5
F1
102
{ACAD_REACTORS
330
231
102
}
330
1F
100
AcDbEntity
  8
LC-005-001-----0
 62
     7
370
    50
100
AcDbLine
 10
355.018563
 20
193.737205
 30
0.0
 11
266.018563
 21
193.737205
 31
0.0
  0
LINE
  5
F2
102
{ACAD_REACTORS
330
231
102
}
330
1F
100
AcDbEntity
  8
LC-002-002-----0
 62
     7
370
    50
100
AcDbLine
 10
360.518563
 20
98.737205
 30
0.0
 11
360.518563
 21
187.737205
 31
0.0
  0
LINE
  5
F3
102
{ACAD_REACTORS
330
231
102
}
330
1F
100
AcDbEntity
  8
LC-005-001-----0
 62
     7
370
    50
100
AcDbLine
 10
266.018563
 20
92.737205
 30
0.0
 11
355.018563
 21
92.737205
 31
0.0
  0
ARC
  5
F4
102
{ACAD_REACTORS
330
231
102
}
330
1F
100
AcDbEntity
  8
LC-002-002-----0
 62
     7
370
    50
100
AcDbCircle
 10
355.018563
 20
187.737205
 30
0.0
 40
5.5
100
AcDbArc
 50
0.0
 51
90.0
  0
LINE
  5
F5
102
{ACAD_REACTORS
330
22E
102
}
330
1F
100
AcDbEntity
  8
LC-002-002-----0
 62
     7
370
    50
100
AcDbLine
 10
154.768562
 20
169.137179
 30
0.0
 11
157.768562
 21
169.137177
 31
0.0
  0
LINE
  5
F6
102
{ACAD_REACTORS
330
231
102
}
330
1F
100
AcDbEntity
  8
LC-005-001-----0
 62
     7
370
    50
100
AcDbLine
 10
267.218563
 20
189.337205
 30
0.0
 11
353.818563
 21
189.337205
 31
0.0
  0
LINE
  5
F7
102
{ACAD_REACTORS
330
231
102
}
330
1F
100
AcDbEntity
  8
LC-005-001-----0
 62
     7
370
    50
100
AcDbLine
 10
267.218563
 20
97.137205
 30
0.0
 11
353.818563
 21
97.137205
 31
0.0
  0
ARC
  5
F8
102
{ACAD_REACTORS
330
231
102
}
330
1F
100
AcDbEntity
  8
LC-002-002-----0
 62
     7
370
    50
100
AcDbCircle
 10
266.018563
 20
98.737205
 30
0.0
 40
5.5
100
AcDbArc
 50
180.0
 51
270.0
  0
LINE
  5
F9
102
{ACAD_REACTORS
330
231
102
}
330
1F
100
AcDbEntity
  8
LC-005-001-----0
 62
     7
370
    50
100
AcDbLine
 10
260.018563
 20
187.737205
 30
0.0
 11
260.018563
 21
98.737205
 31
0.0
  0
LINE
  5
FA
102
{ACAD_REACTORS
330
231
102
}
330
1F
100
AcDbEntity
  8
LC-002-002-----0
 62
     7
370
    50
100
AcDbLine
 10
355.018563
 20
193.237205
 30
0.0
 11
266.018563
 21
193.237205
 31
0.0
  0
LINE
  5
FB
102
{ACAD_REACTORS
330
231
102
}
330
1F
100
AcDbEntity
  8
LC-005-001-----0
 62
     7
370
    50
100
AcDbLine
 10
264.418563
 20
99.937205
 30
0.0
 11
264.418563
 21
186.537205
 31
0.0
  0
LINE
  5
FC
102
{ACAD_REACTORS
330
22E
102
}
330
1F
100
AcDbEntity
  8
LC-002-002-----0
 62
     7
370
    50
100
AcDbLine
 10
157.768562
 20
169.137177
 30
0.0
 11
158.268562
 21
169.137176
 31
0.0
  0
LINE
  5
FD
102
{ACAD_REACTORS
330
22E
102
}
330
1F
100
AcDbEntity
  8
LC-002-002-----0
 62
     7
370
    50
100
AcDbLine
 10
135.26856
 20
166.137191
 30
0.0
 11
133.76856
 21
166.137192
 31
0.0
  0
LINE
  5
FE
102
{ACAD_REACTORS
330
22E
102
}
330
1F
100
AcDbEntity
  8
LC-002-002-----0
 62
     7
370
    50
100
AcDbLine
 10
133.76856
 20
166.137192
 30
0.0
 11
133.768562
 21
169.137192
 31
0.0
  0
LINE
  5
FF
102
{ACAD_REACTORS
330
22E
102
}
330
1F
100
AcDbEntity
  8
LC-002-002-----0
 62
     7
370
    50
100
AcDbLine
 10
133.768562
 20
169.137192
 30
0.0
 11
130.768562
 21
169.137194
 31
0.0
  0
LINE
  5
100
102
{ACAD_REACTORS
330
22E
102
}
330
1F
100
AcDbEntity
  8
LC-002-002-----0
 62
     7
370
    50
100
AcDbLine
 10
130.768562
 20
169.137194
 30
0.0
 11
130.76856
 21
166.137194
 31
0.0
  0
LINE
  5
101
102
{ACAD_REACTORS
330
22E
102
}
330
1F
100
AcDbEntity
  8
LC-002-002-----0
 62
     7
370
    50
100
AcDbLine
 10
130.76856
 20
166.137194
 30
0.0
 11
129.26856
 21
166.137195
 31
0.0
  0
ARC
  5
102
102
{ACAD_REACTORS
330
231
102
}
330
1F
100
AcDbEntity
  8
LC-002-002-----0
 62
     7
370
    50
100
AcDbCircle
 10
266.018563
 20
187.737205
 30
0.0
 40
5.5
100
AcDbArc
 50
90.0
 51
180.0
  0
ARC
  5
103
102
{ACAD_REACTORS
330
231
102
}
330
1F
100
AcDbEntity
  8
LC-005-001-----0
 62
     7
370
    50
100
AcDbCircle
 10
266.018563
 20
187.737205
 30
0.0
 40
6.0
100
AcDbArc
 50
90.0
 51
180.0
  0
ARC
  5
104
102
{ACAD_REACTORS
330
231
102
}
330
1F
100
AcDbEntity
  8
LC-006-001-RND-0
 62
     7
370
    50
100
AcDbCircle
 10
267.218563
 20
186.537205
 30
0.0
 40
2.799999999999955
100
AcDbArc
 50
90.0
 51
180.0
  0
LINE
  5
105
102
{ACAD_REACTORS
330
22E
102
}
330
1F
100
AcDbEntity
  8
LC-002-002-----0
 62
     7
370
    50
100
AcDbLine
 10
123.26856
 20
166.137199
 30
0.0
 11
121.76856
 21
166.1372
 31
0.0
  0
LINE
  5
106
102
{ACAD_REACTORS
330
22E
102
}
330
1F
100
AcDbEntity
  8
LC-002-002-----0
 62
     7
370
    50
100
AcDbLine
 10
121.76856
 20
166.1372
 30
0.0
 11
121.768562
 21
169.1372
 31
0.0
  0
ARC
  5
107
102
{ACAD_REACTORS
330
231
102
}
330
1F
100
AcDbEntity
  8
LC-005-001-----0
 62
     7
370
    50
100
AcDbCircle
 10
266.018563
 20
98.737205
 30
0.0
 40
6.0
100
AcDbArc
 50
180.0
 51
270.0
  0
LINE
  5
108
102
{ACAD_REACTORS
330
231
102
}
330
1F
100
AcDbEntity
  8
LC-002-002-----0
 62
     7
370
    50
100
AcDbLine
 10
260.518563
 20
187.737205
 30
0.0
 11
260.518563
 21
98.737205
 31
0.0
  0
ARC
  5
109
102
{ACAD_REACTORS
330
231
102
}
330
1F
100
AcDbEntity
  8
LC-005-001-----0
 62
     7
370
    50
100
AcDbCircle
 10
267.218563
 20
99.937205
 30
0.0
 40
2.799999999999955
100
AcDbArc
 50
180.0
 51
270.0
  0
LINE
  5
10A
102
{ACAD_REACTORS
330
22E
102
}
330
1F
100
AcDbEntity
  8
LC-002-002-----0
 62
     7
370
    50
100
AcDbLine
 10
121.768562
 20
169.1372
 30
0.0
 11
114.083103
 21
169.137205
 31
0.0
  0
LINE
  5
10B
102
{ACAD_REACTORS
330
22E
102
}
330
1F
100
AcDbEntity
  8
LC-002-002-----0
 62
     7
370
    50
100
AcDbLine
 10
153.26856
 20
166.13718
 30
0.0
 11
147.26856
 21
166.137184
 31
0.0
  0
LINE
  5
10C
102
{ACAD_REACTORS
330
22E
102
}
330
1F
100
AcDbEntity
  8
LC-002-002-----0
 62
     7
370
    50
100
AcDbLine
 10
141.26856
 20
166.137188
 30
0.0
 11
135.26856
 21
166.137191
 31
0.0
  0
LINE
  5
10D
102
{ACAD_REACTORS
330
22E
102
}
330
1F
100
AcDbEntity
  8
LC-002-002-----0
 62
     7
370
    50
100
AcDbLine
 10
129.26856
 20
166.137195
 30
0.0
 11
123.26856
 21
166.137199
 31
0.0
  0
LINE
  5
10E
102
{ACAD_REACTORS
330
22E
102
}
330
1F
100
AcDbEntity
  8
LC-002-002-----0
 62
     7
370
    50
100
AcDbLine
 10
145.76856
 20
166.137185
 30
0.0
 11
142.76856
 21
166.137187
 31
0.0
  0
LINE
  5
10F
102
{ACAD_REACTORS
330
22E
102
}
330
1F
100
AcDbEntity
  8
LC-002-002-----0
 62
     7
370
    50
100
AcDbLine
 10
133.76856
 20
166.137192
 30
0.0
 11
130.76856
 21
166.137194
 31
0.0
  0
LINE
  5
110
102
{ACAD_REACTORS
330
22E
102
}
330
1F
100
AcDbEntity
  8
LC-002-002-----0
 62
     7
370
    50
100
AcDbLine
 10
121.76856
 20
166.1372
 30
0.0
 11
114.26856
 21
166.137205
 31
0.0
  0
LINE
  5
111
102
{ACAD_REACTORS
330
22E
102
}
330
1F
100
AcDbEntity
  8
LC-002-002-----0
 62
     7
370
    50
100
AcDbLine
 10
159.76856
 20
166.189313
 30
0.0
 11
159.768562
 21
168.637175
 31
0.0
  0
ARC
  5
112
102
{ACAD_REACTORS
330
22E
102
}
330
1F
100
AcDbEntity
  8
LC-002-002-----0
 62
     7
370
    50
100
AcDbCircle
 10
157.768562
 20
168.637177
 30
0.0
 40
2.000000000000086
100
AcDbArc
 50
359.999963
 51
89.999888
  0
LINE
  5
113
102
{ACAD_REACTORS
330
22E
102
}
330
1F
100
AcDbEntity
  8
LC-002-002-----0
 62
     7
370
    50
100
AcDbLine
 10
157.768563
 20
170.637177
 30
0.0
 11
154.768563
 21
170.637179
 31
0.0
  0
LINE
  5
114
102
{ACAD_REACTORS
330
230
102
}
330
1F
100
AcDbEntity
  8
LC-002-002-----0
 62
     7
370
    50
100
AcDbLine
 10
160.018563
 20
117.837205
 30
0.0
 11
159.482665
 21
115.837205
 31
0.0
  0
ARC
  5
115
102
{ACAD_REACTORS
330
22E
102
}
330
1F
100
AcDbEntity
  8
LC-002-002-----0
 62
     7
370
    50
100
AcDbCircle
 10
154.768562
 20
169.137179
 30
0.0
 40
1.500000000000093
100
AcDbArc
 50
89.999963
 51
179.999944
  0
LINE
  5
116
102
{ACAD_REACTORS
330
22E
102
}
330
1F
100
AcDbEntity
  8
LC-002-002-----0
 62
     7
370
    50
100
AcDbLine
 10
153.268562
 20
169.13718
 30
0.0
 11
153.26856
 21
166.13718
 31
0.0
  0
LINE
  5
117
102
{ACAD_REACTORS
330
22E
102
}
330
1F
100
AcDbEntity
  8
LC-002-002-----0
 62
     7
370
    50
100
AcDbLine
 10
154.768563
 20
170.637179
 30
0.0
 11
145.768563
 21
170.637185
 31
0.0
  0
LINE
  5
118
102
{ACAD_REACTORS
330
22E
102
}
330
1F
100
AcDbEntity
  8
LC-002-002-----0
 62
     7
370
    50
100
AcDbLine
 10
147.268562
 20
169.137184
 30
0.0
 11
147.26856
 21
166.137184
 31
0.0
  0
ARC
  5
119
102
{ACAD_REACTORS
330
22E
102
}
330
1F
100
AcDbEntity
  8
LC-002-002-----0
 62
     7
370
    50
100
AcDbCircle
 10
145.768562
 20
169.137185
 30
0.0
 40
1.500000000000093
100
AcDbArc
 50
359.999963
 51
89.999888
  0
LINE
  5
11A
102
{ACAD_REACTORS
330
22E
102
}
330
1F
100
AcDbEntity
  8
LC-002-002-----0
 62
     7
370
    50
100
AcDbLine
 10
141.26856
 20
166.137188
 30
0.0
 11
141.268562
 21
169.137188
 31
0.0
  0
ARC
  5
11B
102
{ACAD_REACTORS
330
22E
102
}
330
1F
100
AcDbEntity
  8
LC-002-002-----0
 62
     7
370
    50
100
AcDbCircle
 10
142.768562
 20
169.137187
 30
0.0
 40
1.50000000000015
100
AcDbArc
 50
89.999963
 51
179.999963
  0
LINE
  5
11C
102
{ACAD_REACTORS
330
22E
102
}
330
1F
100
AcDbEntity
  8
LC-002-002-----0
 62
     7
370
    50
100
AcDbLine
 10
145.768563
 20
170.637185
 30
0.0
 11
142.768563
 21
170.637187
 31
0.0
  0
LINE
  5
11D
102
{ACAD_REACTORS
330
22E
102
}
330
1F
100
AcDbEntity
  8
LC-002-002-----0
 62
     7
370
    50
100
AcDbLine
 10
142.768563
 20
170.637187
 30
0.0
 11
133.768563
 21
170.637192
 31
0.0
  0
LINE
  5
11E
102
{ACAD_REACTORS
330
22E
102
}
330
1F
100
AcDbEntity
  8
LC-002-002-----0
 62
     7
370
    50
100
AcDbLine
 10
135.268562
 20
169.137191
 30
0.0
 11
135.26856
 21
166.137191
 31
0.0
  0
ARC
  5
11F
102
{ACAD_REACTORS
330
22E
102
}
330
1F
100
AcDbEntity
  8
LC-002-002-----0
 62
     7
370
    50
100
AcDbCircle
 10
133.768562
 20
169.137192
 30
0.0
 40
1.500000000000093
100
AcDbArc
 50
359.999963
 51
89.999888
  0
LINE
  5
120
102
{ACAD_REACTORS
330
22E
102
}
330
1F
100
AcDbEntity
  8
LC-002-002-----0
 62
     7
370
    50
100
AcDbLine
 10
130.768563
 20
170.637194
 30
0.0
 11
121.768563
 21
170.6372
 31
0.0
  0
LINE
  5
121
102
{ACAD_REACTORS
330
22E
102
}
330
1F
100
AcDbEntity
  8
LC-002-002-----0
 62
     7
370
    50
100
AcDbLine
 10
123.268562
 20
169.137199
 30
0.0
 11
123.26856
 21
166.137199
 31
0.0
  0
ARC
  5
122
102
{ACAD_REACTORS
330
22E
102
}
330
1F
100
AcDbEntity
  8
LC-002-002-----0
 62
     7
370
    50
100
AcDbCircle
 10
121.768562
 20
169.1372
 30
0.0
 40
1.500000000000093
100
AcDbArc
 50
359.999963
 51
89.999888
  0
LINE
  5
123
102
{ACAD_REACTORS
330
22E
102
}
330
1F
100
AcDbEntity
  8
LC-002-002-----0
 62
     7
370
    50
100
AcDbLine
 10
121.768563
 20
170.6372
 30
0.0
 11
114.268563
 21
170.637205
 31
0.0
  0
LINE
  5
124
102
{ACAD_REACTORS
330
22E
102
}
330
1F
100
AcDbEntity
  8
LC-002-002-----0
 62
     7
370
    50
100
AcDbLine
 10
133.768563
 20
170.637192
 30
0.0
 11
130.768563
 21
170.637194
 31
0.0
  0
ARC
  5
125
102
{ACAD_REACTORS
330
22E
102
}
330
1F
100
AcDbEntity
  8
LC-002-002-----0
 62
     7
370
    50
100
AcDbCircle
 10
130.768562
 20
169.137194
 30
0.0
 40
1.500000000000093
100
AcDbArc
 50
89.999963
 51
179.999944
  0
LINE
  5
126
102
{ACAD_REACTORS
330
22E
102
}
330
1F
100
AcDbEntity
  8
LC-002-002-----0
 62
     7
370
    50
100
AcDbLine
 10
129.26856
 20
166.137195
 30
0.0
 11
129.268562
 21
169.137195
 31
0.0
  0
LINE
  5
127
102
{ACAD_REACTORS
330
230
102
}
330
1F
100
AcDbEntity
  8
LC-002-002-----0
 62
     7
370
    50
100
AcDbLine
 10
70.472608
 20
159.837205
 30
0.0
 11
68.518563
 21
159.837205
 31
0.0
  0
INSERT
  5
134
330
1F
100
AcDbEntity
  8
LC-004-005-----0
 62
     7
370
    25
100
AcDbBlockReference
  2
*X45
 10
0.0
 20
0.0
 30
0.0
  0
INSERT
  5
141
330
1F
100
AcDbEntity
  8
LC-004-005-----0
 62
     7
370
    25
100
AcDbBlockReference
  2
*X56
 10
0.0
 20
0.0
 30
0.0
  0
INSERT
  5
14E
330
1F
100
AcDbEntity
  8
LC-004-005-----0
 62
     7
370
    25
100
AcDbBlockReference
  2
*X67
 10
0.0
 20
0.0
 30
0.0
  0
LINE
  5
14F
102
{ACAD_REACTORS
330
233
102
}
330
1F
100
AcDbEntity
  8
LC-004-005-----0
 62
     7
370
    25
100
AcDbLine
 10
154.637653
 20
170.631455
 30
0.0
 11
156.131933
 21
169.137178
 31
0.0
  0
LINE
  5
150
102
{ACAD_REACTORS
330
233
102
}
330
1F
100
AcDbEntity
  8
LC-004-005-----0
 62
     7
370
    25
100
AcDbLine
 10
158.268561
 20
167.000553
 30
0.0
 11
159.131939
 21
166.137176
 31
0.0
  0
LINE
  5
151
102
{ACAD_REACTORS
330
233
102
}
330
1F
100
AcDbEntity
  8
LC-004-005-----0
 62
     7
370
    25
100
AcDbLine
 10
156.046145
 20
170.637178
 30
0.0
 11
157.546148
 21
169.137177
 31
0.0
  0
LINE
  5
152
102
{ACAD_REACTORS
330
233
102
}
330
1F
100
AcDbEntity
  8
LC-004-005-----0
 62
     7
370
    25
100
AcDbLine
 10
158.268562
 20
168.414764
 30
0.0
 11
159.768561
 21
166.914767
 31
0.0
  0
LINE
  5
154
330
1F
100
AcDbEntity
  8
LC-002-002-----0
  6
DASHDOT
 62
     7
370
    25
100
AcDbLine
 10
114.268563
 20
159.837205
 30
0.0
 11
114.268563
 21
150.568526
 31
0.0
  0
LINE
  5
155
102
{ACAD_REACTORS
330
233
102
}
330
1F
100
AcDbEntity
  8
LC-004-005-----0
 62
     7
370
    25
100
AcDbLine
 10
157.460361
 20
170.637177
 30
0.0
 11
159.768562
 21
168.328979
 31
0.0
  0
LINE
  5
156
102
{ACAD_REACTORS
330
230
102
}
330
1F
100
AcDbEntity
  8
LC-002-002-----0
 62
     7
370
    50
100
AcDbLine
 10
71.268563
 20
146.837205
 30
0.0
 11
71.268563
 21
115.837205
 31
0.0
  0
LINE
  5
157
102
{ACAD_REACTORS
330
230
102
}
330
1F
100
AcDbEntity
  8
LC-002-002-----0
 62
     7
370
    50
100
AcDbLine
 10
70.268563
 20
147.837205
 30
0.0
 11
71.268563
 21
146.837205
 31
0.0
  0
LINE
  5
158
102
{ACAD_REACTORS
330
230
102
}
330
1F
100
AcDbEntity
  8
LC-002-002-----0
 62
     7
370
    50
100
AcDbLine
 10
69.054462
 20
115.837205
 30
0.0
 11
159.482665
 21
115.837205
 31
0.0
  0
LINE
  5
159
102
{ACAD_REACTORS
330
230
102
}
330
1F
100
AcDbEntity
  8
LC-002-002-----0
 62
     7
370
    50
100
AcDbLine
 10
69.84036
 20
115.837205
 30
0.0
 11
70.268563
 21
115.837205
 31
0.0
  0
LINE
  5
15A
102
{ACAD_REACTORS
330
230
102
}
330
1F
100
AcDbEntity
  8
LC-002-002-----0
 62
     7
370
    50
100
AcDbLine
 10
157.518563
 20
155.087205
 30
0.0
 11
157.518563
 21
158.337205
 31
0.0
  0
LINE
  5
15B
102
{ACAD_REACTORS
330
230
102
}
330
1F
100
AcDbEntity
  8
LC-002-002-----0
  6
DASHDOT
 62
     7
370
    25
100
AcDbLine
 10
114.268563
 20
115.837205
 30
0.0
 11
114.268563
 21
150.568526
 31
0.0
  0
LINE
  5
15C
102
{ACAD_REACTORS
330
230
102
}
330
1F
100
AcDbEntity
  8
LC-002-002-----0
 62
     7
370
    50
100
AcDbLine
 10
157.518563
 20
155.087205
 30
0.0
 11
158.268563
 21
154.337205
 31
0.0
  0
LINE
  5
15D
102
{ACAD_REACTORS
330
230
102
}
330
1F
100
AcDbEntity
  8
LC-002-002-----0
 62
     7
370
    50
100
AcDbLine
 10
158.268563
 20
154.337205
 30
0.0
 11
158.268563
 21
147.837205
 31
0.0
  0
LINE
  5
15E
102
{ACAD_REACTORS
330
230
102
}
330
1F
100
AcDbEntity
  8
LC-002-002-----0
 62
     7
370
    50
100
AcDbLine
 10
71.018563
 20
155.087205
 30
0.0
 11
71.018563
 21
158.337205
 31
0.0
  0
LINE
  5
15F
102
{ACAD_REACTORS
330
230
102
}
330
1F
100
AcDbEntity
  8
LC-002-002-----0
 62
     7
370
    50
100
AcDbLine
 10
71.018563
 20
155.087205
 30
0.0
 11
70.268563
 21
154.337205
 31
0.0
  0
LINE
  5
160
102
{ACAD_REACTORS
330
230
102
}
330
1F
100
AcDbEntity
  8
LC-002-002-----0
 62
     7
370
    50
100
AcDbLine
 10
160.018563
 20
159.837205
 30
0.0
 11
160.018563
 21
117.837205
 31
0.0
  0
LINE
  5
161
102
{ACAD_REACTORS
330
230
102
}
330
1F
100
AcDbEntity
  8
LC-002-002-----0
 62
     7
370
    50
100
AcDbLine
 10
68.518563
 20
117.837205
 30
0.0
 11
69.054462
 21
115.837205
 31
0.0
  0
LINE
  5
162
102
{ACAD_REACTORS
330
230
102
}
330
1F
100
AcDbEntity
  8
LC-002-002-----0
 62
     7
370
    50
100
AcDbLine
 10
70.268563
 20
154.337205
 30
0.0
 11
70.268563
 21
147.837205
 31
0.0
  0
LINE
  5
163
102
{ACAD_REACTORS
330
230
102
}
330
1F
100
AcDbEntity
  8
LC-002-002-----0
 62
     7
370
    50
100
AcDbLine
 10
71.018563
 20
158.337205
 30
0.0
 11
70.472608
 21
159.837205
 31
0.0
  0
LINE
  5
164
102
{ACAD_REACTORS
330
230
102
}
330
1F
100
AcDbEntity
  8
LC-002-002-----0
 62
     7
370
    50
100
AcDbLine
 10
70.268563
 20
150.086814
 30
0.0
 11
70.268563
 21
150.086814
 31
0.0
  0
LINE
  5
165
102
{ACAD_REACTORS
330
230
102
}
330
1F
100
AcDbEntity
  8
LC-002-002-----0
 62
     7
370
    50
100
AcDbLine
 10
157.268563
 20
146.837205
 30
0.0
 11
114.268563
 21
146.837205
 31
0.0
  0
LINE
  5
166
102
{ACAD_REACTORS
330
230
102
}
330
1F
100
AcDbEntity
  8
LC-002-002-----0
 62
     7
370
    50
100
AcDbLine
 10
157.518563
 20
158.337205
 30
0.0
 11
158.064519
 21
159.837205
 31
0.0
  0
LINE
  5
167
102
{ACAD_REACTORS
330
230
102
}
330
1F
100
AcDbEntity
  8
LC-002-002-----0
 62
     7
370
    50
100
AcDbLine
 10
158.268563
 20
150.086814
 30
0.0
 11
158.268563
 21
150.086814
 31
0.0
  0
LINE
  5
168
102
{ACAD_REACTORS
330
230
102
}
330
1F
100
AcDbEntity
  8
LC-002-002-----0
 62
     7
370
    50
100
AcDbLine
 10
157.268563
 20
146.837205
 30
0.0
 11
157.268563
 21
115.837205
 31
0.0
  0
LINE
  5
169
102
{ACAD_REACTORS
330
230
102
}
330
1F
100
AcDbEntity
  8
LC-002-002-----0
 62
     7
370
    50
100
AcDbLine
 10
158.268563
 20
147.837205
 30
0.0
 11
157.268563
 21
146.837205
 31
0.0
  0
INSERT
  5
18D
102
{ACAD_REACTORS
330
230
102
}
330
1F
100
AcDbEntity
  8
LC-004-005-----0
 62
     7
370
    25
100
AcDbBlockReference
  2
*X78
 10
0.0
 20
0.0
 30
0.0
  0
INSERT
  5
1B1
102
{ACAD_REACTORS
330
230
102
}
330
1F
100
AcDbEntity
  8
LC-004-005-----0
 62
     7
370
    25
100
AcDbBlockReference
  2
*X89
 10
0.0
 20
0.0
 30
0.0
  0
LINE
  5
1B2
102
{ACAD_REACTORS
330
230
102
}
330
1F
100
AcDbEntity
  8
LC-002-002-----0
 62
     7
370
    50
100
AcDbLine
 10
70.268563
 20
147.837205
 30
0.0
 11
158.268563
 21
147.837205
 31
0.0
  0
LINE
  5
1B3
102
{ACAD_REACTORS
330
230
102
}
330
1F
100
AcDbEntity
  8
LC-002-002-----0
 62
     7
370
    50
100
AcDbLine
 10
71.268563
 20
146.837205
 30
0.0
 11
114.268563
 21
146.837205
 31
0.0
  0
LINE
  5
1B4
102
{ACAD_REACTORS
330
230
102
}
330
1F
100
AcDbEntity
  8
LC-002-002-----0
 62
     7
370
    50
100
AcDbLine
 10
158.064519
 20
159.837205
 30
0.0
 11
160.018563
 21
159.837205
 31
0.0
  0
DIMENSION
  5
1B5
330
1F
100
AcDbEntity
  8
LC-001-003-----0
 62
     7
370
    25
100
AcDbDimension
  2
*D10
 10
235.2
 20
115.837205
 30
0.0
 11
204.4
 21
143.587205
 31
0.0
 70
   160
  1
55
 71
     5
 42
55.5
 53
90.0
  3
LC-DIM-L-0140-02-02
100
AcDbAlignedDimension
 13
162.068563
 23
171.337205
 33
0.0
 14
159.482665
 24
115.837205
 34
0.0
 50
90.0
100
AcDbRotatedDimension
  0
LINE
  5
1C4
330
1F
100
AcDbEntity
  8
LC-002-002-----0
 62
     7
370
    25
100
AcDbLine
 10
76.985984
 20
223.660672
 30
0.0
 11
91.985984
 21
223.660672
 31
0.0
  0
DIMENSION
  5
1C5
330
1F
100
AcDbEntity
  8
LC-001-003-----0
 62
     7
370
    25
100
AcDbDimension
  2
*D11
 10
160.018563
 20
29.248405
 30
0.0
 11
114.268563
 21
60.048405
 31
0.0
 70
   160
  1
%%c<>
 71
     5
 42
91.5
  3
LC-DIM-L-0140-02-02
100
AcDbAlignedDimension
 13
68.518563
 23
117.837205
 33
0.0
 14
160.018563
 24
117.837205
 34
0.0
100
AcDbRotatedDimension
  0
LINE
  5
1D2
102
{ACAD_REACTORS
330
235
102
}
330
1F
100
AcDbEntity
  8
LC-002-002-----0
 62
     7
370
    50
100
AcDbLine
 10
160.768563
 20
163.837205
 30
0.0
 11
156.268563
 21
163.837205
 31
0.0
  0
LINE
  5
1D3
102
{ACAD_REACTORS
330
235
102
}
330
1F
100
AcDbEntity
  8
LC-002-002-----0
 62
     7
370
    50
100
AcDbLine
 10
162.268563
 20
171.337205
 30
0.0
 11
162.268563
 21
171.337205
 31
0.0
  0
LINE
  5
1D4
102
{ACAD_REACTORS
330
235
102
}
330
1F
100
AcDbEntity
  8
LC-002-002-----0
 62
     7
370
    50
100
AcDbLine
 10
163.768563
 20
170.837205
 30
0.0
 11
163.768563
 21
164.837205
 31
0.0
  0
INSERT
  5
1E2
102
{ACAD_REACTORS
330
235
102
}
330
1F
100
AcDbEntity
  8
LC-004-005-----0
 62
     7
370
    25
100
AcDbBlockReference
  2
*X912
 10
0.0
 20
0.0
 30
0.0
  0
LINE
  5
1E3
102
{ACAD_REACTORS
330
235
102
}
330
1F
100
AcDbEntity
  8
LC-002-002-----0
 62
     7
370
    50
100
AcDbLine
 10
162.268563
 20
161.837205
 30
0.0
 11
157.468563
 21
161.837205
 31
0.0
  0
LINE
  5
1E4
102
{ACAD_REACTORS
330
235
102
}
330
1F
100
AcDbEntity
  8
LC-002-002-----0
 62
     7
370
    50
100
AcDbLine
 10
157.468563
 20
161.837205
 30
0.0
 11
157.468563
 21
154.837205
 31
0.0
  0
ARC
  5
1E5
102
{ACAD_REACTORS
330
235
102
}
330
1F
100
AcDbEntity
  8
LC-002-002-----0
 62
     7
370
    50
100
AcDbCircle
 10
157.443563
 20
154.037205
 30
0.0
 40
0.8000000000009401
100
AcDbArc
 50
340.0
 51
88.209215
  0
LINE
  5
1E6
102
{ACAD_REACTORS
330
235
102
}
330
1F
100
AcDbEntity
  8
LC-002-002-----0
 62
     7
370
    50
100
AcDbLine
 10
156.948216
 20
150.337205
 30
0.0
 11
114.268563
 21
150.337205
 31
0.0
  0
ARC
  5
1E7
102
{ACAD_REACTORS
330
235
102
}
330
1F
100
AcDbEntity
  8
LC-005-001-----0
 62
     7
370
    50
100
AcDbCircle
 10
157.968563
 20
159.337205
 30
0.0
 40
0.5
100
AcDbArc
 50
90.0
 51
180.0
  0
LINE
  5
1E8
102
{ACAD_REACTORS
330
235
102
}
330
1F
100
AcDbEntity
  8
LC-002-002-----0
 62
     7
370
    50
100
AcDbLine
 10
160.768563
 20
170.837205
 30
0.0
 11
160.768563
 21
163.837205
 31
0.0
  0
LINE
  5
1E9
102
{ACAD_REACTORS
330
235
102
}
330
1F
100
AcDbEntity
  8
LC-002-002-----0
 62
     7
370
    50
100
AcDbLine
 10
158.195317
 20
153.763589
 30
0.0
 11
156.948216
 21
150.337205
 31
0.0
  0
LINE
  5
1EA
102
{ACAD_REACTORS
330
235
102
}
330
1F
100
AcDbEntity
  8
LC-005-001-----0
 62
     7
370
    50
100
AcDbLine
 10
159.368563
 20
159.837205
 30
0.0
 11
157.968563
 21
159.837205
 31
0.0
  0
LINE
  5
1EB
102
{ACAD_REACTORS
330
235
102
}
330
1F
100
AcDbEntity
  8
LC-002-002-----0
 62
     7
370
    50
100
AcDbLine
 10
156.268563
 20
163.837205
 30
0.0
 11
114.268563
 21
163.837205
 31
0.0
  0
LINE
  5
1EC
102
{ACAD_REACTORS
330
235
102
}
330
1F
100
AcDbEntity
  8
LC-002-002-----0
 62
     7
370
    50
100
AcDbLine
 10
163.768563
 20
159.837205
 30
0.0
 11
163.768563
 21
163.837205
 31
0.0
  0
LINE
  5
1ED
102
{ACAD_REACTORS
330
235
102
}
330
1F
100
AcDbEntity
  8
LC-002-002-----0
 62
     7
370
    50
100
AcDbLine
 10
163.268563
 20
171.337205
 30
0.0
 11
114.268563
 21
171.337205
 31
0.0
  0
LINE
  5
1EE
102
{ACAD_REACTORS
330
235
102
}
330
1F
100
AcDbEntity
  8
LC-002-002-----0
 62
     7
370
    50
100
AcDbLine
 10
157.968563
 20
159.837205
 30
0.0
 11
163.768563
 21
159.837205
 31
0.0
  0
LINE
  5
1EF
102
{ACAD_REACTORS
330
235
102
}
330
1F
100
AcDbEntity
  8
LC-002-002-----0
 62
     7
370
    50
100
AcDbLine
 10
160.768563
 20
165.837205
 30
0.0
 11
114.268563
 21
165.837205
 31
0.0
  0
ARC
  5
1F0
102
{ACAD_REACTORS
330
235
102
}
330
1F
100
AcDbEntity
  8
LC-003-002-RND-0
 62
     7
370
    50
100
AcDbCircle
 10
163.268563
 20
170.837205
 30
0.0
 40
0.5
100
AcDbArc
 50
0.0
 51
90.0
  0
ARC
  5
1F1
102
{ACAD_REACTORS
330
235
102
}
330
1F
100
AcDbEntity
  8
LC-003-002-RND-0
 62
     7
370
    50
100
AcDbCircle
 10
161.268563
 20
170.837205
 30
0.0
 40
0.5
100
AcDbArc
 50
90.0
 51
180.0
  0
LINE
  5
1F2
102
{ACAD_REACTORS
330
235
102
}
330
1F
100
AcDbEntity
  8
LC-002-002-----0
 62
     7
370
    50
100
AcDbLine
 10
156.268563
 20
162.837205
 30
0.0
 11
114.268563
 21
162.837205
 31
0.0
  0
LINE
  5
1F3
102
{ACAD_REACTORS
330
235
102
}
330
1F
100
AcDbEntity
  8
LC-002-002-----0
 62
     7
370
    50
100
AcDbLine
 10
156.268563
 20
162.837205
 30
0.0
 11
156.268563
 21
150.337205
 31
0.0
  0
ARC
  5
1F4
102
{ACAD_REACTORS
330
235
102
}
330
1F
100
AcDbEntity
  8
LC-002-002-----0
 62
     7
370
    50
100
AcDbCircle
 10
156.268563
 20
163.337205
 30
0.0
 40
0.5
100
AcDbArc
 50
90.0
 51
270.0
  0
LINE
  5
1F5
102
{ACAD_REACTORS
330
235
102
}
330
1F
100
AcDbEntity
  8
LC-002-002-----0
 62
     7
370
    50
100
AcDbLine
 10
162.268563
 20
161.837205
 30
0.0
 11
162.268563
 21
163.837205
 31
0.0
  0
LINE
  5
1F6
102
{ACAD_REACTORS
330
235
102
}
330
1F
100
AcDbEntity
  8
LC-002-002-----0
 62
     7
370
    50
100
AcDbLine
 10
162.268563
 20
163.837205
 30
0.0
 11
164.768563
 21
163.837205
 31
0.0
  0
LINE
  5
1F7
102
{ACAD_REACTORS
330
235
102
}
330
1F
100
AcDbEntity
  8
LC-002-002-----0
 62
     7
370
    50
100
AcDbLine
 10
164.768563
 20
164.837205
 30
0.0
 11
163.768563
 21
164.837205
 31
0.0
  0
LINE
  5
1F8
102
{ACAD_REACTORS
330
235
102
}
330
1F
100
AcDbEntity
  8
LC-002-002-----0
 62
     7
370
    50
100
AcDbLine
 10
164.768563
 20
163.837205
 30
0.0
 11
164.768563
 21
164.837205
 31
0.0
  0
LINE
  5
1F9
102
{ACAD_REACTORS
330
234
102
}
330
1F
100
AcDbEntity
  8
LC-002-002-----0
 62
     7
370
    50
100
AcDbLine
 10
67.768563
 20
163.837205
 30
0.0
 11
72.268563
 21
163.837205
 31
0.0
  0
LINE
  5
1FA
102
{ACAD_REACTORS
330
234
102
}
330
1F
100
AcDbEntity
  8
LC-002-002-----0
 62
     7
370
    50
100
AcDbLine
 10
66.268563
 20
171.337205
 30
0.0
 11
66.268563
 21
171.337205
 31
0.0
  0
LINE
  5
1FB
102
{ACAD_REACTORS
330
234
102
}
330
1F
100
AcDbEntity
  8
LC-002-002-----0
 62
     7
370
    50
100
AcDbLine
 10
64.768563
 20
170.837205
 30
0.0
 11
64.768563
 21
164.837205
 31
0.0
  0
INSERT
  5
20A
102
{ACAD_REACTORS
330
234
102
}
330
1F
100
AcDbEntity
  8
LC-004-005-----0
 62
     7
370
    25
100
AcDbBlockReference
  2
*X1013
 10
0.0
 20
0.0
 30
0.0
  0
LINE
  5
20B
102
{ACAD_REACTORS
330
234
102
}
330
1F
100
AcDbEntity
  8
LC-002-002-----0
 62
     7
370
    50
100
AcDbLine
 10
66.268563
 20
161.837205
 30
0.0
 11
71.068563
 21
161.837205
 31
0.0
  0
LINE
  5
20C
102
{ACAD_REACTORS
330
234
102
}
330
1F
100
AcDbEntity
  8
LC-002-002-----0
 62
     7
370
    50
100
AcDbLine
 10
71.068563
 20
161.837205
 30
0.0
 11
71.068563
 21
154.837205
 31
0.0
  0
ARC
  5
20D
102
{ACAD_REACTORS
330
234
102
}
330
1F
100
AcDbEntity
  8
LC-002-002-----0
 62
     7
370
    50
100
AcDbCircle
 10
71.093563
 20
154.037205
 30
0.0
 40
0.8000000000009745
100
AcDbArc
 50
91.790785
 51
200.0
  0
LINE
  5
20E
102
{ACAD_REACTORS
330
234
102
}
330
1F
100
AcDbEntity
  8
LC-002-002-----0
 62
     7
370
    50
100
AcDbLine
 10
71.588911
 20
150.337205
 30
0.0
 11
114.268563
 21
150.337205
 31
0.0
  0
ARC
  5
20F
102
{ACAD_REACTORS
330
234
102
}
330
1F
100
AcDbEntity
  8
LC-005-001-----0
 62
     7
370
    50
100
AcDbCircle
 10
70.568563
 20
159.337205
 30
0.0
 40
0.5
100
AcDbArc
 50
0.0
 51
90.0
  0
LINE
  5
210
102
{ACAD_REACTORS
330
234
102
}
330
1F
100
AcDbEntity
  8
LC-002-002-----0
 62
     7
370
    50
100
AcDbLine
 10
67.768563
 20
170.837205
 30
0.0
 11
67.768563
 21
163.837205
 31
0.0
  0
LINE
  5
211
102
{ACAD_REACTORS
330
234
102
}
330
1F
100
AcDbEntity
  8
LC-002-002-----0
 62
     7
370
    50
100
AcDbLine
 10
70.341809
 20
153.763589
 30
0.0
 11
71.588911
 21
150.337205
 31
0.0
  0
LINE
  5
212
102
{ACAD_REACTORS
330
234
102
}
330
1F
100
AcDbEntity
  8
LC-005-001-----0
 62
     7
370
    50
100
AcDbLine
 10
69.168563
 20
159.837205
 30
0.0
 11
70.568563
 21
159.837205
 31
0.0
  0
LINE
  5
213
102
{ACAD_REACTORS
330
234
102
}
330
1F
100
AcDbEntity
  8
LC-002-002-----0
 62
     7
370
    50
100
AcDbLine
 10
72.268563
 20
163.837205
 30
0.0
 11
114.268563
 21
163.837205
 31
0.0
  0
LINE
  5
214
102
{ACAD_REACTORS
330
234
102
}
330
1F
100
AcDbEntity
  8
LC-002-002-----0
 62
     7
370
    50
100
AcDbLine
 10
64.768563
 20
159.837205
 30
0.0
 11
64.768563
 21
163.837205
 31
0.0
  0
LINE
  5
215
102
{ACAD_REACTORS
330
234
102
}
330
1F
100
AcDbEntity
  8
LC-002-002-----0
 62
     7
370
    50
100
AcDbLine
 10
65.268563
 20
171.337205
 30
0.0
 11
114.268563
 21
171.337205
 31
0.0
  0
LINE
  5
216
102
{ACAD_REACTORS
330
234
102
}
330
1F
100
AcDbEntity
  8
LC-002-002-----0
 62
     7
370
    50
100
AcDbLine
 10
70.568563
 20
159.837205
 30
0.0
 11
64.768563
 21
159.837205
 31
0.0
  0
LINE
  5
217
102
{ACAD_REACTORS
330
234
102
}
330
1F
100
AcDbEntity
  8
LC-002-002-----0
 62
     7
370
    50
100
AcDbLine
 10
67.768563
 20
165.837205
 30
0.0
 11
114.268563
 21
165.837205
 31
0.0
  0
ARC
  5
218
102
{ACAD_REACTORS
330
234
102
}
330
1F
100
AcDbEntity
  8
LC-003-002-RND-0
 62
     7
370
    50
100
AcDbCircle
 10
65.268563
 20
170.837205
 30
0.0
 40
0.5
100
AcDbArc
 50
90.0
 51
180.0
  0
ARC
  5
219
102
{ACAD_REACTORS
330
234
102
}
330
1F
100
AcDbEntity
  8
LC-003-002-RND-0
 62
     7
370
    50
100
AcDbCircle
 10
67.268563
 20
170.837205
 30
0.0
 40
0.5
100
AcDbArc
 50
360.0
 51
90.0
  0
LINE
  5
21A
102
{ACAD_REACTORS
330
234
102
}
330
1F
100
AcDbEntity
  8
LC-002-002-----0
 62
     7
370
    50
100
AcDbLine
 10
72.268563
 20
162.837205
 30
0.0
 11
114.268563
 21
162.837205
 31
0.0
  0
LINE
  5
21B
102
{ACAD_REACTORS
330
234
102
}
330
1F
100
AcDbEntity
  8
LC-002-002-----0
 62
     7
370
    50
100
AcDbLine
 10
72.268563
 20
162.837205
 30
0.0
 11
72.268563
 21
150.337205
 31
0.0
  0
ARC
  5
21C
102
{ACAD_REACTORS
330
234
102
}
330
1F
100
AcDbEntity
  8
LC-002-002-----0
 62
     7
370
    50
100
AcDbCircle
 10
72.268563
 20
163.337205
 30
0.0
 40
0.5
100
AcDbArc
 50
270.0
 51
90.0
  0
LINE
  5
21D
102
{ACAD_REACTORS
330
234
102
}
330
1F
100
AcDbEntity
  8
LC-002-002-----0
 62
     7
370
    50
100
AcDbLine
 10
66.268563
 20
161.837205
 30
0.0
 11
66.268563
 21
163.837205
 31
0.0
  0
LINE
  5
21E
102
{ACAD_REACTORS
330
234
102
}
330
1F
100
AcDbEntity
  8
LC-002-002-----0
 62
     7
370
    50
100
AcDbLine
 10
66.268563
 20
163.837205
 30
0.0
 11
63.768563
 21
163.837205
 31
0.0
  0
LINE
  5
21F
102
{ACAD_REACTORS
330
234
102
}
330
1F
100
AcDbEntity
  8
LC-002-002-----0
 62
     7
370
    50
100
AcDbLine
 10
63.768563
 20
164.837205
 30
0.0
 11
64.768563
 21
164.837205
 31
0.0
  0
LINE
  5
220
102
{ACAD_REACTORS
330
234
102
}
330
1F
100
AcDbEntity
  8
LC-002-002-----0
 62
     7
370
    50
100
AcDbLine
 10
63.768563
 20
163.837205
 30
0.0
 11
63.768563
 21
164.837205
 31
0.0
  0
DIMENSION
  5
221
330
1F
100
AcDbEntity
  8
LC-001-003-----0
 62
     7
370
    25
100
AcDbDimension
  2
*D14
 10
163.768563
 20
200.0
 30
0.0
 11
114.268563
 21
230.8
 31
0.0
 70
   160
  1
100
 71
     5
 42
99.0
  3
LC-DIM-L-0140-02-02
100
AcDbAlignedDimension
 13
64.768563
 23
170.837205
 33
0.0
 14
163.768563
 24
170.837205
 34
0.0
100
AcDbRotatedDimension
  0
ENDSEC
  0
SECTION
  2
OBJECTS
  0
DICTIONARY
  5
C
330
0
100
AcDbDictionary
281
     1
  3
ACAD_GROUP
350
D
  3
ACAD_LAYOUT
350
1A
  3
ACAD_MLINESTYLE
350
17
  3
ACAD_PLOTSETTINGS
350
19
  3
ACAD_PLOTSTYLENAME
350
E
  0
DICTIONARY
  5
D
102
{ACAD_REACTORS
330
C
102
}
330
C
100
AcDbDictionary
281
     1
  3
LCGROUP164
350
233
  3
LCGROUP21
350
22F
  3
LCGROUP297
350
22E
  3
LCGROUP340
350
230
  3
LCGROUP426
350
232
  3
LCGROUP427
350
231
  3
LCGROUP480
350
235
  3
LCGROUP482
350
234
  0
DICTIONARY
  5
1A
102
{ACAD_REACTORS
330
C
102
}
330
C
100
AcDbDictionary
281
     1
  3
Layout1
350
1E
  3
Layout2
350
26
  3
Model
350
22
  0
DICTIONARY
  5
17
102
{ACAD_REACTORS
330
C
102
}
330
C
100
AcDbDictionary
281
     1
  3
Standard
350
18
  0
DICTIONARY
  5
19
102
{ACAD_REACTORS
330
C
102
}
330
C
100
AcDbDictionary
281
     1
  0
ACDBDICTIONARYWDFLT
  5
E
102
{ACAD_REACTORS
330
C
102
}
330
C
100
AcDbDictionary
281
     1
  3
Normal
350
F
100
AcDbDictionaryWithDefault
340
F
  0
GROUP
  5
233
102
{ACAD_REACTORS
330
D
102
}
330
D
100
AcDbGroup
300
GRP164
 70
     1
 71
     1
340
CF
340
D0
340
D1
340
D2
340
14F
340
150
340
151
340
152
340
155
  0
GROUP
  5
22F
102
{ACAD_REACTORS
330
D
102
}
330
D
100
AcDbGroup
300
GRP21
 70
     1
 71
     1
340
51
340
52
340
53
340
54
340
56
340
A3
340
CC
340
CD
340
CE
  0
GROUP
  5
22E
102
{ACAD_REACTORS
330
D
102
}
330
D
100
AcDbGroup
300
GRP297
 70
     1
 71
     1
340
D3
340
D4
340
D5
340
D8
340
D9
340
DB
340
DC
340
DF
340
F5
340
FC
340
FD
340
FE
340
FF
340
100
340
101
340
105
340
106
340
10A
340
10B
340
10C
340
10D
340
10E
340
10F
340
110
340
111
340
112
340
113
340
115
340
116
340
117
340
118
340
119
340
11A
340
11B
340
11C
340
11D
340
11E
340
11F
340
120
340
121
340
122
340
123
340
124
340
125
340
126
  0
GROUP
  5
230
102
{ACAD_REACTORS
330
D
102
}
330
D
100
AcDbGroup
300
GRP340
 70
     1
 71
     1
340
4F
340
114
340
127
340
156
340
157
340
158
340
159
340
15A
340
15B
340
15C
340
15D
340
15E
340
15F
340
160
340
161
340
162
340
163
340
164
340
165
340
166
340
167
340
168
340
169
340
18D
340
1B1
340
1B2
340
1B3
340
1B4
  0
GROUP
  5
232
102
{ACAD_REACTORS
330
D
102
}
330
D
100
AcDbGroup
300
GRP426
 70
     1
 71
     1
340
47
340
48
340
49
340
4A
340
4B
340
4C
340
5F
340
60
340
61
340
77
340
78
340
79
340
7B
340
7C
340
7D
340
7E
340
7F
340
80
340
81
340
82
340
83
340
84
340
85
340
86
340
87
340
88
340
89
340
8A
340
8D
340
8F
340
90
340
91
340
92
340
93
340
94
340
95
340
D6
340
D7
340
DA
340
DD
340
DE
340
E0
340
E1
340
E2
340
E3
340
E4
340
E5
340
E6
  0
GROUP
  5
231
102
{ACAD_REACTORS
330
D
102
}
330
D
100
AcDbGroup
300
GRP427
 70
     1
 71
     1
340
E8
340
E9
340
EA
340
EB
340
ED
340
EE
340
EF
340
F0
340
F1
340
F2
340
F3
340
F4
340
F6
340
F7
340
F8
340
F9
340
FA
340
FB
340
102
340
103
340
104
340
107
340
108
340
109
  0
GROUP
  5
235
102
{ACAD_REACTORS
330
D
102
}
330
D
100
AcDbGroup
300
Rahmen
 70
     1
 71
     1
340
1D2
340
1D3
340
1D4
340
1E2
340
1E3
340
1E4
340
1E5
340
1E6
340
1E7
340
1E8
340
1E9
340
1EA
340
1EB
340
1EC
340
1ED
340
1EE
340
1EF
340
1F0
340
1F1
340
1F2
340
1F3
340
1F4
340
1F5
340
1F6
340
1F7
340
1F8
  0
GROUP
  5
234
102
{ACAD_REACTORS
330
D
102
}
330
D
100
AcDbGroup
300
Rahmen
 70
     1
 71
     1
340
1F9
340
1FA
340
1FB
340
20A
340
20B
340
20C
340
20D
340
20E
340
20F
340
210
340
211
340
212
340
213
340
214
340
215
340
216
340
217
340
218
340
219
340
21A
340
21B
340
21C
340
21D
340
21E
340
21F
340
220
  0
LAYOUT
  5
1E
102
{ACAD_REACTORS
330
1A
102
}
330
1A
100
AcDbPlotSettings
  1

  2

  4

  6

 40
0.0
 41
0.0
 42
0.0
 43
0.0
 44
0.0
 45
0.0
 46
0.0
 47
0.0
 48
0.0
 49
0.0
140
0.0
141
0.0
142
1.0
143
1.0
 70
   688
 72
     0
 73
     0
 74
     5
  7

 75
    16
147
1.0
148
0.0
149
0.0
100
AcDbLayout
  1
Layout1
 70
     1
 71
     1
 10
-210.0
 20
-148.5
 11
630.0
 21
445.5
 12
0.0
 22
0.0
 32
0.0
 14
-210.0
 24
-148.5
 34
0.0
 15
630.0
 25
445.5
 35
0.0
146
0.0
 13
0.0
 23
0.0
 33
0.0
 16
1.0
 26
0.0
 36
0.0
 17
0.0
 27
1.0
 37
0.0
 76
     0
330
1B
  0
LAYOUT
  5
26
102
{ACAD_REACTORS
330
1A
102
}
330
1A
100
AcDbPlotSettings
  1

  2

  4

  6

 40
0.0
 41
0.0
 42
0.0
 43
0.0
 44
0.0
 45
0.0
 46
0.0
 47
0.0
 48
0.0
 49
0.0
140
0.0
141
0.0
142
1.0
143
1.0
 70
   688
 72
     0
 73
     0
 74
     5
  7

 75
    16
147
1.0
148
0.0
149
0.0
100
AcDbLayout
  1
Layout2
 70
     1
 71
     2
 10
0.0
 20
0.0
 11
0.0
 21
0.0
 12
0.0
 22
0.0
 32
0.0
 14
0.0
 24
0.0
 34
0.0
 15
0.0
 25
0.0
 35
0.0
146
0.0
 13
0.0
 23
0.0
 33
0.0
 16
1.0
 26
0.0
 36
0.0
 17
0.0
 27
1.0
 37
0.0
 76
     0
330
23
  0
LAYOUT
  5
22
102
{ACAD_REACTORS
330
1A
102
}
330
1A
100
AcDbPlotSettings
  1

  2

  4

  6

 40
0.0
 41
0.0
 42
0.0
 43
0.0
 44
0.0
 45
0.0
 46
0.0
 47
0.0
 48
0.0
 49
0.0
140
0.0
141
0.0
142
1.0
143
1.0
 70
  1776
 72
     0
 73
     0
 74
     0
  7

 75
     0
147
1.0
148
0.0
149
0.0
100
AcDbLayout
  1
Model
 70
     1
 71
     0
 10
-210.0
 20
-148.5
 11
630.0
 21
445.5
 12
0.0
 22
0.0
 32
0.0
 14
-210.0
 24
-148.5
 34
0.0
 15
630.0
 25
445.5
 35
0.0
146
0.0
 13
0.0
 23
0.0
 33
0.0
 16
1.0
 26
0.0
 36
0.0
 17
0.0
 27
1.0
 37
0.0
 76
     0
330
1F
  0
MLINESTYLE
  5
18
102
{ACAD_REACTORS
330
17
102
}
330
17
100
AcDbMlineStyle
  2
Standard
 70
     0
  3

 62
   256
 51
90.0
 52
90.0
 71
     2
 49
0.5
 62
   256
  6
BYLAYER
 49
-0.5
 62
   256
  6
BYLAYER
  0
ACDBPLACEHOLDER
  5
F
102
{ACAD_REACTORS
330
E
102
}
330
E
  0
ENDSEC
  0
EOF
