  0
SECTION
  2
HEADER
  9
$ACADVER
  1
AC1009
  9
$INSBASE
 10
0.0
 20
0.0
 30
0.0
  9
$EXTMIN
 10
0.0
 20
0.0
 30
0.0
  9
$EXTMAX
 10
840.0
 20
594.0
 30
0.0
  9
$LIMMIN
 10
0.0
 20
0.0
  9
$LIMMAX
 10
840.0
 20
594.0
  9
$ORTHOMODE
 70
     0
  9
$REGENMODE
 70
     1
  9
$FILLMODE
 70
     1
  9
$QTEXTMODE
 70
     0
  9
$MIRRTEXT
 70
     1
  9
$DRAGMODE
 70
     2
  9
$LTSCALE
 40
2.0
  9
$OSMODE
 70
     0
  9
$ATTMODE
 70
     1
  9
$TEXTSIZE
 40
0.2
  9
$TRACEWID
 40
0.05
  9
$TEXTSTYLE
  7
STANDARD
  9
$CLAYER
  8
0
  9
$CELTYPE
  6
BYLAYER
  9
$CECOLOR
 62
     7
  9
$DIMSCALE
 40
2.0
  9
$DIMASZ
 40
3.5
  9
$DIMEXO
 40
0.0625
  9
$DIMDLI
 40
0.38
  9
$DIMRND
 40
0.0
  9
$DIMDLE
 40
0.0
  9
$DIMEXE
 40
0.18
  9
$DIMTP
 40
0.0
  9
$DIMTM
 40
0.0
  9
$DIMTXT
 40
3.5
  9
$DIMCEN
 40
0.09
  9
$DIMTSZ
 40
0.0
  9
$DIMTOL
 70
     0
  9
$DIMLIM
 70
     0
  9
$DIMTIH
 70
     1
  9
$DIMTOH
 70
     1
  9
$DIMSE1
 70
     0
  9
$DIMSE2
 70
     0
  9
$DIMTAD
 70
     1
  9
$DIMZIN
 70
     0
  9
$DIMBLK
  1

  9
$DIMASO
 70
     1
  9
$DIMSHO
 70
     1
  9
$DIMPOST
  1

  9
$DIMAPOST
  1

  9
$DIMALT
 70
     0
  9
$DIMALTD
 70
     2
  9
$DIMALTF
 40
25.4
  9
$DIMLFAC
 40
1.0
  9
$DIMTOFL
 70
     0
  9
$DIMTVP
 40
0.0
  9
$DIMTIX
 70
     0
  9
$DIMSOXD
 70
     0
  9
$DIMSAH
 70
     0
  9
$DIMBLK1
  1

  9
$DIMBLK2
  1

  9
$DIMSTYLE
  2
STANDARD
  9
$DIMCLRD
 70
     0
  9
$DIMCLRE
 70
     0
  9
$DIMCLRT
 70
     0
  9
$DIMTFAC
 40
1.0
  9
$DIMGAP
 40
0.09
  9
$LUNITS
 70
     2
  9
$LUPREC
 70
     2
  9
$AXISMODE
 70
     0
  9
$AXISUNIT
 10
0.0
 20
0.0
  9
$SKETCHINC
 40
0.1
  9
$FILLETRAD
 40
0.0
  9
$AUNITS
 70
     0
  9
$AUPREC
 70
     0
  9
$MENU
  1
acad
  9
$ELEVATION
 40
0.0
  9
$PELEVATION
 40
0.0
  9
$THICKNESS
 40
0.0
  9
$LIMCHECK
 70
     0
  9
$BLIPMODE
 70
     1
  9
$CHAMFERA
 40
0.0
  9
$CHAMFERB
 40
0.0
  9
$SKPOLY
 70
     0
  9
$TDCREATE
 40
0.000000000
  9
$TDUPDATE
 40
0.000000000
  9
$TDINDWG
 40
0.0000000000
  9
$TDUSRTIMER
 40
0.0000000000
  9
$USRTIMER
 70
     1
  9
$ANGBASE
 50
0.0
  9
$ANGDIR
 70
     0
  9
$PDMODE
 70
     0
  9
$PDSIZE
 40
0.0
  9
$PLINEWID
 40
0.0
  9
$COORDS
 70
     0
  9
$SPLFRAME
 70
     0
  9
$SPLINETYPE
 70
     6
  9
$SPLINESEGS
 70
     8
  9
$ATTDIA
 70
     0
  9
$ATTREQ
 70
     1
  9
$HANDLING
 70
     1
  9
$HANDSEED
  5
1A9
  9
$SURFTAB1
 70
     6
  9
$SURFTAB2
 70
     6
  9
$SURFTYPE
 70
     6
  9
$SURFU
 70
     6
  9
$SURFV
 70
     6
  9
$UCSNAME
  2

  9
$UCSORG
 10
0.0
 20
0.0
 30
0.0
  9
$UCSXDIR
 10
1.0
 20
0.0
 30
0.0
  9
$UCSYDIR
 10
0.0
 20
1.0
 30
0.0
  9
$PUCSNAME
  2

  9
$PUCSORG
 10
0.0
 20
0.0
 30
0.0
  9
$PUCSXDIR
 10
1.0
 20
0.0
 30
0.0
  9
$PUCSYDIR
 10
0.0
 20
1.0
 30
0.0
  9
$USERI1
 70
     0
  9
$USERI2
 70
     0
  9
$USERI3
 70
     0
  9
$USERI4
 70
     0
  9
$USERI5
 70
     0
  9
$USERR1
 40
0.0
  9
$USERR2
 40
0.0
  9
$USERR3
 40
0.0
  9
$USERR4
 40
0.0
  9
$USERR5
 40
0.0
  9
$WORLDVIEW
 70
     1
  9
$SHADEDGE
 70
     3
  9
$SHADEDIF
 70
    70
  9
$TILEMODE
 70
     1
  9
$MAXACTVP
 70
    16
  9
$PINSBASE
 10
0.0
 20
0.0
 30
0.0
  9
$PLIMCHECK
 70
     0
  9
$PEXTMIN
 10
1.000000E+20
 20
1.000000E+20
 30
1.000000E+20
  9
$PEXTMAX
 10
-1.000000E+20
 20
-1.000000E+20
 30
-1.000000E+20
  9
$PLIMMIN
 10
0.0
 20
0.0
  9
$PLIMMAX
 10
840.0
 20
594.0
  9
$UNITMODE
 70
     0
  9
$VISRETAIN
 70
     0
  9
$PLINEGEN
 70
     1
  9
$PSLTSCALE
 70
     0
  9
$TREEDEPTH
 70
  3020
  9
$DWGCODEPAGE
  3
dos850
  0
ENDSEC
  0
SECTION
  2
TABLES
  0
TABLE
  2
VPORT
 70
     1
  0
VPORT
  2
*ACTIVE
 70
     0
 10
0.0
 20
0.0
 11
1.0
 21
1.0
 12
420.0
 22
297.0
 13
0.0
 23
0.0
 14
1.0
 24
1.0
 15
0.0
 25
0.0
 16
0.0
 26
0.0
 36
1.0
 17
0.0
 27
0.0
 37
0.0
 40
594.0
 41
1.604229
 42
50.0
 43
0.0
 44
0.0
 50
0.0
 51
0.0
 71
     0
 72
   100
 73
     1
 74
     1
 75
     0
 76
     0
 77
     0
 78
     0
  0
ENDTAB
  0
TABLE
  2
LTYPE
 70
     2
  0
LTYPE
  2
CONTINUOUS
 70
    64
  3
Solid line
 72
    65
 73
     0
 40
0.0
  0
LTYPE
  2
DASHDOT
 70
    64
  3
__ . __ . __ . __ . __
 72
    65
 73
     4
 40
7.5
 49
5.0
 49
-1.25
 49
0.0
 49
-1.25
  0
ENDTAB
  0
TABLE
  2
LAYER
 70
    10
  0
LAYER
  2
0
 70
     0
 62
     7
  6
CONTINUOUS
  0
LAYER
  2
LC-INFO-1-2-MM-A3-0
 70
     1
 62
    -1
  6
CONTINUOUS
  0
LAYER
  2
LC-004-003-MTH-0
 70
     0
 62
     2
  6
CONTINUOUS
  0
LAYER
  2
LC-003-003-----0
 70
     0
 62
     2
  6
CONTINUOUS
  0
LAYER
  2
LC-005-003-MTG-0
 70
     0
 62
     2
  6
CONTINUOUS
  0
LAYER
  2
LC-006-005-----0
 70
     0
 62
     2
  6
CONTINUOUS
  0
LAYER
  2
LC-007-000-----0
 70
     0
 62
     7
  6
CONTINUOUS
  0
LAYER
  2
LC-001-002-----0
 70
     0
 62
     2
  6
DASHDOT
  0
LAYER
  2
LC-002-002-RND-0
 70
     0
 62
     1
  6
CONTINUOUS
  0
LAYER
  2
LC-000
 70
     0
 62
     7
  6
CONTINUOUS
  0
ENDTAB
  0
TABLE
  2
STYLE
 70
     4
  0
STYLE
  2
STANDARD
 70
     0
 40
0.0
 41
1.0
 50
0.0
 71
     0
 42
0.0
  3
txt
  4

  0
STYLE
  2
LC-STANDARD
 70
    64
 40
0.0
 41
1.0
 50
0.0
 71
     0
 42
3.5
  3
MONOTXT
  4

  0
STYLE
  2
LC-TXTSTYLE-150-400-0-0-D2
 70
    64
 40
0.0
 41
1.0
 50
15.0
 71
     0
 42
3.5
  3
MONOTXT
  4

  0
STYLE
  2
LC-TXTSTYLE-150-400-0-0-D3
 70
    64
 40
0.0
 41
1.0
 50
15.0
 71
     0
 42
3.5
  3
LC-STANDARD
  4

  0
ENDTAB
  0
TABLE
  2
VIEW
 70
     0
  0
ENDTAB
  0
TABLE
  2
UCS
 70
     0
  0
ENDTAB
  0
TABLE
  2
APPID
 70
     1
  0
APPID
  2
ACAD
 70
     0
  0
ENDTAB
  0
TABLE
  2
DIMSTYLE
 70
     3
  0
DIMSTYLE
  2
STANDARD
 70
     0
  3

  4

  5

  6

  7

 40
1.0
 41
0.18
 42
0.0625
 43
0.38
 44
0.18
 45
0.0
 46
0.0
 47
0.0
 48
0.0
 71
     0
 72
     0
 73
     1
 74
     1
 75
     0
 76
     0
 77
     0
 78
     0
140
0.18
141
0.09
142
0.0
143
25.4
144
1.0
145
0.0
146
1.0
147
0.09
170
     0
171
     2
172
     0
173
     0
174
     0
175
     0
176
     0
177
     0
178
     0
  0
DIMSTYLE
  2
LC-STANDARD
 70
     0
  3

  4

  5

  6

  7

 40
1.0
 41
3.5
 42
0.0
 43
7.5
 44
1.8
 45
0.0
 46
0.0
 47
0.0
 48
0.0
 71
     0
 72
     0
 73
     0
 74
     0
 75
     0
 76
     0
 77
     1
 78
     8
140
3.5
141
0.0
142
0.0
143
25.4
144
1.0
145
0.0
146
0.71
147
1.5
170
     0
171
     2
172
     1
173
     0
174
     0
175
     0
176
     0
177
     0
178
     3
  0
DIMSTYLE
  2
LC-DIM-L-0090-02-02
 70
     0
  3

  4

  5

  6

  7

 40
2.0
 41
3.5
 42
0.0
 43
7.5
 44
1.8
 45
0.0
 46
0.0
 47
0.0
 48
0.0
 71
     0
 72
     0
 73
     0
 74
     0
 75
     0
 76
     0
 77
     1
 78
     8
140
9.0
141
0.0
142
0.0
143
25.4
144
1.0
145
0.0
146
0.71
147
1.5
170
     0
171
     2
172
     0
173
     0
174
     0
175
     0
176
     2
177
     2
178
     6
  0
ENDTAB
  0
ENDSEC
  0
SECTION
  2
BLOCKS
  0
BLOCK
  8
0
  5
23
  2
*D0
 70
    65
 10
0.0
 20
0.0
 30
0.0
  3
*D0
  0
LINE
  8
LC-004-003-MTH-0
  6
CONTINUOUS
  5
25
 10
204.986226
 20
346.216451
 30
0.0
 11
204.986226
 21
388.8
 31
0.0
  0
LINE
  8
LC-004-003-MTH-0
  6
CONTINUOUS
  5
26
 10
249.486226
 20
346.216451
 30
0.0
 11
249.486226
 21
388.8
 31
0.0
  0
LINE
  8
LC-003-003-----0
  6
CONTINUOUS
  5
28
 10
187.140218
 20
375.650529
 30
0.0
 11
204.986226
 21
378.0
 31
0.0
  0
LINE
  8
LC-003-003-----0
  6
CONTINUOUS
  5
29
 10
204.986226
 20
378.0
 30
0.0
 11
187.140218
 21
380.349471
 31
0.0
  0
LINE
  8
LC-003-003-----0
  6
CONTINUOUS
  5
2A
 10
187.140218
 20
380.349471
 30
0.0
 11
187.140218
 21
375.650529
 31
0.0
  0
LINE
  8
LC-003-003-----0
  6
CONTINUOUS
  5
2B
 10
187.10018
 20
376.261391
 30
0.0
 11
200.306226
 21
378.0
 31
0.0
  0
LINE
  8
LC-003-003-----0
  6
CONTINUOUS
  5
2C
 10
200.306226
 20
378.0
 30
0.0
 11
187.10018
 21
379.738609
 31
0.0
  0
LINE
  8
LC-003-003-----0
  6
CONTINUOUS
  5
2D
 10
187.060142
 20
376.872254
 30
0.0
 11
195.626226
 21
378.0
 31
0.0
  0
LINE
  8
LC-003-003-----0
  6
CONTINUOUS
  5
2E
 10
195.626226
 20
378.0
 30
0.0
 11
187.060142
 21
379.127746
 31
0.0
  0
LINE
  8
LC-003-003-----0
  6
CONTINUOUS
  5
2F
 10
187.020104
 20
377.483116
 30
0.0
 11
190.946226
 21
378.0
 31
0.0
  0
LINE
  8
LC-003-003-----0
  6
CONTINUOUS
  5
30
 10
190.946226
 20
378.0
 30
0.0
 11
187.020104
 21
378.516884
 31
0.0
  0
LINE
  8
LC-003-003-----0
  6
CONTINUOUS
  5
31
 10
267.332233
 20
380.349471
 30
0.0
 11
249.486226
 21
378.0
 31
0.0
  0
LINE
  8
LC-003-003-----0
  6
CONTINUOUS
  5
32
 10
249.486226
 20
378.0
 30
0.0
 11
267.332233
 21
375.650529
 31
0.0
  0
LINE
  8
LC-003-003-----0
  6
CONTINUOUS
  5
33
 10
267.332233
 20
375.650529
 30
0.0
 11
267.332233
 21
380.349471
 31
0.0
  0
LINE
  8
LC-003-003-----0
  6
CONTINUOUS
  5
34
 10
267.372271
 20
379.738609
 30
0.0
 11
254.166226
 21
378.0
 31
0.0
  0
LINE
  8
LC-003-003-----0
  6
CONTINUOUS
  5
35
 10
254.166226
 20
378.0
 30
0.0
 11
267.372271
 21
376.261391
 31
0.0
  0
LINE
  8
LC-003-003-----0
  6
CONTINUOUS
  5
36
 10
267.41231
 20
379.127746
 30
0.0
 11
258.846226
 21
378.0
 31
0.0
  0
LINE
  8
LC-003-003-----0
  6
CONTINUOUS
  5
37
 10
258.846226
 20
378.0
 30
0.0
 11
267.41231
 21
376.872254
 31
0.0
  0
LINE
  8
LC-003-003-----0
  6
CONTINUOUS
  5
38
 10
267.452348
 20
378.516884
 30
0.0
 11
263.526226
 21
378.0
 31
0.0
  0
LINE
  8
LC-003-003-----0
  6
CONTINUOUS
  5
39
 10
263.526226
 20
378.0
 30
0.0
 11
267.452348
 21
377.483116
 31
0.0
  0
LINE
  8
LC-005-003-MTG-0
  6
CONTINUOUS
  5
3B
 10
179.786226
 20
378.0
 30
0.0
 11
372.288746
 21
378.0
 31
0.0
  0
TEXT
  8
LC-003-003-----0
  6
CONTINUOUS
 62
     6
  5
3D
 10
276.761472
 20
388.431999
 30
0.0
 40
18.0
  1
1 1/2"
 41
0.9
 51
15.0
  7
LC-TXTSTYLE-150-400-0-0-D0
  0
ENDBLK
  8
0
  5
3E
  0
BLOCK
  8
0
  5
40
  2
*X1
 70
    65
 10
205.236226
 20
281.716451
 30
0.0
  3
*X1
  0
LINE
  8
LC-006-005-----0
  6
CONTINUOUS
  5
42
 10
456.503029
 20
281.716451
 30
0.0
 11
454.503029
 21
283.716451
 31
0.0
  0
LINE
  8
LC-006-005-----0
  6
CONTINUOUS
  5
43
 10
453.674602
 20
281.716451
 30
0.0
 11
451.674602
 21
283.716451
 31
0.0
  0
LINE
  8
LC-006-005-----0
  6
CONTINUOUS
  5
44
 10
450.846174
 20
281.716451
 30
0.0
 11
448.846174
 21
283.716451
 31
0.0
  0
LINE
  8
LC-006-005-----0
  6
CONTINUOUS
  5
45
 10
448.017747
 20
281.716451
 30
0.0
 11
446.017747
 21
283.716451
 31
0.0
  0
LINE
  8
LC-006-005-----0
  6
CONTINUOUS
  5
46
 10
445.18932
 20
281.716451
 30
0.0
 11
443.18932
 21
283.716451
 31
0.0
  0
LINE
  8
LC-006-005-----0
  6
CONTINUOUS
  5
47
 10
442.360893
 20
281.716451
 30
0.0
 11
440.360893
 21
283.716451
 31
0.0
  0
LINE
  8
LC-006-005-----0
  6
CONTINUOUS
  5
48
 10
439.532466
 20
281.716451
 30
0.0
 11
437.532466
 21
283.716451
 31
0.0
  0
LINE
  8
LC-006-005-----0
  6
CONTINUOUS
  5
49
 10
436.704039
 20
281.716451
 30
0.0
 11
434.704039
 21
283.716451
 31
0.0
  0
LINE
  8
LC-006-005-----0
  6
CONTINUOUS
  5
4A
 10
433.875612
 20
281.716451
 30
0.0
 11
431.875612
 21
283.716451
 31
0.0
  0
LINE
  8
LC-006-005-----0
  6
CONTINUOUS
  5
4B
 10
431.047185
 20
281.716451
 30
0.0
 11
429.047185
 21
283.716451
 31
0.0
  0
LINE
  8
LC-006-005-----0
  6
CONTINUOUS
  5
4C
 10
428.218757
 20
281.716451
 30
0.0
 11
426.218757
 21
283.716451
 31
0.0
  0
LINE
  8
LC-006-005-----0
  6
CONTINUOUS
  5
4D
 10
425.39033
 20
281.716451
 30
0.0
 11
423.39033
 21
283.716451
 31
0.0
  0
LINE
  8
LC-006-005-----0
  6
CONTINUOUS
  5
4E
 10
422.561903
 20
281.716451
 30
0.0
 11
420.561903
 21
283.716451
 31
0.0
  0
LINE
  8
LC-006-005-----0
  6
CONTINUOUS
  5
4F
 10
419.733476
 20
281.716451
 30
0.0
 11
417.733476
 21
283.716451
 31
0.0
  0
LINE
  8
LC-006-005-----0
  6
CONTINUOUS
  5
50
 10
416.905049
 20
281.716451
 30
0.0
 11
414.905049
 21
283.716451
 31
0.0
  0
LINE
  8
LC-006-005-----0
  6
CONTINUOUS
  5
51
 10
414.076622
 20
281.716451
 30
0.0
 11
412.076622
 21
283.716451
 31
0.0
  0
LINE
  8
LC-006-005-----0
  6
CONTINUOUS
  5
52
 10
411.248195
 20
281.716451
 30
0.0
 11
409.248195
 21
283.716451
 31
0.0
  0
LINE
  8
LC-006-005-----0
  6
CONTINUOUS
  5
53
 10
408.419768
 20
281.716451
 30
0.0
 11
406.419768
 21
283.716451
 31
0.0
  0
LINE
  8
LC-006-005-----0
  6
CONTINUOUS
  5
54
 10
405.59134
 20
281.716451
 30
0.0
 11
403.59134
 21
283.716451
 31
0.0
  0
LINE
  8
LC-006-005-----0
  6
CONTINUOUS
  5
55
 10
402.762913
 20
281.716451
 30
0.0
 11
400.762913
 21
283.716451
 31
0.0
  0
LINE
  8
LC-006-005-----0
  6
CONTINUOUS
  5
56
 10
399.934486
 20
281.716451
 30
0.0
 11
397.934486
 21
283.716451
 31
0.0
  0
LINE
  8
LC-006-005-----0
  6
CONTINUOUS
  5
57
 10
397.106059
 20
281.716451
 30
0.0
 11
395.106059
 21
283.716451
 31
0.0
  0
LINE
  8
LC-006-005-----0
  6
CONTINUOUS
  5
58
 10
394.277632
 20
281.716451
 30
0.0
 11
392.277632
 21
283.716451
 31
0.0
  0
LINE
  8
LC-006-005-----0
  6
CONTINUOUS
  5
59
 10
391.449205
 20
281.716451
 30
0.0
 11
389.449205
 21
283.716451
 31
0.0
  0
LINE
  8
LC-006-005-----0
  6
CONTINUOUS
  5
5A
 10
388.620778
 20
281.716451
 30
0.0
 11
386.620778
 21
283.716451
 31
0.0
  0
LINE
  8
LC-006-005-----0
  6
CONTINUOUS
  5
5B
 10
385.792351
 20
281.716451
 30
0.0
 11
383.792351
 21
283.716451
 31
0.0
  0
LINE
  8
LC-006-005-----0
  6
CONTINUOUS
  5
5C
 10
382.963923
 20
281.716451
 30
0.0
 11
380.963923
 21
283.716451
 31
0.0
  0
LINE
  8
LC-006-005-----0
  6
CONTINUOUS
  5
5D
 10
380.135496
 20
281.716451
 30
0.0
 11
378.135496
 21
283.716451
 31
0.0
  0
LINE
  8
LC-006-005-----0
  6
CONTINUOUS
  5
5E
 10
377.307069
 20
281.716451
 30
0.0
 11
375.307069
 21
283.716451
 31
0.0
  0
LINE
  8
LC-006-005-----0
  6
CONTINUOUS
  5
5F
 10
374.478642
 20
281.716451
 30
0.0
 11
372.478642
 21
283.716451
 31
0.0
  0
LINE
  8
LC-006-005-----0
  6
CONTINUOUS
  5
60
 10
371.650215
 20
281.716451
 30
0.0
 11
369.650215
 21
283.716451
 31
0.0
  0
LINE
  8
LC-006-005-----0
  6
CONTINUOUS
  5
61
 10
368.821788
 20
281.716451
 30
0.0
 11
366.821788
 21
283.716451
 31
0.0
  0
LINE
  8
LC-006-005-----0
  6
CONTINUOUS
  5
62
 10
365.993361
 20
281.716451
 30
0.0
 11
363.993361
 21
283.716451
 31
0.0
  0
LINE
  8
LC-006-005-----0
  6
CONTINUOUS
  5
63
 10
363.164934
 20
281.716451
 30
0.0
 11
361.164934
 21
283.716451
 31
0.0
  0
LINE
  8
LC-006-005-----0
  6
CONTINUOUS
  5
64
 10
360.336506
 20
281.716451
 30
0.0
 11
358.336506
 21
283.716451
 31
0.0
  0
LINE
  8
LC-006-005-----0
  6
CONTINUOUS
  5
65
 10
357.508079
 20
281.716451
 30
0.0
 11
355.508079
 21
283.716451
 31
0.0
  0
LINE
  8
LC-006-005-----0
  6
CONTINUOUS
  5
66
 10
354.679652
 20
281.716451
 30
0.0
 11
352.679652
 21
283.716451
 31
0.0
  0
LINE
  8
LC-006-005-----0
  6
CONTINUOUS
  5
67
 10
351.851225
 20
281.716451
 30
0.0
 11
349.851225
 21
283.716451
 31
0.0
  0
LINE
  8
LC-006-005-----0
  6
CONTINUOUS
  5
68
 10
349.022798
 20
281.716451
 30
0.0
 11
347.022798
 21
283.716451
 31
0.0
  0
LINE
  8
LC-006-005-----0
  6
CONTINUOUS
  5
69
 10
346.194371
 20
281.716451
 30
0.0
 11
344.194371
 21
283.716451
 31
0.0
  0
LINE
  8
LC-006-005-----0
  6
CONTINUOUS
  5
6A
 10
343.365944
 20
281.716451
 30
0.0
 11
341.365944
 21
283.716451
 31
0.0
  0
LINE
  8
LC-006-005-----0
  6
CONTINUOUS
  5
6B
 10
340.537517
 20
281.716451
 30
0.0
 11
338.537517
 21
283.716451
 31
0.0
  0
LINE
  8
LC-006-005-----0
  6
CONTINUOUS
  5
6C
 10
337.709089
 20
281.716451
 30
0.0
 11
335.709089
 21
283.716451
 31
0.0
  0
LINE
  8
LC-006-005-----0
  6
CONTINUOUS
  5
6D
 10
334.880662
 20
281.716451
 30
0.0
 11
332.880662
 21
283.716451
 31
0.0
  0
LINE
  8
LC-006-005-----0
  6
CONTINUOUS
  5
6E
 10
332.052235
 20
281.716451
 30
0.0
 11
330.052235
 21
283.716451
 31
0.0
  0
LINE
  8
LC-006-005-----0
  6
CONTINUOUS
  5
6F
 10
329.223808
 20
281.716451
 30
0.0
 11
327.223808
 21
283.716451
 31
0.0
  0
LINE
  8
LC-006-005-----0
  6
CONTINUOUS
  5
70
 10
326.395381
 20
281.716451
 30
0.0
 11
324.395381
 21
283.716451
 31
0.0
  0
LINE
  8
LC-006-005-----0
  6
CONTINUOUS
  5
71
 10
323.566954
 20
281.716451
 30
0.0
 11
321.566954
 21
283.716451
 31
0.0
  0
LINE
  8
LC-006-005-----0
  6
CONTINUOUS
  5
72
 10
320.738527
 20
281.716451
 30
0.0
 11
318.738527
 21
283.716451
 31
0.0
  0
LINE
  8
LC-006-005-----0
  6
CONTINUOUS
  5
73
 10
317.9101
 20
281.716451
 30
0.0
 11
315.9101
 21
283.716451
 31
0.0
  0
LINE
  8
LC-006-005-----0
  6
CONTINUOUS
  5
74
 10
315.081672
 20
281.716451
 30
0.0
 11
313.081672
 21
283.716451
 31
0.0
  0
LINE
  8
LC-006-005-----0
  6
CONTINUOUS
  5
75
 10
312.253245
 20
281.716451
 30
0.0
 11
310.253245
 21
283.716451
 31
0.0
  0
LINE
  8
LC-006-005-----0
  6
CONTINUOUS
  5
76
 10
309.424818
 20
281.716451
 30
0.0
 11
307.424818
 21
283.716451
 31
0.0
  0
LINE
  8
LC-006-005-----0
  6
CONTINUOUS
  5
77
 10
306.596391
 20
281.716451
 30
0.0
 11
304.596391
 21
283.716451
 31
0.0
  0
LINE
  8
LC-006-005-----0
  6
CONTINUOUS
  5
78
 10
303.767964
 20
281.716451
 30
0.0
 11
301.767964
 21
283.716451
 31
0.0
  0
LINE
  8
LC-006-005-----0
  6
CONTINUOUS
  5
79
 10
300.939537
 20
281.716451
 30
0.0
 11
298.939537
 21
283.716451
 31
0.0
  0
LINE
  8
LC-006-005-----0
  6
CONTINUOUS
  5
7A
 10
298.11111
 20
281.716451
 30
0.0
 11
296.11111
 21
283.716451
 31
0.0
  0
LINE
  8
LC-006-005-----0
  6
CONTINUOUS
  5
7B
 10
295.282683
 20
281.716451
 30
0.0
 11
293.282683
 21
283.716451
 31
0.0
  0
LINE
  8
LC-006-005-----0
  6
CONTINUOUS
  5
7C
 10
292.454255
 20
281.716451
 30
0.0
 11
290.454255
 21
283.716451
 31
0.0
  0
LINE
  8
LC-006-005-----0
  6
CONTINUOUS
  5
7D
 10
289.625828
 20
281.716451
 30
0.0
 11
287.625828
 21
283.716451
 31
0.0
  0
LINE
  8
LC-006-005-----0
  6
CONTINUOUS
  5
7E
 10
286.797401
 20
281.716451
 30
0.0
 11
284.797401
 21
283.716451
 31
0.0
  0
LINE
  8
LC-006-005-----0
  6
CONTINUOUS
  5
7F
 10
283.968974
 20
281.716451
 30
0.0
 11
281.968974
 21
283.716451
 31
0.0
  0
LINE
  8
LC-006-005-----0
  6
CONTINUOUS
  5
80
 10
281.140547
 20
281.716451
 30
0.0
 11
279.140547
 21
283.716451
 31
0.0
  0
LINE
  8
LC-006-005-----0
  6
CONTINUOUS
  5
81
 10
278.31212
 20
281.716451
 30
0.0
 11
276.31212
 21
283.716451
 31
0.0
  0
LINE
  8
LC-006-005-----0
  6
CONTINUOUS
  5
82
 10
275.483693
 20
281.716451
 30
0.0
 11
273.483693
 21
283.716451
 31
0.0
  0
LINE
  8
LC-006-005-----0
  6
CONTINUOUS
  5
83
 10
272.655266
 20
281.716451
 30
0.0
 11
270.655266
 21
283.716451
 31
0.0
  0
LINE
  8
LC-006-005-----0
  6
CONTINUOUS
  5
84
 10
269.826838
 20
281.716451
 30
0.0
 11
267.826838
 21
283.716451
 31
0.0
  0
LINE
  8
LC-006-005-----0
  6
CONTINUOUS
  5
85
 10
266.998411
 20
281.716451
 30
0.0
 11
264.998411
 21
283.716451
 31
0.0
  0
LINE
  8
LC-006-005-----0
  6
CONTINUOUS
  5
86
 10
264.169984
 20
281.716451
 30
0.0
 11
262.169984
 21
283.716451
 31
0.0
  0
LINE
  8
LC-006-005-----0
  6
CONTINUOUS
  5
87
 10
209.236226
 20
336.650209
 30
0.0
 11
209.169984
 21
336.716451
 31
0.0
  0
LINE
  8
LC-006-005-----0
  6
CONTINUOUS
  5
88
 10
261.341557
 20
281.716451
 30
0.0
 11
259.341557
 21
283.716451
 31
0.0
  0
LINE
  8
LC-006-005-----0
  6
CONTINUOUS
  5
89
 10
209.236226
 20
333.821782
 30
0.0
 11
206.341557
 21
336.716451
 31
0.0
  0
LINE
  8
LC-006-005-----0
  6
CONTINUOUS
  5
8A
 10
258.51313
 20
281.716451
 30
0.0
 11
256.51313
 21
283.716451
 31
0.0
  0
LINE
  8
LC-006-005-----0
  6
CONTINUOUS
  5
8B
 10
209.236226
 20
330.993355
 30
0.0
 11
207.236226
 21
332.993355
 31
0.0
  0
LINE
  8
LC-006-005-----0
  6
CONTINUOUS
  5
8C
 10
206.01313
 20
334.216451
 30
0.0
 11
205.236226
 21
334.993355
 31
0.0
  0
LINE
  8
LC-006-005-----0
  6
CONTINUOUS
  5
8D
 10
255.684703
 20
281.716451
 30
0.0
 11
253.684703
 21
283.716451
 31
0.0
  0
LINE
  8
LC-006-005-----0
  6
CONTINUOUS
  5
8E
 10
209.236226
 20
328.164928
 30
0.0
 11
207.236226
 21
330.164928
 31
0.0
  0
LINE
  8
LC-006-005-----0
  6
CONTINUOUS
  5
8F
 10
252.856276
 20
281.716451
 30
0.0
 11
250.856276
 21
283.716451
 31
0.0
  0
LINE
  8
LC-006-005-----0
  6
CONTINUOUS
  5
90
 10
209.236226
 20
325.336501
 30
0.0
 11
207.236226
 21
327.336501
 31
0.0
  0
LINE
  8
LC-006-005-----0
  6
CONTINUOUS
  5
91
 10
250.027849
 20
281.716451
 30
0.0
 11
247.990194
 21
283.754106
 31
0.0
  0
LINE
  8
LC-006-005-----0
  6
CONTINUOUS
  5
92
 10
209.273881
 20
322.470419
 30
0.0
 11
207.236226
 21
324.508074
 31
0.0
  0
LINE
  8
LC-006-005-----0
  6
CONTINUOUS
  5
93
 10
247.118742
 20
281.79713
 30
0.0
 11
244.910946
 21
284.004927
 31
0.0
  0
LINE
  8
LC-006-005-----0
  6
CONTINUOUS
  5
94
 10
209.524702
 20
319.391171
 30
0.0
 11
207.316905
 21
321.598967
 31
0.0
  0
LINE
  8
LC-006-005-----0
  6
CONTINUOUS
  5
95
 10
243.979278
 20
282.108167
 30
0.0
 11
241.531131
 21
284.556315
 31
0.0
  0
LINE
  8
LC-006-005-----0
  6
CONTINUOUS
  5
96
 10
210.07609
 20
316.011356
 30
0.0
 11
207.627942
 21
318.459503
 31
0.0
  0
LINE
  8
LC-006-005-----0
  6
CONTINUOUS
  5
97
 10
240.534465
 20
282.724553
 30
0.0
 11
237.718434
 21
285.540584
 31
0.0
  0
LINE
  8
LC-006-005-----0
  6
CONTINUOUS
  5
98
 10
211.060359
 20
312.198659
 30
0.0
 11
208.244328
 21
315.01469
 31
0.0
  0
LINE
  8
LC-006-005-----0
  6
CONTINUOUS
  5
99
 10
236.648938
 20
283.781653
 30
0.0
 11
233.171829
 21
287.258762
 31
0.0
  0
LINE
  8
LC-006-005-----0
  6
CONTINUOUS
  5
9A
 10
212.778537
 20
307.652054
 30
0.0
 11
209.301428
 21
311.129163
 31
0.0
  0
LINE
  8
LC-006-005-----0
  6
CONTINUOUS
  5
9B
 10
232.014673
 20
285.587491
 30
0.0
 11
226.687364
 21
290.9148
 31
0.0
  0
LINE
  8
LC-006-005-----0
  6
CONTINUOUS
  5
9C
 10
216.434575
 20
301.167589
 30
0.0
 11
211.107266
 21
306.494898
 31
0.0
  0
LINE
  8
LC-006-005-----0
  6
CONTINUOUS
  5
9D
 10
225.399209
 20
289.374528
 30
0.0
 11
214.894303
 21
299.879434
 31
0.0
  0
ENDBLK
  8
0
  5
9E
  0
BLOCK
  8
0
  5
A0
  2
*D2
 70
    65
 10
0.0
 20
0.0
 30
0.0
  3
*D2
  0
LINE
  8
LC-004-003-MTH-0
  6
CONTINUOUS
  5
A1
 10
227.236226
 20
347.966451
 30
0.0
 11
227.236226
 21
430.8
 31
0.0
  0
LINE
  8
LC-004-003-MTH-0
  6
CONTINUOUS
  5
A2
 10
457.236226
 20
321.716451
 30
0.0
 11
457.236226
 21
430.8
 31
0.0
  0
LINE
  8
LC-005-003-MTG-0
  6
CONTINUOUS
  5
A3
 10
227.236226
 20
420.0
 30
0.0
 11
457.236226
 21
420.0
 31
0.0
  0
LINE
  8
LC-003-003-----0
  6
CONTINUOUS
  5
A4
 10
245.082233
 20
422.349471
 30
0.0
 11
227.236226
 21
420.0
 31
0.0
  0
LINE
  8
LC-003-003-----0
  6
CONTINUOUS
  5
A5
 10
227.236226
 20
420.0
 30
0.0
 11
245.082233
 21
417.650529
 31
0.0
  0
LINE
  8
LC-003-003-----0
  6
CONTINUOUS
  5
A6
 10
245.082233
 20
417.650529
 30
0.0
 11
245.082233
 21
422.349471
 31
0.0
  0
LINE
  8
LC-003-003-----0
  6
CONTINUOUS
  5
A7
 10
245.122271
 20
421.738609
 30
0.0
 11
231.916226
 21
420.0
 31
0.0
  0
LINE
  8
LC-003-003-----0
  6
CONTINUOUS
  5
A8
 10
231.916226
 20
420.0
 30
0.0
 11
245.122271
 21
418.261391
 31
0.0
  0
LINE
  8
LC-003-003-----0
  6
CONTINUOUS
  5
A9
 10
245.16231
 20
421.127746
 30
0.0
 11
236.596226
 21
420.0
 31
0.0
  0
LINE
  8
LC-003-003-----0
  6
CONTINUOUS
  5
AA
 10
236.596226
 20
420.0
 30
0.0
 11
245.16231
 21
418.872254
 31
0.0
  0
LINE
  8
LC-003-003-----0
  6
CONTINUOUS
  5
AB
 10
245.202348
 20
420.516884
 30
0.0
 11
241.276226
 21
420.0
 31
0.0
  0
LINE
  8
LC-003-003-----0
  6
CONTINUOUS
  5
AC
 10
241.276226
 20
420.0
 30
0.0
 11
245.202348
 21
419.483116
 31
0.0
  0
LINE
  8
LC-003-003-----0
  6
CONTINUOUS
  5
AD
 10
439.390218
 20
417.650529
 30
0.0
 11
457.236226
 21
420.0
 31
0.0
  0
LINE
  8
LC-003-003-----0
  6
CONTINUOUS
  5
AE
 10
457.236226
 20
420.0
 30
0.0
 11
439.390218
 21
422.349471
 31
0.0
  0
LINE
  8
LC-003-003-----0
  6
CONTINUOUS
  5
AF
 10
439.390218
 20
422.349471
 30
0.0
 11
439.390218
 21
417.650529
 31
0.0
  0
LINE
  8
LC-003-003-----0
  6
CONTINUOUS
  5
B0
 10
439.35018
 20
418.261391
 30
0.0
 11
452.556226
 21
420.0
 31
0.0
  0
LINE
  8
LC-003-003-----0
  6
CONTINUOUS
  5
B1
 10
452.556226
 20
420.0
 30
0.0
 11
439.35018
 21
421.738609
 31
0.0
  0
LINE
  8
LC-003-003-----0
  6
CONTINUOUS
  5
B2
 10
439.310142
 20
418.872254
 30
0.0
 11
447.876226
 21
420.0
 31
0.0
  0
LINE
  8
LC-003-003-----0
  6
CONTINUOUS
  5
B3
 10
447.876226
 20
420.0
 30
0.0
 11
439.310142
 21
421.127746
 31
0.0
  0
LINE
  8
LC-003-003-----0
  6
CONTINUOUS
  5
B4
 10
439.270104
 20
419.483116
 30
0.0
 11
443.196226
 21
420.0
 31
0.0
  0
LINE
  8
LC-003-003-----0
  6
CONTINUOUS
  5
B5
 10
443.196226
 20
420.0
 30
0.0
 11
439.270104
 21
420.516884
 31
0.0
  0
TEXT
  8
LC-003-003-----0
  6
CONTINUOUS
 62
     6
  5
B6
 10
325.897613
 20
430.431999
 30
0.0
 40
18.0
  1
230
 51
15.0
  7
LC-TXTSTYLE-150-400-0-0-D0
 72
     1
 11
345.031472
 21
430.431999
 31
0.0
  0
ENDBLK
  8
0
  5
B7
  0
BLOCK
  8
0
  5
B9
  2
*X3
 70
    65
 10
247.736226
 20
330.966451
 30
0.0
  3
*X3
  0
LINE
  8
LC-006-005-----0
  6
CONTINUOUS
  5
BA
 10
252.45601
 20
331.651969
 30
0.0
 11
252.550708
 21
331.746667
 31
0.0
  0
LINE
  8
LC-006-005-----0
  6
CONTINUOUS
  5
BB
 10
249.177372
 20
331.201759
 30
0.0
 11
253.236226
 21
335.260613
 31
0.0
  0
LINE
  8
LC-006-005-----0
  6
CONTINUOUS
  5
BC
 10
247.854326
 20
332.70714
 30
0.0
 11
249.113637
 21
333.966451
 31
0.0
  0
LINE
  8
LC-006-005-----0
  6
CONTINUOUS
  5
BD
 10
251.236226
 20
336.08904
 30
0.0
 11
253.236226
 21
338.08904
 31
0.0
  0
LINE
  8
LC-006-005-----0
  6
CONTINUOUS
  5
BE
 10
251.236226
 20
338.917467
 30
0.0
 11
253.236226
 21
340.917467
 31
0.0
  0
LINE
  8
LC-006-005-----0
  6
CONTINUOUS
  5
BF
 10
251.236226
 20
341.745894
 30
0.0
 11
253.236226
 21
343.745894
 31
0.0
  0
LINE
  8
LC-006-005-----0
  6
CONTINUOUS
  5
C0
 10
251.236226
 20
344.574321
 30
0.0
 11
253.236226
 21
346.574321
 31
0.0
  0
LINE
  8
LC-006-005-----0
  6
CONTINUOUS
  5
C1
 10
253.628356
 20
346.966451
 30
0.0
 11
254.236226
 21
347.574321
 31
0.0
  0
LINE
  8
LC-006-005-----0
  6
CONTINUOUS
  5
C2
 10
251.236226
 20
347.402748
 30
0.0
 11
251.799929
 21
347.966451
 31
0.0
  0
ENDBLK
  8
0
  5
C3
  0
BLOCK
  8
0
  5
C5
  2
*X4
 70
    65
 10
200.236226
 20
330.966451
 30
0.0
  3
*X4
  0
LINE
  8
LC-006-005-----0
  6
CONTINUOUS
  5
C6
 10
203.687701
 20
330.966922
 30
0.0
 11
206.68723
 21
333.966451
 31
0.0
  0
LINE
  8
LC-006-005-----0
  6
CONTINUOUS
  5
C7
 10
201.789849
 20
331.897497
 30
0.0
 11
203.858803
 21
333.966451
 31
0.0
  0
LINE
  8
LC-006-005-----0
  6
CONTINUOUS
  5
C8
 10
201.236226
 20
334.172301
 30
0.0
 11
203.236226
 21
336.172301
 31
0.0
  0
LINE
  8
LC-006-005-----0
  6
CONTINUOUS
  5
C9
 10
201.236226
 20
337.000728
 30
0.0
 11
203.236226
 21
339.000728
 31
0.0
  0
LINE
  8
LC-006-005-----0
  6
CONTINUOUS
  5
CA
 10
201.236226
 20
339.829155
 30
0.0
 11
203.236226
 21
341.829155
 31
0.0
  0
LINE
  8
LC-006-005-----0
  6
CONTINUOUS
  5
CB
 10
201.236226
 20
342.657582
 30
0.0
 11
203.236226
 21
344.657582
 31
0.0
  0
LINE
  8
LC-006-005-----0
  6
CONTINUOUS
  5
CC
 10
201.236226
 20
345.486009
 30
0.0
 11
203.236226
 21
347.486009
 31
0.0
  0
LINE
  8
LC-006-005-----0
  6
CONTINUOUS
  5
CD
 10
200.236226
 20
347.314436
 30
0.0
 11
200.88824
 21
347.966451
 31
0.0
  0
ENDBLK
  8
0
  5
CE
  0
BLOCK
  8
0
  5
D0
  2
*X5
 70
    65
 10
205.236226
 20
336.966451
 30
0.0
  3
*X5
  0
LINE
  8
LC-006-005-----0
  6
CONTINUOUS
  5
D1
 10
209.970073
 20
336.966451
 30
0.0
 11
210.236226
 21
337.232604
 31
0.0
  0
LINE
  8
LC-006-005-----0
  6
CONTINUOUS
  5
D2
 10
209.68723
 20
336.966451
 30
0.0
 11
210.236226
 21
337.515447
 31
0.0
  0
LINE
  8
LC-006-005-----0
  6
CONTINUOUS
  5
D3
 10
209.404388
 20
336.966451
 30
0.0
 11
210.236226
 21
337.798289
 31
0.0
  0
LINE
  8
LC-006-005-----0
  6
CONTINUOUS
  5
D4
 10
209.121545
 20
336.966451
 30
0.0
 11
210.236226
 21
338.081132
 31
0.0
  0
LINE
  8
LC-006-005-----0
  6
CONTINUOUS
  5
D5
 10
208.838702
 20
336.966451
 30
0.0
 11
210.236226
 21
338.363975
 31
0.0
  0
LINE
  8
LC-006-005-----0
  6
CONTINUOUS
  5
D6
 10
208.555859
 20
336.966451
 30
0.0
 11
210.236226
 21
338.646817
 31
0.0
  0
LINE
  8
LC-006-005-----0
  6
CONTINUOUS
  5
D7
 10
208.273017
 20
336.966451
 30
0.0
 11
210.236226
 21
338.92966
 31
0.0
  0
LINE
  8
LC-006-005-----0
  6
CONTINUOUS
  5
D8
 10
207.990174
 20
336.966451
 30
0.0
 11
209.990174
 21
338.966451
 31
0.0
  0
LINE
  8
LC-006-005-----0
  6
CONTINUOUS
  5
D9
 10
207.707331
 20
336.966451
 30
0.0
 11
209.707331
 21
338.966451
 31
0.0
  0
LINE
  8
LC-006-005-----0
  6
CONTINUOUS
  5
DA
 10
207.424489
 20
336.966451
 30
0.0
 11
209.424489
 21
338.966451
 31
0.0
  0
LINE
  8
LC-006-005-----0
  6
CONTINUOUS
  5
DB
 10
207.141646
 20
336.966451
 30
0.0
 11
209.141646
 21
338.966451
 31
0.0
  0
LINE
  8
LC-006-005-----0
  6
CONTINUOUS
  5
DC
 10
206.858803
 20
336.966451
 30
0.0
 11
208.858803
 21
338.966451
 31
0.0
  0
LINE
  8
LC-006-005-----0
  6
CONTINUOUS
  5
DD
 10
206.57596
 20
336.966451
 30
0.0
 11
208.57596
 21
338.966451
 31
0.0
  0
LINE
  8
LC-006-005-----0
  6
CONTINUOUS
  5
DE
 10
206.293118
 20
336.966451
 30
0.0
 11
208.293118
 21
338.966451
 31
0.0
  0
LINE
  8
LC-006-005-----0
  6
CONTINUOUS
  5
DF
 10
206.010275
 20
336.966451
 30
0.0
 11
208.010275
 21
338.966451
 31
0.0
  0
LINE
  8
LC-006-005-----0
  6
CONTINUOUS
  5
E0
 10
205.727432
 20
336.966451
 30
0.0
 11
207.727432
 21
338.966451
 31
0.0
  0
LINE
  8
LC-006-005-----0
  6
CONTINUOUS
  5
E1
 10
205.44459
 20
336.966451
 30
0.0
 11
207.44459
 21
338.966451
 31
0.0
  0
LINE
  8
LC-006-005-----0
  6
CONTINUOUS
  5
E2
 10
205.236226
 20
337.04093
 30
0.0
 11
207.161747
 21
338.966451
 31
0.0
  0
LINE
  8
LC-006-005-----0
  6
CONTINUOUS
  5
E3
 10
205.236226
 20
337.323773
 30
0.0
 11
206.878904
 21
338.966451
 31
0.0
  0
LINE
  8
LC-006-005-----0
  6
CONTINUOUS
  5
E4
 10
205.236226
 20
337.606615
 30
0.0
 11
206.596061
 21
338.966451
 31
0.0
  0
LINE
  8
LC-006-005-----0
  6
CONTINUOUS
  5
E5
 10
205.236226
 20
337.889458
 30
0.0
 11
206.313219
 21
338.966451
 31
0.0
  0
LINE
  8
LC-006-005-----0
  6
CONTINUOUS
  5
E6
 10
205.236226
 20
338.172301
 30
0.0
 11
206.030376
 21
338.966451
 31
0.0
  0
LINE
  8
LC-006-005-----0
  6
CONTINUOUS
  5
E7
 10
205.236226
 20
338.455143
 30
0.0
 11
205.747533
 21
338.966451
 31
0.0
  0
LINE
  8
LC-006-005-----0
  6
CONTINUOUS
  5
E8
 10
205.236226
 20
338.737986
 30
0.0
 11
205.464691
 21
338.966451
 31
0.0
  0
ENDBLK
  8
0
  5
E9
  0
BLOCK
  8
0
  5
EB
  2
BLK1
 70
    64
 10
0.0
 20
0.0
 30
0.0
  3
BLK1
  0
ENDBLK
  8
0
  5
EC
  0
BLOCK
  8
0
  5
EE
  2
*X7
 70
    65
 10
244.236226
 20
336.966451
 30
0.0
  3
*X7
  0
LINE
  8
LC-006-005-----0
  6
CONTINUOUS
  5
EF
 10
249.002367
 20
336.966451
 30
0.0
 11
249.236226
 21
337.200309
 31
0.0
  0
LINE
  8
LC-006-005-----0
  6
CONTINUOUS
  5
F0
 10
248.719525
 20
336.966451
 30
0.0
 11
249.236226
 21
337.483152
 31
0.0
  0
LINE
  8
LC-006-005-----0
  6
CONTINUOUS
  5
F1
 10
248.436682
 20
336.966451
 30
0.0
 11
249.236226
 21
337.765995
 31
0.0
  0
LINE
  8
LC-006-005-----0
  6
CONTINUOUS
  5
F2
 10
248.153839
 20
336.966451
 30
0.0
 11
249.236226
 21
338.048838
 31
0.0
  0
LINE
  8
LC-006-005-----0
  6
CONTINUOUS
  5
F3
 10
247.870996
 20
336.966451
 30
0.0
 11
249.236226
 21
338.33168
 31
0.0
  0
LINE
  8
LC-006-005-----0
  6
CONTINUOUS
  5
F4
 10
247.588154
 20
336.966451
 30
0.0
 11
249.236226
 21
338.614523
 31
0.0
  0
LINE
  8
LC-006-005-----0
  6
CONTINUOUS
  5
F5
 10
247.305311
 20
336.966451
 30
0.0
 11
249.236226
 21
338.897366
 31
0.0
  0
LINE
  8
LC-006-005-----0
  6
CONTINUOUS
  5
F6
 10
247.022468
 20
336.966451
 30
0.0
 11
249.022468
 21
338.966451
 31
0.0
  0
LINE
  8
LC-006-005-----0
  6
CONTINUOUS
  5
F7
 10
246.739626
 20
336.966451
 30
0.0
 11
248.739626
 21
338.966451
 31
0.0
  0
LINE
  8
LC-006-005-----0
  6
CONTINUOUS
  5
F8
 10
246.456783
 20
336.966451
 30
0.0
 11
248.456783
 21
338.966451
 31
0.0
  0
LINE
  8
LC-006-005-----0
  6
CONTINUOUS
  5
F9
 10
246.17394
 20
336.966451
 30
0.0
 11
248.17394
 21
338.966451
 31
0.0
  0
LINE
  8
LC-006-005-----0
  6
CONTINUOUS
  5
FA
 10
245.891097
 20
336.966451
 30
0.0
 11
247.891097
 21
338.966451
 31
0.0
  0
LINE
  8
LC-006-005-----0
  6
CONTINUOUS
  5
FB
 10
245.608255
 20
336.966451
 30
0.0
 11
247.608255
 21
338.966451
 31
0.0
  0
LINE
  8
LC-006-005-----0
  6
CONTINUOUS
  5
FC
 10
245.325412
 20
336.966451
 30
0.0
 11
247.325412
 21
338.966451
 31
0.0
  0
LINE
  8
LC-006-005-----0
  6
CONTINUOUS
  5
FD
 10
245.042569
 20
336.966451
 30
0.0
 11
247.042569
 21
338.966451
 31
0.0
  0
LINE
  8
LC-006-005-----0
  6
CONTINUOUS
  5
FE
 10
244.759727
 20
336.966451
 30
0.0
 11
246.759727
 21
338.966451
 31
0.0
  0
LINE
  8
LC-006-005-----0
  6
CONTINUOUS
  5
FF
 10
244.476884
 20
336.966451
 30
0.0
 11
246.476884
 21
338.966451
 31
0.0
  0
LINE
  8
LC-006-005-----0
  6
CONTINUOUS
  5
100
 10
244.236226
 20
337.008636
 30
0.0
 11
246.194041
 21
338.966451
 31
0.0
  0
LINE
  8
LC-006-005-----0
  6
CONTINUOUS
  5
101
 10
244.236226
 20
337.291478
 30
0.0
 11
245.911198
 21
338.966451
 31
0.0
  0
LINE
  8
LC-006-005-----0
  6
CONTINUOUS
  5
102
 10
244.236226
 20
337.574321
 30
0.0
 11
245.628356
 21
338.966451
 31
0.0
  0
LINE
  8
LC-006-005-----0
  6
CONTINUOUS
  5
103
 10
244.236226
 20
337.857164
 30
0.0
 11
245.345513
 21
338.966451
 31
0.0
  0
LINE
  8
LC-006-005-----0
  6
CONTINUOUS
  5
104
 10
244.236226
 20
338.140006
 30
0.0
 11
245.06267
 21
338.966451
 31
0.0
  0
LINE
  8
LC-006-005-----0
  6
CONTINUOUS
  5
105
 10
244.236226
 20
338.422849
 30
0.0
 11
244.779828
 21
338.966451
 31
0.0
  0
LINE
  8
LC-006-005-----0
  6
CONTINUOUS
  5
106
 10
244.236226
 20
338.705692
 30
0.0
 11
244.496985
 21
338.966451
 31
0.0
  0
ENDBLK
  8
0
  5
107
  0
BLOCK
  8
0
  5
109
  2
*X8
 70
    65
 10
245.236226
 20
319.716451
 30
0.0
  3
*X8
  0
LINE
  8
LC-006-005-----0
  6
CONTINUOUS
  5
10A
 10
457.236226
 20
320.581233
 30
0.0
 11
456.101008
 21
321.716451
 31
0.0
  0
LINE
  8
LC-006-005-----0
  6
CONTINUOUS
  5
10B
 10
455.272581
 20
319.716451
 30
0.0
 11
453.272581
 21
321.716451
 31
0.0
  0
LINE
  8
LC-006-005-----0
  6
CONTINUOUS
  5
10C
 10
452.444154
 20
319.716451
 30
0.0
 11
450.444154
 21
321.716451
 31
0.0
  0
LINE
  8
LC-006-005-----0
  6
CONTINUOUS
  5
10D
 10
449.615727
 20
319.716451
 30
0.0
 11
447.615727
 21
321.716451
 31
0.0
  0
LINE
  8
LC-006-005-----0
  6
CONTINUOUS
  5
10E
 10
446.7873
 20
319.716451
 30
0.0
 11
444.7873
 21
321.716451
 31
0.0
  0
LINE
  8
LC-006-005-----0
  6
CONTINUOUS
  5
10F
 10
443.958873
 20
319.716451
 30
0.0
 11
441.958873
 21
321.716451
 31
0.0
  0
LINE
  8
LC-006-005-----0
  6
CONTINUOUS
  5
110
 10
441.130446
 20
319.716451
 30
0.0
 11
439.130446
 21
321.716451
 31
0.0
  0
LINE
  8
LC-006-005-----0
  6
CONTINUOUS
  5
111
 10
438.302019
 20
319.716451
 30
0.0
 11
436.302019
 21
321.716451
 31
0.0
  0
LINE
  8
LC-006-005-----0
  6
CONTINUOUS
  5
112
 10
435.473591
 20
319.716451
 30
0.0
 11
433.473591
 21
321.716451
 31
0.0
  0
LINE
  8
LC-006-005-----0
  6
CONTINUOUS
  5
113
 10
432.645164
 20
319.716451
 30
0.0
 11
430.645164
 21
321.716451
 31
0.0
  0
LINE
  8
LC-006-005-----0
  6
CONTINUOUS
  5
114
 10
429.816737
 20
319.716451
 30
0.0
 11
427.816737
 21
321.716451
 31
0.0
  0
LINE
  8
LC-006-005-----0
  6
CONTINUOUS
  5
115
 10
426.98831
 20
319.716451
 30
0.0
 11
424.98831
 21
321.716451
 31
0.0
  0
LINE
  8
LC-006-005-----0
  6
CONTINUOUS
  5
116
 10
424.159883
 20
319.716451
 30
0.0
 11
422.159883
 21
321.716451
 31
0.0
  0
LINE
  8
LC-006-005-----0
  6
CONTINUOUS
  5
117
 10
421.331456
 20
319.716451
 30
0.0
 11
419.331456
 21
321.716451
 31
0.0
  0
LINE
  8
LC-006-005-----0
  6
CONTINUOUS
  5
118
 10
418.503029
 20
319.716451
 30
0.0
 11
416.503029
 21
321.716451
 31
0.0
  0
LINE
  8
LC-006-005-----0
  6
CONTINUOUS
  5
119
 10
415.674602
 20
319.716451
 30
0.0
 11
413.674602
 21
321.716451
 31
0.0
  0
LINE
  8
LC-006-005-----0
  6
CONTINUOUS
  5
11A
 10
412.846174
 20
319.716451
 30
0.0
 11
410.846174
 21
321.716451
 31
0.0
  0
LINE
  8
LC-006-005-----0
  6
CONTINUOUS
  5
11B
 10
410.017747
 20
319.716451
 30
0.0
 11
408.017747
 21
321.716451
 31
0.0
  0
LINE
  8
LC-006-005-----0
  6
CONTINUOUS
  5
11C
 10
407.18932
 20
319.716451
 30
0.0
 11
405.18932
 21
321.716451
 31
0.0
  0
LINE
  8
LC-006-005-----0
  6
CONTINUOUS
  5
11D
 10
404.360893
 20
319.716451
 30
0.0
 11
402.360893
 21
321.716451
 31
0.0
  0
LINE
  8
LC-006-005-----0
  6
CONTINUOUS
  5
11E
 10
401.532466
 20
319.716451
 30
0.0
 11
399.532466
 21
321.716451
 31
0.0
  0
LINE
  8
LC-006-005-----0
  6
CONTINUOUS
  5
11F
 10
398.704039
 20
319.716451
 30
0.0
 11
396.704039
 21
321.716451
 31
0.0
  0
LINE
  8
LC-006-005-----0
  6
CONTINUOUS
  5
120
 10
395.875612
 20
319.716451
 30
0.0
 11
393.875612
 21
321.716451
 31
0.0
  0
LINE
  8
LC-006-005-----0
  6
CONTINUOUS
  5
121
 10
393.047185
 20
319.716451
 30
0.0
 11
391.047185
 21
321.716451
 31
0.0
  0
LINE
  8
LC-006-005-----0
  6
CONTINUOUS
  5
122
 10
390.218757
 20
319.716451
 30
0.0
 11
388.218757
 21
321.716451
 31
0.0
  0
LINE
  8
LC-006-005-----0
  6
CONTINUOUS
  5
123
 10
387.39033
 20
319.716451
 30
0.0
 11
385.39033
 21
321.716451
 31
0.0
  0
LINE
  8
LC-006-005-----0
  6
CONTINUOUS
  5
124
 10
384.561903
 20
319.716451
 30
0.0
 11
382.561903
 21
321.716451
 31
0.0
  0
LINE
  8
LC-006-005-----0
  6
CONTINUOUS
  5
125
 10
381.733476
 20
319.716451
 30
0.0
 11
379.733476
 21
321.716451
 31
0.0
  0
LINE
  8
LC-006-005-----0
  6
CONTINUOUS
  5
126
 10
378.905049
 20
319.716451
 30
0.0
 11
376.905049
 21
321.716451
 31
0.0
  0
LINE
  8
LC-006-005-----0
  6
CONTINUOUS
  5
127
 10
376.076622
 20
319.716451
 30
0.0
 11
374.076622
 21
321.716451
 31
0.0
  0
LINE
  8
LC-006-005-----0
  6
CONTINUOUS
  5
128
 10
373.248195
 20
319.716451
 30
0.0
 11
371.248195
 21
321.716451
 31
0.0
  0
LINE
  8
LC-006-005-----0
  6
CONTINUOUS
  5
129
 10
370.419768
 20
319.716451
 30
0.0
 11
368.419768
 21
321.716451
 31
0.0
  0
LINE
  8
LC-006-005-----0
  6
CONTINUOUS
  5
12A
 10
367.59134
 20
319.716451
 30
0.0
 11
365.59134
 21
321.716451
 31
0.0
  0
LINE
  8
LC-006-005-----0
  6
CONTINUOUS
  5
12B
 10
364.762913
 20
319.716451
 30
0.0
 11
362.762913
 21
321.716451
 31
0.0
  0
LINE
  8
LC-006-005-----0
  6
CONTINUOUS
  5
12C
 10
361.934486
 20
319.716451
 30
0.0
 11
359.934486
 21
321.716451
 31
0.0
  0
LINE
  8
LC-006-005-----0
  6
CONTINUOUS
  5
12D
 10
359.106059
 20
319.716451
 30
0.0
 11
357.106059
 21
321.716451
 31
0.0
  0
LINE
  8
LC-006-005-----0
  6
CONTINUOUS
  5
12E
 10
356.277632
 20
319.716451
 30
0.0
 11
354.277632
 21
321.716451
 31
0.0
  0
LINE
  8
LC-006-005-----0
  6
CONTINUOUS
  5
12F
 10
353.449205
 20
319.716451
 30
0.0
 11
351.449205
 21
321.716451
 31
0.0
  0
LINE
  8
LC-006-005-----0
  6
CONTINUOUS
  5
130
 10
350.620778
 20
319.716451
 30
0.0
 11
348.620778
 21
321.716451
 31
0.0
  0
LINE
  8
LC-006-005-----0
  6
CONTINUOUS
  5
131
 10
347.792351
 20
319.716451
 30
0.0
 11
345.792351
 21
321.716451
 31
0.0
  0
LINE
  8
LC-006-005-----0
  6
CONTINUOUS
  5
132
 10
344.963923
 20
319.716451
 30
0.0
 11
342.963923
 21
321.716451
 31
0.0
  0
LINE
  8
LC-006-005-----0
  6
CONTINUOUS
  5
133
 10
342.135496
 20
319.716451
 30
0.0
 11
340.135496
 21
321.716451
 31
0.0
  0
LINE
  8
LC-006-005-----0
  6
CONTINUOUS
  5
134
 10
339.307069
 20
319.716451
 30
0.0
 11
337.307069
 21
321.716451
 31
0.0
  0
LINE
  8
LC-006-005-----0
  6
CONTINUOUS
  5
135
 10
336.478642
 20
319.716451
 30
0.0
 11
334.478642
 21
321.716451
 31
0.0
  0
LINE
  8
LC-006-005-----0
  6
CONTINUOUS
  5
136
 10
333.650215
 20
319.716451
 30
0.0
 11
331.650215
 21
321.716451
 31
0.0
  0
LINE
  8
LC-006-005-----0
  6
CONTINUOUS
  5
137
 10
330.821788
 20
319.716451
 30
0.0
 11
328.821788
 21
321.716451
 31
0.0
  0
LINE
  8
LC-006-005-----0
  6
CONTINUOUS
  5
138
 10
327.993361
 20
319.716451
 30
0.0
 11
325.993361
 21
321.716451
 31
0.0
  0
LINE
  8
LC-006-005-----0
  6
CONTINUOUS
  5
139
 10
325.164934
 20
319.716451
 30
0.0
 11
323.164934
 21
321.716451
 31
0.0
  0
LINE
  8
LC-006-005-----0
  6
CONTINUOUS
  5
13A
 10
322.336506
 20
319.716451
 30
0.0
 11
320.336506
 21
321.716451
 31
0.0
  0
LINE
  8
LC-006-005-----0
  6
CONTINUOUS
  5
13B
 10
319.508079
 20
319.716451
 30
0.0
 11
317.508079
 21
321.716451
 31
0.0
  0
LINE
  8
LC-006-005-----0
  6
CONTINUOUS
  5
13C
 10
316.679652
 20
319.716451
 30
0.0
 11
314.679652
 21
321.716451
 31
0.0
  0
LINE
  8
LC-006-005-----0
  6
CONTINUOUS
  5
13D
 10
313.851225
 20
319.716451
 30
0.0
 11
311.851225
 21
321.716451
 31
0.0
  0
LINE
  8
LC-006-005-----0
  6
CONTINUOUS
  5
13E
 10
311.022798
 20
319.716451
 30
0.0
 11
309.022798
 21
321.716451
 31
0.0
  0
LINE
  8
LC-006-005-----0
  6
CONTINUOUS
  5
13F
 10
308.194371
 20
319.716451
 30
0.0
 11
306.194371
 21
321.716451
 31
0.0
  0
LINE
  8
LC-006-005-----0
  6
CONTINUOUS
  5
140
 10
305.365944
 20
319.716451
 30
0.0
 11
303.365944
 21
321.716451
 31
0.0
  0
LINE
  8
LC-006-005-----0
  6
CONTINUOUS
  5
141
 10
302.537517
 20
319.716451
 30
0.0
 11
300.537517
 21
321.716451
 31
0.0
  0
LINE
  8
LC-006-005-----0
  6
CONTINUOUS
  5
142
 10
299.709089
 20
319.716451
 30
0.0
 11
297.709089
 21
321.716451
 31
0.0
  0
LINE
  8
LC-006-005-----0
  6
CONTINUOUS
  5
143
 10
296.880662
 20
319.716451
 30
0.0
 11
294.880662
 21
321.716451
 31
0.0
  0
LINE
  8
LC-006-005-----0
  6
CONTINUOUS
  5
144
 10
294.052235
 20
319.716451
 30
0.0
 11
292.052235
 21
321.716451
 31
0.0
  0
LINE
  8
LC-006-005-----0
  6
CONTINUOUS
  5
145
 10
291.223808
 20
319.716451
 30
0.0
 11
289.223808
 21
321.716451
 31
0.0
  0
LINE
  8
LC-006-005-----0
  6
CONTINUOUS
  5
146
 10
288.395381
 20
319.716451
 30
0.0
 11
286.395381
 21
321.716451
 31
0.0
  0
LINE
  8
LC-006-005-----0
  6
CONTINUOUS
  5
147
 10
285.566954
 20
319.716451
 30
0.0
 11
283.566954
 21
321.716451
 31
0.0
  0
LINE
  8
LC-006-005-----0
  6
CONTINUOUS
  5
148
 10
282.738527
 20
319.716451
 30
0.0
 11
280.738527
 21
321.716451
 31
0.0
  0
LINE
  8
LC-006-005-----0
  6
CONTINUOUS
  5
149
 10
279.9101
 20
319.716451
 30
0.0
 11
277.9101
 21
321.716451
 31
0.0
  0
LINE
  8
LC-006-005-----0
  6
CONTINUOUS
  5
14A
 10
277.081672
 20
319.716451
 30
0.0
 11
275.081672
 21
321.716451
 31
0.0
  0
LINE
  8
LC-006-005-----0
  6
CONTINUOUS
  5
14B
 10
274.253245
 20
319.716451
 30
0.0
 11
272.253245
 21
321.716451
 31
0.0
  0
LINE
  8
LC-006-005-----0
  6
CONTINUOUS
  5
14C
 10
271.424818
 20
319.716451
 30
0.0
 11
269.424818
 21
321.716451
 31
0.0
  0
LINE
  8
LC-006-005-----0
  6
CONTINUOUS
  5
14D
 10
268.596391
 20
319.716451
 30
0.0
 11
266.596391
 21
321.716451
 31
0.0
  0
LINE
  8
LC-006-005-----0
  6
CONTINUOUS
  5
14E
 10
265.767964
 20
319.716451
 30
0.0
 11
263.767964
 21
321.716451
 31
0.0
  0
LINE
  8
LC-006-005-----0
  6
CONTINUOUS
  5
14F
 10
249.236226
 20
336.248189
 30
0.0
 11
248.767964
 21
336.716451
 31
0.0
  0
LINE
  8
LC-006-005-----0
  6
CONTINUOUS
  5
150
 10
262.939537
 20
319.716451
 30
0.0
 11
260.939537
 21
321.716451
 31
0.0
  0
LINE
  8
LC-006-005-----0
  6
CONTINUOUS
  5
151
 10
248.439537
 20
334.216451
 30
0.0
 11
245.939537
 21
336.716451
 31
0.0
  0
LINE
  8
LC-006-005-----0
  6
CONTINUOUS
  5
152
 10
260.11111
 20
319.716451
 30
0.0
 11
258.11111
 21
321.716451
 31
0.0
  0
LINE
  8
LC-006-005-----0
  6
CONTINUOUS
  5
153
 10
247.236226
 20
332.591335
 30
0.0
 11
245.236226
 21
334.591335
 31
0.0
  0
LINE
  8
LC-006-005-----0
  6
CONTINUOUS
  5
154
 10
257.282683
 20
319.716451
 30
0.0
 11
255.282683
 21
321.716451
 31
0.0
  0
LINE
  8
LC-006-005-----0
  6
CONTINUOUS
  5
155
 10
247.236226
 20
329.762908
 30
0.0
 11
245.236226
 21
331.762908
 31
0.0
  0
LINE
  8
LC-006-005-----0
  6
CONTINUOUS
  5
156
 10
254.454255
 20
319.716451
 30
0.0
 11
252.454255
 21
321.716451
 31
0.0
  0
LINE
  8
LC-006-005-----0
  6
CONTINUOUS
  5
157
 10
247.236226
 20
326.93448
 30
0.0
 11
245.236226
 21
328.93448
 31
0.0
  0
LINE
  8
LC-006-005-----0
  6
CONTINUOUS
  5
158
 10
251.625828
 20
319.716451
 30
0.0
 11
249.623275
 21
321.719004
 31
0.0
  0
LINE
  8
LC-006-005-----0
  6
CONTINUOUS
  5
159
 10
247.238779
 20
324.1035
 30
0.0
 11
245.236226
 21
326.106053
 31
0.0
  0
LINE
  8
LC-006-005-----0
  6
CONTINUOUS
  5
15A
 10
248.669023
 20
319.844829
 30
0.0
 11
245.364604
 21
323.149248
 31
0.0
  0
ENDBLK
  8
0
  5
15B
  0
ENDSEC
  0
SECTION
  2
ENTITIES
  0
VIEWPORT
  8
LC-000
  5
1A4
 67
     1
 68
     1
 10
420.0
 20
297.0
 30
0.0
 40
840.0
 41
594.0
 69
     1
1001
ACAD
1000
MVIEW
1002
{
1070
    16
1010
0.0
1020
0.0
1030
0.0
1010
0.0
1020
0.0
1030
1.0
1040
0.0
1040
594.0
1040
420.0
1040
297.0
1040
50.0
1040
0.0
1040
0.0
1070
     0
1070
   100
1070
     1
1070
     1
1070
     0
1070
     0
1070
     0
1070
     0
1040
0.0
1040
0.0
1040
0.0
1040
1.0
1040
1.0
1040
0.0
1040
0.0
1070
     0
1002
{
1002
}
1002
}
  0
VIEWPORT
  8
0
  5
1A5
 67
     1
 68
     1
 10
0.0
 20
0.0
 30
0.0
 40
0.0
 41
0.0
 69
     1
1001
ACAD
1000
MVIEW
1002
{
1070
    16
1010
0.0
1020
0.0
1030
0.0
1010
0.0
1020
0.0
1030
1.0
1040
0.0
1040
594.0
1040
0.0
1040
0.0
1040
50.0
1040
0.0
1040
0.0
1070
     0
1070
   100
1070
     0
1070
     1
1070
     0
1070
     0
1070
     0
1070
     0
1040
0.0
1040
0.0
1040
0.0
1040
0.5
1040
0.5
1040
0.5
1040
0.5
1070
     0
1002
{
1002
}
1002
}
  0
DIMENSION
  8
0
  5
15C
  2
*D0
 10
227.236226
 20
378.0
 30
0.0
 11
227.236226
 21
378.0
 31
0.0
  1
1 1/2"
 13
204.986226
 23
346.216451
 33
0.0
 14
249.486226
 24
346.216451
 34
0.0
  3
LC-DIM-L-0090-02-02
  0
INSERT
  8
0
  5
15D
  2
*X1
 10
205.236226
 20
281.716451
 30
0.0
  0
DIMENSION
  8
0
  5
15E
  2
*D2
 10
342.236226
 20
420.0
 30
0.0
 11
342.236226
 21
420.0
 31
0.0
 13
227.236226
 23
347.966451
 33
0.0
 14
457.236226
 24
321.716451
 34
0.0
  3
LC-DIM-L-0090-02-02
  0
INSERT
  8
0
  5
15F
  2
*X3
 10
247.736226
 20
330.966451
 30
0.0
  0
INSERT
  8
0
  5
160
  2
*X4
 10
200.236226
 20
330.966451
 30
0.0
  0
INSERT
  8
0
  5
161
  2
*X5
 10
205.236226
 20
336.966451
 30
0.0
  0
INSERT
  8
0
  5
163
  2
BLK1
 10
0.0
 20
0.0
 30
0.0
  0
INSERT
  8
0
  5
164
  2
*X7
 10
244.236226
 20
336.966451
 30
0.0
  0
INSERT
  8
0
  5
165
  2
*X8
 10
245.236226
 20
319.716451
 30
0.0
  0
LINE
  8
LC-001-002-----0
  5
168
 10
227.236226
 20
347.966451
 30
0.0
 11
227.236226
 21
324.216451
 31
0.0
  0
LINE
  8
LC-001-002-----0
  5
169
 10
249.736226
 20
301.716451
 30
0.0
 11
413.056191
 21
301.716451
 31
0.0
  0
LINE
  8
LC-001-002-----0
  6
CONTINUOUS
 62
     1
  5
16A
 10
457.236226
 20
321.716451
 30
0.0
 11
457.236226
 21
281.716451
 31
0.0
  0
LINE
  8
LC-001-002-----0
  6
CONTINUOUS
 62
     1
  5
16B
 10
249.736226
 20
321.716451
 30
0.0
 11
457.236226
 21
321.716451
 31
0.0
  0
LINE
  8
LC-001-002-----0
  6
CONTINUOUS
 62
     1
  5
16C
 10
249.736226
 20
281.716451
 30
0.0
 11
457.236226
 21
281.716451
 31
0.0
  0
LINE
  8
LC-001-002-----0
  6
CONTINUOUS
 62
     1
  5
16D
 10
247.236226
 20
334.216451
 30
0.0
 11
247.236226
 21
324.216451
 31
0.0
  0
LINE
  8
LC-001-002-----0
  6
CONTINUOUS
 62
     1
  5
16E
 10
207.236226
 20
334.216451
 30
0.0
 11
207.236226
 21
324.216451
 31
0.0
  0
ARC
  8
LC-002-002-RND-0
  6
CONTINUOUS
  5
170
 10
249.736226
 20
324.216451
 30
0.0
 40
42.5
 50
180.0
 51
270.0
  0
ARC
  8
LC-002-002-RND-0
  6
CONTINUOUS
  5
171
 10
249.736226
 20
324.216451
 30
0.0
 40
2.5
 50
180.0
 51
270.0
  0
ARC
  8
LC-002-002-RND-0
  6
DASHDOT
 62
     2
  5
172
 10
249.736226
 20
324.216451
 30
0.0
 40
22.5
 50
180.0
 51
270.0
  0
LINE
  8
LC-001-002-----0
  6
CONTINUOUS
 62
     1
  5
173
 10
205.236226
 20
336.716451
 30
0.0
 11
249.236226
 21
336.716451
 31
0.0
  0
LINE
  8
LC-001-002-----0
  6
CONTINUOUS
 62
     1
  5
174
 10
205.236226
 20
334.216451
 30
0.0
 11
207.236226
 21
334.216451
 31
0.0
  0
LINE
  8
LC-001-002-----0
  6
CONTINUOUS
 62
     1
  5
175
 10
249.236226
 20
336.716451
 30
0.0
 11
249.236226
 21
334.216451
 31
0.0
  0
LINE
  8
LC-001-002-----0
  6
CONTINUOUS
 62
     1
  5
176
 10
205.236226
 20
336.716451
 30
0.0
 11
205.236226
 21
334.216451
 31
0.0
  0
LINE
  8
LC-001-002-----0
  6
CONTINUOUS
 62
     1
  5
177
 10
245.236226
 20
336.716451
 30
0.0
 11
245.236226
 21
324.216451
 31
0.0
  0
LINE
  8
LC-001-002-----0
  6
CONTINUOUS
 62
     1
  5
178
 10
209.236226
 20
336.716451
 30
0.0
 11
209.236226
 21
324.216451
 31
0.0
  0
LINE
  8
LC-001-002-----0
  6
CONTINUOUS
 62
     1
  5
179
 10
247.236226
 20
334.216451
 30
0.0
 11
249.236226
 21
334.216451
 31
0.0
  0
LINE
  8
LC-001-002-----0
  6
CONTINUOUS
 62
     1
  5
17A
 10
249.736226
 20
319.716451
 30
0.0
 11
457.236226
 21
319.716451
 31
0.0
  0
LINE
  8
LC-001-002-----0
  6
CONTINUOUS
 62
     1
  5
17B
 10
249.736226
 20
283.716451
 30
0.0
 11
457.236226
 21
283.716451
 31
0.0
  0
ARC
  8
LC-002-002-RND-0
  6
CONTINUOUS
  5
17C
 10
249.736226
 20
324.216451
 30
0.0
 40
40.5
 50
180.0
 51
270.0
  0
ARC
  8
LC-002-002-RND-0
  6
CONTINUOUS
  5
17D
 10
249.736226
 20
324.216451
 30
0.0
 40
4.5
 50
180.0
 51
270.0
  0
LINE
  8
LC-001-002-----0
  6
CONTINUOUS
 62
     1
  5
17E
 10
247.736226
 20
333.966451
 30
0.0
 11
251.236226
 21
333.966451
 31
0.0
  0
LINE
  8
LC-001-002-----0
  6
CONTINUOUS
 62
     1
  5
17F
 10
205.236226
 20
336.966451
 30
0.0
 11
205.236226
 21
338.966451
 31
0.0
  0
LINE
  8
LC-001-002-----0
  6
CONTINUOUS
 62
     1
  5
180
 10
205.236226
 20
336.966451
 30
0.0
 11
249.236226
 21
336.966451
 31
0.0
  0
LINE
  8
LC-001-002-----0
  6
CONTINUOUS
 62
     1
  5
181
 10
247.236226
 20
336.466451
 30
0.0
 11
247.236226
 21
336.466451
 31
0.0
  0
LINE
  8
LC-001-002-----0
  5
182
 10
413.056191
 20
301.716451
 30
0.0
 11
457.236226
 21
301.716451
 31
0.0
  0
LINE
  8
LC-001-002-----0
  6
CONTINUOUS
 62
     1
  5
183
 10
205.236226
 20
338.966451
 30
0.0
 11
249.236226
 21
338.966451
 31
0.0
  0
LINE
  8
LC-001-002-----0
  6
CONTINUOUS
  5
184
 10
251.236226
 20
347.966451
 30
0.0
 11
251.236226
 21
338.216451
 31
0.0
  0
LINE
  8
LC-001-002-----0
  6
CONTINUOUS
 62
     1
  5
185
 10
203.236226
 20
347.966451
 30
0.0
 11
204.986226
 21
346.216451
 31
0.0
  0
LINE
  8
LC-001-002-----0
  6
CONTINUOUS
  5
186
 10
249.486226
 20
346.216451
 30
0.0
 11
249.486226
 21
335.716451
 31
0.0
  0
ARC
  8
LC-002-002-RND-0
  6
CONTINUOUS
  5
187
 10
250.236226
 20
333.466451
 30
0.0
 40
2.5
 50
180.0
 51
270.0
  0
LINE
  8
LC-001-002-----0
  6
CONTINUOUS
  5
188
 10
203.236226
 20
347.966451
 30
0.0
 11
203.236226
 21
333.966451
 31
0.0
  0
LINE
  8
LC-001-002-----0
  6
CONTINUOUS
  5
189
 10
204.986226
 20
346.216451
 30
0.0
 11
204.986226
 21
335.716451
 31
0.0
  0
LINE
  8
LC-001-002-----0
  6
CONTINUOUS
 62
     1
  5
18A
 10
210.236226
 20
336.966451
 30
0.0
 11
210.236226
 21
338.966451
 31
0.0
  0
LINE
  8
LC-001-002-----0
  6
CONTINUOUS
 62
     1
  5
18B
 10
244.236226
 20
336.966451
 30
0.0
 11
244.236226
 21
338.966451
 31
0.0
  0
LINE
  8
LC-001-002-----0
  6
CONTINUOUS
 62
     1
  5
18C
 10
203.236226
 20
333.966451
 30
0.0
 11
206.736226
 21
333.966451
 31
0.0
  0
LINE
  8
LC-001-002-----0
  6
CONTINUOUS
 62
     1
  5
18D
 10
200.236226
 20
347.966451
 30
0.0
 11
203.236226
 21
347.966451
 31
0.0
  0
LINE
  8
LC-001-002-----0
  6
CONTINUOUS
 62
     1
  5
18E
 10
249.236226
 20
336.966451
 30
0.0
 11
249.236226
 21
338.966451
 31
0.0
  0
LINE
  8
LC-001-002-----0
  6
CONTINUOUS
 62
     1
  5
18F
 10
203.236226
 20
347.966451
 30
0.0
 11
251.236226
 21
347.966451
 31
0.0
  0
LINE
  8
LC-001-002-----0
  6
CONTINUOUS
 62
     1
  5
190
 10
250.236226
 20
330.966451
 30
0.0
 11
250.736226
 21
330.966451
 31
0.0
  0
LINE
  8
LC-001-002-----0
  6
CONTINUOUS
 62
     1
  5
191
 10
253.236226
 20
346.966451
 30
0.0
 11
253.236226
 21
333.466451
 31
0.0
  0
LINE
  8
LC-001-002-----0
  6
CONTINUOUS
 62
     1
  5
192
 10
201.236226
 20
346.966451
 30
0.0
 11
201.236226
 21
333.466451
 31
0.0
  0
LINE
  8
LC-001-002-----0
  6
CONTINUOUS
 62
     1
  5
193
 10
247.736226
 20
333.966451
 30
0.0
 11
247.736226
 21
333.466451
 31
0.0
  0
LINE
  8
LC-001-002-----0
  6
CONTINUOUS
 62
     1
  5
194
 10
206.736226
 20
333.966451
 30
0.0
 11
206.736226
 21
333.466451
 31
0.0
  0
LINE
  8
LC-001-002-----0
  6
CONTINUOUS
 62
     1
  5
195
 10
200.236226
 20
346.966451
 30
0.0
 11
201.236226
 21
346.966451
 31
0.0
  0
LINE
  8
LC-001-002-----0
  6
CONTINUOUS
 62
     1
  5
196
 10
254.236226
 20
347.966451
 30
0.0
 11
254.236226
 21
346.966451
 31
0.0
  0
LINE
  8
LC-001-002-----0
  6
CONTINUOUS
 62
     1
  5
197
 10
200.236226
 20
347.966451
 30
0.0
 11
200.236226
 21
346.966451
 31
0.0
  0
LINE
  8
LC-001-002-----0
  6
CONTINUOUS
 62
     1
  5
198
 10
253.236226
 20
346.966451
 30
0.0
 11
254.236226
 21
346.966451
 31
0.0
  0
LINE
  8
LC-001-002-----0
  6
CONTINUOUS
 62
     1
  5
199
 10
251.236226
 20
347.966451
 30
0.0
 11
254.236226
 21
347.966451
 31
0.0
  0
LINE
  8
LC-001-002-----0
  6
CONTINUOUS
  5
19A
 10
251.236226
 20
338.216451
 30
0.0
 11
251.236226
 21
333.966451
 31
0.0
  0
LINE
  8
LC-001-002-----0
  6
CONTINUOUS
 62
     1
  5
19B
 10
251.236226
 20
347.966451
 30
0.0
 11
249.486226
 21
346.216451
 31
0.0
  0
LINE
  8
LC-001-002-----0
  6
CONTINUOUS
 62
     1
  5
19C
 10
251.236226
 20
333.966451
 30
0.0
 11
249.486226
 21
335.716451
 31
0.0
  0
ARC
  8
LC-002-002-RND-0
  6
CONTINUOUS
  5
19D
 10
250.736226
 20
333.466451
 30
0.0
 40
2.5
 50
270.0
 51
360.0
  0
LINE
  8
LC-001-002-----0
  6
CONTINUOUS
 62
     1
  5
19E
 10
204.236226
 20
330.966451
 30
0.0
 11
203.736226
 21
330.966451
 31
0.0
  0
LINE
  8
LC-001-002-----0
  6
CONTINUOUS
 62
     1
  5
19F
 10
203.236226
 20
333.966451
 30
0.0
 11
204.986226
 21
335.716451
 31
0.0
  0
ARC
  8
LC-002-002-RND-0
  6
CONTINUOUS
  5
1A0
 10
203.736226
 20
333.466451
 30
0.0
 40
2.5
 50
180.0
 51
270.0
  0
ARC
  8
LC-002-002-RND-0
  6
CONTINUOUS
  5
1A1
 10
204.236226
 20
333.466451
 30
0.0
 40
2.5
 50
270.0
 51
0.0
  0
LINE
  8
LC-001-002-----0
  6
CONTINUOUS
 62
     1
  5
1A2
 10
204.986226
 20
346.216451
 30
0.0
 11
249.486226
 21
346.216451
 31
0.0
  0
ENDSEC
  0
EOF
